osu file format v14

[General]
AudioFilename: audio.mp3
AudioLeadIn: 0
PreviewTime: 36185
Countdown: 0
SampleSet: Normal
StackLeniency: 0
Mode: 1
LetterboxInBreaks: 0
WidescreenStoryboard: 0

[Editor]
Bookmarks: 13779,13889,22778,36278,48278,60278,67854,79778,91778,115778
DistanceSpacing: 1
BeatDivisor: 4
GridSize: 32
TimelineZoom: 2.7

[Metadata]
Title:Yousei no Kiri
TitleUnicode:妖精の霧
Artist:Kikuo
ArtistUnicode:きくお
Creator:Alchyr
Version:Muzukashii
Source:
Tags:Fairy of the Mist featured artist fa KIKUOWORLD 黄菊しーく si_ku.k other folk electronica pop mapper's mappers' guild mg mpg
BeatmapID:3871129
BeatmapSetID:1871513

[Difficulty]
HPDrainRate:7
CircleSize:2
OverallDifficulty:5
ApproachRate:10
SliderMultiplier:1.4
SliderTickRate:1

[Events]
//Background and Video events
0,0,"bg.jpg",0,0
//Break Periods
//Storyboard Layer 0 (Background)
//Storyboard Layer 1 (Fail)
//Storyboard Layer 2 (Pass)
//Storyboard Layer 3 (Foreground)
//Storyboard Layer 4 (Overlay)
//Storyboard Sound Samples

[TimingPoints]
1779,375,4,1,0,30,1,0
1897,-100,4,1,0,44,0,0
4123,-100,4,1,0,30,0,0
4897,-100,4,1,0,44,0,0
7234,-106.382978723404,4,1,0,40,0,0
7713,-113.636363636364,4,1,0,44,0,0
8625,-100,4,1,0,40,0,0
9186,-100,4,1,0,30,0,0
9982,-100,4,1,0,38,0,0
10135,-100,4,1,0,34,0,0
10322,-100,4,1,0,30,0,0
10703,-113.636363636364,4,1,0,44,0,0
11597,-100,4,1,0,30,0,0
12981,-100,4,1,0,38,0,0
13122,-100,4,1,0,34,0,0
13338,-100,4,1,0,30,0,0
13747,-87.719298245614,4,1,0,40,0,0
19896,-100,4,1,0,30,0,0
20435,-100,4,1,0,36,0,0
22896,-100,4,1,0,30,0,0
23458,-100,4,1,0,32,0,0
23646,-100,4,1,0,34,0,0
23833,-100,4,1,0,37,0,0
24021,-100,4,1,0,39,0,0
24232,-100,4,1,0,41,0,0
24357,-98.9140374272918,4,1,0,42,0,0
24482,-97.8398680016769,4,1,0,43,0,0
24653,-96.7773636539916,4,1,0,43,0,0
24732,-95.7263977058556,4,1,0,44,0,0
24903,-94.6868448545682,4,1,0,44,0,0
24982,-93.6585811581694,4,1,0,45,0,0
25153,-92.6414840206622,4,1,0,45,0,0
25278,-91.6354321773964,4,1,0,45,0,0
25403,-90.6403056806105,4,1,0,45,0,0
25528,-89.6559858851308,4,1,0,45,0,0
25653,-88.6823554342258,4,1,0,45,0,0
25778,-87.719298245614,4,1,0,45,0,0
26046,-100,4,1,0,26,0,0
26516,-102.040816326531,4,1,0,26,0,0
27063,-103.874976039197,4,1,0,26,0,0
27240,-104.491455596009,4,1,0,26,0,0
27653,-105.738758374964,4,1,0,26,0,0
28028,-107.000950067213,4,1,0,26,0,0
28403,-108.278208400044,4,1,0,26,0,0
28684,-109.245283520989,4,1,0,26,0,0
28778,-109.570713222254,4,1,0,26,0,0
29528,-112.202192489805,4,1,0,26,0,0
29622,-112.536430498132,4,1,0,26,0,0
29716,-112.871664164777,4,1,0,26,0,0
29903,-113.541537469727,4,1,0,26,0,0
30091,-114.219000552953,4,1,0,26,0,0
30278,-114.896870060368,4,1,0,26,0,0
30934,-117.306819589308,4,1,0,26,0,0
31028,-117.656263721127,4,1,0,26,0,0
31684,-120.124091236208,4,1,0,26,0,0
31778,-120.481927710843,4,1,0,26,0,0
34724,-76.9230769230769,4,1,0,26,0,0
34844,-100,4,1,0,26,0,0
36214,-100,4,1,0,50,0,0
48209,-100,4,1,0,46,0,0
48345,-92.5925925925926,4,1,0,46,0,0
53528,-92.5925925925926,4,1,0,46,0,0
53716,-94.396190031083,4,1,0,46,0,0
53903,-96.2250448649376,4,1,0,46,0,0
54091,-98.0993983048575,4,1,0,46,0,0
54177,-100,4,1,0,44,0,0
54373,-100,4,1,0,30,0,0
54935,-100,4,1,0,37,0,0
57377,-100,4,1,0,26,0,0
57584,-100,4,1,0,30,0,0
57834,-100,4,1,0,34,0,0
58021,-100,4,1,0,38,0,0
58209,-100,4,1,0,40,0,0
58372,-100,4,1,0,42,0,0
58419,-100,4,1,0,43,0,0
58778,-100,4,1,0,30,0,0
58779,-100,4,1,0,43,0,0
58903,-98.9140374272918,4,1,0,44,0,0
59028,-97.8398680016769,4,1,0,45,0,0
59153,-96.7773636539916,4,1,0,46,0,0
59278,-95.7263977058556,4,1,0,47,0,0
59403,-94.6868448545682,4,1,0,48,0,0
59528,-93.6585811581694,4,1,0,49,0,0
59653,-92.6414840206622,4,1,0,50,0,0
59778,-91.6354321773964,4,1,0,51,0,0
59903,-90.6403056806105,4,1,0,52,0,0
60028,-89.6559858851308,4,1,0,53,0,0
60153,-88.6823554342258,4,1,0,54,0,0
60278,-87.719298245614,4,1,0,55,0,0
60359,-100,4,1,0,38,0,0
66425,-103.092783505155,4,1,0,30,0,0
67028,-105.694416848454,4,1,0,30,0,0
67216,-108.376147618269,4,1,0,30,0,0
67403,-111.111111111111,4,1,0,30,0,0
67730,-100,4,1,0,44,0,0
70734,-106.382978723404,4,1,0,30,0,0
71667,-100,4,1,0,44,0,0
73704,-106.382978723404,4,1,0,30,0,0
74605,-100,4,1,0,44,0,0
78590,-100,4,1,0,42,0,0
78778,-100,4,1,0,41,0,0
78965,-100,4,1,0,40,0,0
79153,-100,4,1,0,39,0,0
79340,-100,4,1,0,38,0,0
79528,-100,4,1,0,37,0,0
79715,-87.719298245614,4,1,0,50,0,0
84954,-87.719298245614,4,1,0,48,0,0
85346,-90.0900900900901,4,1,0,44,0,0
85659,-100,4,1,0,38,0,0
85761,-92.5925925925926,4,1,0,36,0,0
86119,-98.0392156862745,4,1,0,33,0,0
86690,-100,4,1,0,33,0,0
88778,-100,4,1,0,32,0,0
88873,-100,4,1,0,24,0,0
89153,-100,4,1,0,25,0,0
89528,-100,4,1,0,26,0,0
89903,-100,4,1,0,27,0,0
90278,-100,4,1,0,28,0,0
90362,-100,4,1,0,30,0,0
90396,-98.9140374272918,4,1,0,35,0,0
90466,-97.8398680016769,4,1,0,36,0,0
90653,-96.7773636539916,4,1,0,37,0,0
90778,-95.7263977058556,4,1,0,38,0,0
90841,-94.6868448545682,4,1,0,39,0,0
91028,-93.6585811581694,4,1,0,40,0,0
91153,-92.6414840206622,4,1,0,41,0,0
91216,-91.6354321773964,4,1,0,42,0,0
91403,-90.6403056806105,4,1,0,43,0,0
91528,-89.6559858851308,4,1,0,43,0,0
91571,-88.6823554342258,4,1,0,45,0,0
91758,-100,4,1,0,60,0,0
91779,-87.719298245614,4,1,0,60,0,1
115123,-87.719298245614,4,1,0,57,0,1
115334,-87.719298245614,4,1,0,55,0,1
115498,-87.719298245614,4,1,0,53,0,1
115701,-87.719298245614,4,1,0,45,0,1
115779,-87.719298245614,4,1,0,45,0,0
115899,-100,4,1,0,40,0,0
116061,-88.4406044003922,4,1,0,35,0,0
116528,-89.167841776456,4,1,0,35,0,0
116903,-89.9010591455867,4,1,0,35,0,0
117091,-90.2709113429782,4,1,0,35,0,0
117278,-90.6403056806105,4,1,0,35,0,0
117466,-91.0131991319982,4,1,0,35,0,0
117653,-91.3856309586962,4,1,0,35,0,0
117747,-91.5734178751252,4,1,0,35,0,0
117841,-91.7615906719777,4,1,0,35,0,0
118028,-92.1370849646804,4,1,0,35,0,0
118403,-92.8947180944195,4,1,0,35,0,0
118778,-93.6585811581694,4,1,0,35,0,0
119153,-94.4287253839932,4,1,0,35,0,0
119528,-95.2052024211968,4,1,0,35,0,0
119809,-95.7912244416094,4,1,0,35,0,0
119903,-95.9880643437925,4,1,0,35,0,0
120091,-96.3829584291159,4,1,0,35,0,0
120278,-96.7773636539916,4,1,0,35,0,0
120466,-97.1755049100053,4,1,0,35,0,0
120653,-97.5731532857255,4,1,0,35,0,0
120841,-97.9745684135573,4,1,0,35,0,0
121028,-98.375486608195,4,1,0,35,0,0
121138,-98.7802025285334,4,1,0,45,0,0
121325,-99.1844174294506,4,1,0,42,0,0
121513,-99.5924612843497,4,1,0,39,0,0
121662,-100,4,1,0,30,0,0
121709,-100,4,1,0,29,0,0
121756,-100,4,1,0,26,0,0
122441,-100,4,1,0,40,0,0
124881,-100,4,1,0,30,0,0
125334,-100,4,1,0,31,0,0
125521,-100,4,1,0,32,0,0
125709,-100,4,1,0,33,0,0
125896,-100,4,1,0,35,0,0
126084,-100,4,1,0,37,0,0
126271,-100,4,1,0,39,0,0
126396,-98.9140374272918,4,1,0,40,0,0
126521,-97.8398680016769,4,1,0,42,0,0
126646,-96.7773636539916,4,1,0,43,0,0
126771,-95.7263977058556,4,1,0,41,0,0
126903,-94.6868448545682,4,1,0,41,0,0
127028,-93.6585811581694,4,1,0,41,0,0
127153,-92.6414840206622,4,1,0,41,0,0
127278,-91.6354321773964,4,1,0,41,0,0
127403,-90.6403056806105,4,1,0,41,0,0
127528,-89.6559858851308,4,1,0,41,0,0
127653,-88.6823554342258,4,1,0,41,0,0
127736,-87.719298245614,4,1,0,40,0,0

[HitObjects]
256,192,1967,5,0,0:0:0:0:
256,192,2154,1,0,0:0:0:0:
119,277,2342,1,0,0:0:0:0:
256,192,2529,1,8,0:0:0:0:
411,132,2717,1,8,0:0:0:0:
119,277,2904,1,0,0:0:0:0:
119,277,3092,1,0,0:0:0:0:
411,132,3279,1,8,0:0:0:0:
119,277,3467,1,0,0:0:0:0:
256,192,3654,1,8,0:0:0:0:
411,132,3842,1,8,0:0:0:0:
119,277,4029,1,0,0:0:0:0:
119,277,4967,1,0,0:0:0:0:
256,192,5154,1,0,0:0:0:0:
119,277,5342,1,0,0:0:0:0:
256,192,5529,1,8,0:0:0:0:
411,132,5717,1,8,0:0:0:0:
119,277,5904,1,0,0:0:0:0:
119,277,6092,1,0,0:0:0:0:
411,132,6279,1,8,0:0:0:0:
119,277,6467,1,0,0:0:0:0:
256,192,6654,1,8,0:0:0:0:
411,132,6842,1,8,0:0:0:0:
256,192,7029,1,0,0:0:0:0:
119,277,7404,1,0,0:0:0:0:
411,132,7779,1,8,0:0:0:0:
411,132,7967,1,8,0:0:0:0:
119,277,8154,1,0,0:0:0:0:
119,277,8342,1,0,0:0:0:0:
411,132,8529,1,8,0:0:0:0:
256,192,9279,1,0,0:0:0:0:
119,277,9654,1,0,0:0:0:0:
256,192,10029,1,8,0:0:0:0:
411,132,10217,1,8,0:0:0:0:
119,277,10404,1,0,0:0:0:0:
119,277,10779,1,0,0:0:0:0:
119,277,10967,1,0,0:0:0:0:
256,192,11154,1,8,0:0:0:0:
411,132,11342,1,8,0:0:0:0:
119,277,11529,1,0,0:0:0:0:
256,192,12279,1,0,0:0:0:0:
119,277,12654,1,0,0:0:0:0:
256,192,13029,1,8,0:0:0:0:
411,132,13217,1,8,0:0:0:0:
119,277,13404,1,0,0:0:0:0:
256,192,13779,1,0,0:0:0:0:
411,132,14154,1,8,0:0:0:0:
119,277,14529,1,0,0:0:0:0:
411,132,14904,1,8,0:0:0:0:
411,132,15092,1,8,0:0:0:0:
256,192,15279,1,0,0:0:0:0:
411,132,15467,1,8,0:0:0:0:
119,277,15654,1,0,0:0:0:0:
119,277,15748,1,0,0:0:0:0:
119,277,15842,1,0,0:0:0:0:
256,192,16029,1,8,0:0:0:0:
411,132,16404,1,8,0:0:0:0:
256,192,16779,1,0,0:0:0:0:
411,132,17154,1,8,0:0:0:0:
119,277,17529,1,0,0:0:0:0:
411,132,17904,1,8,0:0:0:0:
411,132,18092,1,8,0:0:0:0:
119,277,18279,1,0,0:0:0:0:
119,277,18467,1,0,0:0:0:0:
411,132,18654,1,8,0:0:0:0:
411,132,18748,1,8,0:0:0:0:
411,132,18842,1,8,0:0:0:0:
119,277,19029,1,0,0:0:0:0:
411,132,19404,1,8,0:0:0:0:
256,192,19779,1,0,0:0:0:0:
256,192,20529,1,8,0:0:0:0:
411,132,20904,1,8,0:0:0:0:
411,132,21092,1,8,0:0:0:0:
119,277,21279,1,0,0:0:0:0:
411,132,21654,1,8,0:0:0:0:
256,192,22029,1,0,0:0:0:0:
411,132,22404,1,8,0:0:0:0:
119,277,22592,1,0,0:0:0:0:
119,277,22685,1,0,0:0:0:0:
119,277,22779,1,0,0:0:0:0:
256,192,23154,1,0,0:0:0:0:
119,277,23342,1,0,0:0:0:0:
256,192,23529,1,8,0:0:0:0:
119,277,23717,1,0,0:0:0:0:
411,132,23904,1,8,0:0:0:0:
256,192,24279,1,0,0:0:0:0:
119,277,24404,1,0,0:0:0:0:
119,277,24529,1,0,0:0:0:0:
411,132,24654,1,8,0:0:0:0:
119,277,25029,1,0,0:0:0:0:
119,277,25154,1,0,0:0:0:0:
119,277,25279,1,0,0:0:0:0:
256,192,25404,1,8,0:0:0:0:
256,192,25779,1,0,0:0:0:0:
256,192,26529,1,8,0:0:0:0:
256,192,27092,1,0,0:0:0:0:
256,192,27279,1,0,0:0:0:0:
256,192,27654,1,0,0:0:0:0:
256,192,28029,1,8,0:0:0:0:
119,277,28404,1,0,0:0:0:0:
411,132,28685,1,8,0:0:0:0:
256,192,28779,1,8,0:0:0:0:
411,132,29529,1,8,0:0:0:0:
411,132,29623,1,8,0:0:0:0:
411,132,29717,1,8,0:0:0:0:
411,132,29904,1,8,0:0:0:0:
411,132,30092,1,8,0:0:0:0:
119,277,30279,1,0,0:0:0:0:
411,132,30935,1,8,0:0:0:0:
119,277,31029,1,0,0:0:0:0:
119,277,31685,1,0,0:0:0:0:
411,132,31779,1,8,0:0:0:0:
256,192,32529,1,8,0:0:0:0:
256,192,33279,1,0,0:0:0:0:
256,192,34029,1,0,0:0:0:0:
256,192,34779,12,0,35529,0:0:0:0:
119,277,36467,5,0,0:0:0:0:
256,192,36654,1,0,0:0:0:0:
119,277,36842,1,0,0:0:0:0:
256,192,37029,1,8,0:0:0:0:
411,132,37217,1,8,0:0:0:0:
119,277,37404,1,0,0:0:0:0:
119,277,37592,1,0,0:0:0:0:
256,192,37779,1,8,0:0:0:0:
119,277,37967,1,0,0:0:0:0:
411,132,38154,1,8,0:0:0:0:
411,132,38342,1,8,0:0:0:0:
119,277,38529,1,0,0:0:0:0:
256,192,38717,1,8,0:0:0:0:
256,192,38810,1,8,0:0:0:0:
411,132,38904,1,8,0:0:0:0:
119,277,39467,1,0,0:0:0:0:
119,277,39654,1,0,0:0:0:0:
119,277,39842,1,0,0:0:0:0:
256,192,40029,1,8,0:0:0:0:
411,132,40217,1,8,0:0:0:0:
119,277,40404,1,0,0:0:0:0:
411,132,40592,1,8,0:0:0:0:
119,277,40779,1,0,0:0:0:0:
119,277,40967,1,0,0:0:0:0:
256,192,41154,1,8,0:0:0:0:
411,132,41342,1,8,0:0:0:0:
256,192,41529,1,0,0:0:0:0:
411,132,41717,1,8,0:0:0:0:
411,132,41904,1,8,0:0:0:0:
411,132,42092,1,8,0:0:0:0:
119,277,42279,1,0,0:0:0:0:
119,277,42467,1,0,0:0:0:0:
119,277,42654,1,0,0:0:0:0:
411,132,43029,1,8,0:0:0:0:
411,132,43217,1,8,0:0:0:0:
411,132,43404,1,8,0:0:0:0:
411,132,43592,1,8,0:0:0:0:
119,277,43779,1,0,0:0:0:0:
119,277,44342,1,0,0:0:0:0:
256,192,44529,1,8,0:0:0:0:
119,277,44717,1,0,0:0:0:0:
119,277,44904,1,0,0:0:0:0:
256,192,45279,1,8,0:0:0:0:
256,192,45467,1,8,0:0:0:0:
411,132,45654,1,8,0:0:0:0:
256,192,46029,1,0,0:0:0:0:
119,277,46217,1,0,0:0:0:0:
119,277,46404,1,0,0:0:0:0:
119,277,46592,1,0,0:0:0:0:
411,132,46779,1,8,0:0:0:0:
411,132,47342,1,8,0:0:0:0:
119,277,47529,1,0,0:0:0:0:
411,132,47717,1,8,0:0:0:0:
256,192,47904,1,8,0:0:0:0:
411,132,48092,1,8,0:0:0:0:
119,277,48279,1,0,0:0:0:0:
411,132,48654,1,8,0:0:0:0:
119,277,49029,1,0,0:0:0:0:
411,132,49404,1,8,0:0:0:0:
411,132,49592,1,8,0:0:0:0:
256,192,49779,1,0,0:0:0:0:
119,277,49967,1,0,0:0:0:0:
411,132,50154,1,8,0:0:0:0:
411,132,50248,1,8,0:0:0:0:
411,132,50342,1,8,0:0:0:0:
119,277,50529,1,0,0:0:0:0:
256,192,50904,1,8,0:0:0:0:
411,132,51185,1,8,0:0:0:0:
119,277,51279,1,0,0:0:0:0:
411,132,51654,1,8,0:0:0:0:
119,277,52029,1,0,0:0:0:0:
411,132,52310,1,8,0:0:0:0:
411,132,52404,1,8,0:0:0:0:
411,132,52592,1,8,0:0:0:0:
256,192,52779,1,0,0:0:0:0:
411,132,52967,1,8,0:0:0:0:
411,132,53154,1,8,0:0:0:0:
411,132,53248,1,8,0:0:0:0:
411,132,53342,1,8,0:0:0:0:
119,277,53529,1,0,0:0:0:0:
411,132,53717,1,8,0:0:0:0:
411,132,53904,1,8,0:0:0:0:
411,132,54092,1,8,0:0:0:0:
119,277,54279,1,0,0:0:0:0:
256,192,55029,1,8,0:0:0:0:
119,277,55404,1,0,0:0:0:0:
119,277,55592,1,0,0:0:0:0:
256,192,55779,1,8,0:0:0:0:
411,132,56154,1,8,0:0:0:0:
119,277,56529,1,0,0:0:0:0:
411,132,56904,1,8,0:0:0:0:
119,277,57185,1,0,0:0:0:0:
256,192,57279,1,0,0:0:0:0:
411,132,57467,1,8,0:0:0:0:
256,192,57654,1,0,0:0:0:0:
119,277,57842,1,0,0:0:0:0:
411,132,58029,1,8,0:0:0:0:
411,132,58217,1,8,0:0:0:0:
411,132,58404,1,8,0:0:0:0:
119,277,58779,1,0,0:0:0:0:
119,277,58904,1,0,0:0:0:0:
119,277,59029,1,0,0:0:0:0:
411,132,59154,1,8,0:0:0:0:
119,277,59529,1,0,0:0:0:0:
119,277,59654,1,0,0:0:0:0:
119,277,59779,1,0,0:0:0:0:
411,132,59904,1,8,0:0:0:0:
119,277,60279,1,4,0:0:0:0:
411,132,60654,1,8,0:0:0:0:
119,277,60779,1,0,0:0:0:0:
119,277,60904,1,0,0:0:0:0:
411,132,61029,1,8,0:0:0:0:
119,277,61279,1,0,0:0:0:0:
411,132,61404,1,8,0:0:0:0:
119,277,61779,1,0,0:0:0:0:
119,277,61904,1,0,0:0:0:0:
119,277,62029,1,0,0:0:0:0:
411,132,62154,1,8,0:0:0:0:
411,132,62404,1,8,0:0:0:0:
119,277,62529,1,0,0:0:0:0:
119,277,62779,1,0,0:0:0:0:
411,132,62904,1,8,0:0:0:0:
119,277,63279,1,0,0:0:0:0:
119,277,63404,1,0,0:0:0:0:
119,277,63529,1,8,0:0:0:0:
256,192,63654,1,8,0:0:0:0:
119,277,64029,1,8,0:0:0:0:
119,277,64154,1,8,0:0:0:0:
119,277,64279,1,0,0:0:0:0:
411,132,64404,1,0,0:0:0:0:
119,277,64779,1,0,0:0:0:0:
119,277,64904,1,0,0:0:0:0:
119,277,65029,1,0,0:0:0:0:
411,132,65154,1,8,0:0:0:0:
119,277,65529,1,8,0:0:0:0:
411,132,65654,1,8,0:0:0:0:
411,132,65779,1,8,0:0:0:0:
119,277,65904,1,0,0:0:0:0:
119,277,66279,1,4,0:0:0:0:
411,132,66842,1,8,0:0:0:0:
256,192,67029,1,0,0:0:0:0:
119,277,67217,1,0,0:0:0:0:
119,277,67404,1,0,0:0:0:0:
256,192,67779,1,12,0:0:0:0:
411,132,67967,1,8,0:0:0:0:
119,277,68154,1,0,0:0:0:0:
411,132,68342,1,8,0:0:0:0:
119,277,68529,1,0,0:0:0:0:
411,132,68904,1,8,0:0:0:0:
411,132,69092,1,8,0:0:0:0:
119,277,69279,1,0,0:0:0:0:
119,277,69842,1,0,0:0:0:0:
119,277,69935,1,0,0:0:0:0:
119,277,70029,1,0,0:0:0:0:
119,277,70217,1,0,0:0:0:0:
411,132,70404,1,8,0:0:0:0:
411,132,70592,1,8,0:0:0:0:
119,277,70779,1,0,0:0:0:0:
119,277,71154,1,0,0:0:0:0:
411,132,71529,1,8,0:0:0:0:
411,132,71904,1,8,0:0:0:0:
411,132,72092,1,8,0:0:0:0:
119,277,72279,1,0,0:0:0:0:
119,277,72842,1,0,0:0:0:0:
119,277,72935,1,0,0:0:0:0:
119,277,73029,1,0,0:0:0:0:
119,277,73217,1,0,0:0:0:0:
411,132,73404,1,8,0:0:0:0:
411,132,73591,1,8,0:0:0:0:
119,277,73779,1,0,0:0:0:0:
411,132,74154,1,8,0:0:0:0:
119,277,74529,1,0,0:0:0:0:
411,132,74904,1,8,0:0:0:0:
411,132,75092,1,8,0:0:0:0:
119,277,75279,1,0,0:0:0:0:
256,192,75842,1,8,0:0:0:0:
256,192,75935,1,8,0:0:0:0:
411,132,76029,1,8,0:0:0:0:
411,132,76217,1,8,0:0:0:0:
256,192,76404,1,0,0:0:0:0:
119,277,76779,1,0,0:0:0:0:
119,277,77154,1,0,0:0:0:0:
411,132,77529,1,8,0:0:0:0:
119,277,77717,1,0,0:0:0:0:
119,277,77810,1,0,0:0:0:0:
119,277,77904,1,0,0:0:0:0:
119,277,78092,1,0,0:0:0:0:
411,132,78279,1,8,0:0:0:0:
119,277,78842,1,0,0:0:0:0:
411,132,79029,1,8,0:0:0:0:
411,132,79217,1,8,0:0:0:0:
119,277,79404,1,0,0:0:0:0:
411,132,79779,1,8,0:0:0:0:
411,132,80154,1,8,0:0:0:0:
119,277,80529,1,0,0:0:0:0:
411,132,80904,1,8,0:0:0:0:
411,132,81092,1,8,0:0:0:0:
119,277,81279,1,0,0:0:0:0:
411,132,81467,1,8,0:0:0:0:
119,277,81654,1,0,0:0:0:0:
119,277,81748,1,0,0:0:0:0:
119,277,81842,1,0,0:0:0:0:
411,132,82029,1,8,0:0:0:0:
411,132,82404,1,8,0:0:0:0:
256,192,82779,1,0,0:0:0:0:
411,132,83154,1,8,0:0:0:0:
119,277,83529,1,0,0:0:0:0:
411,132,83810,1,8,0:0:0:0:
411,132,83904,1,8,0:0:0:0:
411,132,84092,1,8,0:0:0:0:
119,277,84279,1,0,0:0:0:0:
411,132,84467,1,8,0:0:0:0:
119,277,84654,1,0,0:0:0:0:
119,277,84747,1,0,0:0:0:0:
119,277,84841,1,0,0:0:0:0:
411,132,85029,1,8,0:0:0:0:
411,132,85404,1,8,0:0:0:0:
256,192,85779,1,0,0:0:0:0:
256,192,86529,1,8,0:0:0:0:
411,132,86904,1,8,0:0:0:0:
411,132,86998,1,8,0:0:0:0:
411,132,87092,1,8,0:0:0:0:
256,192,87279,1,8,0:0:0:0:
411,132,87654,1,8,0:0:0:0:
256,192,88029,1,0,0:0:0:0:
411,132,88404,1,8,0:0:0:0:
119,277,88592,1,0,0:0:0:0:
119,277,88685,1,0,0:0:0:0:
119,277,88779,1,0,0:0:0:0:
256,192,89154,1,0,0:0:0:0:
256,192,89529,1,8,0:0:0:0:
411,132,89717,1,8,0:0:0:0:
119,277,89904,1,0,0:0:0:0:
119,277,90279,1,0,0:0:0:0:
411,132,90466,1,8,0:0:0:0:
256,192,90841,1,8,0:0:0:0:
119,277,91029,1,0,0:0:0:0:
411,132,91216,1,8,0:0:0:0:
256,192,91404,1,8,0:0:0:0:
256,192,91591,1,8,0:0:0:0:
119,277,91779,1,4,0:0:0:0:
119,277,92154,1,0,0:0:0:0:
119,277,92342,1,0,0:0:0:0:
256,192,92529,1,8,0:0:0:0:
411,132,92717,1,8,0:0:0:0:
119,277,92904,1,0,0:0:0:0:
411,132,93092,1,8,0:0:0:0:
119,277,93279,1,0,0:0:0:0:
119,277,93467,1,0,0:0:0:0:
256,192,93654,1,8,0:0:0:0:
411,132,93842,1,8,0:0:0:0:
256,192,94029,1,0,0:0:0:0:
256,192,94217,1,8,0:0:0:0:
256,192,94310,1,8,0:0:0:0:
411,132,94404,1,8,0:0:0:0:
119,277,94779,1,0,0:0:0:0:
119,277,94967,1,0,0:0:0:0:
411,132,95154,1,8,0:0:0:0:
119,277,95342,1,0,0:0:0:0:
256,192,95529,1,8,0:0:0:0:
411,132,95717,1,8,0:0:0:0:
119,277,95904,1,0,0:0:0:0:
119,277,96092,1,0,0:0:0:0:
411,132,96279,1,8,0:0:0:0:
119,277,96467,1,0,0:0:0:0:
256,192,96654,1,8,0:0:0:0:
119,277,96842,1,0,0:0:0:0:
411,132,97029,1,8,0:0:0:0:
411,132,97404,1,8,0:0:0:0:
119,277,97779,1,0,0:0:0:0:
119,277,97967,1,0,0:0:0:0:
411,132,98154,1,8,0:0:0:0:
411,132,98342,1,8,0:0:0:0:
119,277,98529,1,0,0:0:0:0:
119,277,99279,1,0,0:0:0:0:
119,277,99654,1,0,0:0:0:0:
256,192,100029,1,8,0:0:0:0:
411,132,100217,1,8,0:0:0:0:
119,277,100404,1,0,0:0:0:0:
411,132,100779,1,8,0:0:0:0:
411,132,100967,1,8,0:0:0:0:
119,277,101154,1,0,0:0:0:0:
119,277,101342,1,0,0:0:0:0:
411,132,101529,1,8,0:0:0:0:
119,277,102279,1,0,0:0:0:0:
119,277,102654,1,0,0:0:0:0:
411,132,103029,1,8,0:0:0:0:
411,132,103217,1,8,0:0:0:0:
119,277,103404,1,0,0:0:0:0:
119,277,103779,1,4,0:0:0:0:
256,192,104154,1,0,0:0:0:0:
119,277,104342,1,0,0:0:0:0:
256,192,104529,1,8,0:0:0:0:
411,132,104717,1,8,0:0:0:0:
119,277,104904,1,0,0:0:0:0:
119,277,105092,1,0,0:0:0:0:
256,192,105279,1,8,0:0:0:0:
119,277,105467,1,0,0:0:0:0:
256,192,105654,1,8,0:0:0:0:
411,132,105842,1,8,0:0:0:0:
256,192,106029,1,0,0:0:0:0:
256,192,106217,1,8,0:0:0:0:
256,192,106310,1,8,0:0:0:0:
411,132,106404,1,8,0:0:0:0:
119,277,106779,1,0,0:0:0:0:
119,277,106967,1,0,0:0:0:0:
411,132,107154,1,8,0:0:0:0:
119,277,107342,1,0,0:0:0:0:
256,192,107529,1,8,0:0:0:0:
411,132,107717,1,8,0:0:0:0:
119,277,107904,1,0,0:0:0:0:
119,277,108092,1,0,0:0:0:0:
411,132,108279,1,8,0:0:0:0:
119,277,108467,1,0,0:0:0:0:
256,192,108654,1,8,0:0:0:0:
411,132,108842,1,8,0:0:0:0:
119,277,109029,1,0,0:0:0:0:
119,277,109217,1,0,0:0:0:0:
411,132,109404,1,8,0:0:0:0:
411,132,109592,1,8,0:0:0:0:
119,277,109779,1,0,0:0:0:0:
119,277,109967,1,0,0:0:0:0:
119,277,110154,1,0,0:0:0:0:
411,132,110529,1,8,0:0:0:0:
411,132,110717,1,8,0:0:0:0:
411,132,110904,1,8,0:0:0:0:
119,277,111279,1,0,0:0:0:0:
119,277,111654,1,0,0:0:0:0:
256,192,112029,1,8,0:0:0:0:
411,132,112217,1,8,0:0:0:0:
119,277,112404,1,0,0:0:0:0:
119,277,112779,1,0,0:0:0:0:
119,277,112967,1,0,0:0:0:0:
411,132,113154,1,8,0:0:0:0:
119,277,113342,1,0,0:0:0:0:
411,132,113529,1,8,0:0:0:0:
411,132,113717,1,8,0:0:0:0:
119,277,113904,1,0,0:0:0:0:
411,132,114092,1,8,0:0:0:0:
119,277,114279,1,0,0:0:0:0:
119,277,114654,1,0,0:0:0:0:
411,132,115029,1,8,0:0:0:0:
411,132,115217,1,8,0:0:0:0:
119,277,115404,1,0,0:0:0:0:
119,277,115592,1,0,0:0:0:0:
411,132,115779,1,8,0:0:0:0:
411,132,116154,1,8,0:0:0:0:
119,277,116529,1,0,0:0:0:0:
411,132,116904,1,8,0:0:0:0:
411,132,117092,1,8,0:0:0:0:
119,277,117279,1,0,0:0:0:0:
119,277,117467,1,0,0:0:0:0:
411,132,117654,1,8,0:0:0:0:
411,132,117748,1,8,0:0:0:0:
411,132,117842,1,8,0:0:0:0:
119,277,118029,1,0,0:0:0:0:
119,277,118404,1,0,0:0:0:0:
411,132,118779,1,8,0:0:0:0:
411,132,119154,1,8,0:0:0:0:
119,277,119529,1,0,0:0:0:0:
411,132,119810,1,8,0:0:0:0:
411,132,119904,1,8,0:0:0:0:
411,132,120092,1,8,0:0:0:0:
119,277,120279,1,0,0:0:0:0:
119,277,120467,1,0,0:0:0:0:
411,132,120654,1,8,0:0:0:0:
411,132,120842,1,8,0:0:0:0:
119,277,121029,1,0,0:0:0:0:
411,132,121217,1,8,0:0:0:0:
411,132,121404,1,8,0:0:0:0:
411,132,121592,1,8,0:0:0:0:
119,277,121779,1,0,0:0:0:0:
411,132,122529,1,8,0:0:0:0:
411,132,122904,1,8,0:0:0:0:
411,132,123092,1,8,0:0:0:0:
119,277,123279,1,0,0:0:0:0:
119,277,123654,1,0,0:0:0:0:
411,132,124029,1,8,0:0:0:0:
411,132,124404,1,8,0:0:0:0:
119,277,124592,1,0,0:0:0:0:
119,277,124685,1,0,0:0:0:0:
256,192,124779,1,0,0:0:0:0:
411,132,124967,1,8,0:0:0:0:
411,132,125154,1,8,0:0:0:0:
119,277,125342,1,0,0:0:0:0:
119,277,125529,1,0,0:0:0:0:
411,132,125717,1,8,0:0:0:0:
411,132,125904,1,8,0:0:0:0:
119,277,126279,1,0,0:0:0:0:
119,277,126404,1,0,0:0:0:0:
119,277,126529,1,0,0:0:0:0:
411,132,126654,1,8,0:0:0:0:
119,277,127029,1,0,0:0:0:0:
119,277,127154,1,0,0:0:0:0:
119,277,127279,1,0,0:0:0:0:
411,132,127404,1,8,0:0:0:0:
119,277,127779,1,0,0:0:0:0:
