osu file format v14

[General]
AudioFilename: audio.mp3
AudioLeadIn: 0
PreviewTime: 36185
Countdown: 0
SampleSet: Normal
StackLeniency: 0
Mode: 1
LetterboxInBreaks: 0
WidescreenStoryboard: 0

[Editor]
Bookmarks: 13779,13889,22778,36278,48278,60278,67854,79778,91778,115778
DistanceSpacing: 1
BeatDivisor: 9
GridSize: 32
TimelineZoom: 1.1

[Metadata]
Title:Yousei no Kiri
TitleUnicode:妖精の霧
Artist:Kikuo
ArtistUnicode:きくお
Creator:Alchyr
Version:Kantan
Source:
Tags:Fairy of the Mist featured artist fa KIKUOWORLD 黄菊しーく si_ku.k other folk electronica pop mapper's mappers' guild mg mpg
BeatmapID:3865980
BeatmapSetID:1871513

[Difficulty]
HPDrainRate:9
CircleSize:2
OverallDifficulty:4
ApproachRate:10
SliderMultiplier:1.4
SliderTickRate:1

[Events]
//Background and Video events
0,0,"bg.jpg",0,0
//Break Periods
//Storyboard Layer 0 (Background)
//Storyboard Layer 1 (Fail)
//Storyboard Layer 2 (Pass)
//Storyboard Layer 3 (Foreground)
//Storyboard Layer 4 (Overlay)
//Storyboard Sound Samples

[TimingPoints]
1779,375,4,1,0,30,1,0
1897,-100,4,1,0,44,0,0
4123,-100,4,1,0,30,0,0
4897,-100,4,1,0,44,0,0
7234,-100,4,1,0,40,0,0
7713,-100,4,1,0,44,0,0
8625,-100,4,1,0,40,0,0
9186,-100,4,1,0,30,0,0
9982,-100,4,1,0,38,0,0
10135,-100,4,1,0,34,0,0
10322,-100,4,1,0,30,0,0
10703,-100,4,1,0,44,0,0
11597,-100,4,1,0,30,0,0
12981,-100,4,1,0,38,0,0
13122,-100,4,1,0,34,0,0
13338,-100,4,1,0,30,0,0
13747,-100,4,1,0,40,0,0
19896,-100,4,1,0,30,0,0
20435,-100,4,1,0,36,0,0
22896,-100,4,1,0,30,0,0
23458,-100,4,1,0,32,0,0
23646,-100,4,1,0,34,0,0
23833,-100,4,1,0,37,0,0
24021,-100,4,1,0,39,0,0
24232,-100,4,1,0,41,0,0
24357,-100,4,1,0,42,0,0
24482,-100,4,1,0,43,0,0
24732,-100,4,1,0,44,0,0
24982,-100,4,1,0,45,0,0
26046,-100,4,1,0,26,0,0
36214,-100,4,1,0,50,0,0
48209,-100,4,1,0,46,0,0
54177,-100,4,1,0,44,0,0
54373,-100,4,1,0,30,0,0
54935,-100,4,1,0,37,0,0
57377,-100,4,1,0,26,0,0
57584,-100,4,1,0,30,0,0
57834,-100,4,1,0,34,0,0
58021,-100,4,1,0,38,0,0
58209,-100,4,1,0,40,0,0
58372,-100,4,1,0,42,0,0
58419,-100,4,1,0,43,0,0
58778,-100,4,1,0,30,0,0
58779,-100,4,1,0,43,0,0
58903,-100,4,1,0,44,0,0
59028,-100,4,1,0,45,0,0
59153,-100,4,1,0,46,0,0
59278,-100,4,1,0,47,0,0
59403,-100,4,1,0,48,0,0
59528,-100,4,1,0,49,0,0
59653,-100,4,1,0,50,0,0
59778,-100,4,1,0,51,0,0
59903,-100,4,1,0,52,0,0
60028,-100,4,1,0,53,0,0
60153,-100,4,1,0,54,0,0
60278,-100,4,1,0,55,0,0
60359,-100,4,1,0,38,0,0
66425,-100,4,1,0,30,0,0
67730,-100,4,1,0,44,0,0
70734,-100,4,1,0,30,0,0
71667,-100,4,1,0,44,0,0
73704,-100,4,1,0,30,0,0
74605,-100,4,1,0,44,0,0
78590,-100,4,1,0,42,0,0
78778,-100,4,1,0,41,0,0
78965,-100,4,1,0,40,0,0
79153,-100,4,1,0,39,0,0
79340,-100,4,1,0,38,0,0
79528,-100,4,1,0,37,0,0
79715,-100,4,1,0,50,0,0
84954,-100,4,1,0,48,0,0
85346,-100,4,1,0,44,0,0
85659,-100,4,1,0,38,0,0
85761,-100,4,1,0,36,0,0
86119,-100,4,1,0,33,0,0
88778,-100,4,1,0,32,0,0
88873,-100,4,1,0,24,0,0
89153,-100,4,1,0,25,0,0
89528,-100,4,1,0,26,0,0
89903,-100,4,1,0,27,0,0
90278,-100,4,1,0,28,0,0
90362,-100,4,1,0,30,0,0
90396,-100,4,1,0,35,0,0
90466,-100,4,1,0,36,0,0
90653,-100,4,1,0,37,0,0
90778,-100,4,1,0,38,0,0
90841,-100,4,1,0,39,0,0
91028,-100,4,1,0,40,0,0
91153,-100,4,1,0,41,0,0
91216,-100,4,1,0,42,0,0
91403,-100,4,1,0,43,0,0
91571,-100,4,1,0,45,0,0
91758,-100,4,1,0,60,0,0
91779,-100,4,1,0,60,0,1
115123,-100,4,1,0,57,0,1
115334,-100,4,1,0,55,0,1
115498,-100,4,1,0,53,0,1
115701,-100,4,1,0,45,0,1
115779,-100,4,1,0,45,0,0
115899,-100,4,1,0,40,0,0
116061,-100,4,1,0,35,0,0
121138,-100,4,1,0,45,0,0
121325,-100,4,1,0,42,0,0
121513,-100,4,1,0,39,0,0
121662,-100,4,1,0,30,0,0
121709,-100,4,1,0,29,0,0
121756,-100,4,1,0,26,0,0
122441,-100,4,1,0,40,0,0
124881,-100,4,1,0,30,0,0
125334,-100,4,1,0,31,0,0
125521,-100,4,1,0,32,0,0
125709,-100,4,1,0,33,0,0
125896,-100,4,1,0,35,0,0
126084,-100,4,1,0,37,0,0
126271,-100,4,1,0,39,0,0
126396,-100,4,1,0,40,0,0
126521,-100,4,1,0,42,0,0
126646,-100,4,1,0,43,0,0
126771,-100,4,1,0,41,0,0
127736,-100,4,1,0,40,0,0

[HitObjects]
256,192,1779,5,0,0:0:0:0:
256,192,2154,1,0,0:0:0:0:
256,192,2529,1,8,0:0:0:0:
256,192,3279,1,8,0:0:0:0:
256,192,3654,1,8,0:0:0:0:
256,192,4029,1,0,0:0:0:0:
119,277,4779,1,0,0:0:0:0:
256,192,5154,1,0,0:0:0:0:
256,192,5529,1,8,0:0:0:0:
256,192,6279,1,8,0:0:0:0:
256,192,6654,1,8,0:0:0:0:
256,192,7029,1,0,0:0:0:0:
119,277,7404,1,0,0:0:0:0:
256,192,7779,1,8,0:0:0:0:
256,192,8154,1,8,0:0:0:0:
119,277,8529,1,0,0:0:0:0:
256,192,10029,1,8,0:0:0:0:
256,192,10779,1,8,0:0:0:0:
256,192,11154,1,8,0:0:0:0:
119,277,11529,1,0,0:0:0:0:
256,192,13029,1,8,0:0:0:0:
256,192,13779,1,0,0:0:0:0:
411,132,14154,1,8,0:0:0:0:
119,277,14529,1,0,0:0:0:0:
256,192,15279,1,0,0:0:0:0:
256,192,15654,1,0,0:0:0:0:
256,192,16029,1,8,0:0:0:0:
411,132,16404,1,8,0:0:0:0:
256,192,16779,1,0,0:0:0:0:
411,132,17529,1,8,0:0:0:0:
411,132,18279,1,8,0:0:0:0:
256,192,18654,1,0,0:0:0:0:
256,192,19029,1,8,0:0:0:0:
119,277,19779,1,0,0:0:0:0:
256,192,20529,1,8,0:0:0:0:
119,277,21279,1,0,0:0:0:0:
256,192,22029,1,0,0:0:0:0:
411,132,22779,1,8,0:0:0:0:
256,192,24279,1,0,0:0:0:0:
119,277,24654,1,0,0:0:0:0:
411,132,25029,1,8,0:0:0:0:
256,192,25404,1,8,0:0:0:0:
256,192,25779,1,0,0:0:0:0:
256,192,26529,1,8,0:0:0:0:
256,192,27279,1,0,0:0:0:0:
256,192,27654,1,0,0:0:0:0:
256,192,28029,1,8,0:0:0:0:
256,192,28779,1,8,0:0:0:0:
411,132,29529,1,8,0:0:0:0:
411,132,29904,1,8,0:0:0:0:
119,277,30279,1,0,0:0:0:0:
411,132,31029,1,8,0:0:0:0:
119,277,31779,1,0,0:0:0:0:
119,277,32529,1,0,0:0:0:0:
411,132,33279,1,8,0:0:0:0:
411,132,34029,1,8,0:0:0:0:
256,192,34779,1,8,0:0:0:0:
119,277,36279,5,0,0:0:0:0:
256,192,36654,1,0,0:0:0:0:
256,192,37029,1,8,0:0:0:0:
256,192,37779,1,8,0:0:0:0:
256,192,38154,1,8,0:0:0:0:
256,192,38529,1,0,0:0:0:0:
119,277,38904,1,0,0:0:0:0:
411,132,39279,1,8,0:0:0:0:
256,192,40029,1,8,0:0:0:0:
119,277,40779,1,0,0:0:0:0:
256,192,41154,1,8,0:0:0:0:
256,192,41529,1,0,0:0:0:0:
119,277,42279,1,0,0:0:0:0:
411,132,43029,1,8,0:0:0:0:
411,132,43404,1,8,0:0:0:0:
119,277,43779,1,0,0:0:0:0:
261,196,45279,1,8,0:0:0:0:
261,196,46029,1,8,0:0:0:0:
261,196,46404,1,8,0:0:0:0:
411,132,46779,1,0,0:0:0:0:
119,277,47529,1,0,0:0:0:0:
411,132,47904,1,8,0:0:0:0:
119,277,48279,1,0,0:0:0:0:
256,192,49029,1,8,0:0:0:0:
256,192,50154,1,0,0:0:0:0:
411,132,50529,1,8,0:0:0:0:
119,277,51279,1,0,0:0:0:0:
411,132,52029,1,8,0:0:0:0:
256,192,53154,1,0,0:0:0:0:
256,192,53529,1,8,0:0:0:0:
411,132,53904,1,8,0:0:0:0:
256,192,54279,1,0,0:0:0:0:
256,192,55029,1,8,0:0:0:0:
256,192,55779,1,8,0:0:0:0:
119,277,56529,1,0,0:0:0:0:
411,132,57279,1,8,0:0:0:0:
382,120,57654,1,8,0:0:0:0:
256,192,58029,1,8,0:0:0:0:
256,192,58779,1,0,0:0:0:0:
256,192,59154,1,0,0:0:0:0:
256,192,59529,1,8,0:0:0:0:
256,192,59904,1,8,0:0:0:0:
119,277,60279,1,4,0:0:0:0:
119,277,61779,1,0,0:0:0:0:
119,277,62529,1,0,0:0:0:0:
411,132,62904,1,8,0:0:0:0:
119,277,63279,1,0,0:0:0:0:
411,132,64028,1,8,0:0:0:0:
119,277,64779,1,0,0:0:0:0:
411,132,65529,1,8,0:0:0:0:
411,132,65904,1,8,0:0:0:0:
411,132,66279,1,4,0:0:0:0:
256,192,67029,1,0,0:0:0:0:
256,192,67779,1,12,0:0:0:0:
411,132,68154,1,8,0:0:0:0:
411,132,68529,1,8,0:0:0:0:
119,277,69279,1,0,0:0:0:0:
411,132,70029,1,8,0:0:0:0:
411,132,70404,1,8,0:0:0:0:
119,277,70779,1,0,0:0:0:0:
119,277,72279,1,0,0:0:0:0:
411,132,73029,1,8,0:0:0:0:
119,277,73404,1,0,0:0:0:0:
411,132,73779,1,8,0:0:0:0:
411,132,74154,1,8,0:0:0:0:
411,132,74529,1,8,0:0:0:0:
119,277,75279,1,0,0:0:0:0:
411,132,76029,1,8,0:0:0:0:
411,132,76404,1,8,0:0:0:0:
119,277,76779,1,0,0:0:0:0:
411,132,77154,1,8,0:0:0:0:
119,277,77529,1,0,0:0:0:0:
411,132,79029,1,8,0:0:0:0:
411,132,79404,1,8,0:0:0:0:
119,277,79779,1,0,0:0:0:0:
411,132,80529,1,8,0:0:0:0:
119,277,81279,1,0,0:0:0:0:
119,277,81654,1,0,0:0:0:0:
411,132,82029,1,8,0:0:0:0:
256,192,82779,1,0,0:0:0:0:
411,132,83529,1,8,0:0:0:0:
411,132,84279,1,8,0:0:0:0:
256,192,84654,1,0,0:0:0:0:
256,192,85029,1,8,0:0:0:0:
256,192,85779,1,0,0:0:0:0:
256,192,86529,1,8,0:0:0:0:
256,192,86904,1,8,0:0:0:0:
119,277,87279,1,0,0:0:0:0:
256,192,88029,1,0,0:0:0:0:
411,132,88779,1,8,0:0:0:0:
256,192,90279,1,0,0:0:0:0:
411,132,90654,1,8,0:0:0:0:
119,277,91029,1,0,0:0:0:0:
411,132,91404,1,8,0:0:0:0:
119,277,91779,1,4,0:0:0:0:
256,192,92529,1,8,0:0:0:0:
256,192,93279,1,8,0:0:0:0:
256,192,93654,1,8,0:0:0:0:
256,192,94029,1,0,0:0:0:0:
119,277,94404,1,0,0:0:0:0:
411,132,94779,1,8,0:0:0:0:
256,192,95529,1,8,0:0:0:0:
119,277,96279,1,0,0:0:0:0:
256,192,96654,1,8,0:0:0:0:
256,192,97029,1,0,0:0:0:0:
119,277,97779,1,0,0:0:0:0:
119,277,98154,1,0,0:0:0:0:
411,132,98529,1,8,0:0:0:0:
256,192,100029,1,8,0:0:0:0:
411,132,100404,1,8,0:0:0:0:
119,277,100779,1,0,0:0:0:0:
411,132,101529,1,8,0:0:0:0:
411,132,103029,1,8,0:0:0:0:
119,277,103779,1,4,0:0:0:0:
256,192,104529,1,8,0:0:0:0:
256,192,105279,1,8,0:0:0:0:
256,192,105654,1,8,0:0:0:0:
256,192,106029,1,0,0:0:0:0:
411,132,106779,1,8,0:0:0:0:
256,192,107529,1,8,0:0:0:0:
119,277,108279,1,0,0:0:0:0:
256,192,108654,1,8,0:0:0:0:
256,192,109029,1,0,0:0:0:0:
119,277,109779,1,0,0:0:0:0:
119,277,110154,1,0,0:0:0:0:
411,132,110529,1,8,0:0:0:0:
411,132,110904,1,8,0:0:0:0:
119,277,111279,1,0,0:0:0:0:
119,277,112779,1,0,0:0:0:0:
119,277,113154,1,0,0:0:0:0:
411,132,113529,1,8,0:0:0:0:
411,132,113904,1,8,0:0:0:0:
119,277,114279,1,0,0:0:0:0:
411,132,115029,1,8,0:0:0:0:
119,277,115404,1,0,0:0:0:0:
411,132,115779,1,12,0:0:0:0:
411,132,117279,1,8,0:0:0:0:
119,277,118029,1,0,0:0:0:0:
119,277,118404,1,0,0:0:0:0:
406,123,118779,1,8,0:0:0:0:
411,132,119529,1,8,0:0:0:0:
119,277,120279,1,0,0:0:0:0:
411,132,121029,1,8,0:0:0:0:
411,132,121404,1,8,0:0:0:0:
119,277,121779,1,0,0:0:0:0:
411,132,122529,1,8,0:0:0:0:
119,277,123279,1,0,0:0:0:0:
119,277,124029,1,0,0:0:0:0:
411,132,124779,1,8,0:0:0:0:
256,192,126279,1,0,0:0:0:0:
119,277,126654,1,0,0:0:0:0:
411,132,127029,1,8,0:0:0:0:
256,192,127404,1,8,0:0:0:0:
256,192,127779,1,0,0:0:0:0:
