osu file format v14

[General]
AudioFilename: audio.mp3
AudioLeadIn: 0
PreviewTime: 36185
Countdown: 0
SampleSet: Normal
StackLeniency: 0
Mode: 1
LetterboxInBreaks: 0
WidescreenStoryboard: 0

[Editor]
Bookmarks: 13779,13889,22778,36278,48278,60278,67854,79778,91778,115778
DistanceSpacing: 1
BeatDivisor: 6
GridSize: 32
TimelineZoom: 1.5

[Metadata]
Title:Yousei no Kiri
TitleUnicode:妖精の霧
Artist:Kikuo
ArtistUnicode:きくお
Creator:Alchyr
Version:Futsuu
Source:
Tags:Fairy of the Mist featured artist fa KIKUOWORLD 黄菊しーく si_ku.k other folk electronica pop mapper's mappers' guild mg mpg
BeatmapID:3870895
BeatmapSetID:1871513

[Difficulty]
HPDrainRate:8
CircleSize:2
OverallDifficulty:4.5
ApproachRate:10
SliderMultiplier:1.4
SliderTickRate:1

[Events]
//Background and Video events
0,0,"bg.jpg",0,0
//Break Periods
//Storyboard Layer 0 (Background)
//Storyboard Layer 1 (Fail)
//Storyboard Layer 2 (Pass)
//Storyboard Layer 3 (Foreground)
//Storyboard Layer 4 (Overlay)
//Storyboard Sound Samples

[TimingPoints]
1779,375,4,1,0,30,1,0
1897,-100,4,1,0,44,0,0
4123,-100,4,1,0,30,0,0
4897,-100,4,1,0,44,0,0
7234,-100,4,1,0,40,0,0
7713,-100,4,1,0,44,0,0
8625,-100,4,1,0,40,0,0
9186,-100,4,1,0,30,0,0
9982,-100,4,1,0,38,0,0
10135,-100,4,1,0,34,0,0
10322,-100,4,1,0,30,0,0
10703,-100,4,1,0,44,0,0
11597,-100,4,1,0,30,0,0
12981,-100,4,1,0,38,0,0
13122,-100,4,1,0,34,0,0
13338,-100,4,1,0,30,0,0
13747,-100,4,1,0,40,0,0
19896,-100,4,1,0,30,0,0
20435,-100,4,1,0,36,0,0
22896,-100,4,1,0,30,0,0
23458,-100,4,1,0,32,0,0
23646,-100,4,1,0,34,0,0
23833,-100,4,1,0,37,0,0
24021,-100,4,1,0,39,0,0
24232,-100,4,1,0,41,0,0
24357,-100,4,1,0,42,0,0
24482,-100,4,1,0,43,0,0
24732,-100,4,1,0,44,0,0
24982,-100,4,1,0,45,0,0
26046,-100,4,1,0,26,0,0
36214,-100,4,1,0,50,0,0
48209,-100,4,1,0,46,0,0
54177,-100,4,1,0,44,0,0
54373,-100,4,1,0,30,0,0
54935,-100,4,1,0,37,0,0
57377,-100,4,1,0,26,0,0
57584,-100,4,1,0,30,0,0
57834,-100,4,1,0,34,0,0
58021,-100,4,1,0,38,0,0
58209,-100,4,1,0,40,0,0
58372,-100,4,1,0,42,0,0
58419,-100,4,1,0,43,0,0
58778,-100,4,1,0,30,0,0
58779,-100,4,1,0,43,0,0
58903,-100,4,1,0,44,0,0
59028,-100,4,1,0,45,0,0
59153,-100,4,1,0,46,0,0
59278,-100,4,1,0,47,0,0
59403,-100,4,1,0,48,0,0
59528,-100,4,1,0,49,0,0
59653,-100,4,1,0,50,0,0
59778,-100,4,1,0,51,0,0
59903,-100,4,1,0,52,0,0
60028,-100,4,1,0,53,0,0
60153,-100,4,1,0,54,0,0
60278,-100,4,1,0,55,0,0
60359,-100,4,1,0,38,0,0
66425,-100,4,1,0,30,0,0
67730,-100,4,1,0,44,0,0
70734,-100,4,1,0,30,0,0
71667,-100,4,1,0,44,0,0
73704,-100,4,1,0,30,0,0
74605,-100,4,1,0,44,0,0
78590,-100,4,1,0,42,0,0
78778,-100,4,1,0,41,0,0
78965,-100,4,1,0,40,0,0
79153,-100,4,1,0,39,0,0
79340,-100,4,1,0,38,0,0
79528,-100,4,1,0,37,0,0
79715,-100,4,1,0,50,0,0
84954,-100,4,1,0,48,0,0
85346,-100,4,1,0,44,0,0
85659,-100,4,1,0,38,0,0
85761,-100,4,1,0,36,0,0
86119,-100,4,1,0,33,0,0
88778,-100,4,1,0,32,0,0
88873,-100,4,1,0,24,0,0
89153,-100,4,1,0,25,0,0
89528,-100,4,1,0,26,0,0
89903,-100,4,1,0,27,0,0
90278,-100,4,1,0,28,0,0
90362,-100,4,1,0,30,0,0
90396,-100,4,1,0,35,0,0
90466,-100,4,1,0,36,0,0
90653,-100,4,1,0,37,0,0
90778,-100,4,1,0,38,0,0
90841,-100,4,1,0,39,0,0
91028,-100,4,1,0,40,0,0
91153,-100,4,1,0,41,0,0
91216,-100,4,1,0,42,0,0
91403,-100,4,1,0,43,0,0
91571,-100,4,1,0,45,0,0
91758,-100,4,1,0,60,0,0
91779,-100,4,1,0,60,0,1
115123,-100,4,1,0,57,0,1
115334,-100,4,1,0,55,0,1
115498,-100,4,1,0,53,0,1
115701,-100,4,1,0,45,0,1
115779,-100,4,1,0,45,0,0
115899,-100,4,1,0,40,0,0
116061,-100,4,1,0,35,0,0
121138,-100,4,1,0,45,0,0
121325,-100,4,1,0,42,0,0
121513,-100,4,1,0,39,0,0
121662,-100,4,1,0,30,0,0
121709,-100,4,1,0,29,0,0
121756,-100,4,1,0,26,0,0
122441,-100,4,1,0,40,0,0
124881,-100,4,1,0,30,0,0
125334,-100,4,1,0,31,0,0
125521,-100,4,1,0,32,0,0
125709,-100,4,1,0,33,0,0
125896,-100,4,1,0,35,0,0
126084,-100,4,1,0,37,0,0
126271,-100,4,1,0,39,0,0
126396,-100,4,1,0,40,0,0
126521,-100,4,1,0,42,0,0
126646,-100,4,1,0,43,0,0
126771,-100,4,1,0,41,0,0
127736,-100,4,1,0,40,0,0

[HitObjects]
256,192,1967,5,0,0:0:0:0:
256,192,2154,1,0,0:0:0:0:
119,277,2342,1,0,0:0:0:0:
256,192,2529,1,8,0:0:0:0:
411,132,2904,1,8,0:0:0:0:
119,277,3279,1,0,0:0:0:0:
119,277,3467,1,0,0:0:0:0:
256,192,3654,1,8,0:0:0:0:
411,132,4029,1,8,0:0:0:0:
119,277,4967,1,0,0:0:0:0:
256,192,5154,1,0,0:0:0:0:
119,277,5342,1,0,0:0:0:0:
256,192,5529,1,8,0:0:0:0:
411,132,5904,1,8,0:0:0:0:
119,277,6279,1,0,0:0:0:0:
119,277,6467,1,0,0:0:0:0:
256,192,6654,1,8,0:0:0:0:
256,192,7029,1,0,0:0:0:0:
119,277,7404,1,0,0:0:0:0:
411,132,7779,1,8,0:0:0:0:
411,132,7967,1,8,0:0:0:0:
119,277,8154,1,0,0:0:0:0:
119,277,8342,1,0,0:0:0:0:
411,132,8529,1,8,0:0:0:0:
256,192,9279,1,0,0:0:0:0:
119,277,9654,1,0,0:0:0:0:
256,192,10029,1,8,0:0:0:0:
119,277,10779,1,0,0:0:0:0:
119,277,10967,1,0,0:0:0:0:
256,192,11154,1,8,0:0:0:0:
411,132,11342,1,8,0:0:0:0:
119,277,11529,1,0,0:0:0:0:
256,192,12279,1,0,0:0:0:0:
119,277,12654,1,0,0:0:0:0:
256,192,13029,1,8,0:0:0:0:
256,192,13779,1,0,0:0:0:0:
411,132,14154,1,8,0:0:0:0:
119,277,14529,1,0,0:0:0:0:
411,132,14904,1,8,0:0:0:0:
411,132,15092,1,8,0:0:0:0:
256,192,15279,1,0,0:0:0:0:
411,132,15467,1,8,0:0:0:0:
119,277,15654,1,0,0:0:0:0:
256,192,16029,1,8,0:0:0:0:
411,132,16404,1,8,0:0:0:0:
256,192,16779,1,0,0:0:0:0:
411,132,17154,1,8,0:0:0:0:
119,277,17529,1,0,0:0:0:0:
411,132,17904,1,8,0:0:0:0:
411,132,18092,1,8,0:0:0:0:
119,277,18279,1,0,0:0:0:0:
119,277,18467,1,0,0:0:0:0:
411,132,18654,1,8,0:0:0:0:
119,277,19029,1,0,0:0:0:0:
411,132,19404,1,8,0:0:0:0:
256,192,19779,1,0,0:0:0:0:
256,192,20529,1,8,0:0:0:0:
411,132,20904,1,8,0:0:0:0:
411,132,21092,1,8,0:0:0:0:
119,277,21279,1,0,0:0:0:0:
411,132,21654,1,8,0:0:0:0:
256,192,22029,1,0,0:0:0:0:
119,277,22404,1,0,0:0:0:0:
411,132,22779,1,8,0:0:0:0:
256,192,23154,1,0,0:0:0:0:
119,277,23342,1,0,0:0:0:0:
256,192,23529,1,8,0:0:0:0:
119,277,23717,1,0,0:0:0:0:
411,132,23904,1,8,0:0:0:0:
256,192,24279,12,0,25404,0:0:0:0:
256,192,25779,5,0,0:0:0:0:
256,192,26529,1,8,0:0:0:0:
256,192,27092,1,0,0:0:0:0:
256,192,27279,1,0,0:0:0:0:
256,192,27654,1,0,0:0:0:0:
256,192,28029,1,8,0:0:0:0:
119,277,28404,1,0,0:0:0:0:
255,199,28779,1,8,0:0:0:0:
411,132,29529,1,8,0:0:0:0:
411,132,29904,1,8,0:0:0:0:
411,132,30092,1,8,0:0:0:0:
119,277,30279,1,0,0:0:0:0:
119,277,31029,1,0,0:0:0:0:
411,132,31592,1,8,0:0:0:0:
119,277,31779,1,0,0:0:0:0:
256,192,32529,1,8,0:0:0:0:
256,192,33279,1,0,0:0:0:0:
256,192,34029,1,0,0:0:0:0:
256,192,34779,12,0,35529,0:0:0:0:
119,277,36467,5,0,0:0:0:0:
256,192,36654,1,0,0:0:0:0:
119,277,36842,1,0,0:0:0:0:
256,192,37029,1,8,0:0:0:0:
119,277,37404,1,0,0:0:0:0:
256,192,37779,1,8,0:0:0:0:
411,132,37967,1,8,0:0:0:0:
119,277,38154,1,0,0:0:0:0:
411,132,38529,1,8,0:0:0:0:
411,132,38717,1,8,0:0:0:0:
411,132,38904,1,8,0:0:0:0:
119,277,39467,1,0,0:0:0:0:
119,277,39654,1,0,0:0:0:0:
119,277,39842,1,0,0:0:0:0:
256,192,40029,1,8,0:0:0:0:
411,132,40404,1,8,0:0:0:0:
119,277,40779,1,0,0:0:0:0:
119,277,40967,1,0,0:0:0:0:
256,192,41154,1,8,0:0:0:0:
256,192,41529,1,0,0:0:0:0:
119,277,41717,1,0,0:0:0:0:
411,132,41904,1,8,0:0:0:0:
119,277,42279,1,0,0:0:0:0:
119,277,42467,1,0,0:0:0:0:
119,277,42654,1,0,0:0:0:0:
411,132,43029,1,8,0:0:0:0:
411,132,43217,1,8,0:0:0:0:
411,132,43404,1,8,0:0:0:0:
119,277,43779,1,0,0:0:0:0:
119,277,44342,1,0,0:0:0:0:
256,192,44529,1,8,0:0:0:0:
256,192,45279,1,8,0:0:0:0:
256,192,45467,1,8,0:0:0:0:
411,132,45654,1,8,0:0:0:0:
256,192,46029,1,0,0:0:0:0:
119,277,46217,1,0,0:0:0:0:
119,277,46404,1,0,0:0:0:0:
411,132,46779,1,8,0:0:0:0:
411,132,47342,1,8,0:0:0:0:
119,277,47529,1,0,0:0:0:0:
411,132,47717,1,8,0:0:0:0:
256,192,47904,1,8,0:0:0:0:
411,132,48092,1,8,0:0:0:0:
119,277,48279,1,0,0:0:0:0:
256,192,49029,1,8,0:0:0:0:
411,132,49404,1,8,0:0:0:0:
411,132,49592,1,8,0:0:0:0:
256,192,49779,1,0,0:0:0:0:
411,132,49967,1,8,0:0:0:0:
119,277,50154,1,0,0:0:0:0:
411,132,50529,1,8,0:0:0:0:
256,192,50904,1,8,0:0:0:0:
119,277,51279,1,0,0:0:0:0:
411,132,52029,1,8,0:0:0:0:
411,132,52404,1,8,0:0:0:0:
411,132,52592,1,8,0:0:0:0:
256,192,52779,1,0,0:0:0:0:
119,277,52967,1,0,0:0:0:0:
411,132,53154,1,8,0:0:0:0:
119,277,53529,1,0,0:0:0:0:
411,132,53717,1,8,0:0:0:0:
256,192,53904,1,8,0:0:0:0:
411,132,54092,1,8,0:0:0:0:
256,192,54279,1,0,0:0:0:0:
256,192,55029,1,8,0:0:0:0:
119,277,55404,1,0,0:0:0:0:
119,277,55592,1,0,0:0:0:0:
256,192,55779,1,8,0:0:0:0:
411,132,56154,1,8,0:0:0:0:
119,277,56529,1,0,0:0:0:0:
411,132,56904,1,8,0:0:0:0:
256,192,57279,1,0,0:0:0:0:
256,192,57654,1,0,0:0:0:0:
119,277,57842,1,0,0:0:0:0:
411,132,58029,1,8,0:0:0:0:
411,132,58217,1,8,0:0:0:0:
411,132,58404,1,8,0:0:0:0:
256,192,58779,12,0,59904,0:0:0:0:
119,277,60279,5,4,0:0:0:0:
119,277,61029,1,0,0:0:0:0:
119,277,61404,1,0,0:0:0:0:
256,192,61779,1,8,0:0:0:0:
411,132,62154,1,8,0:0:0:0:
119,277,62529,1,0,0:0:0:0:
411,132,62904,1,8,0:0:0:0:
119,277,63279,1,0,0:0:0:0:
256,192,63654,1,8,0:0:0:0:
119,277,64029,1,0,0:0:0:0:
411,132,64404,1,8,0:0:0:0:
119,277,64779,1,0,0:0:0:0:
411,132,65154,1,8,0:0:0:0:
256,192,65529,1,8,0:0:0:0:
411,132,65904,1,8,0:0:0:0:
256,192,66279,1,4,0:0:0:0:
256,192,67029,1,0,0:0:0:0:
119,277,67217,1,0,0:0:0:0:
119,277,67404,1,0,0:0:0:0:
256,192,67779,1,12,0:0:0:0:
119,277,68154,1,0,0:0:0:0:
411,132,68342,1,8,0:0:0:0:
119,277,68529,1,0,0:0:0:0:
411,132,68904,1,8,0:0:0:0:
411,132,69092,1,8,0:0:0:0:
119,277,69279,1,0,0:0:0:0:
119,277,69842,1,0,0:0:0:0:
411,132,70029,1,8,0:0:0:0:
119,277,70217,1,0,0:0:0:0:
119,277,70404,1,0,0:0:0:0:
119,277,70779,1,0,0:0:0:0:
119,277,71154,1,0,0:0:0:0:
411,132,71529,1,8,0:0:0:0:
411,132,71904,1,8,0:0:0:0:
411,132,72092,1,8,0:0:0:0:
119,277,72279,1,0,0:0:0:0:
119,277,72842,1,0,0:0:0:0:
411,132,73029,1,8,0:0:0:0:
119,277,73217,1,0,0:0:0:0:
119,277,73404,1,0,0:0:0:0:
411,132,73779,1,8,0:0:0:0:
411,132,74154,1,8,0:0:0:0:
411,132,74529,1,8,0:0:0:0:
119,277,74904,1,0,0:0:0:0:
119,277,75092,1,0,0:0:0:0:
119,277,75279,1,0,0:0:0:0:
119,277,75842,1,0,0:0:0:0:
411,132,76029,1,8,0:0:0:0:
119,277,76217,1,0,0:0:0:0:
119,277,76404,1,0,0:0:0:0:
411,132,76779,1,8,0:0:0:0:
411,132,77154,1,8,0:0:0:0:
119,277,77529,1,0,0:0:0:0:
411,132,77904,1,8,0:0:0:0:
411,132,78092,1,8,0:0:0:0:
119,277,78279,1,0,0:0:0:0:
119,277,78842,1,0,0:0:0:0:
411,132,79029,1,8,0:0:0:0:
119,277,79217,1,0,0:0:0:0:
119,277,79404,1,0,0:0:0:0:
411,132,79779,1,8,0:0:0:0:
411,132,80154,1,8,0:0:0:0:
119,277,80529,1,0,0:0:0:0:
411,132,80904,1,8,0:0:0:0:
411,132,81092,1,8,0:0:0:0:
119,277,81279,1,0,0:0:0:0:
119,277,81467,1,0,0:0:0:0:
411,132,81654,1,8,0:0:0:0:
119,277,82029,1,0,0:0:0:0:
256,192,82779,1,0,0:0:0:0:
411,132,83154,1,8,0:0:0:0:
119,277,83529,1,0,0:0:0:0:
411,132,83904,1,8,0:0:0:0:
411,132,84092,1,8,0:0:0:0:
119,277,84279,1,0,0:0:0:0:
119,277,84467,1,0,0:0:0:0:
411,132,84654,1,8,0:0:0:0:
119,277,85029,1,0,0:0:0:0:
411,132,85404,1,8,0:0:0:0:
256,192,85779,1,0,0:0:0:0:
256,192,86529,1,8,0:0:0:0:
119,277,86904,1,0,0:0:0:0:
119,277,87092,1,0,0:0:0:0:
256,192,87279,1,8,0:0:0:0:
411,132,87654,1,8,0:0:0:0:
256,192,88029,1,0,0:0:0:0:
411,132,88404,1,8,0:0:0:0:
119,277,88779,1,0,0:0:0:0:
256,192,90279,12,0,91404,0:0:0:0:
119,277,91779,5,4,0:0:0:0:
256,192,92154,1,0,0:0:0:0:
119,277,92342,1,0,0:0:0:0:
256,192,92529,1,8,0:0:0:0:
119,277,92904,1,0,0:0:0:0:
256,192,93279,1,8,0:0:0:0:
411,132,93467,1,8,0:0:0:0:
119,277,93654,1,0,0:0:0:0:
411,132,94029,1,8,0:0:0:0:
411,132,94217,1,8,0:0:0:0:
411,132,94404,1,8,0:0:0:0:
119,277,94967,1,0,0:0:0:0:
119,277,95154,1,0,0:0:0:0:
119,277,95342,1,0,0:0:0:0:
256,192,95529,1,8,0:0:0:0:
411,132,95904,1,8,0:0:0:0:
119,277,96279,1,0,0:0:0:0:
119,277,96467,1,0,0:0:0:0:
256,192,96654,1,8,0:0:0:0:
256,192,97029,1,8,0:0:0:0:
256,192,97217,1,8,0:0:0:0:
256,192,97404,1,0,0:0:0:0:
119,277,97779,1,0,0:0:0:0:
119,277,97967,1,0,0:0:0:0:
411,132,98154,1,8,0:0:0:0:
411,132,98342,1,8,0:0:0:0:
119,277,98529,1,0,0:0:0:0:
119,277,99279,1,0,0:0:0:0:
119,277,99654,1,0,0:0:0:0:
256,192,100029,1,8,0:0:0:0:
411,132,100217,1,8,0:0:0:0:
411,132,100404,1,8,0:0:0:0:
119,277,100779,1,0,0:0:0:0:
119,277,100967,1,0,0:0:0:0:
411,132,101154,1,8,0:0:0:0:
411,132,101342,1,8,0:0:0:0:
256,192,101529,1,0,0:0:0:0:
119,277,102279,1,0,0:0:0:0:
119,277,102654,1,0,0:0:0:0:
411,132,103029,1,8,0:0:0:0:
411,132,103217,1,8,0:0:0:0:
119,277,103404,1,0,0:0:0:0:
119,277,103779,1,4,0:0:0:0:
256,192,104154,1,0,0:0:0:0:
119,277,104342,1,0,0:0:0:0:
256,192,104529,1,8,0:0:0:0:
119,277,104904,1,0,0:0:0:0:
256,192,105279,1,8,0:0:0:0:
411,132,105467,1,8,0:0:0:0:
119,277,105654,1,0,0:0:0:0:
411,132,106029,1,8,0:0:0:0:
411,132,106217,1,8,0:0:0:0:
411,132,106404,1,8,0:0:0:0:
119,277,106967,1,0,0:0:0:0:
119,277,107154,1,0,0:0:0:0:
119,277,107342,1,0,0:0:0:0:
256,192,107529,1,8,0:0:0:0:
411,132,107904,1,8,0:0:0:0:
119,277,108279,1,0,0:0:0:0:
119,277,108467,1,0,0:0:0:0:
256,192,108654,1,8,0:0:0:0:
256,192,109029,1,0,0:0:0:0:
119,277,109217,1,0,0:0:0:0:
411,132,109404,1,8,0:0:0:0:
119,277,109779,1,0,0:0:0:0:
119,277,109967,1,0,0:0:0:0:
119,277,110154,1,0,0:0:0:0:
411,132,110529,1,8,0:0:0:0:
411,132,110717,1,8,0:0:0:0:
411,132,110904,1,8,0:0:0:0:
411,132,111092,1,8,0:0:0:0:
119,277,111279,1,0,0:0:0:0:
119,277,111842,1,0,0:0:0:0:
256,192,112029,1,8,0:0:0:0:
256,192,112779,1,8,0:0:0:0:
256,192,112967,1,8,0:0:0:0:
411,132,113154,1,8,0:0:0:0:
256,192,113529,1,0,0:0:0:0:
119,277,113717,1,0,0:0:0:0:
119,277,113904,1,0,0:0:0:0:
119,277,114092,1,0,0:0:0:0:
411,132,114279,1,8,0:0:0:0:
411,132,114654,1,8,0:0:0:0:
119,277,115029,1,0,0:0:0:0:
411,132,115217,1,8,0:0:0:0:
411,132,115404,1,8,0:0:0:0:
411,132,115592,1,8,0:0:0:0:
119,277,115779,1,0,0:0:0:0:
119,277,116529,1,0,0:0:0:0:
411,132,116904,1,8,0:0:0:0:
411,132,117092,1,8,0:0:0:0:
119,277,117279,1,0,0:0:0:0:
411,132,117654,1,8,0:0:0:0:
119,277,118029,1,0,0:0:0:0:
119,277,118404,1,0,0:0:0:0:
411,132,118779,1,8,0:0:0:0:
411,132,119154,1,8,0:0:0:0:
119,277,119529,1,0,0:0:0:0:
411,132,119904,1,8,0:0:0:0:
411,132,120092,1,8,0:0:0:0:
119,277,120279,1,0,0:0:0:0:
119,277,120467,1,0,0:0:0:0:
411,132,120654,1,8,0:0:0:0:
119,277,121029,1,0,0:0:0:0:
411,132,121217,1,8,0:0:0:0:
411,132,121404,1,8,0:0:0:0:
411,132,121592,1,8,0:0:0:0:
119,277,121779,1,0,0:0:0:0:
411,132,122529,1,8,0:0:0:0:
411,132,122904,1,8,0:0:0:0:
411,132,123092,1,8,0:0:0:0:
119,277,123279,1,0,0:0:0:0:
119,277,123654,1,0,0:0:0:0:
411,132,124029,1,8,0:0:0:0:
411,132,124404,1,8,0:0:0:0:
256,192,124779,1,0,0:0:0:0:
256,192,125154,1,0,0:0:0:0:
119,277,125342,1,0,0:0:0:0:
411,132,125529,1,8,0:0:0:0:
411,132,125717,1,8,0:0:0:0:
411,132,125904,1,8,0:0:0:0:
256,192,126279,12,0,127404,0:0:0:0:
119,277,127779,5,0,0:0:0:0:
