osu file format v14

[General]
AudioFilename: audio.mp3
AudioLeadIn: 0
PreviewTime: 63781
Countdown: 0
SampleSet: Normal
StackLeniency: 0.7
Mode: 1
LetterboxInBreaks: 0
WidescreenStoryboard: 0

[Editor]
DistanceSpacing: 0.3
BeatDivisor: 8
GridSize: 32
TimelineZoom: 2.8

[Metadata]
Title:Youkoso Hoshi no Oyado
TitleUnicode:ようこそ星のお宿
Artist:Kikuo
ArtistUnicode:きくお
Creator:woosungko
Version:Yomi
Source:
Tags:welcome to the star inn 初音ミク hatsune miku 4 vocaloid electronic japanese
BeatmapID:3910595
BeatmapSetID:1897406

[Difficulty]
HPDrainRate:6
CircleSize:2
OverallDifficulty:6
ApproachRate:10
SliderMultiplier:1.4
SliderTickRate:1

[Events]
//Background and Video events
0,0,"maxresdefault (4).jpg",0,-40
//Break Periods
//Storyboard Layer 0 (Background)
//Storyboard Layer 1 (Fail)
//Storyboard Layer 2 (Pass)
//Storyboard Layer 3 (Foreground)
//Storyboard Layer 4 (Overlay)
//Storyboard Sound Samples

[TimingPoints]
-19,392.156862745098,64,1,0,5,1,8
2873,-40,64,1,0,60,0,0
3069,-25,64,1,0,60,0,0
6206,-100,64,1,0,70,0,0
6255,392.156862745098,4,1,0,70,1,0
6255,-142.857142857143,4,1,0,70,0,0
6256,-83.3333333333333,4,1,0,70,0,0
6304,-83.3333333333333,4,1,0,50,0,0
6639,-144.23947531713,4,1,0,50,0,0
7031,-145.635183678326,4,1,0,50,0,0
7423,-147.044397370329,4,1,0,50,0,0
7815,-148.467247075139,4,1,0,50,0,0
8207,-149.903864739277,4,1,0,50,0,0
8992,-152.822692300288,4,1,0,50,0,0
9343,-152.822692300288,4,1,0,70,0,0
9384,-154.301454677612,4,1,0,70,0,0
9393,-83.3333333333333,4,1,0,70,0,0
9441,-83.3333333333333,4,1,0,50,0,0
9776,-155.794526043581,4,1,0,50,0,0
10168,-157.302044856649,4,1,0,50,0,0
10560,-158.824150915043,4,1,0,50,0,0
10953,-160.364924821282,4,1,0,50,0,0
11050,-160.747511966296,4,1,0,50,0,0
11148,-161.134970228448,4,1,0,50,0,0
11214,-161.396437642251,4,1,0,50,0,0
11279,-161.654358104254,4,1,0,50,0,0
11345,-161.916668308449,4,1,0,50,0,0
11541,-162.698161695742,4,1,0,50,0,0
11590,-162.89412369079,4,1,0,50,0,0
11737,-163.483426973359,4,1,0,50,0,0
12129,-165.065346107785,4,1,0,50,0,0
12480,-165.065346107785,4,1,0,70,0,0
12522,-125,4,1,0,70,0,0
12530,-83.3333333333333,4,1,0,70,0,0
12578,-125,4,1,0,50,0,0
17423,-119.168372450019,4,1,0,50,0,0
17488,-121.061799856284,4,1,0,50,0,0
17554,-123.015141271453,4,1,0,50,0,0
17619,-124.969688733,4,1,0,50,0,0
18755,-124.969688733,4,1,0,70,0,0
18804,-125,4,1,0,70,0,0
18805,-83.3333333333333,4,1,0,70,0,0
18853,-125,4,1,0,50,0,0
21149,-111.094419757848,4,1,0,50,0,0
21215,-112.201445561283,4,1,0,50,0,0
21280,-113.302479474374,4,1,0,50,0,0
21346,-114.43150799484,4,1,0,50,0,0
21411,-115.554425533007,4,1,0,50,0,0
21476,-116.688362272263,4,1,0,50,0,0
21542,-117.851130197758,4,1,0,50,0,0
21738,-121.372942926831,4,1,0,50,0,0
21934,-125,4,1,0,50,0,0
22325,-118.221904437479,4,1,0,50,0,0
22717,-111.811349510595,4,1,0,50,0,0
22815,-110.263779271435,4,1,0,50,0,0
22913,-108.737628804557,4,1,0,50,0,0
22979,-107.721734501594,4,1,0,50,0,0
23044,-106.730509471635,4,1,0,50,0,0
23109,-105.748405414937,4,1,0,50,0,0
23175,-104.760438289026,4,1,0,50,0,0
23240,-103.796462271911,4,1,0,50,0,0
23305,-102.841356490323,4,1,0,50,0,0
23502,-100,4,1,0,50,0,0
23599,-101.788652581463,4,1,0,50,0,0
23697,-103.628236082867,4,1,0,50,0,0
23763,-104.88583726073,4,1,0,50,0,0
23828,-106.139299725484,4,1,0,50,0,0
23894,-107.42737441823,4,1,0,50,0,0
24090,-111.345441644333,4,1,0,50,0,0
24286,-115.406407743945,4,1,0,50,0,0
24482,-119.615484492889,4,1,0,50,0,0
24580,-121.777244828693,4,1,0,50,0,0
24678,-123.978073749717,4,1,0,50,0,0
24874,-128.499774388356,4,1,0,50,0,0
25028,-128.499774388356,4,1,0,70,0,0
25078,394.736842105263,4,1,0,70,1,8
25078,-132.315893504934,4,1,0,70,0,0
25079,-83.3333333333333,4,1,0,70,0,0
25127,-83.3333333333333,4,1,0,50,0,0
25471,-142.195458238754,4,1,0,50,0,0
25867,451.127819548872,4,1,0,50,1,8
25867,-133.735542895265,4,1,0,50,0,0
26534,-113.592450069178,4,1,0,50,0,0
26609,-114.957452475204,4,1,0,50,0,0
26685,-116.357388094337,4,1,0,50,0,0
26778,451.127819548872,4,1,0,50,1,0
26778,-117.924528301887,4,1,0,50,0,0
26994,-113.592450069178,4,1,0,50,0,0
27069,-114.957452475204,4,1,0,50,0,0
27145,-116.357388094337,4,1,0,50,0,0
27220,-117.924528301887,4,1,0,50,0,0
27445,-113.578765311087,4,1,0,50,0,0
27558,-115.731250422782,4,1,0,50,0,0
27671,-117.924528301887,4,1,0,50,0,0
28122,-66.6666666666667,4,1,0,50,0,0
28521,-66.6666666666667,4,1,0,70,0,0
28578,454.545454545455,4,1,0,70,1,0
28578,-111.111111111111,4,1,0,70,0,0
28579,-83.3333333333333,4,1,0,70,0,0
28634,-83.3333333333333,4,1,0,50,0,0
28796,-111.986077898837,4,1,0,50,0,0
29023,-112.867934788479,4,1,0,50,0,0
29250,-113.756736037531,4,1,0,50,0,0
29478,-108.695652173913,4,1,0,50,0,0
29528,-110.170368440244,4,1,0,50,0,0
29579,-111.695193183429,4,1,0,50,0,0
29705,-115.553501271089,4,1,0,50,0,0
29932,-116.469379409641,4,1,0,50,0,0
30159,-117.386540958575,4,1,0,50,0,0
30387,-118.315013118721,4,1,0,50,0,0
30614,-119.246708481435,4,1,0,50,0,0
30841,-120.185740666637,4,1,0,50,0,0
31069,-121.136353175909,4,1,0,50,0,0
31296,-122.090265748246,4,1,0,50,0,0
31523,-123.051690096954,4,1,0,50,0,0
31750,-124.020685375029,4,1,0,50,0,0
31978,-125.001630487754,4,1,0,50,0,0
32205,-125.985980963549,4,1,0,50,0,0
32432,-126.978082905108,4,1,0,50,0,0
32659,-127.977997352907,4,1,0,50,0,0
32887,-128.990242936456,4,1,0,50,0,0
33114,-125,4,1,0,50,0,0
33164,-126.293948189578,4,1,0,50,0,0
33215,-127.627575219496,4,1,0,50,0,0
33341,-130.983106735862,4,1,0,50,0,0
33569,-132.066144546828,4,1,0,50,0,0
33796,-133.106125959181,4,1,0,50,0,0
34023,-134.154296914295,4,1,0,50,0,0
34024,-134.158932620735,4,1,0,50,0,0
34250,-135.210721902371,4,1,0,50,0,0
34478,-136.280174924961,4,1,0,50,0,0
34705,-137.353340566924,4,1,0,50,0,0
34932,-121.924289788568,4,1,0,50,0,0
35008,-123.98799341627,4,1,0,50,0,0
35084,-126.086627513285,4,1,0,50,0,0
35159,-128.192469124374,4,1,0,50,0,0
35235,-130.362268628926,4,1,0,50,0,0
35311,-132.568794393,4,1,0,50,0,0
35387,-134.812668049212,4,1,0,50,0,0
35614,-141.743444365698,4,1,0,50,0,0
35793,-111.111111111111,4,1,0,70,0,0
35851,-83.3333333333333,4,1,0,70,0,0
35907,-83.3333333333333,4,1,0,50,0,0
36068,-111.98619869137,4,1,0,50,0,0
36295,-112.868178276088,4,1,0,50,0,0
36522,-113.757104145231,4,1,0,50,0,0
36750,-108.695652173913,4,1,0,50,0,0
36800,-110.170368440244,4,1,0,50,0,0
36851,-111.695193183429,4,1,0,50,0,0
36977,-115.560007588747,4,1,0,50,0,0
37204,-116.470133735487,4,1,0,50,0,0
37431,-117.387427843015,4,1,0,50,0,0
37659,-118.316035200335,4,1,0,50,0,0
37886,-119.247867236879,4,1,0,50,0,0
38113,-120.187038185202,4,1,0,50,0,0
38340,-121.133605845018,4,1,0,50,0,0
38568,-122.085215480405,4,1,0,50,0,0
39023,-124.017893428886,4,1,0,50,0,0
39249,-124.995675579047,4,1,0,50,0,0
39477,-125.988157669742,4,1,0,50,0,0
39704,-126.980413718071,4,1,0,50,0,0
39931,-127.980484564899,4,1,0,50,0,0
40158,-128.988431757924,4,1,0,50,0,0
40387,-125,4,1,0,50,0,0
40437,-126.293948189578,4,1,0,50,0,0
40488,-127.627575219496,4,1,0,50,0,0
40613,-131.032732107669,4,1,0,50,0,0
40840,-132.064718155943,4,1,0,50,0,0
41068,-133.109431982419,4,1,0,50,0,0
41295,-134.157773679107,4,1,0,50,0,0
41371,-134.510602009122,4,1,0,50,0,0
41446,-134.85969753783,4,1,0,50,0,0
41522,-135.214371892984,4,1,0,50,0,0
41636,-135.7481331472,4,1,0,50,0,0
41749,-136.279291650629,4,1,0,50,0,0
41977,-137.357345367305,4,1,0,50,0,0
42204,-138.439142730199,4,1,0,50,0,0
42261,-138.712119149272,4,1,0,50,0,0
42658,-50,4,1,0,50,0,0
43066,-111.111111111111,4,1,0,70,0,0
43124,-71.4285714285714,4,1,0,70,0,0
43180,-111.111111111111,4,1,0,50,0,0
45841,-100,4,1,0,50,0,0
45898,-101.308082591089,4,1,0,50,0,0
45955,-102.657097017479,4,1,0,50,0,0
46012,-104.024074866688,4,1,0,50,0,0
46069,-105.409255338946,4,1,0,50,0,0
46182,-108.210081518704,4,1,0,50,0,0
46296,-111.111111111111,4,1,0,50,0,0
49478,-90.9090909090909,4,1,0,50,0,0
49535,-92.0589828270408,4,1,0,50,0,0
49592,-93.2234195106433,4,1,0,50,0,0
49648,-94.3817698308095,4,1,0,50,0,0
49705,-95.5755870084424,4,1,0,50,0,0
49819,-98.0087134693042,4,1,0,50,0,0
49933,-100.503781525921,4,1,0,50,0,0
50008,-102.179814399828,4,1,0,50,0,0
50084,-103.906708023549,4,1,0,50,0,0
50160,-105.66278707499,4,1,0,50,0,0
50339,-111.111111111111,4,1,0,70,0,0
50397,-83.3333333333333,4,1,0,70,0,0
50453,-111.111111111111,4,1,0,50,0,0
53114,-90.9090909090909,4,1,0,50,0,0
53171,-92.0589828270408,4,1,0,50,0,0
53228,-93.2234195106433,4,1,0,50,0,0
53284,-94.3817698308095,4,1,0,50,0,0
53341,-95.5755870084424,4,1,0,50,0,0
53455,-98.0087134693042,4,1,0,50,0,0
53569,-100.503781525921,4,1,0,50,0,0
53644,-102.179814399828,4,1,0,50,0,0
53720,-103.906708023549,4,1,0,50,0,0
53796,-105.66278707499,4,1,0,50,0,0
53975,-111.111111111111,4,1,0,70,0,0
54033,-83.3333333333333,4,1,0,70,0,0
54250,-106.368448024152,4,1,0,50,0,0
54326,-107.478457523835,4,1,0,50,0,0
54402,-108.600050543934,4,1,0,50,0,0
54478,-109.733347964446,4,1,0,50,0,0
54705,-105.263157894737,4,1,0,50,0,0
54781,-106.287388018602,4,1,0,50,0,0
54856,-107.307911130502,4,1,0,50,0,0
54932,-108.352037084037,4,1,0,50,0,0
55159,-104.154313481458,4,1,0,50,0,0
55235,-105.097343463676,4,1,0,50,0,0
55311,-106.048911791716,4,1,0,50,0,0
55387,-107.009095773141,4,1,0,50,0,0
55614,-106.34140105707,4,1,0,50,0,0
55842,-105.677354075031,4,1,0,70,0,0
55851,-83.3333333333333,4,1,0,70,0,0
56069,-101.010101010101,4,1,0,50,0,0
56144,-102.105586977276,4,1,0,50,0,0
56220,-103.227799566529,4,1,0,50,0,0
56296,-104.36234606554,4,1,0,50,0,0
56523,-103.707127657982,4,1,0,50,0,0
56750,-103.059530349194,4,1,0,50,0,0
56978,-98.2318271119843,4,1,0,50,0,0
57053,-99.3872678970494,4,1,0,50,0,0
57129,-100.571979046711,4,1,0,50,0,0
57205,-101.770812131081,4,1,0,50,0,0
57432,-101.13811008844,4,1,0,50,0,0
57660,-100.503781525921,4,1,0,70,0,0
57669,-76.9230769230769,4,1,0,70,0,0
57887,-99.8761874549157,4,1,0,50,0,0
58114,-99.2525123838919,4,1,0,50,0,0
58341,-98.6327318407243,4,1,0,50,0,0
58569,-98.0141167711807,4,1,0,50,0,0
58796,-97.4020693673268,4,1,0,50,0,0
59023,-96.793843882569,4,1,0,50,0,0
59250,-96.1894164510014,4,1,0,50,0,0
59478,-95.5861256221183,4,1,0,70,0,0
59488,-76.9230769230769,4,1,0,70,0,0
59705,-94.9892397656856,4,1,0,50,0,0
59819,-94.6908895060913,4,1,0,50,0,0
59932,-94.3960811523364,4,1,0,50,0,0
60159,-93.8066265073678,4,1,0,50,0,0
60387,-93.2182803093306,4,1,0,50,0,0
60500,-92.9280567418765,4,1,0,50,0,0
60728,-92.3452208494593,4,1,0,50,0,0
60841,-92.0581428302135,4,1,0,50,0,0
61069,-91.4805501351648,4,1,0,50,0,0
61248,-91.4805501351648,4,1,0,70,0,0
61305,402.68456375839,4,1,0,70,1,0
61305,-102.616726526424,4,1,0,70,0,0
61306,-76.9230769230769,4,1,0,70,0,0
61355,-76.9230769230769,4,1,0,50,0,0
62109,-121.890362281266,4,1,0,50,0,0
62914,-144.784002764234,4,1,0,50,0,0
63317,-157.812941263247,4,1,0,50,0,0
63670,-157.812941263247,4,1,0,70,0,0
63720,-172.014338287858,4,1,0,70,0,0
63921,-179.56812061213,4,1,0,70,0,0
64022,-183.48812411109,4,1,0,70,0,0
64122,-187.453617303765,4,1,0,70,0,0
64324,-195.727240094747,4,1,0,70,0,0
64424,-199.957241583819,4,1,0,70,0,0
64475,-199.957241583819,4,1,0,90,0,0
64526,402.68456375839,4,1,0,90,1,1
64526,-111.111111111111,4,1,0,90,0,1
64527,-66.6666666666667,4,1,0,90,0,1
64820,-112.344944962909,4,1,0,90,0,1
64920,-112.756511297983,4,1,0,90,0,1
65122,-113.592479928472,4,1,0,90,0,1
65323,-114.429568600526,4,1,0,90,0,1
65368,-111.044629398689,4,1,0,90,0,1
65412,-107.831749338361,4,1,0,90,0,1
65625,-115.700566932778,4,1,0,90,0,1
65726,-114.144963376205,4,1,0,90,0,1
65826,-112.625368372288,4,1,0,90,0,1
65927,-111.111111111111,4,1,0,90,0,1
66129,-117.848975472987,4,1,0,90,0,1
66229,-118.28503064113,4,1,0,90,0,1
66330,-118.722699265046,4,1,0,90,0,1
66464,-121.951219512195,4,1,0,90,0,1
66531,-119.598527315824,4,1,0,90,0,1
66732,-120.480816429056,4,1,0,90,0,1
66833,-120.926609720471,4,1,0,90,0,1
66934,-121.374052499868,4,1,0,90,0,1
67034,-121.818696217278,4,1,0,90,0,1
67135,-122.269439822378,4,1,0,90,0,1
67236,-122.721851232206,4,1,0,90,0,1
67336,-123.17143249785,4,1,0,90,0,1
67538,-124.084616601856,4,1,0,90,0,1
67739,-125,4,1,0,90,0,1
67820,-123.529127766212,4,1,0,90,0,1
67900,-122.093403800659,4,1,0,90,0,1
67981,-120.656733420026,4,1,0,90,0,1
68061,-119.254394013046,4,1,0,90,0,1
68142,-117.851130197758,4,1,0,90,0,1
68242,-116.141461012306,4,1,0,90,0,1
68343,-114.43986939856,4,1,0,90,0,1
68444,-112.763207848502,4,1,0,90,0,1
68544,-111.127349275166,4,1,0,90,0,1
68746,-120.482193373241,4,1,0,90,0,1
68846,-120.04256419031,4,1,0,90,0,1
68947,-119.600167007628,4,1,0,90,0,1
69148,-118.724597783006,4,1,0,90,0,1
69249,-118.287057749365,4,1,0,90,0,1
69350,-111.111111111111,4,1,0,90,0,1
69417,-111.861486757691,4,1,0,90,0,1
69484,-112.616929976769,4,1,0,90,0,1
69551,-113.377474991593,4,1,0,90,0,1
69618,-114.143156256532,4,1,0,90,0,1
69685,-114.914008458639,4,1,0,90,0,1
69752,-115.690066519223,4,1,0,90,0,1
69887,-120.481927710843,4,1,0,90,0,1
69954,-118.061688244882,4,1,0,90,0,1
70054,-119.253688367355,4,1,0,90,0,1
70155,-120.494046716263,4,1,0,90,0,1
70356,-118.082463889123,4,1,0,90,0,1
70457,-116.888954302104,4,1,0,90,0,1
70558,-115.70750802311,4,1,0,90,0,1
70658,-114.549524242616,4,1,0,90,0,1
70759,-113.391723576292,4,1,0,90,0,1
70961,-111.122287527221,4,1,0,90,0,1
71061,-111.518808971032,4,1,0,90,0,1
71162,-111.93210230018,4,1,0,90,0,1
71263,-112.342812607258,4,1,0,90,0,1
71363,-112.756511297983,4,1,0,90,0,1
71565,-113.592479928472,4,1,0,90,0,1
71766,-114.429568600526,4,1,0,90,0,1
71811,-111.044629398689,4,1,0,90,0,1
71855,-107.831749338361,4,1,0,90,0,1
72068,-115.700566932778,4,1,0,90,0,1
72169,-114.144963376205,4,1,0,90,0,1
72269,-112.625368372288,4,1,0,90,0,1
72370,-111.111111111111,4,1,0,90,0,1
72572,-117.853284961925,4,1,0,90,0,1
72672,-118.28503064113,4,1,0,90,0,1
72773,-118.722699265046,4,1,0,90,0,1
72907,-121.951219512195,4,1,0,90,0,1
72974,-119.598527315824,4,1,0,90,0,1
73175,-120.480816429056,4,1,0,90,0,1
73377,-111.111111111111,4,1,0,90,0,1
73578,-114.427322329037,4,1,0,90,0,1
73779,-117.84250885854,4,1,0,90,0,1
73981,-121.377382658236,4,1,0,90,0,1
74182,-125,4,1,0,90,0,1
74283,-124.539333000688,4,1,0,90,0,1
74383,-124.08489966347,4,1,0,90,0,1
74484,-123.627605116367,4,1,0,90,0,1
74585,-123.171995853319,4,1,0,90,0,1
74786,-122.270277974467,4,1,0,90,0,1
74887,-121.819670917991,4,1,0,90,0,1
74987,-111.094855152601,4,1,0,90,0,1
75055,-112.189280288825,4,1,0,90,0,1
75122,-113.311064719529,4,1,0,90,0,1
75189,-114.427322329037,4,1,0,90,0,1
75256,-115.554576490858,4,1,0,90,0,1
75323,-116.692935534971,4,1,0,90,0,1
75390,-117.84250885854,4,1,0,90,0,1
75491,-119.596886628079,4,1,0,90,0,1
75591,-121.359624706968,4,1,0,90,0,1
75793,-125,4,1,0,90,0,1
75893,-121.288442549196,4,1,0,90,0,1
75994,-117.651622228826,4,1,0,90,0,1
76044,-115.891777237868,4,1,0,90,0,1
76095,-114.123851557085,4,1,0,90,0,1
76145,-112.416775320423,4,1,0,90,0,1
76195,-110.735233704596,4,1,0,90,0,1
76263,-108.521335280579,4,1,0,90,0,1
76330,-106.319646788854,4,1,0,90,0,1
76397,-104.194027953789,4,1,0,90,0,1
76464,-102.110906019046,4,1,0,90,0,1
76531,-100.069431356036,4,1,0,90,0,1
76598,-98.0687713225512,4,1,0,90,0,1
76799,-110.121679893842,4,1,0,90,0,1
76900,-108.729458664922,4,1,0,90,0,1
77001,-107.354838692649,4,1,0,90,0,1
77101,-106.010951019133,4,1,0,90,0,1
77202,-104.670699974569,4,1,0,90,0,1
77404,-102.035932972039,4,1,0,90,0,1
77412,-66.6666666666667,4,1,0,90,0,1
77605,-103.18217489091,4,1,0,90,0,1
77705,-103.754761802483,4,1,0,90,0,1
77806,-104.33629990914,4,1,0,90,0,1
78007,-105.503334178014,4,1,0,90,0,1
78209,-106.689427077777,4,1,0,90,0,1
78254,-103.655429126603,4,1,0,90,0,1
78298,-100.772296175401,4,1,0,90,0,1
78511,-108.483402039488,4,1,0,90,0,1
78611,-107.034564933966,4,1,0,90,0,1
78712,-105.590879564895,4,1,0,90,0,1
78813,-104.166666666667,4,1,0,90,0,1
79015,-111.555773735794,4,1,0,90,0,1
79115,-112.174828102686,4,1,0,90,0,1
79215,-112.797317776387,4,1,0,90,0,1
79350,-115.606936416185,4,1,0,90,0,1
79417,-114.065303317921,4,1,0,90,0,1
79618,-115.341159544157,4,1,0,90,0,1
79719,-115.987638591245,4,1,0,90,0,1
79820,-116.637741107699,4,1,0,90,0,1
79920,-117.284996740994,4,1,0,90,0,1
80021,-117.942370858182,4,1,0,90,0,1
80122,-118.603429510834,4,1,0,90,0,1
80222,-119.261593301987,4,1,0,90,0,1
80424,-120.602245535111,4,1,0,90,0,1
80625,-121.951219512195,4,1,0,90,0,1
80705,-120.309217421929,4,1,0,90,0,1
80786,-118.669213902221,4,1,0,90,0,1
80866,-117.071402104545,4,1,0,90,0,1
80947,-115.475535091004,4,1,0,90,0,1
81028,-113.901422250379,4,1,0,90,0,1
81128,-111.987639293005,4,1,0,90,0,1
81229,-110.087356182151,4,1,0,90,0,1
81330,-108.219318379121,4,1,0,90,0,1
81430,-106.401006692746,4,1,0,90,0,1
81632,-115.343154468859,4,1,0,90,0,1
81732,-114.706812210759,4,1,0,90,0,1
81833,-114.067669967552,4,1,0,90,0,1
82034,-112.806289993909,4,1,0,90,0,1
82135,-112.177737392324,4,1,0,90,0,1
82236,-105.263157894737,4,1,0,90,0,1
82303,-106.242133695915,4,1,0,90,0,1
82370,-107.230214236477,4,1,0,90,0,1
82437,-108.227484192958,4,1,0,90,0,1
82504,-109.234029029408,4,1,0,90,0,1
82571,-110.249935004716,4,1,0,90,0,1
82638,-111.275289180001,4,1,0,90,0,1
82773,-116.000562612187,4,1,0,90,0,1
82840,-114.424732507996,4,1,0,90,0,1
82940,-116.016694390763,4,1,0,90,0,1
83041,-117.647058823529,4,1,0,90,0,1
83242,-113.542009913173,4,1,0,90,0,1
83343,-111.53366161292,4,1,0,90,0,1
83444,-109.56083728215,4,1,0,90,0,1
83544,-107.641926956307,4,1,0,90,0,1
83645,-105.737940218676,4,1,0,90,0,1
83846,-102.030405060708,4,1,0,90,0,1
83947,-102.604943982593,4,1,0,90,0,1
84048,-103.177878662815,4,1,0,90,0,1
84148,-103.754761802483,4,1,0,90,0,1
84249,-104.33629990914,4,1,0,90,0,1
84450,-105.503334178014,4,1,0,90,0,1
84652,-106.689427077777,4,1,0,90,0,1
84697,-103.655429126603,4,1,0,90,0,1
84741,-100.772296175401,4,1,0,90,0,1
84954,-108.483402039488,4,1,0,90,0,1
85054,-107.034564933966,4,1,0,90,0,1
85155,-105.590879564895,4,1,0,90,0,1
85256,-104.166666666667,4,1,0,90,0,1
85458,-111.549600476192,4,1,0,90,0,1
85558,-112.174828102686,4,1,0,90,0,1
85658,-112.797317776387,4,1,0,90,0,1
85793,-115.606936416185,4,1,0,90,0,1
85860,-114.065303317921,4,1,0,90,0,1
86061,-115.341159544157,4,1,0,90,0,1
86263,-102.018224299856,4,1,0,90,0,1
86464,-106.684896217601,4,1,0,90,0,1
86665,-111.540337393412,4,1,0,90,0,1
86867,-116.616759325145,4,1,0,90,0,1
87068,-121.951219512195,4,1,0,90,0,1
87169,-121.27150131861,4,1,0,90,0,1
87269,-120.602245535111,4,1,0,90,0,1
87370,-119.930046103197,4,1,0,90,0,1
87471,-119.261593301987,4,1,0,90,0,1
87672,-117.942370858182,4,1,0,90,0,1
87773,-117.284996740994,4,1,0,90,0,1
87873,-102.018224299856,4,1,0,90,0,1
87940,-103.543005037753,4,1,0,90,0,1
88008,-105.090575393041,4,1,0,90,0,1
88075,-106.684896217601,4,1,0,90,0,1
88142,-108.279425782231,4,1,0,90,0,1
88209,-109.897787441399,4,1,0,90,0,1
88276,-111.540337393412,4,1,0,90,0,1
88384,-114.06293524747,4,1,0,90,0,1
88477,-116.616759325145,4,1,0,90,0,1
88679,-121.951219512195,4,1,0,90,0,1
88779,-119.746270589723,4,1,0,90,0,1
88880,-117.559736480822,4,1,0,90,0,1
88930,-116.492114482927,4,1,0,90,0,1
88981,-115.413127885975,4,1,0,90,0,1
89031,-114.365000373397,4,1,0,90,0,1
89081,-113.32639145981,4,1,0,90,0,1
89148,-111.949428006108,4,1,0,90,0,1
89216,-110.589195239128,4,1,0,90,0,1
89283,-109.22555872508,4,1,0,90,0,1
89383,-107.250697145338,4,1,0,90,0,1
89484,-105.292328785665,4,1,0,90,0,1
89551,-104.012982581966,4,1,0,90,0,1
89618,-102.749180974229,4,1,0,90,0,1
89685,-101.500735089058,4,1,0,90,0,1
89753,-100.267458347946,4,1,0,90,0,1
89820,-99.0310955452471,4,1,0,90,0,1
89887,-97.8278259662079,4,1,0,90,0,1
89987,-96.0590420187018,4,1,0,90,0,1
90088,-94.3050302168486,4,1,0,90,0,1
90196,-92.5830461901676,4,1,0,90,0,1
90297,389.61038961039,4,1,0,90,1,0
90297,-66.6666666666667,4,1,0,90,0,0
90345,-66.6666666666667,4,1,0,70,0,0
90484,-100.031626635446,4,1,0,70,0,0
90549,-99.2789574350227,4,1,0,70,0,0
90614,-98.5319515527352,4,1,0,70,0,0
90679,-97.790566376009,4,1,0,70,0,0
90777,-96.6833177198033,4,1,0,70,0,0
90874,-95.5997137484516,4,1,0,70,0,0
90971,-94.528254556514,4,1,0,70,0,0
91069,-93.4579439252336,4,1,0,70,0,0
91263,-100.031626635446,4,1,0,70,0,0
91328,-99.2789574350227,4,1,0,70,0,0
91393,-98.5319515527352,4,1,0,70,0,0
91458,-97.790566376009,4,1,0,70,0,0
91556,-96.6833177198033,4,1,0,70,0,0
91653,-95.5997137484516,4,1,0,70,0,0
91750,-94.528254556514,4,1,0,70,0,0
91848,-93.4579439252336,4,1,0,70,0,0
92042,-100.031626635446,4,1,0,70,0,0
92107,-99.2789574350227,4,1,0,70,0,0
92172,-98.5319515527352,4,1,0,70,0,0
92237,-97.790566376009,4,1,0,70,0,0
92335,-96.6833177198033,4,1,0,70,0,0
92432,-95.5997137484516,4,1,0,70,0,0
92529,-94.528254556514,4,1,0,70,0,0
92627,-93.4579439252336,4,1,0,70,0,0
92821,-100.031626635446,4,1,0,70,0,0
92886,-99.2789574350227,4,1,0,70,0,0
92951,-98.5319515527352,4,1,0,70,0,0
93016,-97.790566376009,4,1,0,70,0,0
93114,-96.6833177198033,4,1,0,70,0,0
93211,-95.5997137484516,4,1,0,70,0,0
93308,-94.528254556514,4,1,0,70,0,0
93406,-93.4579439252336,4,1,0,70,0,0
93601,-100.031626635446,4,1,0,70,0,0
93666,-99.2789574350227,4,1,0,70,0,0
93731,-98.5319515527352,4,1,0,70,0,0
93796,-97.790566376009,4,1,0,70,0,0
93894,-96.6833177198033,4,1,0,70,0,0
93991,-95.5997137484516,4,1,0,70,0,0
94088,-94.528254556514,4,1,0,70,0,0
94186,-93.4579439252336,4,1,0,70,0,0
94380,-100.031626635446,4,1,0,70,0,0
94445,-99.2789574350227,4,1,0,70,0,0
94510,-98.5319515527352,4,1,0,70,0,0
94575,-97.790566376009,4,1,0,70,0,0
94673,-96.6833177198033,4,1,0,70,0,0
94770,-95.5997137484516,4,1,0,70,0,0
94867,-94.528254556514,4,1,0,70,0,0
94965,-93.4579439252336,4,1,0,70,0,0
95159,-100.031626635446,4,1,0,70,0,0
95224,-99.2789574350227,4,1,0,70,0,0
95289,-98.5319515527352,4,1,0,70,0,0
95354,-97.790566376009,4,1,0,70,0,0
95452,-96.6833177198033,4,1,0,70,0,0
95549,-95.5997137484516,4,1,0,70,0,0
95646,-94.528254556514,4,1,0,70,0,0
95744,-93.4579439252336,4,1,0,70,0,0
95938,-100.031626635446,4,1,0,70,0,0
96003,-99.2789574350227,4,1,0,70,0,0
96068,-98.5319515527352,4,1,0,70,0,0
96133,-97.790566376009,4,1,0,70,0,0
96231,-96.6833177198033,4,1,0,70,0,0
96328,-95.5997137484516,4,1,0,70,0,0
96425,-94.528254556514,4,1,0,70,0,0
96523,-93.4579439252336,4,1,0,70,0,0
96717,-100.031626635446,4,1,0,70,0,0
96782,-99.2789574350227,4,1,0,70,0,0
96847,-98.5319515527352,4,1,0,70,0,0
96912,-97.790566376009,4,1,0,70,0,0
97010,-96.6833177198033,4,1,0,70,0,0
97107,-95.5997137484516,4,1,0,70,0,0
97204,-94.528254556514,4,1,0,70,0,0
97302,-93.4579439252336,4,1,0,70,0,0
97496,-100.031626635446,4,1,0,70,0,0
97561,-99.2789574350227,4,1,0,70,0,0
97626,-98.5319515527352,4,1,0,70,0,0
97691,-97.790566376009,4,1,0,70,0,0
97789,-96.6833177198033,4,1,0,70,0,0
97886,-95.5997137484516,4,1,0,70,0,0
97983,-94.528254556514,4,1,0,70,0,0
98081,-93.4579439252336,4,1,0,70,0,0
98276,-100.031626635446,4,1,0,70,0,0
98341,-99.2789574350227,4,1,0,70,0,0
98406,-98.5319515527352,4,1,0,70,0,0
98471,-97.790566376009,4,1,0,70,0,0
98569,-96.6833177198033,4,1,0,70,0,0
98666,-95.5997137484516,4,1,0,70,0,0
98763,-94.528254556514,4,1,0,70,0,0
98861,-93.4579439252336,4,1,0,70,0,0
99055,-100.031626635446,4,1,0,70,0,0
99120,-99.2789574350227,4,1,0,70,0,0
99185,-98.5319515527352,4,1,0,70,0,0
99250,-97.790566376009,4,1,0,70,0,0
99348,-96.6833177198033,4,1,0,70,0,0
99445,-95.5997137484516,4,1,0,70,0,0
99542,-94.528254556514,4,1,0,70,0,0
99640,-93.4486433012303,4,1,0,70,0,0
99835,-94.8971515790929,4,1,0,70,0,0
100030,-96.3661131862969,4,1,0,70,0,0
100225,-97.8578136024907,4,1,0,70,0,0
100322,-98.6084166822758,4,1,0,70,0,0
100419,-99.3647771457857,4,1,0,70,0,0
100614,-100.902895417058,4,1,0,70,0,0
100809,-102.46482300874,4,1,0,70,0,0
101004,-104.050928477494,4,1,0,70,0,0
101101,-104.849034877939,4,1,0,70,0,0
101199,-105.661586085062,4,1,0,70,0,0
101393,-107.288723993576,4,1,0,70,0,0
101588,-108.949501096049,4,1,0,70,0,0
101783,-110.635986217794,4,1,0,70,0,0
101880,-111.484602275449,4,1,0,70,0,0
101978,-112.348577306407,4,1,0,70,0,0
102173,-114.087678469517,4,1,0,70,0,0
102367,-115.844574172206,4,1,0,70,0,0
102562,-117.637791661142,4,1,0,70,0,0
102764,375,4,1,0,70,1,0
102764,-66.6666666666667,4,1,0,70,0,0
102944,-100,4,1,0,70,0,0
103007,-99.2563666012878,4,1,0,70,0,0
103069,-98.5182631088924,4,1,0,70,0,0
103132,-97.7738767874568,4,1,0,70,0,0
103225,-96.6852880543254,4,1,0,70,0,0
103319,-95.5973098204879,4,1,0,70,0,0
103413,-94.5215743658893,4,1,0,70,0,0
103507,-93.4579439252336,4,1,0,70,0,0
103694,-100,4,1,0,70,0,0
103757,-99.2563666012878,4,1,0,70,0,0
103819,-98.5182631088924,4,1,0,70,0,0
103882,-97.7738767874568,4,1,0,70,0,0
103975,-96.6852880543254,4,1,0,70,0,0
104069,-95.5973098204879,4,1,0,70,0,0
104163,-94.5215743658893,4,1,0,70,0,0
104257,-93.4579439252336,4,1,0,70,0,0
104444,-100,4,1,0,70,0,0
104507,-99.2563666012878,4,1,0,70,0,0
104569,-98.5182631088924,4,1,0,70,0,0
104632,-97.7738767874568,4,1,0,70,0,0
104725,-96.6852880543254,4,1,0,70,0,0
104819,-95.5973098204879,4,1,0,70,0,0
104913,-94.5215743658893,4,1,0,70,0,0
105007,-93.4579439252336,4,1,0,70,0,0
105194,-100,4,1,0,70,0,0
105257,-99.2563666012878,4,1,0,70,0,0
105319,-98.5182631088924,4,1,0,70,0,0
105382,-97.7738767874568,4,1,0,70,0,0
105475,-96.6852880543254,4,1,0,70,0,0
105569,-95.5973098204879,4,1,0,70,0,0
105663,-94.5215743658893,4,1,0,70,0,0
105757,-93.4579439252336,4,1,0,70,0,0
105944,-100,4,1,0,70,0,0
106007,-99.2563666012878,4,1,0,70,0,0
106069,-98.5182631088924,4,1,0,70,0,0
106132,-97.7738767874568,4,1,0,70,0,0
106225,-96.6852880543254,4,1,0,70,0,0
106319,-95.5973098204879,4,1,0,70,0,0
106413,-94.5215743658893,4,1,0,70,0,0
106507,-93.4579439252336,4,1,0,70,0,0
106694,-100,4,1,0,70,0,0
106757,-99.2563666012878,4,1,0,70,0,0
106819,-98.5182631088924,4,1,0,70,0,0
106882,-97.7738767874568,4,1,0,70,0,0
106975,-96.6852880543254,4,1,0,70,0,0
107069,-95.5973098204879,4,1,0,70,0,0
107163,-94.5215743658893,4,1,0,70,0,0
107257,-93.4579439252336,4,1,0,70,0,0
107444,-100,4,1,0,70,0,0
107507,-99.2563666012878,4,1,0,70,0,0
107569,-98.5182631088924,4,1,0,70,0,0
107632,-97.7738767874568,4,1,0,70,0,0
107725,-96.6852880543254,4,1,0,70,0,0
107819,-95.5973098204879,4,1,0,70,0,0
107913,-94.5215743658893,4,1,0,70,0,0
108007,-93.4579439252336,4,1,0,70,0,0
108194,-100,4,1,0,70,0,0
108257,-99.2563666012878,4,1,0,70,0,0
108319,-98.5182631088924,4,1,0,70,0,0
108382,-97.7738767874568,4,1,0,70,0,0
108475,-96.6852880543254,4,1,0,70,0,0
108569,-95.5973098204879,4,1,0,70,0,0
108663,-94.5215743658893,4,1,0,70,0,0
108757,-76.9230769230769,4,1,0,70,0,0
108944,-100,4,1,0,70,0,0
109007,-99.2563666012878,4,1,0,70,0,0
109069,-98.5182631088924,4,1,0,70,0,0
109132,-97.7738767874568,4,1,0,70,0,0
109225,-96.6852880543254,4,1,0,70,0,0
109319,-95.5973098204879,4,1,0,70,0,0
109413,-94.5215743658893,4,1,0,70,0,0
109507,-93.4579439252336,4,1,0,70,0,0
109694,-100,4,1,0,70,0,0
109757,-99.2563666012878,4,1,0,70,0,0
109819,-98.5182631088924,4,1,0,70,0,0
109882,-97.7738767874568,4,1,0,70,0,0
109975,-96.6852880543254,4,1,0,70,0,0
110069,-95.5973098204879,4,1,0,70,0,0
110163,-94.5215743658893,4,1,0,70,0,0
110257,-76.9230769230769,4,1,0,70,0,0
110444,-100,4,1,0,70,0,0
110507,-99.2563666012878,4,1,0,70,0,0
110569,-98.5182631088924,4,1,0,70,0,0
110632,-97.7738767874568,4,1,0,70,0,0
110725,-96.6852880543254,4,1,0,70,0,0
110819,-95.5973098204879,4,1,0,70,0,0
110913,-94.5215743658893,4,1,0,70,0,0
111007,-93.4579439252336,4,1,0,70,0,0
111194,-100,4,1,0,70,0,0
111257,-99.2563666012878,4,1,0,70,0,0
111319,-98.5182631088924,4,1,0,70,0,0
111382,-97.7738767874568,4,1,0,70,0,0
111475,-96.6852880543254,4,1,0,70,0,0
111569,-95.5973098204879,4,1,0,70,0,0
111663,-94.5215743658893,4,1,0,70,0,0
111757,-93.4579439252336,4,1,0,70,0,0
111944,-94.9792459837522,4,1,0,70,0,0
112132,-96.5336467132934,4,1,0,70,0,0
112319,-98.1050148527287,4,1,0,70,0,0
112413,-98.9045349979024,4,1,0,70,0,0
112507,-99.7105709411063,4,1,0,70,0,0
112694,-101.333652837174,4,1,0,70,0,0
112882,-102.992047808262,4,1,0,70,0,0
113069,-104.668545361719,4,1,0,70,0,0
113163,-105.521555890369,4,1,0,70,0,0
113257,-106.381518144195,4,1,0,70,0,0
113444,-108.113189265385,4,1,0,70,0,0
113632,-109.882536016104,4,1,0,70,0,0
113819,-111.671196468235,4,1,0,70,0,0
113913,-112.581276053321,4,1,0,70,0,0
114007,-113.498772455611,4,1,0,70,0,0
114194,-115.346297758695,4,1,0,70,0,0
114382,-117.23401930806,4,1,0,70,0,0
114569,-119.142346705509,4,1,0,70,0,0
114763,-121.092193208501,4,1,0,70,0,0
114765,-83.3333333333333,4,1,0,70,0,0
114904,-83.3333333333333,4,1,0,60,0,0
114950,-123.063323698447,4,1,0,60,0,0
115138,-125.077339688523,4,1,0,60,0,0
115325,-127.113340121984,4,1,0,60,0,0
115513,-129.193637418236,4,1,0,60,0,0
115606,-130.235272620896,4,1,0,60,0,0
115700,-131.296642666341,4,1,0,60,0,0
115888,-133.445402587869,4,1,0,60,0,0
116075,-135.617617780397,4,1,0,60,0,0
116263,-137.837093433557,4,1,0,60,0,0
116265,-83.3333333333333,4,1,0,60,0,0
116638,-142.373314912074,4,1,0,60,0,0
117013,-147.058823529412,4,1,0,60,0,0
117332,-147.058823529412,4,1,0,50,0,0
117389,454.545454545455,4,1,0,50,1,8
117389,-66.6666666666667,4,1,0,50,0,0
117776,-66.6666666666667,4,1,0,70,0,0
117843,535.714285714286,4,1,0,70,1,0
117843,-83.3333333333333,4,1,0,70,0,0
117899,-125,4,1,0,50,0,0
125811,-117.647058823529,4,1,0,60,0,0
127954,-111.111111111111,4,1,0,60,0,0
130153,-125,4,1,0,50,0,0
130421,-123.952220940238,4,1,0,50,0,0
130689,-122.913224608141,4,1,0,50,0,0
130957,-121.882937384843,4,1,0,50,0,0
131224,-120.865082437303,4,1,0,50,0,0
131492,-119.85196321783,4,1,0,50,0,0
131760,-118.847336199182,4,1,0,50,0,0
132028,-117.851130197758,4,1,0,50,0,0
132296,-116.863274626634,4,1,0,50,0,0
132564,-111.111111111111,4,1,0,50,0,0
132653,-112.360529989201,4,1,0,50,0,0
132742,-113.623998295087,4,1,0,50,0,0
132832,-114.916111238796,4,1,0,50,0,0
133099,-109.878688081526,4,1,0,50,0,0
133189,-110.911420476755,4,1,0,50,0,0
133278,-111.942223048762,4,1,0,50,0,0
133367,-112.982605823942,4,1,0,50,0,0
133635,-107.513677334995,4,1,0,50,0,0
133769,-109.297594430677,4,1,0,50,0,0
133903,-111.111111111111,4,1,0,50,0,0
134439,-50,4,1,0,50,0,0
134928,-50,4,1,0,70,0,0
134985,454.545454545455,4,1,0,70,1,0
134985,-111.111111111111,4,1,0,70,0,0
134986,-83.3333333333333,4,1,0,70,0,0
135041,-83.3333333333333,4,1,0,50,0,0
135203,-111.986077898837,4,1,0,50,0,0
135430,-112.867934788479,4,1,0,50,0,0
135657,-113.756736037531,4,1,0,50,0,0
135885,-108.695652173913,4,1,0,50,0,0
135935,-110.170368440244,4,1,0,50,0,0
135986,-111.695193183429,4,1,0,50,0,0
136112,-115.553501271089,4,1,0,50,0,0
136339,-116.469379409641,4,1,0,50,0,0
136566,-117.386540958575,4,1,0,50,0,0
136794,-118.315013118721,4,1,0,50,0,0
137021,-119.246708481435,4,1,0,50,0,0
137248,-120.185740666637,4,1,0,50,0,0
137476,-121.136353175909,4,1,0,50,0,0
137703,-122.090265748246,4,1,0,50,0,0
137930,-123.051690096954,4,1,0,50,0,0
138044,-123.537372018405,4,1,0,50,0,0
138157,-124.020685375029,4,1,0,50,0,0
138385,-125.001630487754,4,1,0,50,0,0
138612,-125.985980963549,4,1,0,50,0,0
138839,-126.978082905108,4,1,0,50,0,0
139066,-127.977997352907,4,1,0,50,0,0
139294,-128.990242936456,4,1,0,50,0,0
139521,-125,4,1,0,50,0,0
139571,-126.293948189578,4,1,0,50,0,0
139622,-127.627575219496,4,1,0,50,0,0
139748,-130.983106735862,4,1,0,50,0,0
139976,-132.066144546828,4,1,0,50,0,0
140203,-133.106125959181,4,1,0,50,0,0
140430,-134.154296914295,4,1,0,50,0,0
140431,-134.158932620735,4,1,0,50,0,0
140657,-135.210721902371,4,1,0,50,0,0
140885,-136.280174924961,4,1,0,50,0,0
141112,-137.353340566924,4,1,0,50,0,0
141339,-121.924289788568,4,1,0,50,0,0
141415,-123.98799341627,4,1,0,50,0,0
141491,-126.086627513285,4,1,0,50,0,0
141566,-128.192469124374,4,1,0,50,0,0
141642,-130.362268628926,4,1,0,50,0,0
141718,-132.568794393,4,1,0,50,0,0
141794,-134.812668049212,4,1,0,50,0,0
142021,-141.743444365698,4,1,0,50,0,0
142200,-141.743444365698,4,1,0,70,0,0
142248,-111.111111111111,4,1,0,70,0,0
142258,-83.3333333333333,4,1,0,70,0,0
142314,-83.3333333333333,4,1,0,50,0,0
142475,-111.98619869137,4,1,0,50,0,0
142702,-112.868178276088,4,1,0,50,0,0
142929,-113.757104145231,4,1,0,50,0,0
143157,-108.695652173913,4,1,0,50,0,0
143207,-110.170368440244,4,1,0,50,0,0
143258,-111.695193183429,4,1,0,50,0,0
143384,-115.560007588747,4,1,0,50,0,0
143611,-116.470133735487,4,1,0,50,0,0
143838,-117.387427843015,4,1,0,50,0,0
144066,-118.316035200335,4,1,0,50,0,0
144293,-119.247867236879,4,1,0,50,0,0
144520,-120.187038185202,4,1,0,50,0,0
144747,-121.133605845018,4,1,0,50,0,0
144975,-122.091847793694,4,1,0,50,0,0
145656,-124.999335402759,4,1,0,50,0,0
145884,-125.988157669742,4,1,0,50,0,0
146111,-126.980413718071,4,1,0,50,0,0
146338,-127.980484564899,4,1,0,50,0,0
146565,-128.988431757924,4,1,0,50,0,0
146794,-125,4,1,0,50,0,0
146844,-126.293948189578,4,1,0,50,0,0
146895,-127.627575219496,4,1,0,50,0,0
147020,-131.032732107669,4,1,0,50,0,0
147247,-132.064718155943,4,1,0,50,0,0
147475,-133.109431982419,4,1,0,50,0,0
147702,-134.157773679107,4,1,0,50,0,0
147778,-134.510602009122,4,1,0,50,0,0
147853,-134.85969753783,4,1,0,50,0,0
147929,-135.214371892984,4,1,0,50,0,0
148043,-135.7481331472,4,1,0,50,0,0
148156,-136.279291650629,4,1,0,50,0,0
148384,-137.357345367305,4,1,0,50,0,0
148611,-138.439142730199,4,1,0,50,0,0
148668,-138.712119149272,4,1,0,50,0,0
149065,-66.6666666666667,4,1,0,50,0,0
149473,-111.111111111111,4,1,0,70,0,0
149531,-83.3333333333333,4,1,0,70,0,0
149587,-111.111111111111,4,1,0,50,0,0
152248,-100,4,1,0,50,0,0
152305,-101.308082591089,4,1,0,50,0,0
152362,-102.657097017479,4,1,0,50,0,0
152419,-104.024074866688,4,1,0,50,0,0
152476,-105.409255338946,4,1,0,50,0,0
152589,-108.210081518704,4,1,0,50,0,0
152703,-111.111111111111,4,1,0,50,0,0
155893,-90.9090909090909,4,1,0,50,0,0
155968,-92.42680132863,4,1,0,50,0,0
156044,-93.990596701302,4,1,0,50,0,0
156120,-95.5808503732167,4,1,0,50,0,0
156196,-97.1980099998735,4,1,0,50,0,0
156271,-98.8207127577615,4,1,0,50,0,0
156347,-100.49268853874,4,1,0,50,0,0
156423,-102.192952954096,4,1,0,50,0,0
156499,-103.921984627291,4,1,0,50,0,0
156574,-105.656942895059,4,1,0,50,0,0
156746,-105.656942895059,4,1,0,70,0,0
156802,-111.111111111111,4,1,0,70,0,0
156804,-83.3333333333333,4,1,0,70,0,0
156860,-111.111111111111,4,1,0,50,0,0
159529,-90.9090909090909,4,1,0,50,0,0
159586,-92.0589828270408,4,1,0,50,0,0
159643,-93.2234195106433,4,1,0,50,0,0
159699,-94.3817698308095,4,1,0,50,0,0
159756,-95.5755870084424,4,1,0,50,0,0
159870,-98.0087134693042,4,1,0,50,0,0
159984,-100.503781525921,4,1,0,50,0,0
160059,-102.179814399828,4,1,0,50,0,0
160135,-103.906708023549,4,1,0,50,0,0
160211,-105.66278707499,4,1,0,50,0,0
160382,-111.111111111111,4,1,0,70,0,0
160440,-83.3350580314893,4,1,0,70,0,0
160496,-83.3350580314893,4,1,0,50,0,0
160657,-106.368448024152,4,1,0,50,0,0
160733,-107.478457523835,4,1,0,50,0,0
160809,-108.600050543934,4,1,0,50,0,0
160885,-109.733347964446,4,1,0,50,0,0
161112,-105.263157894737,4,1,0,50,0,0
161188,-106.287388018602,4,1,0,50,0,0
161263,-107.307911130502,4,1,0,50,0,0
161339,-108.352037084037,4,1,0,50,0,0
161566,-104.154313481458,4,1,0,50,0,0
161642,-105.097343463676,4,1,0,50,0,0
161718,-106.048911791716,4,1,0,50,0,0
161794,-107.009095773141,4,1,0,50,0,0
162021,-106.34140105707,4,1,0,50,0,0
162200,-105.677354075031,4,1,0,70,0,0
162258,-83.3333333333333,4,1,0,70,0,0
162314,-83.3333333333333,4,1,0,50,0,0
162476,-101.010101010101,4,1,0,50,0,0
162551,-102.105586977276,4,1,0,50,0,0
162627,-103.227799566529,4,1,0,50,0,0
162703,-104.36234606554,4,1,0,50,0,0
162930,-103.707127657982,4,1,0,50,0,0
163157,-103.059530349194,4,1,0,50,0,0
163385,-98.2318271119843,4,1,0,50,0,0
163460,-99.3872678970494,4,1,0,50,0,0
163536,-100.571979046711,4,1,0,50,0,0
163612,-101.770812131081,4,1,0,50,0,0
163839,-101.13811008844,4,1,0,50,0,0
164019,-100.506554964041,4,1,0,70,0,0
164076,-76.9230769230769,4,1,0,70,0,0
164132,-76.9230769230769,4,1,0,50,0,0
164294,-99.8761874549157,4,1,0,50,0,0
164521,-99.2525123838919,4,1,0,50,0,0
164748,-98.6327318407243,4,1,0,50,0,0
164976,-98.0141167711807,4,1,0,50,0,0
165203,-97.4020693673268,4,1,0,50,0,0
165430,-96.793843882569,4,1,0,50,0,0
165657,-96.1894164510014,4,1,0,50,0,0
165837,-95.5861256221183,4,1,0,70,0,0
165895,-76.9230769230769,4,1,0,70,0,0
165950,-76.9230769230769,4,1,0,50,0,0
166112,-94.9892397656856,4,1,0,50,0,0
166226,-94.6908895060913,4,1,0,50,0,0
166339,-94.3960811523364,4,1,0,50,0,0
166566,-93.8066265073678,4,1,0,50,0,0
166794,-93.2182803093306,4,1,0,50,0,0
166907,-92.9280567418765,4,1,0,50,0,0
167135,-92.3452208494593,4,1,0,50,0,0
167248,-92.0577154444751,4,1,0,50,0,0
167476,-91.4803382495123,4,1,0,50,0,0
167655,-91.4803382495123,4,1,0,70,0,0
167712,600,4,1,0,70,1,0
167712,-68.870523415978,4,1,0,70,0,0
167713,-58.8235294117647,4,1,0,70,0,0
167787,-58.8235294117647,4,1,0,50,0,0
168912,517.241379310345,4,1,0,50,1,8
168912,-105.07118395191,4,1,0,50,0,0
169946,461.538461538461,4,1,0,50,1,0
169946,-145.85962285388,4,1,0,50,0,0
170406,-159.302305063937,4,1,0,50,0,0
170785,-159.302305063937,4,1,0,70,0,0
170836,402.684563758389,4,1,0,70,1,8
170836,-197.35494322475,4,1,0,70,0,0
171036,-204.385797258324,4,1,0,70,0,0
171137,-207.939724533695,4,1,0,70,0,0
171237,-211.470189968365,4,1,0,70,0,0
171439,-218.630735135375,4,1,0,70,0,0
171539,-222.186623622557,4,1,0,70,0,0
171590,-222.186623622557,4,1,0,90,0,0
171641,402.684563758389,4,1,0,90,1,1
171641,-142.857142857143,4,1,0,90,0,1
171642,-66.6666666666667,4,1,0,90,0,1
171841,-144.237982513358,4,1,0,90,0,1
171935,-144.936867596742,4,1,0,90,0,1
172035,-145.632169196667,4,1,0,90,0,1
172143,-146.337809617719,4,1,0,90,0,1
172237,-147.046869121289,4,1,0,90,0,1
172438,-148.478099480327,4,1,0,90,0,1
172483,-144.126513771951,4,1,0,90,0,1
172527,-139.994973202217,4,1,0,90,0,1
172740,-150.625094140684,4,1,0,90,0,1
172841,-148.695116928152,4,1,0,90,0,1
172941,-146.808612410942,4,1,0,90,0,1
173042,-144.927536231884,4,1,0,90,0,1
173251,-154.307042332611,4,1,0,90,0,1
173344,-155.047295210934,4,1,0,90,0,1
173445,-155.798555315615,4,1,0,90,0,1
173579,-161.290322580645,4,1,0,90,0,1
173646,-157.304485080541,4,1,0,90,0,1
173847,-158.824970978239,4,1,0,90,0,1
173948,-159.594535285444,4,1,0,90,0,1
174049,-160.367828409468,4,1,0,90,0,1
174149,-161.137156528106,4,1,0,90,0,1
174250,-161.91792420881,4,1,0,90,0,1
174351,-162.702474990721,4,1,0,90,0,1
174451,-163.483003044408,4,1,0,90,0,1
174653,-165.071109527747,4,1,0,90,0,1
174854,-166.666666666667,4,1,0,90,0,1
174935,-164.583391300871,4,1,0,90,0,1
175015,-162.551396678711,4,1,0,90,0,1
175096,-160.519560756452,4,1,0,90,0,1
175176,-158.537739373198,4,1,0,90,0,1
175257,-156.556072771287,4,1,0,90,0,1
175357,-154.143704337364,4,1,0,90,0,1
175458,-151.744941836241,4,1,0,90,0,1
175559,-149.383508537511,4,1,0,90,0,1
175659,-147.081661958419,4,1,0,90,0,1
175861,-158.827346618554,4,1,0,90,0,1
175961,-158.069281171173,4,1,0,90,0,1
176062,-157.307307627132,4,1,0,90,0,1
176263,-155.801815995372,4,1,0,90,0,1
176364,-155.050772775447,4,1,0,90,0,1
176465,-138.888888888889,4,1,0,90,0,1
176532,-140.255414604749,4,1,0,90,0,1
176599,-141.635385546841,4,1,0,90,0,1
176666,-143.028934002544,4,1,0,90,0,1
176733,-144.436193560816,4,1,0,90,0,1
176800,-145.857299124989,4,1,0,90,0,1
176867,-147.29238692571,4,1,0,90,0,1
177002,-153.846153846154,4,1,0,90,0,1
177069,-151.705093708624,4,1,0,90,0,1
177169,-153.938280046465,4,1,0,90,0,1
177270,-156.242951342325,4,1,0,90,0,1
177471,-152.791764389879,4,1,0,90,0,1
177572,-151.086468982044,4,1,0,90,0,1
177673,-149.400206225869,4,1,0,90,0,1
177773,-147.749181469473,4,1,0,90,0,1
177874,-146.100165884914,4,1,0,90,0,1
178076,-142.873018791746,4,1,0,90,0,1
178177,-143.54232942487,4,1,0,90,0,1
178277,-144.237703735756,4,1,0,90,0,1
178371,-144.936867596742,4,1,0,90,0,1
178471,-145.632169196667,4,1,0,90,0,1
178579,-146.337809617719,4,1,0,90,0,1
178673,-147.046869121289,4,1,0,90,0,1
178874,-148.478099480327,4,1,0,90,0,1
178919,-144.126513771951,4,1,0,90,0,1
178963,-139.994973202217,4,1,0,90,0,1
179176,-150.625094140684,4,1,0,90,0,1
179277,-148.695116928152,4,1,0,90,0,1
179377,-146.808612410942,4,1,0,90,0,1
179478,-144.927536231884,4,1,0,90,0,1
179687,-154.307042332611,4,1,0,90,0,1
179780,-155.047295210934,4,1,0,90,0,1
179881,-155.798555315615,4,1,0,90,0,1
180015,-161.290322580645,4,1,0,90,0,1
180082,-157.304485080541,4,1,0,90,0,1
180283,-158.824970978239,4,1,0,90,0,1
180485,-133.333333333333,4,1,0,90,0,1
180686,-140.973065460666,4,1,0,90,0,1
180887,-149.050538890328,4,1,0,90,0,1
181089,-157.63452507474,4,1,0,90,0,1
181290,-166.666666666667,4,1,0,90,0,1
181398,-165.861939351132,4,1,0,90,0,1
181498,-165.06900769493,4,1,0,90,0,1
181599,-164.271994458288,4,1,0,90,0,1
181693,-163.478829491581,4,1,0,90,0,1
181894,-161.919376865531,4,1,0,90,0,1
181995,-161.138843921211,4,1,0,90,0,1
182095,-133.309148661361,4,1,0,90,0,1
182170,-134.939260762328,4,1,0,90,0,1
182237,-136.614085721199,4,1,0,90,0,1
182304,-138.28461078668,4,1,0,90,0,1
182371,-139.975563130794,4,1,0,90,0,1
182438,-141.687192539506,4,1,0,90,0,1
182498,-143.419751853176,4,1,0,90,0,1
182606,-146.071643307856,4,1,0,90,0,1
182706,-148.745584231039,4,1,0,90,0,1
182908,-154.297176361673,4,1,0,90,0,1
183008,-148.975635022788,4,1,0,90,0,1
183102,-143.787153014215,4,1,0,90,0,1
183159,-141.285866071503,4,1,0,90,0,1
183210,-138.779374014889,4,1,0,90,0,1
183260,-136.365201198582,4,1,0,90,0,1
183310,-133.993024755499,4,1,0,90,0,1
183378,-130.878876946772,4,1,0,90,0,1
183445,-127.7922454188,4,1,0,90,0,1
183512,-124.822210659382,4,1,0,90,0,1
183579,-121.921202830694,4,1,0,90,0,1
183646,-119.087617669634,4,1,0,90,0,1
183713,-116.319888197976,4,1,0,90,0,1
183914,-129.312181485231,4,1,0,90,0,1
184015,-127.039003907854,4,1,0,90,0,1
184116,-124.805786496945,4,1,0,90,0,1
184217,-122.633358999463,4,1,0,90,0,1
184317,-120.477588377438,4,1,0,90,0,1
184519,-116.298693287368,4,1,0,90,0,1
184527,-66.6666666666667,4,1,0,90,0,1
184720,-117.808088118665,4,1,0,90,0,1
184820,-118.562546973475,4,1,0,90,0,1
184921,-119.329454893853,4,1,0,90,0,1
185022,-120.101323468107,4,1,0,90,0,1
185122,-120.870468510795,4,1,0,90,0,1
185324,-122.443981878291,4,1,0,90,0,1
185369,-119.410729421569,4,1,0,90,0,1
185413,-116.517551297763,4,1,0,90,0,1
185626,-124.82836100362,4,1,0,90,0,1
185726,-122.88377421056,4,1,0,90,0,1
185827,-120.950488793359,4,1,0,90,0,1
185928,-119.047619047619,4,1,0,90,0,1
186130,-128.903919141452,4,1,0,90,0,1
186230,-129.729437191776,4,1,0,90,0,1
186330,-130.560241970819,4,1,0,90,0,1
186465,-135.135135135135,4,1,0,90,0,1
186532,-132.254731812735,4,1,0,90,0,1
186733,-133.962661701544,4,1,0,90,0,1
186834,-134.829183456654,4,1,0,90,0,1
186935,-135.70131020604,4,1,0,90,0,1
187035,-136.570359663759,4,1,0,90,0,1
187136,-137.453749007093,4,1,0,90,0,1
187237,-138.342852450719,4,1,0,90,0,1
187337,-139.228818700558,4,1,0,90,0,1
187539,-141.03581457793,4,1,0,90,0,1
187740,-142.857142857143,4,1,0,90,0,1
187820,-140.976243967892,4,1,0,90,0,1
187901,-139.097063186708,4,1,0,90,0,1
187981,-137.265670605187,4,1,0,90,0,1
188062,-135.43595091017,4,1,0,90,0,1
188143,-133.630620956212,4,1,0,90,0,1
188243,-131.434977718971,4,1,0,90,0,1
188344,-129.253994910577,4,1,0,90,0,1
188445,-127.109202514303,4,1,0,90,0,1
188545,-125.020710678415,4,1,0,90,0,1
188747,-133.95559665596,4,1,0,90,0,1
188847,-133.102488827121,4,1,0,90,0,1
188948,-132.246364661915,4,1,0,90,0,1
189149,-130.558941939616,4,1,0,90,0,1
189250,-129.719178039157,4,1,0,90,0,1
189351,-113.636363636364,4,1,0,90,0,1
189418,-114.685558702639,4,1,0,90,0,1
189485,-115.744440899441,4,1,0,90,0,1
189552,-116.813099667237,4,1,0,90,0,1
189619,-117.891625272292,4,1,0,90,0,1
189686,-118.980108814292,4,1,0,90,0,1
189753,-120.078642234037,4,1,0,90,0,1
189888,-124.378109452736,4,1,0,90,0,1
189955,-123.4524070551,4,1,0,90,0,1
190055,-125.157501761654,4,1,0,90,0,1
190156,-126.903553299492,4,1,0,90,0,1
190357,-124.166454435376,4,1,0,90,0,1
190458,-122.813461699027,4,1,0,90,0,1
190559,-121.475211989311,4,1,0,90,0,1
190659,-120.164579317292,4,1,0,90,0,1
190760,-118.855193431047,4,1,0,90,0,1
190961,-116.279069767442,4,1,0,90,0,1
191062,-117.039895954369,4,1,0,90,0,1
191163,-117.813383600377,4,1,0,90,0,1
191263,-118.562546973475,4,1,0,90,0,1
191364,-119.329454893853,4,1,0,90,0,1
191465,-120.101323468107,4,1,0,90,0,1
191565,-120.870468510795,4,1,0,90,0,1
191767,-122.443981878291,4,1,0,90,0,1
191812,-119.410729421569,4,1,0,90,0,1
191856,-116.517551297763,4,1,0,90,0,1
192069,-124.82836100362,4,1,0,90,0,1
192169,-122.88377421056,4,1,0,90,0,1
192270,-120.950488793359,4,1,0,90,0,1
192371,-119.047619047619,4,1,0,90,0,1
192573,-128.903919141452,4,1,0,90,0,1
192673,-129.729437191776,4,1,0,90,0,1
192773,-130.560241970819,4,1,0,90,0,1
192908,-135.135135135135,4,1,0,90,0,1
192975,-132.254731812735,4,1,0,90,0,1
193176,-133.962661701544,4,1,0,90,0,1
193378,-113.604064222401,4,1,0,90,0,1
193579,-120.318558766623,4,1,0,90,0,1
193780,-127.39368913636,4,1,0,90,0,1
193982,-134.88486064108,4,1,0,90,0,1
194183,-142.857142857143,4,1,0,90,0,1
194284,-140.727954892204,4,1,0,90,0,1
194384,-138.651113886722,4,1,0,90,0,1
194477,-136.584613905631,4,1,0,90,0,1
194586,-134.548913692765,4,1,0,90,0,1
194787,-130.587497290251,4,1,0,90,0,1
194888,-128.641179997038,4,1,0,90,0,1
194988,-106.361668825823,4,1,0,90,0,1
195062,-107.798912950619,4,1,0,90,0,1
195129,-109.255578270072,4,1,0,90,0,1
195190,-110.754112711639,4,1,0,90,0,1
195264,-112.250711059043,4,1,0,90,0,1
195324,-113.767532642936,4,1,0,90,0,1
195391,-115.304850735898,4,1,0,90,0,1
195499,-117.661650884878,4,1,0,90,0,1
195592,-120.042572485262,4,1,0,90,0,1
195794,-125,4,1,0,90,0,1
195894,-122.563811050162,4,1,0,90,0,1
195995,-120.151451773427,4,1,0,90,0,1
196045,-118.974844131584,4,1,0,90,0,1
196096,-117.786573700403,4,1,0,90,0,1
196146,-116.633124610302,4,1,0,90,0,1
196196,-115.490970906098,4,1,0,90,0,1
196270,-113.978000937262,4,1,0,90,0,1
196331,-112.484851376105,4,1,0,90,0,1
196398,-110.989415552644,4,1,0,90,0,1
196498,-108.826286050898,4,1,0,90,0,1
196599,-106.684315281075,4,1,0,90,0,1
196673,-105.286715417642,4,1,0,90,0,1
196740,-103.907424575298,4,1,0,90,0,1
196800,-102.546202899802,4,1,0,90,0,1
196874,-101.202813679083,4,1,0,90,0,1
196935,-99.8573675042489,4,1,0,90,0,1
197002,-98.5492029177397,4,1,0,90,0,1
197102,-96.6285270844316,4,1,0,90,0,1
197203,-94.726638413444,4,1,0,90,0,1
197311,-92.8621836206905,4,1,0,90,0,1
197412,389.61038961039,4,1,0,90,1,0
197412,-66.6666666666667,4,1,0,90,0,0
197460,-66.6666666666667,4,1,0,70,0,0
197599,-102.040816326531,4,1,0,70,0,0
197664,-100.91235830799,4,1,0,70,0,0
197729,-99.7915313899046,4,1,0,70,0,0
197794,-98.6953288717637,4,1,0,70,0,0
197892,-97.0873786407767,4,1,0,70,0,0
197989,-95.5466116946435,4,1,0,70,0,0
198086,-94.05398441023,4,1,0,70,0,0
198184,-92.5925925925926,4,1,0,70,0,0
198378,-102.040816326531,4,1,0,70,0,0
198443,-100.91235830799,4,1,0,70,0,0
198508,-99.7915313899046,4,1,0,70,0,0
198573,-98.6953288717637,4,1,0,70,0,0
198671,-97.0873786407767,4,1,0,70,0,0
198768,-95.5466116946435,4,1,0,70,0,0
198865,-94.05398441023,4,1,0,70,0,0
198963,-92.5925925925926,4,1,0,70,0,0
199158,-102.040816326531,4,1,0,70,0,0
199223,-100.91235830799,4,1,0,70,0,0
199288,-99.7915313899046,4,1,0,70,0,0
199353,-98.6953288717637,4,1,0,70,0,0
199451,-97.0873786407767,4,1,0,70,0,0
199548,-95.5466116946435,4,1,0,70,0,0
199645,-94.05398441023,4,1,0,70,0,0
199743,-92.5925925925926,4,1,0,70,0,0
199937,-102.040816326531,4,1,0,70,0,0
200002,-100.91235830799,4,1,0,70,0,0
200067,-99.7915313899046,4,1,0,70,0,0
200132,-98.6953288717637,4,1,0,70,0,0
200230,-97.0873786407767,4,1,0,70,0,0
200327,-95.5466116946435,4,1,0,70,0,0
200424,-94.05398441023,4,1,0,70,0,0
200522,-92.5925925925926,4,1,0,70,0,0
200716,-102.040816326531,4,1,0,70,0,0
200781,-100.91235830799,4,1,0,70,0,0
200846,-99.7915313899046,4,1,0,70,0,0
200911,-98.6953288717637,4,1,0,70,0,0
201009,-97.0873786407767,4,1,0,70,0,0
201106,-95.5466116946435,4,1,0,70,0,0
201203,-94.05398441023,4,1,0,70,0,0
201301,-92.5925925925926,4,1,0,70,0,0
201495,-102.040816326531,4,1,0,70,0,0
201560,-100.91235830799,4,1,0,70,0,0
201625,-99.7915313899046,4,1,0,70,0,0
201690,-98.6953288717637,4,1,0,70,0,0
201788,-97.0873786407767,4,1,0,70,0,0
201885,-95.5466116946435,4,1,0,70,0,0
201982,-94.05398441023,4,1,0,70,0,0
202080,-92.5925925925926,4,1,0,70,0,0
202275,-102.040816326531,4,1,0,70,0,0
202340,-100.91235830799,4,1,0,70,0,0
202405,-99.7915313899046,4,1,0,70,0,0
202470,-98.6953288717637,4,1,0,70,0,0
202568,-97.0873786407767,4,1,0,70,0,0
202665,-95.5466116946435,4,1,0,70,0,0
202762,-94.05398441023,4,1,0,70,0,0
202860,-92.5925925925926,4,1,0,70,0,0
203054,-102.040816326531,4,1,0,70,0,0
203119,-100.91235830799,4,1,0,70,0,0
203184,-99.7915313899046,4,1,0,70,0,0
203249,-98.6953288717637,4,1,0,70,0,0
203347,-97.0873786407767,4,1,0,70,0,0
203444,-95.5466116946435,4,1,0,70,0,0
203541,-94.05398441023,4,1,0,70,0,0
203639,-78.7401574803149,4,1,0,70,0,0
203832,-102.040816326531,4,1,0,70,0,0
203897,-100.91235830799,4,1,0,70,0,0
203962,-99.7915313899046,4,1,0,70,0,0
204027,-98.6953288717637,4,1,0,70,0,0
204125,-97.0873786407767,4,1,0,70,0,0
204222,-95.5466116946435,4,1,0,70,0,0
204319,-94.05398441023,4,1,0,70,0,0
204417,-92.5925925925926,4,1,0,70,0,0
204611,-102.040816326531,4,1,0,70,0,0
204676,-100.91235830799,4,1,0,70,0,0
204741,-99.7915313899046,4,1,0,70,0,0
204806,-98.6953288717637,4,1,0,70,0,0
204904,-97.0873786407767,4,1,0,70,0,0
205001,-95.5466116946435,4,1,0,70,0,0
205098,-94.05398441023,4,1,0,70,0,0
205196,-92.5925925925926,4,1,0,70,0,0
205391,-102.040816326531,4,1,0,70,0,0
205456,-100.91235830799,4,1,0,70,0,0
205521,-99.7915313899046,4,1,0,70,0,0
205586,-98.6953288717637,4,1,0,70,0,0
205684,-97.0873786407767,4,1,0,70,0,0
205781,-95.5466116946435,4,1,0,70,0,0
205878,-94.05398441023,4,1,0,70,0,0
205976,-92.5925925925926,4,1,0,70,0,0
206170,-102.040816326531,4,1,0,70,0,0
206235,-100.91235830799,4,1,0,70,0,0
206300,-99.7915313899046,4,1,0,70,0,0
206365,-98.6953288717637,4,1,0,70,0,0
206463,-97.0873786407767,4,1,0,70,0,0
206560,-95.5466116946435,4,1,0,70,0,0
206657,-94.05398441023,4,1,0,70,0,0
206755,-92.5850042412191,4,1,0,70,0,0
206949,-94.0765591842605,4,1,0,70,0,0
207144,-95.5921432469886,4,1,0,70,0,0
207339,-97.1321435412533,4,1,0,70,0,0
207436,-97.9074102420965,4,1,0,70,0,0
207533,-98.6888647859702,4,1,0,70,0,0
207728,-100.278753616252,4,1,0,70,0,0
207923,-101.894255736321,4,1,0,70,0,0
208118,-103.53578377919,4,1,0,70,0,0
208215,-104.362161562931,4,1,0,70,0,0
208313,-105.203757025431,4,1,0,70,0,0
208507,-106.889840721463,4,1,0,70,0,0
208702,-108.611848206321,4,1,0,70,0,0
208897,-110.361597427512,4,1,0,70,0,0
208994,-111.242455899466,4,1,0,70,0,0
209092,-112.139535307561,4,1,0,70,0,0
209287,-113.946115968966,4,1,0,70,0,0
209481,-115.772312045928,4,1,0,70,0,0
209676,-117.637417153549,4,1,0,70,0,0
209879,375,4,1,0,70,1,0
209879,-66.6666666666667,4,1,0,70,0,0
210059,-96.2066233729347,4,1,0,70,0,0
210122,-95.2174752204148,4,1,0,70,0,0
210184,-94.2539574380938,4,1,0,70,0,0
210247,-93.2848856153964,4,1,0,70,0,0
210340,-91.8725312130519,4,1,0,70,0,0
210434,-90.4667185169498,4,1,0,70,0,0
210528,-89.0824172488058,4,1,0,70,0,0
210622,-87.719298245614,4,1,0,70,0,0
210809,-96.2066233729347,4,1,0,70,0,0
210872,-95.2174752204148,4,1,0,70,0,0
210934,-94.2539574380938,4,1,0,70,0,0
210997,-93.2848856153964,4,1,0,70,0,0
211090,-91.8725312130519,4,1,0,70,0,0
211184,-90.4667185169498,4,1,0,70,0,0
211278,-89.0824172488058,4,1,0,70,0,0
211372,-87.719298245614,4,1,0,70,0,0
211559,-96.2066233729347,4,1,0,70,0,0
211622,-95.2174752204148,4,1,0,70,0,0
211684,-94.2539574380938,4,1,0,70,0,0
211747,-93.2848856153964,4,1,0,70,0,0
211840,-91.8725312130519,4,1,0,70,0,0
211934,-90.4667185169498,4,1,0,70,0,0
212028,-89.0824172488058,4,1,0,70,0,0
212122,-87.719298245614,4,1,0,70,0,0
212309,-96.2066233729347,4,1,0,70,0,0
212372,-95.2174752204148,4,1,0,70,0,0
212434,-94.2539574380938,4,1,0,70,0,0
212497,-93.2848856153964,4,1,0,70,0,0
212590,-91.8725312130519,4,1,0,70,0,0
212684,-90.4667185169498,4,1,0,70,0,0
212778,-89.0824172488058,4,1,0,70,0,0
212872,-87.719298245614,4,1,0,70,0,0
213059,-96.2066233729347,4,1,0,70,0,0
213122,-95.2174752204148,4,1,0,70,0,0
213184,-94.2539574380938,4,1,0,70,0,0
213247,-93.2848856153964,4,1,0,70,0,0
213340,-91.8725312130519,4,1,0,70,0,0
213434,-90.4667185169498,4,1,0,70,0,0
213528,-89.0824172488058,4,1,0,70,0,0
213622,-87.719298245614,4,1,0,70,0,0
213809,-96.2066233729347,4,1,0,70,0,0
213872,-95.2174752204148,4,1,0,70,0,0
213934,-94.2539574380938,4,1,0,70,0,0
213997,-93.2848856153964,4,1,0,70,0,0
214090,-91.8725312130519,4,1,0,70,0,0
214184,-90.4667185169498,4,1,0,70,0,0
214278,-89.0824172488058,4,1,0,70,0,0
214372,-87.719298245614,4,1,0,70,0,0
214559,-96.2066233729347,4,1,0,70,0,0
214622,-95.2174752204148,4,1,0,70,0,0
214684,-94.2539574380938,4,1,0,70,0,0
214747,-93.2848856153964,4,1,0,70,0,0
214840,-91.8725312130519,4,1,0,70,0,0
214934,-90.4667185169498,4,1,0,70,0,0
215028,-89.0824172488058,4,1,0,70,0,0
215122,-87.719298245614,4,1,0,70,0,0
215309,-96.2066233729347,4,1,0,70,0,0
215372,-95.2174752204148,4,1,0,70,0,0
215434,-94.2539574380938,4,1,0,70,0,0
215497,-93.2848856153964,4,1,0,70,0,0
215590,-91.8725312130519,4,1,0,70,0,0
215684,-90.4667185169498,4,1,0,70,0,0
215778,-89.0824172488058,4,1,0,70,0,0
215872,-74.0740740740741,4,1,0,70,0,0
216059,-96.2066233729347,4,1,0,70,0,0
216122,-95.2174752204148,4,1,0,70,0,0
216184,-94.2539574380938,4,1,0,70,0,0
216247,-93.2848856153964,4,1,0,70,0,0
216340,-91.8725312130519,4,1,0,70,0,0
216434,-90.4667185169498,4,1,0,70,0,0
216528,-89.0824172488058,4,1,0,70,0,0
216622,-87.719298245614,4,1,0,70,0,0
216809,-96.2066233729347,4,1,0,70,0,0
216872,-95.2174752204148,4,1,0,70,0,0
216934,-94.2539574380938,4,1,0,70,0,0
216997,-93.2848856153964,4,1,0,70,0,0
217090,-91.8725312130519,4,1,0,70,0,0
217184,-90.4667185169498,4,1,0,70,0,0
217278,-89.0824172488058,4,1,0,70,0,0
217372,-87.719298245614,4,1,0,70,0,0
217559,-96.2066233729347,4,1,0,70,0,0
217622,-95.2174752204148,4,1,0,70,0,0
217684,-94.2539574380938,4,1,0,70,0,0
217747,-93.2848856153964,4,1,0,70,0,0
217840,-91.8725312130519,4,1,0,70,0,0
217934,-90.4667185169498,4,1,0,70,0,0
218028,-89.0824172488058,4,1,0,70,0,0
218122,-87.719298245614,4,1,0,70,0,0
218309,-96.2066233729347,4,1,0,70,0,0
218372,-95.2174752204148,4,1,0,70,0,0
218434,-94.2539574380938,4,1,0,70,0,0
218497,-93.2848856153964,4,1,0,70,0,0
218590,-91.8725312130519,4,1,0,70,0,0
218684,-90.4667185169498,4,1,0,70,0,0
218778,-89.0824172488058,4,1,0,70,0,0
218872,-87.719298245614,4,1,0,70,0,0
219059,-90.0388761651887,4,1,0,70,0,0
219247,-92.4326910611928,4,1,0,70,0,0
219434,-94.8769061144423,4,1,0,70,0,0
219528,-96.1298533755497,4,1,0,70,0,0
219622,-97.3993470956786,4,1,0,70,0,0
219809,-99.9748963695857,4,1,0,70,0,0
219997,-102.632874860087,4,1,0,70,0,0
220184,-105.346815294053,4,1,0,70,0,0
220278,-106.738028489073,4,1,0,70,0,0
220372,-108.147614087175,4,1,0,70,0,0
220559,-111.007381808856,4,1,0,70,0,0
220747,-113.960113960114,4,1,0,70,0,0
220809,-114.94496715053,4,1,0,70,0,0
220872,-115.954423683624,4,1,0,70,0,0
220934,-116.956511871669,4,1,0,70,0,0
221028,-118.516842850319,4,1,0,70,0,0
221122,-120.081979823327,4,1,0,70,0,0
221309,-123.257330225209,4,1,0,70,0,0
221497,-126.534306190496,4,1,0,70,0,0
221684,-129.88027667337,4,1,0,70,0,0
221832,-129.88027667337,4,1,0,70,0,0
221879,666.666666666666,4,1,0,70,1,0
221879,-74.9999994412065,4,1,0,70,0,0
221880,-55.5555555555556,4,1,0,70,0,0
221990,-74.9999994412065,4,1,0,50,0,0
227101,-74.9999994412065,4,1,0,70,0,0
227213,-62.5,4,1,0,70,0,0
228532,-45.6489258399563,4,1,0,70,0,0
229768,-74.9999994412065,4,1,0,70,0,0
229880,-33.3333333333333,4,1,0,70,0,0
230032,-16.6666666666667,4,1,0,70,0,0
232532,-74.9999994412065,4,1,0,70,0,0
233198,-62.5,4,1,0,70,0,0

[HitObjects]
319,220,2922,5,4,0:0:0:0:
256,192,3118,12,0,6059,0:0:0:0:
372,185,6256,5,12,0:0:0:0:
394,183,6647,1,0,0:0:0:0:
423,241,7039,1,8,0:0:0:0:
423,241,7431,1,8,0:0:0:0:
340,242,7823,1,0,0:0:0:0:
298,256,8215,1,8,0:0:0:0:
327,250,9000,1,8,0:0:0:0:
369,205,9393,1,4,0:0:0:0:
389,206,9784,1,8,0:0:0:0:
354,213,10176,1,0,0:0:0:0:
354,213,10568,1,0,0:0:0:0:
354,213,10960,1,8,0:0:0:0:
426,239,11058,1,8,0:0:0:0:
448,206,11156,1,0,0:0:0:0:
448,206,11222,1,0,0:0:0:0:
448,206,11287,1,0,0:0:0:0:
417,214,11353,1,8,0:0:0:0:
411,211,11549,1,0,0:0:0:0:
483,231,11598,1,0,0:0:0:0:
456,228,11745,1,8,0:0:0:0:
416,219,12137,1,8,0:0:0:0:
399,228,12530,1,4,0:0:0:0:
400,220,12921,1,8,0:0:0:0:
406,215,13117,1,0,0:0:0:0:
406,215,13215,1,0,0:0:0:0:
380,224,13313,1,8,0:0:0:0:
374,217,13509,1,0,0:0:0:0:
383,217,13705,1,8,0:0:0:0:
383,217,13902,1,8,0:0:0:0:
367,215,14098,1,0,0:0:0:0:
390,222,14490,1,8,0:0:0:0:
417,196,14686,1,0,0:0:0:0:
405,209,14784,1,8,0:0:0:0:
405,209,14882,1,8,0:0:0:0:
412,197,15078,1,0,0:0:0:0:
405,209,15274,1,8,0:0:0:0:
405,209,15470,1,8,0:0:0:0:
376,200,15666,1,0,0:0:0:0:
383,201,16058,1,0,0:0:0:0:
338,240,16451,1,8,0:0:0:0:
414,232,16647,1,0,0:0:0:0:
414,232,16745,1,0,0:0:0:0:
338,240,16843,1,8,0:0:0:0:
289,248,17039,1,8,0:0:0:0:
376,201,17235,1,0,0:0:0:0:
376,201,17333,1,0,0:0:0:0:
437,198,17431,1,8,0:0:0:0:
437,198,17496,1,8,0:0:0:0:
437,198,17562,1,8,0:0:0:0:
413,222,17627,1,0,0:0:0:0:
429,221,17823,1,0,0:0:0:0:
418,232,18019,1,8,0:0:0:0:
388,229,18411,1,8,0:0:0:0:
396,216,18607,1,8,0:0:0:0:
298,262,18805,1,4,0:0:0:0:
325,287,19196,1,8,0:0:0:0:
368,240,19392,1,8,0:0:0:0:
348,247,19490,1,0,0:0:0:0:
369,240,19588,1,8,0:0:0:0:
350,246,19784,1,0,0:0:0:0:
369,240,19980,1,8,0:0:0:0:
369,240,20176,1,8,0:0:0:0:
355,244,20372,1,0,0:0:0:0:
387,227,20764,1,8,0:0:0:0:
362,218,20960,1,0,0:0:0:0:
417,223,21156,1,8,0:0:0:0:
376,219,21222,1,0,0:0:0:0:
376,219,21287,1,0,0:0:0:0:
417,223,21353,1,8,0:0:0:0:
376,217,21418,1,0,0:0:0:0:
376,217,21483,1,0,0:0:0:0:
418,223,21549,1,8,0:0:0:0:
409,226,21745,1,8,0:0:0:0:
396,214,21941,1,0,0:0:0:0:
409,205,22333,1,0,0:0:0:0:
414,216,22725,1,8,0:0:0:0:
396,224,22823,1,8,0:0:0:0:
374,198,22921,1,0,0:0:0:0:
377,198,22987,1,8,0:0:0:0:
389,196,23052,1,8,0:0:0:0:
374,198,23117,1,0,0:0:0:0:
374,198,23183,1,8,0:0:0:0:
374,198,23248,1,8,0:0:0:0:
389,198,23313,1,0,0:0:0:0:
402,206,23509,1,8,0:0:0:0:
419,204,23607,1,8,0:0:0:0:
443,188,23705,1,0,0:0:0:0:
443,188,23771,1,0,0:0:0:0:
443,188,23836,1,0,0:0:0:0:
416,180,23902,1,8,0:0:0:0:
409,193,24098,1,0,0:0:0:0:
417,184,24294,1,8,0:0:0:0:
428,214,24490,1,0,0:0:0:0:
415,198,24588,1,8,0:0:0:0:
428,210,24686,1,0,0:0:0:0:
428,210,24882,1,0,0:0:0:0:
425,198,25079,1,12,0:0:0:0:
383,187,25472,1,8,0:0:0:0:
383,187,25867,1,8,0:0:0:0:
391,199,26543,1,0,0:0:0:0:
391,199,26618,1,0,0:0:0:0:
391,199,26694,1,0,0:0:0:0:
390,194,26778,1,8,0:0:0:0:
370,211,27003,1,0,0:0:0:0:
405,201,27078,1,8,0:0:0:0:
405,201,27153,1,8,0:0:0:0:
371,211,27229,1,0,0:0:0:0:
398,205,27454,1,8,0:0:0:0:
400,209,27567,1,0,0:0:0:0:
398,205,27680,1,8,0:0:0:0:
405,201,28131,1,12,0:0:0:0:
400,209,28579,1,4,0:0:0:0:
413,209,28805,1,8,0:0:0:0:
378,207,29032,1,0,0:0:0:0:
378,207,29259,1,0,0:0:0:0:
400,209,29487,1,8,0:0:0:0:
400,209,29537,1,8,0:0:0:0:
399,203,29588,1,8,0:0:0:0:
314,231,29714,1,0,0:0:0:0:
391,234,29941,1,8,0:0:0:0:
392,235,30168,1,8,0:0:0:0:
355,234,30396,1,0,0:0:0:0:
358,233,30623,1,0,0:0:0:0:
400,188,30850,1,8,0:0:0:0:
379,219,31078,1,0,0:0:0:0:
389,189,31305,1,8,0:0:0:0:
383,192,31532,1,8,0:0:0:0:
390,216,31759,1,0,0:0:0:0:
364,204,31987,1,8,0:0:0:0:
394,217,32214,1,0,0:0:0:0:
363,204,32441,1,8,0:0:0:0:
364,204,32668,1,8,0:0:0:0:
357,217,32896,1,0,0:0:0:0:
417,197,33123,1,8,0:0:0:0:
416,197,33173,1,8,0:0:0:0:
414,203,33224,1,8,0:0:0:0:
386,212,33350,1,0,0:0:0:0:
387,209,33578,1,0,0:0:0:0:
394,204,33805,1,8,0:0:0:0:
391,215,34032,1,0,0:0:0:0:
443,206,34259,1,8,0:0:0:0:
392,218,34487,1,0,0:0:0:0:
395,218,34714,1,0,0:0:0:0:
372,219,34941,1,8,0:0:0:0:
373,233,35017,1,0,0:0:0:0:
370,234,35093,1,0,0:0:0:0:
372,221,35168,1,8,0:0:0:0:
368,235,35244,1,0,0:0:0:0:
368,238,35320,1,0,0:0:0:0:
372,223,35396,1,8,0:0:0:0:
382,214,35623,1,8,0:0:0:0:
379,211,35851,1,4,0:0:0:0:
359,249,36078,1,8,0:0:0:0:
383,207,36305,1,0,0:0:0:0:
382,214,36532,1,0,0:0:0:0:
376,222,36759,1,8,0:0:0:0:
359,249,36810,1,8,0:0:0:0:
365,237,36860,1,8,0:0:0:0:
355,240,36987,1,0,0:0:0:0:
365,221,37214,1,8,0:0:0:0:
367,216,37441,1,8,0:0:0:0:
368,183,37668,1,0,0:0:0:0:
366,178,37896,1,0,0:0:0:0:
394,228,38123,1,8,0:0:0:0:
479,200,38350,1,0,0:0:0:0:
394,228,38578,1,8,0:0:0:0:
378,231,39032,1,0,0:0:0:0:
374,232,39259,1,0,0:0:0:0:
360,231,39487,1,8,0:0:0:0:
358,232,39714,1,8,0:0:0:0:
420,199,39941,1,0,0:0:0:0:
420,199,40168,1,0,0:0:0:0:
408,185,40396,1,8,0:0:0:0:
392,215,40446,1,8,0:0:0:0:
391,215,40497,1,8,0:0:0:0:
391,209,40623,1,0,0:0:0:0:
391,210,40850,1,0,0:0:0:0:
397,230,41078,1,8,0:0:0:0:
402,220,41305,1,0,0:0:0:0:
379,224,41381,1,8,0:0:0:0:
379,224,41456,1,8,0:0:0:0:
398,222,41532,1,0,0:0:0:0:
381,227,41646,1,8,0:0:0:0:
398,222,41759,1,0,0:0:0:0:
397,230,41987,1,0,0:0:0:0:
418,220,42214,1,8,0:0:0:0:
424,215,42271,1,8,0:0:0:0:
428,232,42668,1,12,0:0:0:0:
408,222,43124,1,4,0:0:0:0:
385,223,43350,1,0,0:0:0:0:
382,223,43464,1,0,0:0:0:0:
432,208,43578,1,8,0:0:0:0:
399,213,43805,1,0,0:0:0:0:
423,219,44032,1,8,0:0:0:0:
399,213,44259,1,0,0:0:0:0:
423,219,44373,1,8,0:0:0:0:
399,214,44487,1,0,0:0:0:0:
439,207,44714,1,8,0:0:0:0:
408,206,44941,1,0,0:0:0:0:
412,198,45168,1,8,0:0:0:0:
424,217,45282,1,0,0:0:0:0:
418,196,45396,1,8,0:0:0:0:
424,217,45623,1,0,0:0:0:0:
426,219,45850,1,8,0:0:0:0:
426,219,45907,1,8,0:0:0:0:
426,219,45964,1,8,0:0:0:0:
420,212,46021,1,8,0:0:0:0:
422,225,46078,1,0,0:0:0:0:
422,225,46191,1,0,0:0:0:0:
416,230,46305,1,8,0:0:0:0:
443,251,46532,1,8,0:0:0:0:
442,249,46646,1,8,0:0:0:0:
351,221,46759,1,0,0:0:0:0:
402,233,46987,1,0,0:0:0:0:
402,233,47100,1,0,0:0:0:0:
406,216,47214,1,8,0:0:0:0:
401,216,47441,1,0,0:0:0:0:
401,216,47668,1,0,0:0:0:0:
376,233,47896,1,8,0:0:0:0:
351,237,48009,1,0,0:0:0:0:
409,221,48123,1,8,0:0:0:0:
359,214,48350,1,8,0:0:0:0:
408,214,48578,1,0,0:0:0:0:
424,227,48805,1,8,0:0:0:0:
428,217,48918,1,8,0:0:0:0:
389,237,49032,1,0,0:0:0:0:
422,207,49259,1,0,0:0:0:0:
431,219,49487,1,8,0:0:0:0:
431,219,49543,1,8,0:0:0:0:
431,219,49600,1,8,0:0:0:0:
431,219,49657,1,8,0:0:0:0:
398,214,49714,1,0,0:0:0:0:
398,214,49828,1,0,0:0:0:0:
443,245,49941,1,8,0:0:0:0:
376,224,50017,1,0,0:0:0:0:
412,236,50093,1,0,0:0:0:0:
344,234,50168,1,8,0:0:0:0:
407,233,50397,1,4,0:0:0:0:
387,235,50623,1,0,0:0:0:0:
388,235,50737,1,0,0:0:0:0:
473,215,50850,1,8,0:0:0:0:
412,236,51078,1,0,0:0:0:0:
391,227,51305,1,8,0:0:0:0:
412,232,51532,1,0,0:0:0:0:
383,216,51646,1,8,0:0:0:0:
382,215,51759,1,8,0:0:0:0:
382,215,51987,1,8,0:0:0:0:
413,229,52214,1,0,0:0:0:0:
398,220,52441,1,8,0:0:0:0:
412,232,52555,1,0,0:0:0:0:
398,219,52668,1,8,0:0:0:0:
421,227,52896,1,0,0:0:0:0:
403,216,53123,1,8,0:0:0:0:
403,216,53180,1,8,0:0:0:0:
403,216,53237,1,8,0:0:0:0:
398,220,53293,1,8,0:0:0:0:
409,212,53350,1,0,0:0:0:0:
404,209,53464,1,0,0:0:0:0:
386,218,53578,1,8,0:0:0:0:
389,221,53653,1,8,0:0:0:0:
360,226,53729,1,0,0:0:0:0:
389,231,53805,1,8,0:0:0:0:
366,204,54033,1,4,0:0:0:0:
389,212,54259,1,8,0:0:0:0:
389,212,54335,1,8,0:0:0:0:
389,212,54411,1,8,0:0:0:0:
424,214,54487,1,0,0:0:0:0:
387,212,54714,1,8,0:0:0:0:
425,211,54790,1,0,0:0:0:0:
426,211,54865,1,0,0:0:0:0:
383,215,54941,1,8,0:0:0:0:
418,216,55168,1,0,0:0:0:0:
418,216,55244,1,0,0:0:0:0:
418,216,55320,1,0,0:0:0:0:
356,234,55396,1,8,0:0:0:0:
422,225,55623,1,8,0:0:0:0:
400,220,55851,1,4,0:0:0:0:
418,242,56078,1,8,0:0:0:0:
418,242,56153,1,8,0:0:0:0:
417,241,56229,1,8,0:0:0:0:
345,225,56305,1,0,0:0:0:0:
382,226,56532,1,0,0:0:0:0:
392,235,56759,1,8,0:0:0:0:
383,232,56987,1,0,0:0:0:0:
383,232,57062,1,0,0:0:0:0:
384,233,57138,1,0,0:0:0:0:
391,235,57214,1,8,0:0:0:0:
391,235,57441,1,8,0:0:0:0:
375,211,57669,1,4,0:0:0:0:
462,238,57896,1,0,0:0:0:0:
363,209,58123,1,8,0:0:0:0:
378,218,58350,1,0,0:0:0:0:
376,224,58578,1,8,0:0:0:0:
376,224,58805,1,8,0:0:0:0:
383,216,59032,1,0,0:0:0:0:
380,230,59259,1,8,0:0:0:0:
390,220,59488,1,4,0:0:0:0:
413,238,59714,1,0,0:0:0:0:
430,235,59828,1,0,0:0:0:0:
393,225,59941,1,8,0:0:0:0:
390,229,60168,1,0,0:0:0:0:
386,232,60396,1,8,0:0:0:0:
413,229,60509,1,0,0:0:0:0:
393,233,60737,1,0,0:0:0:0:
387,232,60850,1,8,0:0:0:0:
387,232,61078,1,8,0:0:0:0:
379,216,61306,1,4,0:0:0:0:
402,240,62110,1,8,0:0:0:0:
286,242,62915,1,0,0:0:0:0:
286,242,63318,1,0,0:0:0:0:
312,222,63721,1,8,0:0:0:0:
363,238,63922,1,8,0:0:0:0:
382,220,64023,1,0,0:0:0:0:
363,238,64123,1,8,0:0:0:0:
363,238,64325,1,8,0:0:0:0:
344,220,64425,1,8,0:0:0:0:
339,192,64527,1,4,0:0:0:0:
339,192,64828,1,0,0:0:0:0:
344,201,64928,1,8,0:0:0:0:
365,201,65130,1,0,0:0:0:0:
365,192,65331,1,8,0:0:0:0:
401,195,65376,1,8,0:0:0:0:
401,195,65420,1,8,0:0:0:0:
366,206,65633,1,0,0:0:0:0:
378,205,65734,1,8,0:0:0:0:
377,205,65834,1,8,0:0:0:0:
363,207,65935,1,0,0:0:0:0:
350,216,66136,1,8,0:0:0:0:
350,216,66237,1,8,0:0:0:0:
377,212,66338,1,0,0:0:0:0:
377,212,66472,1,0,0:0:0:0:
350,214,66539,1,8,0:0:0:0:
391,210,66740,1,0,0:0:0:0:
383,211,66841,1,0,0:0:0:0:
387,214,66942,1,8,0:0:0:0:
385,214,67042,1,8,0:0:0:0:
384,212,67143,1,0,0:0:0:0:
385,212,67244,1,0,0:0:0:0:
385,214,67344,1,8,0:0:0:0:
385,214,67546,1,8,0:0:0:0:
397,227,67747,1,0,0:0:0:0:
389,216,67828,1,8,0:0:0:0:
389,216,67908,1,8,0:0:0:0:
430,230,67989,1,0,0:0:0:0:
415,204,68069,1,0,0:0:0:0:
406,211,68150,1,8,0:0:0:0:
424,214,68250,1,8,0:0:0:0:
413,218,68351,1,0,0:0:0:0:
439,228,68452,1,0,0:0:0:0:
413,218,68552,1,8,0:0:0:0:
411,217,68754,1,8,0:0:0:0:
478,222,68854,1,0,0:0:0:0:
434,221,68955,1,8,0:0:0:0:
434,221,69156,1,8,0:0:0:0:
434,221,69257,1,8,0:0:0:0:
466,207,69358,1,0,0:0:0:0:
466,207,69425,1,0,0:0:0:0:
439,203,69492,1,8,0:0:0:0:
466,207,69559,1,0,0:0:0:0:
439,203,69626,1,8,0:0:0:0:
489,208,69693,1,8,0:0:0:0:
469,218,69760,1,0,0:0:0:0:
477,235,69895,1,8,0:0:0:0:
460,217,69962,1,0,0:0:0:0:
419,209,70062,1,0,0:0:0:0:
452,234,70163,1,8,0:0:0:0:
408,229,70364,1,0,0:0:0:0:
408,229,70465,1,0,0:0:0:0:
406,205,70566,1,8,0:0:0:0:
403,204,70666,1,8,0:0:0:0:
408,229,70767,1,0,0:0:0:0:
428,212,70968,1,0,0:0:0:0:
386,224,71069,1,8,0:0:0:0:
396,223,71170,1,0,0:0:0:0:
396,222,71270,1,0,0:0:0:0:
385,231,71371,1,8,0:0:0:0:
364,225,71572,1,0,0:0:0:0:
350,216,71774,1,8,0:0:0:0:
354,213,71819,1,8,0:0:0:0:
359,204,71863,1,8,0:0:0:0:
334,204,72076,1,0,0:0:0:0:
404,222,72177,1,8,0:0:0:0:
405,222,72277,1,8,0:0:0:0:
341,207,72378,1,0,0:0:0:0:
371,231,72579,1,8,0:0:0:0:
350,229,72680,1,0,0:0:0:0:
371,231,72781,1,8,0:0:0:0:
371,231,72915,1,8,0:0:0:0:
350,227,72982,1,0,0:0:0:0:
351,227,73183,1,0,0:0:0:0:
383,223,73385,1,8,0:0:0:0:
382,221,73586,1,8,0:0:0:0:
382,221,73787,1,8,0:0:0:0:
382,221,73989,1,8,0:0:0:0:
406,226,74190,1,0,0:0:0:0:
407,230,74291,1,0,0:0:0:0:
400,239,74391,1,8,0:0:0:0:
382,221,74492,1,8,0:0:0:0:
406,234,74593,1,0,0:0:0:0:
373,249,74794,1,0,0:0:0:0:
375,250,74895,1,0,0:0:0:0:
406,250,74995,1,8,0:0:0:0:
406,250,75062,1,0,0:0:0:0:
406,250,75130,1,0,0:0:0:0:
406,250,75197,1,8,0:0:0:0:
406,250,75264,1,0,0:0:0:0:
406,251,75331,1,0,0:0:0:0:
384,221,75398,1,8,0:0:0:0:
408,244,75499,1,8,0:0:0:0:
383,221,75599,1,0,0:0:0:0:
388,173,75801,1,0,0:0:0:0:
390,206,75901,1,0,0:0:0:0:
388,213,76002,1,8,0:0:0:0:
388,213,76052,1,8,0:0:0:0:
373,198,76103,1,0,0:0:0:0:
373,198,76153,1,0,0:0:0:0:
385,208,76203,1,8,0:0:0:0:
424,207,76270,1,0,0:0:0:0:
424,207,76338,1,8,0:0:0:0:
389,210,76405,1,8,0:0:0:0:
389,210,76472,1,0,0:0:0:0:
407,212,76539,1,0,0:0:0:0:
341,211,76606,1,8,0:0:0:0:
408,192,76807,1,0,0:0:0:0:
365,217,76908,1,8,0:0:0:0:
365,217,77009,1,8,0:0:0:0:
408,192,77109,1,0,0:0:0:0:
365,217,77210,1,8,0:0:0:0:
361,201,77412,1,4,0:0:0:0:
424,224,77613,1,0,0:0:0:0:
394,200,77713,1,0,0:0:0:0:
384,226,77814,1,8,0:0:0:0:
406,213,78015,1,0,0:0:0:0:
408,201,78217,1,8,0:0:0:0:
408,201,78262,1,8,0:0:0:0:
408,201,78306,1,8,0:0:0:0:
414,213,78519,1,0,0:0:0:0:
420,196,78619,1,8,0:0:0:0:
420,196,78720,1,8,0:0:0:0:
414,214,78821,1,0,0:0:0:0:
408,186,79022,1,0,0:0:0:0:
376,204,79123,1,8,0:0:0:0:
408,186,79223,1,0,0:0:0:0:
424,217,79358,1,0,0:0:0:0:
434,187,79425,1,8,0:0:0:0:
418,214,79626,1,0,0:0:0:0:
429,197,79727,1,8,0:0:0:0:
429,197,79828,1,8,0:0:0:0:
429,197,79928,1,8,0:0:0:0:
418,213,80029,1,0,0:0:0:0:
418,213,80130,1,0,0:0:0:0:
429,197,80230,1,8,0:0:0:0:
414,196,80432,1,8,0:0:0:0:
437,207,80633,1,0,0:0:0:0:
429,197,80713,1,8,0:0:0:0:
460,198,80794,1,0,0:0:0:0:
429,204,80874,1,0,0:0:0:0:
381,200,80955,1,8,0:0:0:0:
434,214,81036,1,0,0:0:0:0:
401,198,81136,1,8,0:0:0:0:
382,208,81237,1,8,0:0:0:0:
419,226,81338,1,0,0:0:0:0:
460,216,81438,1,8,0:0:0:0:
405,224,81640,1,8,0:0:0:0:
415,213,81740,1,0,0:0:0:0:
406,224,81841,1,8,0:0:0:0:
423,240,82042,1,8,0:0:0:0:
430,242,82143,1,8,0:0:0:0:
403,235,82244,1,0,0:0:0:0:
403,235,82311,1,0,0:0:0:0:
419,226,82378,1,8,0:0:0:0:
419,227,82445,1,8,0:0:0:0:
403,235,82512,1,0,0:0:0:0:
419,227,82579,1,8,0:0:0:0:
403,235,82646,1,0,0:0:0:0:
417,201,82781,1,8,0:0:0:0:
416,214,82848,1,0,0:0:0:0:
435,235,82948,1,0,0:0:0:0:
422,228,83049,1,8,0:0:0:0:
434,238,83250,1,0,0:0:0:0:
434,239,83351,1,0,0:0:0:0:
434,220,83452,1,8,0:0:0:0:
434,220,83552,1,8,0:0:0:0:
434,238,83653,1,0,0:0:0:0:
469,252,83854,1,0,0:0:0:0:
423,244,83955,1,8,0:0:0:0:
469,252,84056,1,0,0:0:0:0:
469,252,84156,1,0,0:0:0:0:
424,245,84257,1,8,0:0:0:0:
423,238,84458,1,0,0:0:0:0:
411,220,84660,1,8,0:0:0:0:
412,215,84704,1,8,0:0:0:0:
320,204,84749,1,8,0:0:0:0:
462,216,84962,1,0,0:0:0:0:
396,237,85062,1,8,0:0:0:0:
396,238,85163,1,8,0:0:0:0:
447,227,85264,1,0,0:0:0:0:
397,203,85465,1,0,0:0:0:0:
411,220,85566,1,8,0:0:0:0:
411,220,85666,1,8,0:0:0:0:
388,226,85801,1,0,0:0:0:0:
431,242,85868,1,8,0:0:0:0:
456,210,86069,1,0,0:0:0:0:
447,227,86270,1,8,0:0:0:0:
445,229,86472,1,8,0:0:0:0:
445,229,86673,1,8,0:0:0:0:
445,229,86874,1,8,0:0:0:0:
400,205,87076,1,0,0:0:0:0:
400,221,87177,1,8,0:0:0:0:
400,205,87277,1,0,0:0:0:0:
400,205,87378,1,0,0:0:0:0:
369,204,87479,1,8,0:0:0:0:
380,201,87680,1,0,0:0:0:0:
380,201,87781,1,0,0:0:0:0:
361,229,87881,1,8,0:0:0:0:
385,215,87948,1,8,0:0:0:0:
390,206,88015,1,0,0:0:0:0:
388,206,88083,1,8,0:0:0:0:
387,206,88150,1,8,0:0:0:0:
420,209,88217,1,0,0:0:0:0:
361,229,88284,1,8,0:0:0:0:
438,218,88385,1,8,0:0:0:0:
375,175,88485,1,0,0:0:0:0:
418,203,88687,1,0,0:0:0:0:
447,206,88787,1,0,0:0:0:0:
406,200,88888,1,8,0:0:0:0:
406,200,88938,1,8,0:0:0:0:
416,193,88989,1,0,0:0:0:0:
416,193,89039,1,0,0:0:0:0:
392,198,89089,1,8,0:0:0:0:
428,198,89156,1,0,0:0:0:0:
428,199,89223,1,0,0:0:0:0:
408,197,89291,1,8,0:0:0:0:
428,223,89391,1,0,0:0:0:0:
439,218,89492,1,8,0:0:0:0:
439,218,89559,1,8,0:0:0:0:
439,218,89626,1,0,0:0:0:0:
439,218,89693,1,8,0:0:0:0:
439,218,89760,1,0,0:0:0:0:
439,218,89828,1,0,0:0:0:0:
407,258,89895,1,8,0:0:0:0:
413,234,89995,1,0,0:0:0:0:
413,234,90096,1,8,0:0:0:0:
413,233,90197,1,8,0:0:0:0:
397,234,90297,1,4,0:0:0:0:
413,230,90491,1,8,0:0:0:0:
413,229,90556,1,8,0:0:0:0:
413,229,90621,1,8,0:0:0:0:
418,237,90686,1,0,0:0:0:0:
418,237,90784,1,0,0:0:0:0:
442,219,90881,1,8,0:0:0:0:
443,215,90978,1,8,0:0:0:0:
413,234,91076,1,0,0:0:0:0:
425,209,91271,1,8,0:0:0:0:
425,209,91335,1,8,0:0:0:0:
425,209,91400,1,8,0:0:0:0:
440,228,91465,1,0,0:0:0:0:
440,228,91563,1,0,0:0:0:0:
413,229,91660,1,8,0:0:0:0:
418,237,91758,1,8,0:0:0:0:
442,228,91855,1,0,0:0:0:0:
388,247,92050,1,8,0:0:0:0:
370,238,92115,1,0,0:0:0:0:
370,238,92180,1,0,0:0:0:0:
390,242,92245,1,8,0:0:0:0:
411,228,92342,1,0,0:0:0:0:
390,242,92439,1,8,0:0:0:0:
392,233,92537,1,8,0:0:0:0:
413,229,92634,1,0,0:0:0:0:
405,227,92829,1,8,0:0:0:0:
394,226,92894,1,0,0:0:0:0:
394,226,92959,1,0,0:0:0:0:
405,227,93024,1,8,0:0:0:0:
385,232,93121,1,0,0:0:0:0:
406,227,93219,1,8,0:0:0:0:
411,228,93316,1,8,0:0:0:0:
390,242,93413,1,0,0:0:0:0:
419,216,93608,1,8,0:0:0:0:
419,216,93673,1,8,0:0:0:0:
381,228,93738,1,0,0:0:0:0:
422,216,93803,1,8,0:0:0:0:
405,233,93900,1,8,0:0:0:0:
419,227,93998,1,0,0:0:0:0:
405,233,94095,1,8,0:0:0:0:
419,227,94193,1,0,0:0:0:0:
402,216,94387,1,8,0:0:0:0:
401,215,94452,1,8,0:0:0:0:
460,198,94517,1,0,0:0:0:0:
401,215,94582,1,8,0:0:0:0:
418,237,94680,1,8,0:0:0:0:
460,198,94777,1,0,0:0:0:0:
417,230,94874,1,8,0:0:0:0:
460,198,94972,1,0,0:0:0:0:
446,213,95167,1,0,0:0:0:0:
440,230,95232,1,8,0:0:0:0:
443,230,95297,1,8,0:0:0:0:
432,223,95361,1,0,0:0:0:0:
432,224,95459,1,0,0:0:0:0:
436,207,95556,1,8,0:0:0:0:
436,207,95654,1,8,0:0:0:0:
432,231,95751,1,0,0:0:0:0:
432,215,95946,1,0,0:0:0:0:
394,215,96011,1,8,0:0:0:0:
391,234,96076,1,8,0:0:0:0:
420,221,96141,1,0,0:0:0:0:
397,247,96238,1,0,0:0:0:0:
415,243,96335,1,8,0:0:0:0:
419,239,96433,1,8,0:0:0:0:
395,252,96530,1,0,0:0:0:0:
402,237,96725,1,8,0:0:0:0:
402,237,96790,1,8,0:0:0:0:
402,237,96855,1,8,0:0:0:0:
353,202,96920,1,0,0:0:0:0:
353,202,97017,1,0,0:0:0:0:
420,227,97115,1,8,0:0:0:0:
353,202,97212,1,0,0:0:0:0:
386,222,97309,1,8,0:0:0:0:
407,223,97504,1,8,0:0:0:0:
407,224,97569,1,8,0:0:0:0:
406,226,97634,1,8,0:0:0:0:
384,224,97699,1,0,0:0:0:0:
384,222,97797,1,0,0:0:0:0:
406,222,97894,1,8,0:0:0:0:
384,222,97991,1,0,0:0:0:0:
404,223,98089,1,8,0:0:0:0:
431,203,98284,1,8,0:0:0:0:
412,213,98348,1,0,0:0:0:0:
412,213,98413,1,0,0:0:0:0:
400,217,98478,1,8,0:0:0:0:
397,216,98576,1,8,0:0:0:0:
408,210,98673,1,0,0:0:0:0:
406,210,98771,1,0,0:0:0:0:
397,216,98868,1,8,0:0:0:0:
404,223,99063,1,8,0:0:0:0:
421,222,99128,1,0,0:0:0:0:
421,223,99193,1,0,0:0:0:0:
403,220,99258,1,8,0:0:0:0:
406,237,99355,1,8,0:0:0:0:
390,211,99452,1,0,0:0:0:0:
386,212,99550,1,0,0:0:0:0:
406,238,99647,1,8,0:0:0:0:
409,232,99842,1,0,0:0:0:0:
412,227,100037,1,8,0:0:0:0:
409,232,100232,1,8,0:0:0:0:
406,237,100329,1,8,0:0:0:0:
377,226,100426,1,0,0:0:0:0:
411,222,100621,1,0,0:0:0:0:
409,232,100816,1,8,0:0:0:0:
413,240,101011,1,0,0:0:0:0:
413,240,101108,1,0,0:0:0:0:
432,233,101206,1,8,0:0:0:0:
439,235,101400,1,0,0:0:0:0:
419,248,101595,1,8,0:0:0:0:
451,261,101790,1,0,0:0:0:0:
470,221,101887,1,8,0:0:0:0:
450,260,101985,1,0,0:0:0:0:
435,252,102180,1,0,0:0:0:0:
449,255,102374,1,8,0:0:0:0:
449,255,102569,1,8,0:0:0:0:
431,239,102764,1,4,0:0:0:0:
416,245,102951,1,8,0:0:0:0:
416,245,103014,1,8,0:0:0:0:
416,245,103076,1,8,0:0:0:0:
410,229,103139,1,0,0:0:0:0:
410,229,103232,1,0,0:0:0:0:
423,220,103326,1,8,0:0:0:0:
425,220,103420,1,8,0:0:0:0:
416,255,103514,1,0,0:0:0:0:
473,228,103701,1,8,0:0:0:0:
473,228,103764,1,8,0:0:0:0:
473,228,103826,1,8,0:0:0:0:
383,217,103889,1,0,0:0:0:0:
419,223,103982,1,0,0:0:0:0:
422,240,104076,1,8,0:0:0:0:
420,240,104170,1,8,0:0:0:0:
419,223,104264,1,0,0:0:0:0:
416,255,104451,1,8,0:0:0:0:
486,221,104514,1,0,0:0:0:0:
486,221,104576,1,0,0:0:0:0:
416,255,104639,1,8,0:0:0:0:
409,245,104732,1,0,0:0:0:0:
418,234,104826,1,8,0:0:0:0:
418,234,104920,1,8,0:0:0:0:
412,245,105014,1,0,0:0:0:0:
416,255,105201,1,8,0:0:0:0:
432,238,105264,1,0,0:0:0:0:
432,238,105326,1,0,0:0:0:0:
353,243,105389,1,8,0:0:0:0:
407,245,105482,1,0,0:0:0:0:
438,235,105576,1,8,0:0:0:0:
443,233,105670,1,8,0:0:0:0:
409,245,105764,1,0,0:0:0:0:
416,255,105951,1,8,0:0:0:0:
416,255,106014,1,8,0:0:0:0:
406,240,106076,1,0,0:0:0:0:
416,255,106139,1,8,0:0:0:0:
407,239,106232,1,8,0:0:0:0:
432,238,106326,1,0,0:0:0:0:
407,245,106420,1,8,0:0:0:0:
435,240,106514,1,0,0:0:0:0:
416,255,106701,1,8,0:0:0:0:
416,255,106764,1,8,0:0:0:0:
407,238,106826,1,0,0:0:0:0:
416,255,106889,1,8,0:0:0:0:
408,238,106982,1,8,0:0:0:0:
376,237,107076,1,0,0:0:0:0:
408,238,107170,1,8,0:0:0:0:
376,237,107264,1,0,0:0:0:0:
430,251,107451,1,0,0:0:0:0:
432,250,107514,1,8,0:0:0:0:
432,250,107576,1,8,0:0:0:0:
430,251,107639,1,0,0:0:0:0:
448,238,107732,1,0,0:0:0:0:
407,238,107826,1,8,0:0:0:0:
401,238,107920,1,8,0:0:0:0:
448,238,108014,1,0,0:0:0:0:
415,254,108201,1,0,0:0:0:0:
467,235,108264,1,8,0:0:0:0:
467,235,108326,1,8,0:0:0:0:
415,254,108389,1,0,0:0:0:0:
436,239,108482,1,0,0:0:0:0:
439,243,108576,1,8,0:0:0:0:
439,243,108670,1,8,0:0:0:0:
436,239,108764,1,4,0:0:0:0:
415,254,108951,1,8,0:0:0:0:
415,254,109014,1,8,0:0:0:0:
415,254,109076,1,8,0:0:0:0:
414,237,109139,1,0,0:0:0:0:
415,254,109232,1,0,0:0:0:0:
406,241,109326,1,8,0:0:0:0:
415,254,109420,1,0,0:0:0:0:
406,241,109514,1,8,0:0:0:0:
388,252,109701,1,8,0:0:0:0:
388,252,109764,1,8,0:0:0:0:
388,252,109826,1,8,0:0:0:0:
322,284,109889,1,0,0:0:0:0:
377,250,109982,1,0,0:0:0:0:
383,255,110076,1,8,0:0:0:0:
376,250,110170,1,0,0:0:0:0:
383,255,110264,1,12,0:0:0:0:
394,261,110451,1,8,0:0:0:0:
408,239,110514,1,0,0:0:0:0:
408,239,110576,1,0,0:0:0:0:
394,261,110639,1,8,0:0:0:0:
388,252,110732,1,8,0:0:0:0:
407,244,110826,1,0,0:0:0:0:
407,244,110920,1,0,0:0:0:0:
382,255,111014,1,8,0:0:0:0:
419,239,111201,1,8,0:0:0:0:
390,251,111264,1,0,0:0:0:0:
390,251,111326,1,0,0:0:0:0:
419,239,111389,1,8,0:0:0:0:
385,246,111482,1,8,0:0:0:0:
393,247,111576,1,0,0:0:0:0:
393,247,111670,1,0,0:0:0:0:
388,252,111764,1,8,0:0:0:0:
335,256,111951,1,0,0:0:0:0:
386,258,112139,1,8,0:0:0:0:
386,258,112326,1,8,0:0:0:0:
387,258,112420,1,8,0:0:0:0:
363,258,112514,1,0,0:0:0:0:
363,256,112701,1,0,0:0:0:0:
386,258,112889,1,8,0:0:0:0:
370,263,113076,1,0,0:0:0:0:
370,262,113170,1,0,0:0:0:0:
386,258,113264,1,8,0:0:0:0:
377,293,113451,1,0,0:0:0:0:
378,264,113639,1,8,0:0:0:0:
338,291,113826,1,0,0:0:0:0:
370,269,113920,1,8,0:0:0:0:
338,291,114014,1,0,0:0:0:0:
338,291,114201,1,0,0:0:0:0:
370,269,114389,1,8,0:0:0:0:
370,269,114576,1,8,0:0:0:0:
405,230,114765,1,4,0:0:0:0:
393,206,114951,1,8,0:0:0:0:
393,206,115139,1,8,0:0:0:0:
394,206,115326,1,8,0:0:0:0:
358,203,115514,1,8,0:0:0:0:
358,203,115607,1,8,0:0:0:0:
391,208,115701,1,8,0:0:0:0:
393,206,115889,1,8,0:0:0:0:
393,206,116076,1,8,0:0:0:0:
400,201,116265,1,4,0:0:0:0:
399,214,116639,1,8,0:0:0:0:
413,205,117014,1,0,0:0:0:0:
399,214,117389,1,12,0:0:0:0:
382,214,117843,1,4,0:0:0:0:
399,214,118378,1,0,0:0:0:0:
387,224,118914,1,8,0:0:0:0:
367,232,119182,1,0,0:0:0:0:
378,232,119450,1,8,0:0:0:0:
378,232,119718,1,8,0:0:0:0:
368,231,119985,1,0,0:0:0:0:
378,232,120253,1,8,0:0:0:0:
368,229,120521,1,0,0:0:0:0:
369,229,120789,1,0,0:0:0:0:
378,232,121057,1,8,0:0:0:0:
395,201,121593,1,0,0:0:0:0:
393,209,121860,1,0,0:0:0:0:
402,236,122128,1,8,0:0:0:0:
335,246,122664,1,0,0:0:0:0:
355,180,123200,1,0,0:0:0:0:
396,216,123468,1,8,0:0:0:0:
396,216,123735,1,8,0:0:0:0:
416,217,124003,1,0,0:0:0:0:
396,216,124271,1,8,0:0:0:0:
424,219,124539,1,0,0:0:0:0:
424,219,124807,1,0,0:0:0:0:
445,220,125075,1,8,0:0:0:0:
446,217,125343,1,8,0:0:0:0:
382,216,125878,1,0,0:0:0:0:
382,216,126146,1,0,0:0:0:0:
418,234,126414,1,8,0:0:0:0:
418,234,126682,1,8,0:0:0:0:
382,216,126950,1,0,0:0:0:0:
390,227,127218,1,8,0:0:0:0:
382,216,127485,1,0,0:0:0:0:
380,210,128021,1,0,0:0:0:0:
380,208,128289,1,0,0:0:0:0:
443,215,128557,1,8,0:0:0:0:
380,210,128825,1,0,0:0:0:0:
445,215,129093,1,8,0:0:0:0:
445,215,129360,1,8,0:0:0:0:
380,210,129628,1,0,0:0:0:0:
382,198,130164,1,8,0:0:0:0:
381,198,130432,1,8,0:0:0:0:
402,226,130700,1,0,0:0:0:0:
422,222,130968,1,8,0:0:0:0:
407,214,131235,1,0,0:0:0:0:
385,227,131503,1,8,0:0:0:0:
405,224,131771,1,0,0:0:0:0:
359,229,132039,1,0,0:0:0:0:
385,227,132307,1,8,0:0:0:0:
380,217,132575,1,0,0:0:0:0:
380,217,132664,1,0,0:0:0:0:
379,216,132753,1,0,0:0:0:0:
418,233,132843,1,8,0:0:0:0:
491,201,133110,1,0,0:0:0:0:
441,210,133200,1,8,0:0:0:0:
441,210,133289,1,8,0:0:0:0:
464,201,133378,1,0,0:0:0:0:
456,210,133646,1,8,0:0:0:0:
438,211,133780,1,0,0:0:0:0:
456,210,133914,1,8,0:0:0:0:
398,235,134450,1,12,0:0:0:0:
400,209,134986,1,4,0:0:0:0:
413,209,135212,1,8,0:0:0:0:
378,207,135439,1,0,0:0:0:0:
378,207,135666,1,0,0:0:0:0:
400,209,135894,1,8,0:0:0:0:
400,209,135944,1,8,0:0:0:0:
399,203,135995,1,8,0:0:0:0:
397,195,136121,1,0,0:0:0:0:
391,234,136348,1,8,0:0:0:0:
392,235,136575,1,8,0:0:0:0:
355,234,136803,1,0,0:0:0:0:
358,233,137030,1,0,0:0:0:0:
400,188,137257,1,8,0:0:0:0:
379,219,137485,1,0,0:0:0:0:
389,189,137712,1,8,0:0:0:0:
411,207,137939,1,0,0:0:0:0:
363,214,138053,1,8,0:0:0:0:
390,216,138166,1,0,0:0:0:0:
364,204,138394,1,8,0:0:0:0:
394,217,138621,1,0,0:0:0:0:
364,204,138848,1,8,0:0:0:0:
363,204,139075,1,8,0:0:0:0:
357,217,139303,1,0,0:0:0:0:
417,197,139530,1,8,0:0:0:0:
416,197,139580,1,8,0:0:0:0:
414,203,139631,1,8,0:0:0:0:
386,212,139757,1,0,0:0:0:0:
387,209,139985,1,0,0:0:0:0:
394,204,140212,1,8,0:0:0:0:
391,215,140439,1,0,0:0:0:0:
443,206,140666,1,8,0:0:0:0:
392,218,140894,1,0,0:0:0:0:
395,218,141121,1,0,0:0:0:0:
372,219,141348,1,8,0:0:0:0:
373,233,141424,1,0,0:0:0:0:
370,234,141500,1,0,0:0:0:0:
372,221,141575,1,8,0:0:0:0:
368,235,141651,1,0,0:0:0:0:
368,238,141727,1,0,0:0:0:0:
372,223,141803,1,8,0:0:0:0:
382,214,142030,1,8,0:0:0:0:
379,211,142258,1,4,0:0:0:0:
359,249,142485,1,8,0:0:0:0:
383,207,142712,1,0,0:0:0:0:
382,214,142939,1,0,0:0:0:0:
376,222,143166,1,8,0:0:0:0:
359,249,143217,1,8,0:0:0:0:
365,237,143267,1,8,0:0:0:0:
355,240,143394,1,0,0:0:0:0:
365,221,143621,1,8,0:0:0:0:
367,216,143848,1,8,0:0:0:0:
368,183,144075,1,0,0:0:0:0:
366,178,144303,1,0,0:0:0:0:
394,228,144530,1,8,0:0:0:0:
479,200,144757,1,0,0:0:0:0:
394,228,144985,1,8,0:0:0:0:
374,232,145666,1,0,0:0:0:0:
360,231,145894,1,8,0:0:0:0:
358,232,146121,1,8,0:0:0:0:
420,199,146348,1,0,0:0:0:0:
420,199,146575,1,0,0:0:0:0:
408,185,146803,1,8,0:0:0:0:
392,215,146853,1,8,0:0:0:0:
391,215,146904,1,8,0:0:0:0:
391,209,147030,1,0,0:0:0:0:
391,210,147257,1,0,0:0:0:0:
397,230,147485,1,8,0:0:0:0:
402,220,147712,1,0,0:0:0:0:
379,224,147788,1,0,0:0:0:0:
379,224,147863,1,8,0:0:0:0:
398,222,147939,1,8,0:0:0:0:
398,222,148053,1,0,0:0:0:0:
381,227,148166,1,8,0:0:0:0:
397,230,148394,1,0,0:0:0:0:
418,220,148621,1,8,0:0:0:0:
424,215,148678,1,8,0:0:0:0:
428,232,149075,1,12,0:0:0:0:
408,222,149531,1,4,0:0:0:0:
385,223,149757,1,0,0:0:0:0:
382,223,149871,1,0,0:0:0:0:
432,208,149985,1,8,0:0:0:0:
399,213,150212,1,0,0:0:0:0:
423,219,150439,1,8,0:0:0:0:
399,213,150666,1,0,0:0:0:0:
423,219,150780,1,8,0:0:0:0:
399,214,150894,1,0,0:0:0:0:
439,207,151121,1,8,0:0:0:0:
408,206,151348,1,0,0:0:0:0:
412,198,151575,1,8,0:0:0:0:
424,217,151689,1,0,0:0:0:0:
418,196,151803,1,8,0:0:0:0:
424,217,152030,1,0,0:0:0:0:
426,219,152257,1,8,0:0:0:0:
409,183,152314,1,8,0:0:0:0:
426,219,152371,1,8,0:0:0:0:
409,183,152428,1,8,0:0:0:0:
422,225,152485,1,0,0:0:0:0:
422,225,152598,1,0,0:0:0:0:
416,230,152712,1,8,0:0:0:0:
443,251,152939,1,8,0:0:0:0:
442,249,153053,1,8,0:0:0:0:
351,221,153166,1,0,0:0:0:0:
402,233,153394,1,0,0:0:0:0:
402,233,153507,1,0,0:0:0:0:
406,216,153621,1,8,0:0:0:0:
401,216,153848,1,0,0:0:0:0:
401,216,154075,1,0,0:0:0:0:
376,233,154303,1,8,0:0:0:0:
351,237,154416,1,0,0:0:0:0:
409,221,154530,1,8,0:0:0:0:
359,214,154757,1,8,0:0:0:0:
408,214,154985,1,0,0:0:0:0:
424,227,155212,1,8,0:0:0:0:
428,217,155325,1,8,0:0:0:0:
389,237,155439,1,0,0:0:0:0:
422,207,155666,1,0,0:0:0:0:
431,219,155894,1,8,0:0:0:0:
408,214,155969,1,8,0:0:0:0:
408,217,156045,1,0,0:0:0:0:
391,233,156121,1,8,0:0:0:0:
394,232,156197,1,8,0:0:0:0:
408,217,156272,1,0,0:0:0:0:
443,245,156348,1,8,0:0:0:0:
376,224,156424,1,0,0:0:0:0:
412,236,156500,1,0,0:0:0:0:
344,234,156575,1,8,0:0:0:0:
407,233,156804,1,4,0:0:0:0:
387,235,157030,1,0,0:0:0:0:
388,235,157144,1,0,0:0:0:0:
473,215,157257,1,8,0:0:0:0:
412,236,157485,1,0,0:0:0:0:
391,227,157712,1,8,0:0:0:0:
412,232,157939,1,0,0:0:0:0:
383,216,158053,1,8,0:0:0:0:
382,215,158166,1,8,0:0:0:0:
382,215,158394,1,8,0:0:0:0:
413,229,158621,1,0,0:0:0:0:
398,220,158848,1,8,0:0:0:0:
412,232,158962,1,0,0:0:0:0:
398,219,159075,1,8,0:0:0:0:
421,227,159303,1,0,0:0:0:0:
403,216,159530,1,8,0:0:0:0:
403,216,159587,1,8,0:0:0:0:
403,216,159644,1,8,0:0:0:0:
398,220,159700,1,8,0:0:0:0:
409,212,159757,1,0,0:0:0:0:
404,209,159871,1,0,0:0:0:0:
386,218,159985,1,8,0:0:0:0:
389,221,160060,1,8,0:0:0:0:
360,226,160136,1,0,0:0:0:0:
389,231,160212,1,8,0:0:0:0:
366,204,160440,1,4,0:0:0:0:
389,212,160666,1,8,0:0:0:0:
389,212,160742,1,8,0:0:0:0:
389,212,160818,1,8,0:0:0:0:
424,214,160894,1,0,0:0:0:0:
387,212,161121,1,8,0:0:0:0:
425,211,161197,1,0,0:0:0:0:
426,211,161272,1,0,0:0:0:0:
383,215,161348,1,8,0:0:0:0:
418,216,161575,1,0,0:0:0:0:
418,216,161651,1,0,0:0:0:0:
418,216,161727,1,0,0:0:0:0:
356,234,161803,1,8,0:0:0:0:
422,225,162030,1,8,0:0:0:0:
400,220,162258,1,4,0:0:0:0:
418,242,162485,1,8,0:0:0:0:
418,242,162560,1,8,0:0:0:0:
417,241,162636,1,8,0:0:0:0:
345,225,162712,1,0,0:0:0:0:
382,226,162939,1,0,0:0:0:0:
392,235,163166,1,8,0:0:0:0:
383,232,163394,1,0,0:0:0:0:
383,232,163469,1,0,0:0:0:0:
384,233,163545,1,0,0:0:0:0:
391,235,163621,1,8,0:0:0:0:
391,235,163848,1,8,0:0:0:0:
375,211,164076,1,4,0:0:0:0:
369,225,164303,1,0,0:0:0:0:
363,209,164530,1,8,0:0:0:0:
378,218,164757,1,0,0:0:0:0:
376,224,164985,1,8,0:0:0:0:
376,224,165212,1,8,0:0:0:0:
383,216,165439,1,0,0:0:0:0:
380,230,165666,1,8,0:0:0:0:
390,220,165895,1,4,0:0:0:0:
413,238,166121,1,0,0:0:0:0:
430,235,166235,1,0,0:0:0:0:
393,225,166348,1,8,0:0:0:0:
390,229,166575,1,0,0:0:0:0:
386,232,166803,1,8,0:0:0:0:
413,229,166916,1,0,0:0:0:0:
393,233,167144,1,0,0:0:0:0:
387,232,167257,1,8,0:0:0:0:
387,232,167485,1,8,0:0:0:0:
379,216,167713,1,4,0:0:0:0:
418,169,168912,1,8,0:0:0:0:
393,200,169946,1,0,0:0:0:0:
454,197,170407,1,0,0:0:0:0:
413,219,170836,1,8,0:0:0:0:
413,219,171037,1,8,0:0:0:0:
413,219,171138,1,0,0:0:0:0:
413,219,171238,1,8,0:0:0:0:
413,219,171440,1,8,0:0:0:0:
413,219,171540,1,8,0:0:0:0:
411,264,171642,1,4,0:0:0:0:
419,241,171842,1,0,0:0:0:0:
419,241,171943,1,0,0:0:0:0:
419,225,172043,1,8,0:0:0:0:
418,226,172144,1,8,0:0:0:0:
419,241,172245,1,0,0:0:0:0:
433,240,172446,1,8,0:0:0:0:
433,240,172491,1,8,0:0:0:0:
432,238,172535,1,8,0:0:0:0:
426,210,172748,1,0,0:0:0:0:
434,212,172849,1,8,0:0:0:0:
434,214,172949,1,8,0:0:0:0:
436,215,173050,1,0,0:0:0:0:
426,217,173251,1,8,0:0:0:0:
426,217,173352,1,8,0:0:0:0:
443,217,173453,1,0,0:0:0:0:
444,217,173587,1,0,0:0:0:0:
441,198,173654,1,8,0:0:0:0:
434,212,173855,1,0,0:0:0:0:
413,191,173956,1,0,0:0:0:0:
423,205,174057,1,8,0:0:0:0:
378,219,174157,1,0,0:0:0:0:
389,227,174258,1,8,0:0:0:0:
389,227,174359,1,8,0:0:0:0:
374,220,174459,1,0,0:0:0:0:
407,226,174661,1,8,0:0:0:0:
391,214,174862,1,0,0:0:0:0:
401,218,174943,1,0,0:0:0:0:
410,220,175023,1,8,0:0:0:0:
410,220,175104,1,8,0:0:0:0:
369,231,175184,1,0,0:0:0:0:
378,239,175265,1,8,0:0:0:0:
372,214,175365,1,0,0:0:0:0:
374,220,175466,1,0,0:0:0:0:
407,213,175567,1,8,0:0:0:0:
407,213,175667,1,8,0:0:0:0:
401,216,175869,1,8,0:0:0:0:
401,205,175969,1,0,0:0:0:0:
445,209,176070,1,8,0:0:0:0:
394,225,176271,1,8,0:0:0:0:
372,214,176372,1,8,0:0:0:0:
440,193,176473,1,0,0:0:0:0:
440,194,176540,1,0,0:0:0:0:
401,218,176607,1,8,0:0:0:0:
440,194,176674,1,0,0:0:0:0:
434,219,176741,1,8,0:0:0:0:
434,219,176808,1,8,0:0:0:0:
436,195,176875,1,0,0:0:0:0:
424,201,177010,1,8,0:0:0:0:
380,225,177077,1,0,0:0:0:0:
440,175,177177,1,0,0:0:0:0:
421,203,177278,1,8,0:0:0:0:
419,215,177479,1,0,0:0:0:0:
423,216,177580,1,0,0:0:0:0:
400,211,177681,1,8,0:0:0:0:
400,211,177781,1,8,0:0:0:0:
407,217,177882,1,0,0:0:0:0:
418,212,178083,1,0,0:0:0:0:
403,211,178184,1,8,0:0:0:0:
418,212,178285,1,0,0:0:0:0:
419,215,178385,1,0,0:0:0:0:
410,221,178486,1,8,0:0:0:0:
367,209,178587,1,8,0:0:0:0:
428,234,178687,1,0,0:0:0:0:
418,229,178889,1,8,0:0:0:0:
418,229,178934,1,8,0:0:0:0:
418,229,178978,1,8,0:0:0:0:
385,234,179191,1,0,0:0:0:0:
405,233,179292,1,8,0:0:0:0:
343,272,179392,1,8,0:0:0:0:
385,234,179493,1,0,0:0:0:0:
396,226,179694,1,8,0:0:0:0:
344,183,179795,1,0,0:0:0:0:
396,226,179896,1,8,0:0:0:0:
407,206,180030,1,8,0:0:0:0:
471,216,180097,1,0,0:0:0:0:
432,213,180298,1,0,0:0:0:0:
405,226,180500,1,8,0:0:0:0:
405,226,180701,1,8,0:0:0:0:
405,226,180902,1,8,0:0:0:0:
405,226,181104,1,8,0:0:0:0:
402,237,181305,1,0,0:0:0:0:
384,240,181406,1,0,0:0:0:0:
413,237,181506,1,8,0:0:0:0:
413,237,181607,1,8,0:0:0:0:
390,240,181708,1,0,0:0:0:0:
365,222,181909,1,0,0:0:0:0:
365,222,182010,1,0,0:0:0:0:
405,226,182110,1,8,0:0:0:0:
396,230,182177,1,0,0:0:0:0:
396,230,182245,1,0,0:0:0:0:
401,229,182312,1,8,0:0:0:0:
407,230,182379,1,0,0:0:0:0:
411,233,182446,1,0,0:0:0:0:
394,235,182513,1,8,0:0:0:0:
440,209,182614,1,8,0:0:0:0:
409,207,182714,1,0,0:0:0:0:
419,196,182916,1,0,0:0:0:0:
420,190,183016,1,0,0:0:0:0:
404,197,183117,1,8,0:0:0:0:
403,197,183167,1,8,0:0:0:0:
440,209,183218,1,0,0:0:0:0:
440,209,183268,1,0,0:0:0:0:
403,197,183318,1,8,0:0:0:0:
411,222,183385,1,0,0:0:0:0:
405,194,183453,1,0,0:0:0:0:
426,224,183520,1,8,0:0:0:0:
426,224,183587,1,8,0:0:0:0:
350,209,183654,1,0,0:0:0:0:
427,199,183721,1,8,0:0:0:0:
390,223,183922,1,0,0:0:0:0:
391,223,184023,1,8,0:0:0:0:
391,223,184124,1,8,0:0:0:0:
390,222,184224,1,0,0:0:0:0:
391,223,184325,1,8,0:0:0:0:
426,224,184527,1,4,0:0:0:0:
401,245,184728,1,0,0:0:0:0:
401,244,184828,1,0,0:0:0:0:
426,204,184929,1,8,0:0:0:0:
426,204,185030,1,8,0:0:0:0:
401,244,185130,1,0,0:0:0:0:
391,242,185332,1,8,0:0:0:0:
391,242,185377,1,8,0:0:0:0:
391,242,185421,1,8,0:0:0:0:
399,222,185634,1,0,0:0:0:0:
402,237,185734,1,8,0:0:0:0:
403,237,185835,1,8,0:0:0:0:
399,222,185936,1,0,0:0:0:0:
380,242,186137,1,0,0:0:0:0:
439,215,186238,1,8,0:0:0:0:
380,242,186338,1,0,0:0:0:0:
439,215,186473,1,0,0:0:0:0:
479,221,186540,1,8,0:0:0:0:
435,194,186741,1,0,0:0:0:0:
467,227,186842,1,8,0:0:0:0:
467,227,186943,1,8,0:0:0:0:
467,227,187043,1,8,0:0:0:0:
485,224,187144,1,0,0:0:0:0:
485,224,187245,1,0,0:0:0:0:
467,227,187345,1,8,0:0:0:0:
426,227,187547,1,8,0:0:0:0:
460,215,187748,1,0,0:0:0:0:
460,215,187828,1,0,0:0:0:0:
447,226,187909,1,8,0:0:0:0:
460,215,187989,1,0,0:0:0:0:
502,204,188070,1,8,0:0:0:0:
463,221,188151,1,8,0:0:0:0:
452,204,188251,1,0,0:0:0:0:
455,220,188352,1,0,0:0:0:0:
483,194,188453,1,8,0:0:0:0:
483,194,188553,1,8,0:0:0:0:
468,197,188755,1,8,0:0:0:0:
464,209,188855,1,0,0:0:0:0:
468,197,188956,1,8,0:0:0:0:
460,203,189157,1,8,0:0:0:0:
460,203,189258,1,8,0:0:0:0:
447,205,189359,1,0,0:0:0:0:
447,205,189426,1,0,0:0:0:0:
440,219,189493,1,8,0:0:0:0:
439,219,189560,1,8,0:0:0:0:
447,205,189627,1,0,0:0:0:0:
440,218,189694,1,8,0:0:0:0:
453,201,189761,1,0,0:0:0:0:
422,213,189896,1,8,0:0:0:0:
455,217,189963,1,0,0:0:0:0:
378,232,190063,1,0,0:0:0:0:
397,220,190164,1,8,0:0:0:0:
415,205,190365,1,0,0:0:0:0:
418,205,190466,1,0,0:0:0:0:
377,210,190567,1,8,0:0:0:0:
377,210,190667,1,8,0:0:0:0:
409,218,190768,1,0,0:0:0:0:
391,237,190969,1,0,0:0:0:0:
390,232,191070,1,8,0:0:0:0:
391,237,191171,1,0,0:0:0:0:
391,237,191271,1,0,0:0:0:0:
390,232,191372,1,8,0:0:0:0:
390,232,191473,1,8,0:0:0:0:
429,225,191573,1,0,0:0:0:0:
419,214,191775,1,8,0:0:0:0:
418,214,191819,1,8,0:0:0:0:
418,214,191864,1,8,0:0:0:0:
399,220,192077,1,0,0:0:0:0:
416,200,192177,1,8,0:0:0:0:
407,222,192278,1,8,0:0:0:0:
399,220,192379,1,0,0:0:0:0:
368,206,192580,1,0,0:0:0:0:
412,234,192681,1,8,0:0:0:0:
412,234,192781,1,8,0:0:0:0:
383,191,192916,1,0,0:0:0:0:
379,204,192983,1,8,0:0:0:0:
357,230,193184,1,0,0:0:0:0:
412,237,193385,1,8,0:0:0:0:
412,234,193587,1,8,0:0:0:0:
412,234,193788,1,8,0:0:0:0:
412,237,193989,1,8,0:0:0:0:
416,231,194191,1,0,0:0:0:0:
383,250,194292,1,8,0:0:0:0:
412,237,194392,1,0,0:0:0:0:
412,234,194493,1,0,0:0:0:0:
426,234,194594,1,8,0:0:0:0:
419,218,194795,1,0,0:0:0:0:
418,218,194896,1,0,0:0:0:0:
419,243,194996,1,8,0:0:0:0:
419,243,195063,1,8,0:0:0:0:
440,215,195130,1,0,0:0:0:0:
419,243,195198,1,8,0:0:0:0:
419,243,195265,1,8,0:0:0:0:
440,215,195332,1,0,0:0:0:0:
420,243,195399,1,8,0:0:0:0:
477,212,195500,1,8,0:0:0:0:
445,230,195600,1,0,0:0:0:0:
423,254,195802,1,0,0:0:0:0:
423,253,195902,1,0,0:0:0:0:
419,243,196003,1,8,0:0:0:0:
386,232,196053,1,8,0:0:0:0:
426,231,196104,1,0,0:0:0:0:
426,231,196154,1,0,0:0:0:0:
419,243,196204,1,8,0:0:0:0:
408,267,196271,1,8,0:0:0:0:
442,239,196338,1,0,0:0:0:0:
422,236,196406,1,8,0:0:0:0:
386,236,196506,1,0,0:0:0:0:
414,240,196607,1,8,0:0:0:0:
391,241,196674,1,0,0:0:0:0:
414,240,196741,1,8,0:0:0:0:
414,240,196808,1,8,0:0:0:0:
391,241,196875,1,0,0:0:0:0:
390,241,196943,1,0,0:0:0:0:
419,243,197010,1,8,0:0:0:0:
426,231,197110,1,8,0:0:0:0:
396,247,197211,1,0,0:0:0:0:
423,246,197312,1,8,0:0:0:0:
428,242,197412,1,4,0:0:0:0:
413,230,197606,1,8,0:0:0:0:
413,229,197671,1,8,0:0:0:0:
413,229,197736,1,8,0:0:0:0:
418,237,197801,1,0,0:0:0:0:
418,237,197899,1,0,0:0:0:0:
442,219,197996,1,8,0:0:0:0:
443,215,198093,1,8,0:0:0:0:
413,234,198191,1,0,0:0:0:0:
425,209,198386,1,8,0:0:0:0:
425,209,198450,1,8,0:0:0:0:
425,209,198515,1,8,0:0:0:0:
440,228,198580,1,0,0:0:0:0:
440,228,198678,1,0,0:0:0:0:
413,229,198775,1,8,0:0:0:0:
418,237,198873,1,8,0:0:0:0:
442,228,198970,1,0,0:0:0:0:
388,247,199165,1,8,0:0:0:0:
370,238,199230,1,0,0:0:0:0:
370,238,199295,1,0,0:0:0:0:
390,242,199360,1,8,0:0:0:0:
411,228,199457,1,0,0:0:0:0:
390,242,199554,1,8,0:0:0:0:
392,233,199652,1,8,0:0:0:0:
413,229,199749,1,0,0:0:0:0:
405,227,199944,1,8,0:0:0:0:
394,226,200009,1,0,0:0:0:0:
394,226,200074,1,0,0:0:0:0:
405,227,200139,1,8,0:0:0:0:
385,232,200236,1,0,0:0:0:0:
406,227,200334,1,8,0:0:0:0:
411,228,200431,1,8,0:0:0:0:
390,242,200528,1,0,0:0:0:0:
419,216,200723,1,8,0:0:0:0:
419,216,200788,1,8,0:0:0:0:
381,228,200853,1,0,0:0:0:0:
422,216,200918,1,8,0:0:0:0:
405,233,201015,1,8,0:0:0:0:
419,227,201113,1,0,0:0:0:0:
405,233,201210,1,8,0:0:0:0:
419,227,201308,1,0,0:0:0:0:
402,216,201502,1,8,0:0:0:0:
401,215,201567,1,8,0:0:0:0:
460,198,201632,1,0,0:0:0:0:
401,215,201697,1,8,0:0:0:0:
418,237,201795,1,8,0:0:0:0:
460,198,201892,1,0,0:0:0:0:
417,230,201989,1,8,0:0:0:0:
460,198,202087,1,0,0:0:0:0:
446,213,202282,1,0,0:0:0:0:
440,230,202347,1,8,0:0:0:0:
443,230,202412,1,8,0:0:0:0:
432,223,202476,1,0,0:0:0:0:
432,224,202574,1,0,0:0:0:0:
436,207,202671,1,8,0:0:0:0:
436,207,202769,1,8,0:0:0:0:
432,231,202866,1,0,0:0:0:0:
432,215,203061,1,0,0:0:0:0:
394,215,203126,1,8,0:0:0:0:
391,234,203191,1,8,0:0:0:0:
420,221,203256,1,0,0:0:0:0:
397,247,203353,1,0,0:0:0:0:
415,243,203450,1,8,0:0:0:0:
419,239,203548,1,8,0:0:0:0:
395,252,203645,1,4,0:0:0:0:
402,237,203840,1,8,0:0:0:0:
402,237,203905,1,8,0:0:0:0:
402,237,203970,1,8,0:0:0:0:
353,202,204035,1,0,0:0:0:0:
353,202,204132,1,0,0:0:0:0:
420,227,204230,1,8,0:0:0:0:
353,202,204327,1,0,0:0:0:0:
386,222,204424,1,8,0:0:0:0:
407,223,204619,1,8,0:0:0:0:
407,224,204684,1,8,0:0:0:0:
406,226,204749,1,8,0:0:0:0:
384,224,204814,1,0,0:0:0:0:
384,222,204912,1,0,0:0:0:0:
406,222,205009,1,8,0:0:0:0:
384,222,205106,1,0,0:0:0:0:
404,223,205204,1,8,0:0:0:0:
431,203,205399,1,8,0:0:0:0:
412,213,205463,1,0,0:0:0:0:
412,213,205528,1,0,0:0:0:0:
400,217,205593,1,8,0:0:0:0:
397,216,205691,1,8,0:0:0:0:
408,210,205788,1,0,0:0:0:0:
406,210,205886,1,0,0:0:0:0:
397,216,205983,1,8,0:0:0:0:
404,223,206178,1,8,0:0:0:0:
421,222,206243,1,0,0:0:0:0:
421,223,206308,1,0,0:0:0:0:
403,220,206373,1,8,0:0:0:0:
406,237,206470,1,8,0:0:0:0:
390,211,206567,1,0,0:0:0:0:
386,212,206665,1,0,0:0:0:0:
406,238,206762,1,8,0:0:0:0:
409,232,206957,1,0,0:0:0:0:
412,227,207152,1,8,0:0:0:0:
409,232,207347,1,8,0:0:0:0:
406,237,207444,1,8,0:0:0:0:
377,226,207541,1,0,0:0:0:0:
411,222,207736,1,0,0:0:0:0:
409,232,207931,1,8,0:0:0:0:
413,240,208126,1,0,0:0:0:0:
413,240,208223,1,0,0:0:0:0:
432,233,208321,1,8,0:0:0:0:
439,235,208515,1,0,0:0:0:0:
419,248,208710,1,8,0:0:0:0:
451,261,208905,1,0,0:0:0:0:
470,221,209002,1,8,0:0:0:0:
450,260,209100,1,0,0:0:0:0:
435,252,209295,1,0,0:0:0:0:
449,255,209489,1,8,0:0:0:0:
449,255,209684,1,8,0:0:0:0:
468,193,209879,1,4,0:0:0:0:
416,245,210066,1,8,0:0:0:0:
416,245,210129,1,8,0:0:0:0:
416,245,210191,1,8,0:0:0:0:
410,229,210254,1,0,0:0:0:0:
410,229,210347,1,0,0:0:0:0:
423,220,210441,1,8,0:0:0:0:
425,220,210535,1,8,0:0:0:0:
416,255,210629,1,0,0:0:0:0:
473,228,210816,1,8,0:0:0:0:
473,228,210879,1,8,0:0:0:0:
473,228,210941,1,8,0:0:0:0:
383,217,211004,1,0,0:0:0:0:
419,223,211097,1,0,0:0:0:0:
422,240,211191,1,8,0:0:0:0:
420,240,211285,1,8,0:0:0:0:
419,223,211379,1,0,0:0:0:0:
416,255,211566,1,8,0:0:0:0:
486,221,211629,1,0,0:0:0:0:
486,221,211691,1,0,0:0:0:0:
416,255,211754,1,8,0:0:0:0:
409,245,211847,1,0,0:0:0:0:
418,234,211941,1,8,0:0:0:0:
418,234,212035,1,8,0:0:0:0:
412,245,212129,1,0,0:0:0:0:
416,255,212316,1,8,0:0:0:0:
432,238,212379,1,0,0:0:0:0:
432,238,212441,1,0,0:0:0:0:
353,243,212504,1,8,0:0:0:0:
407,245,212597,1,0,0:0:0:0:
438,235,212691,1,8,0:0:0:0:
443,233,212785,1,8,0:0:0:0:
409,245,212879,1,0,0:0:0:0:
416,255,213066,1,8,0:0:0:0:
416,255,213129,1,8,0:0:0:0:
406,240,213191,1,0,0:0:0:0:
416,255,213254,1,8,0:0:0:0:
407,239,213347,1,8,0:0:0:0:
432,238,213441,1,0,0:0:0:0:
407,245,213535,1,8,0:0:0:0:
435,240,213629,1,0,0:0:0:0:
416,255,213816,1,8,0:0:0:0:
416,255,213879,1,8,0:0:0:0:
407,238,213941,1,0,0:0:0:0:
416,255,214004,1,8,0:0:0:0:
408,238,214097,1,8,0:0:0:0:
376,237,214191,1,0,0:0:0:0:
408,238,214285,1,8,0:0:0:0:
376,237,214379,1,0,0:0:0:0:
430,251,214566,1,0,0:0:0:0:
432,250,214629,1,8,0:0:0:0:
432,250,214691,1,8,0:0:0:0:
430,251,214754,1,0,0:0:0:0:
448,238,214847,1,0,0:0:0:0:
407,238,214941,1,8,0:0:0:0:
401,238,215035,1,8,0:0:0:0:
448,238,215129,1,0,0:0:0:0:
415,254,215316,1,0,0:0:0:0:
467,235,215379,1,8,0:0:0:0:
467,235,215441,1,8,0:0:0:0:
415,254,215504,1,0,0:0:0:0:
436,239,215597,1,0,0:0:0:0:
439,243,215691,1,8,0:0:0:0:
439,243,215785,1,8,0:0:0:0:
436,239,215879,1,4,0:0:0:0:
415,254,216066,1,8,0:0:0:0:
415,254,216129,1,8,0:0:0:0:
415,254,216191,1,8,0:0:0:0:
414,237,216254,1,0,0:0:0:0:
415,254,216347,1,0,0:0:0:0:
406,241,216441,1,8,0:0:0:0:
415,254,216535,1,0,0:0:0:0:
406,241,216629,1,8,0:0:0:0:
388,252,216816,1,8,0:0:0:0:
388,252,216879,1,8,0:0:0:0:
388,252,216941,1,8,0:0:0:0:
322,284,217004,1,0,0:0:0:0:
377,250,217097,1,0,0:0:0:0:
383,255,217191,1,8,0:0:0:0:
376,250,217285,1,0,0:0:0:0:
383,255,217379,1,8,0:0:0:0:
394,261,217566,1,8,0:0:0:0:
408,239,217629,1,0,0:0:0:0:
408,239,217691,1,0,0:0:0:0:
394,261,217754,1,8,0:0:0:0:
388,252,217847,1,8,0:0:0:0:
407,244,217941,1,0,0:0:0:0:
407,244,218035,1,0,0:0:0:0:
382,255,218129,1,8,0:0:0:0:
419,239,218316,1,8,0:0:0:0:
390,251,218379,1,0,0:0:0:0:
390,251,218441,1,0,0:0:0:0:
419,239,218504,1,8,0:0:0:0:
385,246,218597,1,8,0:0:0:0:
393,247,218691,1,0,0:0:0:0:
393,247,218785,1,0,0:0:0:0:
388,252,218879,1,8,0:0:0:0:
335,256,219066,1,0,0:0:0:0:
386,258,219254,1,8,0:0:0:0:
386,258,219441,1,8,0:0:0:0:
387,258,219535,1,8,0:0:0:0:
363,258,219629,1,0,0:0:0:0:
363,256,219816,1,0,0:0:0:0:
386,258,220004,1,8,0:0:0:0:
370,263,220191,1,0,0:0:0:0:
370,262,220285,1,0,0:0:0:0:
386,258,220379,1,8,0:0:0:0:
377,293,220566,1,0,0:0:0:0:
378,264,220754,1,8,0:0:0:0:
362,213,220816,1,8,0:0:0:0:
379,222,220879,1,8,0:0:0:0:
338,291,220941,1,0,0:0:0:0:
370,269,221035,1,8,0:0:0:0:
338,291,221129,1,0,0:0:0:0:
338,291,221316,1,0,0:0:0:0:
370,269,221504,1,8,0:0:0:0:
370,269,221691,1,8,0:0:0:0:
400,195,221880,1,4,0:0:0:0:
386,206,222545,1,8,0:0:0:0:
389,206,223212,1,8,0:0:0:0:
382,214,223879,1,8,0:0:0:0:
386,219,224545,1,0,0:0:0:0:
430,235,225212,1,8,0:0:0:0:
430,235,225545,1,8,0:0:0:0:
394,250,225879,1,0,0:0:0:0:
420,219,226545,1,8,0:0:0:0:
423,191,227213,1,4,0:0:0:0:
399,218,228545,1,12,0:0:0:0:
384,205,229880,1,4,0:0:0:0:
256,192,230045,12,0,232879,0:0:0:0:
318,210,233212,5,4,0:0:0:0:
