osu file format v14

[General]
AudioFilename: audio.mp3
AudioLeadIn: 0
PreviewTime: 750
Countdown: 0
SampleSet: Normal
StackLeniency: 0.2
Mode: 1
LetterboxInBreaks: 0
WidescreenStoryboard: 0

[Editor]
Bookmarks: 60000,75000,78000,95993,152993,176993,200993
DistanceSpacing: 1.4
BeatDivisor: 8
GridSize: 32
TimelineZoom: 1.6

[Metadata]
Title:Yesterday, Everything Returns
TitleUnicode:昨日はすべて返される
Artist:Kikuo
ArtistUnicode:きくお
Creator:Alchyr
Version:Futsuu
Source:
Tags:kinou wa subete kaesareru kikuo miku 6 hatsune 初音ミク vocaloid electronic japanese experimental
BeatmapID:3622060
BeatmapSetID:1198383

[Difficulty]
HPDrainRate:6
CircleSize:2
OverallDifficulty:4
ApproachRate:0
SliderMultiplier:1.4
SliderTickRate:1

[Events]
//Background and Video events
0,0,"bg.jpg",0,90
//Break Periods
//Storyboard Layer 0 (Background)
//Storyboard Layer 1 (Fail)
//Storyboard Layer 2 (Pass)
//Storyboard Layer 3 (Foreground)
//Storyboard Layer 4 (Overlay)
//Storyboard Sound Samples

[TimingPoints]
1500,750,4,1,0,5,1,0
1500,-66.6666666666667,4,1,0,5,0,0
28500,750,6,1,0,5,1,0
28500,-66.6666666666667,6,1,0,5,0,0
33000,750,4,1,0,5,1,0
33000,-66.6666666666667,4,1,0,5,0,0
34500,-66.6666666666667,4,1,0,10,0,0
35062,-66.6666666666667,4,1,0,12,0,0
35250,-66.6666666666667,4,1,0,15,0,0
35437,-66.6666666666667,4,1,0,19,0,0
35625,-66.6666666666667,4,1,0,24,0,0
35812,-66.6666666666667,4,1,0,30,0,0
59906,-66.6666666666667,4,1,0,40,0,0
59993,750,4,1,0,40,1,0
59993,-66.6666666666667,4,1,0,40,0,0
60180,-66.6666666666667,4,1,0,30,0,0
99930,-66.6666666666667,4,1,0,25,0,0
100368,-66.6666666666667,4,1,0,30,0,0
100618,-66.6666666666667,4,1,0,25,0,0
101180,-66.6666666666667,4,1,0,30,0,0
101305,-66.6666666666667,4,1,0,25,0,0
101930,-66.6666666666667,4,1,0,30,0,0
102055,-66.6666666666667,4,1,0,25,0,0
102680,-66.6666666666667,4,1,0,30,0,0
102805,-66.6666666666667,4,1,0,25,0,0
104180,-66.6666666666667,4,1,0,30,0,0
104305,-66.6666666666667,4,1,0,25,0,0
104930,-66.6666666666667,4,1,0,30,0,0
105055,-66.6666666666667,4,1,0,25,0,0
107899,-66.6666666666667,4,1,0,30,0,0
108180,-66.6666666666667,4,1,0,25,0,0
128993,-66.6666666666667,4,1,0,35,0,0
129696,-66.6666666666667,4,1,0,25,0,0
131993,-66.6666666666667,4,1,0,15,0,0
138743,-66.6666666666667,4,1,0,10,0,0
151868,-66.6666666666667,4,1,0,20,0,0
151961,-66.6666666666667,4,1,0,25,0,0
152055,-66.6666666666667,4,1,0,30,0,0
152149,-66.6666666666667,4,1,0,35,0,0
152243,-66.6666666666667,4,1,0,5,0,0
152805,-66.6666666666667,4,1,0,50,0,0
152993,-66.6666666666667,4,1,0,50,0,1
200868,-66.6666666666667,4,1,0,35,0,1
200993,-66.6666666666667,4,1,0,35,0,0
201180,-66.6666666666667,4,1,0,20,0,0
203711,-66.6666666666667,4,1,0,15,0,0
204649,-66.6666666666667,4,1,0,10,0,0

[HitObjects]
64,64,1500,5,0,0:0:0:0:
64,64,2250,1,0,0:0:0:0:
192,128,3000,1,0,0:0:0:0:
192,128,3750,1,0,0:0:0:0:
320,128,4500,1,8,0:0:0:0:
320,128,5250,1,8,0:0:0:0:
192,128,6000,1,0,0:0:0:0:
320,128,6375,1,8,0:0:0:0:
444,384,7313,1,8,0:0:0:0:
192,128,7500,1,0,0:0:0:0:
320,128,8625,1,8,0:0:0:0:
320,128,9000,1,8,0:0:0:0:
320,128,9187,1,8,0:0:0:0:
444,384,9375,1,8,0:0:0:0:
192,128,10500,1,0,0:0:0:0:
192,128,10687,1,0,0:0:0:0:
444,384,10875,1,0,0:0:0:0:
320,128,11625,1,8,0:0:0:0:
320,128,11812,1,8,0:0:0:0:
320,128,12000,1,8,0:0:0:0:
320,128,13125,1,8,0:0:0:0:
320,128,13312,1,8,0:0:0:0:
192,128,13500,1,0,0:0:0:0:
192,128,14812,1,0,0:0:0:0:
320,128,15000,1,8,0:0:0:0:
320,128,15562,1,8,0:0:0:0:
320,128,15750,1,8,0:0:0:0:
320,128,16125,1,8,0:0:0:0:
444,384,16500,1,8,0:0:0:0:
320,128,18937,1,8,0:0:0:0:
320,128,19125,1,8,0:0:0:0:
320,128,19312,1,8,0:0:0:0:
444,384,19500,1,0,0:0:0:0:
444,384,21000,1,8,0:0:0:0:
444,384,22500,1,0,0:0:0:0:
444,384,24000,1,0,0:0:0:0:
444,384,25500,1,0,0:0:0:0:
444,384,27000,1,0,0:0:0:0:
256,192,28500,12,0,33000,0:0:0:0:
256,192,34875,12,0,35812,0:0:0:0:
320,256,36000,5,8,0:0:0:0:
320,256,37125,1,8,0:0:0:0:
320,64,38625,1,8,0:0:0:0:
64,64,39187,1,0,0:0:0:0:
320,64,40125,1,8,0:0:0:0:
320,64,41625,1,8,0:0:0:0:
320,64,41812,1,8,0:0:0:0:
320,64,42375,1,8,0:0:0:0:
64,64,42562,1,0,0:0:0:0:
444,384,42938,1,0,0:0:0:0:
444,384,43125,1,0,0:0:0:0:
64,64,43312,1,0,0:0:0:0:
320,64,43875,1,8,0:0:0:0:
64,64,44062,1,0,0:0:0:0:
444,384,44438,1,8,0:0:0:0:
320,64,44625,1,8,0:0:0:0:
444,384,44813,1,8,0:0:0:0:
64,64,45188,1,0,0:0:0:0:
0,339,45562,6,0,L|221:338,1,210.000008010865
256,192,46687,12,0,48000,0:0:0:0:
320,64,48375,5,8,0:0:0:0:
320,64,49125,1,8,0:0:0:0:
444,384,49313,1,8,0:0:0:0:
444,384,49500,1,8,0:0:0:0:
444,384,49875,1,0,0:0:0:0:
320,64,50625,1,8,0:0:0:0:
64,64,51000,1,0,0:0:0:0:
64,64,51750,1,0,0:0:0:0:
320,64,52125,1,8,0:0:0:0:
64,64,52500,1,0,0:0:0:0:
320,64,53062,1,8,0:0:0:0:
444,384,53250,1,8,0:0:0:0:
444,384,53625,1,0,0:0:0:0:
444,384,54188,1,8,0:0:0:0:
444,384,54375,1,8,0:0:0:0:
444,384,54750,1,0,0:0:0:0:
444,384,55125,1,8,0:0:0:0:
444,384,55500,1,0,0:0:0:0:
444,384,55875,1,0,0:0:0:0:
444,384,56250,1,8,0:0:0:0:
444,384,57000,1,8,0:0:0:0:
444,384,57375,1,8,0:0:0:0:
444,384,57750,1,8,0:0:0:0:
444,384,58125,1,0,0:0:0:0:
256,192,58500,12,0,59625,0:0:0:0:
64,64,59993,5,0,0:0:0:0:
320,64,60368,1,8,0:0:0:0:
320,64,60555,1,8,0:0:0:0:
64,64,60743,1,0,0:0:0:0:
320,64,61118,1,8,0:0:0:0:
64,64,61493,1,0,0:0:0:0:
320,128,61868,1,8,0:0:0:0:
320,128,62056,1,8,0:0:0:0:
192,256,62243,1,0,0:0:0:0:
64,64,62618,1,0,0:0:0:0:
444,384,62993,1,0,0:0:0:0:
320,64,63743,1,8,0:0:0:0:
444,384,64493,1,0,0:0:0:0:
320,64,64868,1,8,0:0:0:0:
320,64,65055,1,8,0:0:0:0:
64,64,65243,1,0,0:0:0:0:
320,64,65618,1,8,0:0:0:0:
64,64,65993,1,0,0:0:0:0:
192,256,66181,1,0,0:0:0:0:
444,384,66368,1,0,0:0:0:0:
444,384,66743,1,8,0:0:0:0:
444,384,66931,1,8,0:0:0:0:
444,384,67118,1,8,0:0:0:0:
64,64,67493,1,0,0:0:0:0:
444,384,68243,1,8,0:0:0:0:
64,64,68993,1,0,0:0:0:0:
444,384,69181,1,0,0:0:0:0:
444,384,69368,1,8,0:0:0:0:
444,384,69743,1,0,0:0:0:0:
192,256,69931,1,0,0:0:0:0:
320,128,70118,1,8,0:0:0:0:
64,64,70493,1,0,0:0:0:0:
64,64,70868,1,0,0:0:0:0:
444,384,71243,1,8,0:0:0:0:
320,64,71618,1,8,0:0:0:0:
64,64,71993,1,0,0:0:0:0:
444,384,72181,1,0,0:0:0:0:
444,384,72368,1,8,0:0:0:0:
444,384,72743,1,0,0:0:0:0:
444,384,72931,1,0,0:0:0:0:
320,128,73118,1,8,0:0:0:0:
192,256,73493,1,0,0:0:0:0:
320,128,73868,1,8,0:0:0:0:
192,256,74243,1,0,0:0:0:0:
320,128,74618,1,8,0:0:0:0:
64,64,74993,1,0,0:0:0:0:
444,384,75743,1,8,0:0:0:0:
64,64,76493,5,0,0:0:0:0:
444,384,77243,1,8,0:0:0:0:
444,384,77993,1,0,0:0:0:0:
444,384,78181,1,0,0:0:0:0:
444,384,78368,1,0,0:0:0:0:
444,384,78743,1,8,0:0:0:0:
444,384,79118,1,8,0:0:0:0:
444,384,79493,1,0,0:0:0:0:
444,384,79681,1,0,0:0:0:0:
444,384,79868,1,8,0:0:0:0:
444,384,80243,1,0,0:0:0:0:
444,384,80431,1,0,0:0:0:0:
64,64,80618,1,0,0:0:0:0:
444,384,80993,1,8,0:0:0:0:
64,64,81743,1,0,0:0:0:0:
444,384,82493,1,0,0:0:0:0:
320,64,82868,1,8,0:0:0:0:
320,64,83055,1,8,0:0:0:0:
64,64,83243,1,0,0:0:0:0:
320,64,83618,1,8,0:0:0:0:
444,384,83993,1,8,0:0:0:0:
444,384,84181,1,8,0:0:0:0:
444,384,84368,1,8,0:0:0:0:
444,384,84743,1,0,0:0:0:0:
444,384,84931,1,0,0:0:0:0:
444,384,85118,1,0,0:0:0:0:
444,384,85493,1,8,0:0:0:0:
444,384,86243,1,0,0:0:0:0:
444,384,86993,1,0,0:0:0:0:
444,384,87181,1,0,0:0:0:0:
444,384,87368,1,8,0:0:0:0:
444,384,87743,1,0,0:0:0:0:
192,256,87931,1,0,0:0:0:0:
320,128,88118,1,8,0:0:0:0:
64,64,88493,1,0,0:0:0:0:
64,64,88868,1,0,0:0:0:0:
444,384,89243,1,8,0:0:0:0:
320,64,89618,1,8,0:0:0:0:
64,64,89993,1,0,0:0:0:0:
444,384,90181,1,0,0:0:0:0:
444,384,90368,1,8,0:0:0:0:
444,384,90743,1,0,0:0:0:0:
444,384,90931,1,0,0:0:0:0:
320,128,91118,1,8,0:0:0:0:
192,256,91493,1,0,0:0:0:0:
320,128,91868,1,8,0:0:0:0:
192,256,92243,1,0,0:0:0:0:
320,128,92618,1,8,0:0:0:0:
64,64,92993,1,0,0:0:0:0:
444,384,93743,1,8,0:0:0:0:
256,320,94493,5,0,0:0:0:0:
444,384,95243,1,8,0:0:0:0:
256,320,95993,5,0,0:0:0:0:
416,160,96743,1,8,0:0:0:0:
416,160,97118,1,8,0:0:0:0:
320,160,97868,1,8,0:0:0:0:
192,192,98243,1,0,0:0:0:0:
444,384,98618,1,0,0:0:0:0:
444,384,98993,1,8,0:0:0:0:
352,320,99743,1,8,0:0:0:0:
192,192,100493,1,0,0:0:0:0:
0,0,100868,1,0,0:0:0:0:
0,0,101055,1,0,0:0:0:0:
384,160,101243,1,8,0:0:0:0:
444,384,101618,1,8,0:0:0:0:
160,224,101993,1,0,0:0:0:0:
444,384,102368,1,0,0:0:0:0:
352,320,102743,1,8,0:0:0:0:
160,224,103493,1,0,0:0:0:0:
444,384,103681,1,0,0:0:0:0:
192,256,103868,1,0,0:0:0:0:
256,96,104243,1,8,0:0:0:0:
256,96,104993,1,0,0:0:0:0:
320,128,105368,1,8,0:0:0:0:
320,256,105743,1,8,0:0:0:0:
320,128,105931,1,8,0:0:0:0:
444,384,106118,1,8,0:0:0:0:
96,128,106493,1,0,0:0:0:0:
256,192,107243,12,0,107805,0:0:0:0:
256,192,107993,5,0,0:0:0:0:
192,256,108368,1,0,0:0:0:0:
192,256,108555,1,0,0:0:0:0:
256,192,108743,1,0,0:0:0:0:
352,128,109118,1,8,0:0:0:0:
128,128,109493,1,0,0:0:0:0:
288,64,110243,1,8,0:0:0:0:
416,64,110618,1,8,0:0:0:0:
416,64,110805,1,8,0:0:0:0:
444,384,110993,1,8,0:0:0:0:
96,160,111368,1,0,0:0:0:0:
352,128,111743,1,8,0:0:0:0:
192,96,112493,1,0,0:0:0:0:
192,256,112868,1,0,0:0:0:0:
192,256,113055,1,0,0:0:0:0:
416,288,113243,1,0,0:0:0:0:
96,128,113993,1,0,0:0:0:0:
288,224,114368,1,8,0:0:0:0:
444,384,114556,1,8,0:0:0:0:
192,192,114743,1,0,0:0:0:0:
444,384,115118,1,8,0:0:0:0:
256,64,115493,1,0,0:0:0:0:
444,384,115868,1,0,0:0:0:0:
384,128,116243,1,8,0:0:0:0:
320,64,116993,1,0,0:0:0:0:
444,384,117181,1,0,0:0:0:0:
320,64,117368,1,8,0:0:0:0:
444,384,117743,1,0,0:0:0:0:
444,384,118118,1,8,0:0:0:0:
444,384,118493,1,0,0:0:0:0:
444,384,118868,1,8,0:0:0:0:
444,384,119056,1,8,0:0:0:0:
444,384,119243,1,8,0:0:0:0:
444,384,119993,1,0,0:0:0:0:
444,384,120368,1,0,0:0:0:0:
444,384,120743,1,8,0:0:0:0:
444,384,120931,1,8,0:0:0:0:
352,192,121118,1,8,0:0:0:0:
192,128,121493,1,0,0:0:0:0:
320,128,121868,1,8,0:0:0:0:
444,384,122243,1,8,0:0:0:0:
96,160,123743,1,0,0:0:0:0:
320,128,123930,1,8,0:0:0:0:
288,192,124118,1,8,0:0:0:0:
444,384,124493,1,0,0:0:0:0:
352,224,125243,1,8,0:0:0:0:
444,384,125431,1,8,0:0:0:0:
320,128,125618,1,8,0:0:0:0:
160,224,125993,1,4,0:0:0:0:
0,0,126743,1,0,0:0:0:0:
192,128,126930,1,0,0:0:0:0:
444,384,127118,1,0,0:0:0:0:
444,384,127493,1,8,0:0:0:0:
444,384,127868,1,0,0:0:0:0:
444,384,128243,1,8,0:0:0:0:
444,384,128618,1,8,0:0:0:0:
256,192,128993,12,0,129555,0:0:0:0:
320,64,129743,5,8,0:0:0:0:
444,384,129931,1,8,0:0:0:0:
320,128,130118,1,8,0:0:0:0:
64,64,130493,1,0,0:0:0:0:
64,64,130868,1,0,0:0:0:0:
444,384,131243,1,0,0:0:0:0:
444,384,131431,1,0,0:0:0:0:
320,128,131618,1,8,0:0:0:0:
64,64,131993,1,0,0:0:0:0:
64,64,132743,1,0,0:0:0:0:
320,64,133118,1,8,0:0:0:0:
444,384,133493,1,8,0:0:0:0:
444,384,133681,1,8,0:0:0:0:
444,384,133868,1,8,0:0:0:0:
444,384,134243,1,0,0:0:0:0:
444,384,134618,1,8,0:0:0:0:
444,384,134806,1,8,0:0:0:0:
444,384,134993,1,0,0:0:0:0:
444,384,135368,1,8,0:0:0:0:
444,384,135743,1,0,0:0:0:0:
444,384,136306,1,8,0:0:0:0:
444,384,136868,1,8,0:0:0:0:
444,384,137243,1,0,0:0:0:0:
444,384,137431,1,0,0:0:0:0:
444,384,137618,1,0,0:0:0:0:
444,384,137806,1,8,0:0:0:0:
64,64,138180,1,0,0:0:0:0:
64,64,138993,1,0,0:0:0:0:
320,64,139493,1,8,0:0:0:0:
64,64,139993,1,0,0:0:0:0:
320,64,140493,1,8,0:0:0:0:
320,64,140993,1,8,0:0:0:0:
64,64,141493,1,0,0:0:0:0:
320,64,141993,1,8,0:0:0:0:
160,224,142493,2,0,L|279:312,1,1207.63997943401
444,384,149430,1,8,0:0:0:0:
84,202,149805,1,0,0:0:0:0:
84,202,149993,1,0,0:0:0:0:
279,196,150180,1,8,0:0:0:0:
84,202,150555,1,0,0:0:0:0:
84,202,150743,1,0,0:0:0:0:
286,192,150930,1,8,0:0:0:0:
320,128,151118,1,8,0:0:0:0:
96,192,152993,1,4,0:0:0:0:
0,0,153368,1,0,0:0:0:0:
448,160,153743,1,12,0:0:0:0:
448,64,154493,1,4,0:0:0:0:
320,128,154868,1,8,0:0:0:0:
256,64,155243,1,12,0:0:0:0:
96,64,155993,1,4,0:0:0:0:
128,160,156368,1,0,0:0:0:0:
96,320,156743,1,12,0:0:0:0:
320,64,157493,1,4,0:0:0:0:
192,256,157868,1,0,0:0:0:0:
0,0,158243,1,12,0:0:0:0:
96,160,158993,1,4,0:0:0:0:
192,224,159368,1,8,0:0:0:0:
352,128,159743,1,12,0:0:0:0:
96,192,160118,1,0,0:0:0:0:
96,96,160493,1,4,0:0:0:0:
352,192,160868,1,8,0:0:0:0:
0,0,161243,1,12,0:0:0:0:
192,160,161618,1,0,0:0:0:0:
160,320,161993,1,4,0:0:0:0:
0,0,162368,1,0,0:0:0:0:
416,96,162743,1,12,0:0:0:0:
320,128,163118,1,8,0:0:0:0:
320,96,163493,1,4,0:0:0:0:
0,0,163868,1,0,0:0:0:0:
0,0,164243,1,12,0:0:0:0:
256,352,164993,1,4,0:0:0:0:
480,224,165368,1,8,0:0:0:0:
288,96,165743,1,12,0:0:0:0:
224,192,166118,1,0,0:0:0:0:
384,64,166493,1,4,0:0:0:0:
256,256,166868,1,8,0:0:0:0:
0,0,167243,1,12,0:0:0:0:
320,128,167618,1,8,0:0:0:0:
160,96,167993,1,4,0:0:0:0:
0,0,168368,1,8,0:0:0:0:
0,0,168743,1,12,0:0:0:0:
192,256,169118,1,0,0:0:0:0:
0,0,169493,1,4,0:0:0:0:
416,128,169868,1,8,0:0:0:0:
0,0,170243,1,12,0:0:0:0:
32,224,170993,1,4,0:0:0:0:
384,128,171368,1,8,0:0:0:0:
224,288,171743,1,12,0:0:0:0:
96,128,172118,1,0,0:0:0:0:
480,192,172493,1,4,0:0:0:0:
320,128,172868,1,8,0:0:0:0:
320,256,173243,1,12,0:0:0:0:
160,192,173618,1,0,0:0:0:0:
128,320,173993,1,4,0:0:0:0:
64,160,174368,1,0,0:0:0:0:
0,0,174743,1,12,0:0:0:0:
288,128,175118,1,8,0:0:0:0:
320,96,175493,1,4,0:0:0:0:
0,0,175868,1,8,0:0:0:0:
416,192,176243,1,12,0:0:0:0:
96,192,176993,1,4,0:0:0:0:
0,0,177368,1,0,0:0:0:0:
448,160,177743,1,12,0:0:0:0:
448,64,178493,1,4,0:0:0:0:
320,128,178868,1,8,0:0:0:0:
256,64,179243,1,12,0:0:0:0:
96,64,179993,1,4,0:0:0:0:
128,160,180368,1,0,0:0:0:0:
96,320,180743,1,12,0:0:0:0:
320,64,181493,1,4,0:0:0:0:
192,256,181868,1,0,0:0:0:0:
0,0,182243,1,12,0:0:0:0:
96,160,182993,1,4,0:0:0:0:
192,224,183368,1,8,0:0:0:0:
352,128,183743,1,12,0:0:0:0:
96,192,184118,1,0,0:0:0:0:
96,96,184493,1,4,0:0:0:0:
352,192,184868,1,8,0:0:0:0:
0,0,185243,1,12,0:0:0:0:
192,160,185618,1,0,0:0:0:0:
160,320,185993,1,4,0:0:0:0:
0,0,186368,1,0,0:0:0:0:
416,96,186743,1,12,0:0:0:0:
320,128,187118,1,8,0:0:0:0:
320,96,187493,1,4,0:0:0:0:
0,0,187868,1,0,0:0:0:0:
0,0,188243,1,12,0:0:0:0:
256,352,188993,1,4,0:0:0:0:
480,224,189368,1,8,0:0:0:0:
288,96,189743,1,12,0:0:0:0:
224,192,190118,1,0,0:0:0:0:
384,64,190493,1,4,0:0:0:0:
256,256,190868,1,8,0:0:0:0:
0,0,191243,1,12,0:0:0:0:
320,128,191618,1,8,0:0:0:0:
160,96,191993,1,4,0:0:0:0:
0,0,192368,1,8,0:0:0:0:
0,0,192743,1,12,0:0:0:0:
192,256,193118,1,0,0:0:0:0:
0,0,193493,1,4,0:0:0:0:
416,128,193868,1,8,0:0:0:0:
0,0,194243,1,12,0:0:0:0:
32,224,194993,1,4,0:0:0:0:
384,128,195368,1,8,0:0:0:0:
224,288,195743,1,12,0:0:0:0:
96,128,196118,1,0,0:0:0:0:
480,192,196493,1,4,0:0:0:0:
320,128,196868,1,8,0:0:0:0:
320,256,197243,1,12,0:0:0:0:
160,192,197618,1,0,0:0:0:0:
128,320,197993,1,4,0:0:0:0:
320,128,198368,1,8,0:0:0:0:
0,0,198743,1,12,0:0:0:0:
288,128,199118,1,8,0:0:0:0:
320,96,199493,1,4,0:0:0:0:
0,0,199868,1,8,0:0:0:0:
416,192,200243,1,12,0:0:0:0:
288,96,200618,1,8,0:0:0:0:
128,192,200993,5,0,0:0:0:0:
128,192,201743,1,0,0:0:0:0:
128,192,202493,1,0,0:0:0:0:
128,192,203243,1,0,0:0:0:0:
128,192,203993,1,0,0:0:0:0:
444,384,204180,1,0,0:0:0:0:
320,96,204368,1,8,0:0:0:0:
128,192,204743,1,0,0:0:0:0:
128,192,205493,1,0,0:0:0:0:
128,192,206243,1,0,0:0:0:0:
192,192,206993,1,0,0:0:0:0:
444,384,207181,1,0,0:0:0:0:
352,192,207368,1,8,0:0:0:0:
256,192,207743,1,0,0:0:0:0:
256,224,208493,1,0,0:0:0:0:
256,256,209243,1,0,0:0:0:0:
256,256,209993,1,0,0:0:0:0:
444,384,210181,1,0,0:0:0:0:
256,192,210368,1,8,0:0:0:0:
