osu file format v14

[General]
AudioFilename: audio.mp3
AudioLeadIn: 0
PreviewTime: 750
Countdown: 0
SampleSet: Normal
StackLeniency: 0.2
Mode: 1
LetterboxInBreaks: 0
WidescreenStoryboard: 0

[Editor]
Bookmarks: 60000,75000,78000,95993,152993,176992,176993,200993
DistanceSpacing: 1.4
BeatDivisor: 16
GridSize: 32
TimelineZoom: 0.9999999

[Metadata]
Title:Yesterday, Everything Returns
TitleUnicode:昨日はすべて返される
Artist:Kikuo
ArtistUnicode:きくお
Creator:Alchyr
Version:: :
Source:
Tags:kinou wa subete kaesareru kikuo miku 6 hatsune 初音ミク vocaloid electronic japanese experimental
BeatmapID:2495863
BeatmapSetID:1198383

[Difficulty]
HPDrainRate:0
CircleSize:2
OverallDifficulty:6
ApproachRate:0
SliderMultiplier:1.4
SliderTickRate:1

[Events]
//Background and Video events
0,0,"bg.jpg",0,30
//Break Periods
//Storyboard Layer 0 (Background)
//Storyboard Layer 1 (Fail)
//Storyboard Layer 2 (Pass)
//Storyboard Layer 3 (Foreground)
//Storyboard Layer 4 (Overlay)
//Storyboard Sound Samples

[TimingPoints]
1500,750,4,1,0,5,1,0
1500,-400,4,1,0,5,0,0
19500,-370.37037037037,4,1,0,5,0,0
21000,-344.827586206897,4,1,0,5,0,0
22500,-384.615384615385,4,1,0,5,0,0
24000,-416.666666666667,4,1,0,5,0,0
25500,-400,4,1,0,5,0,0
27000,-434.782608695652,4,1,0,5,0,0
28500,750,6,1,0,5,1,0
28500,-25,6,1,0,5,0,0
30000,-500,6,1,0,5,0,0
33000,750,4,1,0,5,1,0
33000,-555.555555555556,4,1,0,5,0,0
34500,-300.3003003003,4,1,0,10,0,0
35062,-200,4,1,0,12,0,0
35250,-200,4,1,0,15,0,0
35437,-200,4,1,0,19,0,0
35625,-200,4,1,0,24,0,0
35812,-200,4,1,0,30,0,0
36000,-60.000000024,4,1,0,30,0,0
46660,-66.6666666666667,4,1,0,30,0,0
48000,-50,4,1,0,30,0,0
58125,-33.3333333333333,4,1,0,30,0,0
58500,-25,4,1,0,30,0,0
59993,750,4,1,0,35,1,0
59993,-150.001500015,4,1,0,35,0,0
63243,-141.843971631206,4,1,0,35,0,0
63368,-143.884892086331,4,1,0,35,0,0
63493,-145.985401459854,4,1,0,35,0,0
63618,-148.148148148148,4,1,0,35,0,0
63743,-150.001500015,4,1,0,35,0,0
67961,-151.515151515152,4,1,0,25,0,0
68055,-152.671755725191,4,1,0,25,0,0
68243,-153.846153846154,4,1,0,25,0,0
68368,-155.038759689922,4,1,0,25,0,0
68493,-156.25,4,1,0,25,0,0
68618,-157.48031496063,4,1,0,25,0,0
68805,-150.001500015,4,1,0,35,0,0
75743,-136.986301369863,4,1,0,35,0,0
76024,-133.333333333333,4,1,0,35,0,0
76493,-150.000015000001,4,1,0,35,0,0
77243,-136.986301369863,4,1,0,35,0,0
77524,-133.333333333333,4,1,0,35,0,0
77993,-100,4,1,0,35,0,0
93743,-87.719298245614,4,1,0,35,0,0
94023,-84.942686852281,4,1,0,35,0,0
94117,-84.0336134453782,4,1,0,35,0,0
94493,-93.4579439252336,4,1,0,35,0,0
95243,-84.7457627118644,4,1,0,35,0,0
95523,-81.6540243718593,4,1,0,35,0,0
95617,-80.6451612903226,4,1,0,35,0,0
95993,-100,4,1,0,35,0,0
96368,-100.750966328983,4,1,0,35,0,0
96555,-100.558501919662,4,1,0,35,0,0
96649,-101.317384343987,4,1,0,35,0,0
96743,-101.507572162239,4,1,0,35,0,0
97118,-102.269859850546,4,1,0,35,0,0
97868,-103.811651788013,4,1,0,35,0,0
97961,-104.004446709508,4,1,0,35,0,0
98243,-104.591242338502,4,1,0,35,0,0
98430,-104.982183044741,4,1,0,35,0,0
98618,-105.376687351529,4,1,0,35,0,0
98805,-105.770563890839,4,1,0,35,0,0
98993,-106.168030792137,4,1,0,35,0,0
99243,-106.965316955531,4,1,0,15,0,0
99461,-107.3651314679,4,1,0,35,0,0
99743,-107.768590469557,4,1,0,35,0,0
99930,-108.577896297203,4,1,0,25,0,0
100305,-108.983738301861,4,1,0,25,0,0
100368,-109.393279739113,4,1,0,30,0,0
100618,-100,4,1,0,25,0,0
100774,-110.008284504053,4,1,0,25,0,0
100868,-110.214786436124,4,1,0,25,0,0
101055,-110.626746801867,4,1,0,25,0,0
101180,-111.04246237182,4,1,0,30,0,0
101305,-111.179902318301,4,1,0,25,0,0
101368,-111.319733289783,4,1,0,25,0,0
101430,-111.457516421199,4,1,0,25,0,0
101493,-111.597696547958,4,1,0,25,0,0
101618,-111.876353875106,4,1,0,25,0,0
101899,-112.505318386284,4,1,0,25,0,0
101930,-112.716507622802,4,1,0,30,0,0
102055,-112.928093292966,4,1,0,25,0,0
102180,-113.140076140942,4,1,0,25,0,0
102368,-113.562970642255,4,1,0,25,0,0
102648,-114.201417247314,4,1,0,25,0,0
102680,-114.415790313971,4,1,0,30,0,0
102805,-114.630565790798,4,1,0,25,0,0
102929,-114.843453174361,4,1,0,25,0,0
103117,-115.275014374269,4,1,0,25,0,0
103211,-115.49140274261,4,1,0,25,0,0
103305,-115.705888838742,4,1,0,25,0,0
103493,-116.14069091795,4,1,0,25,0,0
103680,-116.577126905769,4,1,0,25,0,0
103773,-116.793629366165,4,1,0,25,0,0
103868,-108.431291969687,4,1,0,25,0,0
104055,-117.450238608946,4,1,0,25,0,0
104180,-117.891595643261,4,1,0,30,0,0
104305,-118.554377609758,4,1,0,25,0,0
104618,-118.776921831243,4,1,0,25,0,0
104805,-109.53070474246,4,1,0,25,0,0
104930,-119.668896520798,4,1,0,30,0,0
105055,-120.267264566228,4,1,0,25,0,0
105368,-120.567569639935,4,1,0,25,0,0
105555,-121.020641047887,4,1,0,25,0,0
105649,-121.245395828186,4,1,0,25,0,0
105743,-121.472991491604,4,1,0,25,0,0
105805,-121.623341556732,4,1,0,25,0,0
105868,-121.776307242527,4,1,0,25,0,0
105930,-121.927032728909,4,1,0,25,0,0
106118,-122.385212756514,4,1,0,25,0,0
106211,-122.614948026045,4,1,0,25,0,0
106493,-123.30428449597,4,1,0,25,0,0
106586,-123.535745000021,4,1,0,25,0,0
106680,-123.765170732574,4,1,0,25,0,0
106868,-124.230258154728,4,1,0,25,0,0
107243,-142.857142857143,4,1,0,25,0,0
107899,-127.050110906812,4,1,0,30,0,0
108180,-128.004214460657,4,1,0,25,0,0
108555,-128.485231452562,4,1,0,25,0,0
108743,-128.965483010936,4,1,0,25,0,0
109118,-129.933970364359,4,1,0,25,0,0
109493,-130.909730731706,4,1,0,25,0,0
109680,-131.399044573301,4,1,0,25,0,0
109868,-131.892818730864,4,1,0,25,0,0
109961,-132.140401192648,4,1,0,25,0,0
110055,-132.388448403582,4,1,0,25,0,0
110243,-132.883289389879,4,1,0,25,0,0
110476,-133.505108339597,4,1,0,25,0,0
110618,-133.881198150042,4,1,0,25,0,0
110805,-134.384299797735,4,1,0,25,0,0
110993,-134.886600868988,4,1,0,25,0,0
111368,-135.899553823824,4,1,0,25,0,0
111743,-136.920113714279,4,1,0,25,0,0
112023,-137.689873269448,4,1,0,25,0,0
112117,-137.948337665879,4,1,0,25,0,0
112305,-138.466722897974,4,1,0,25,0,0
112398,-138.723877856121,4,1,0,25,0,0
112493,-138.984283233142,4,1,0,25,0,0
112680,-139.506561363784,4,1,0,25,0,0
112868,-140.028008402801,4,1,0,25,0,0
112914,-140.159373495876,4,1,0,25,0,0
113055,-140.55140450437,4,1,0,25,0,0
113243,-141.079571597052,4,1,0,25,0,0
113430,-141.606898227111,4,1,0,25,0,0
113524,-141.872715462697,4,1,0,25,0,0
113618,-142.139031676819,4,1,0,25,0,0
113805,-142.670318352314,4,1,0,25,0,0
113993,-143.206447945055,4,1,0,25,0,0
114180,-143.741724404593,4,1,0,25,0,0
114274,-144.011549026825,4,1,0,25,0,0
114555,-144.821176355571,4,1,0,25,0,0
114649,-145.093027269863,4,1,0,25,0,0
114743,-145.365388488805,4,1,0,25,0,0
115024,-146.457033610352,4,1,0,25,0,0
115211,-123.420982801286,4,1,0,25,0,0
115305,-147.004460095334,4,1,0,25,0,0
115399,-147.275405007364,4,1,0,25,0,0
115493,-147.556876619193,4,1,0,25,0,0
115586,-148.108414092753,4,1,0,25,0,0
115774,-148.664979078702,4,1,0,25,0,0
115961,-149.253731343284,4,1,0,25,0,0
116149,-149.781403014573,4,1,0,25,0,0
116304,-149.966791086618,4,1,0,25,0,0
116336,-125.136555265934,4,1,0,25,0,0
116430,-150.341255313549,4,1,0,25,0,0
116665,-151.057401812689,4,1,0,25,0,0
116806,-151.515151515152,4,1,0,25,0,0
116899,-126.012351730717,4,1,0,25,0,0
116993,-152.039465750632,4,1,0,25,0,0
117179,-152.607758227017,4,1,0,25,0,0
117274,-126.603111904491,4,1,0,25,0,0
117368,-153.181230945185,4,1,0,25,0,0
117430,-153.373886990829,4,1,0,25,0,0
117743,-154.331570411905,4,1,0,25,0,0
117930,-154.908430307464,4,1,0,25,0,0
117977,-155.038759689923,4,1,0,25,0,0
118118,-155.490548540689,4,1,0,25,0,0
118305,-156.071740459829,4,1,0,25,0,0
118493,-156.658230204981,4,1,0,25,0,0
118868,-157.834680765401,4,1,0,25,0,0
119055,-158.424634572123,4,1,0,25,0,0
119243,-159.019966073407,4,1,0,25,0,0
119289,-159.134309357097,4,1,0,25,0,0
119430,-159.614350234574,4,1,0,25,0,0
119805,-160.813000261061,4,1,0,25,0,0
119993,-161.417306814331,4,1,0,25,0,0
120180,-162.020651745649,4,1,0,25,0,0
120368,-162.629496437658,4,1,0,25,0,0
120555,-163.237372286258,4,1,0,25,0,0
120649,-163.54379314279,4,1,0,25,0,0
120743,-163.8507891969,4,1,0,25,0,0
120836,-164.155086445773,4,1,0,25,0,0
120930,-164.463229988445,4,1,0,25,0,0
121024,-132.829819763218,4,1,0,25,0,0
121118,-165.081253453542,4,1,0,25,0,0
121211,-165.387835872294,4,1,0,25,0,0
121305,-165.698293469216,4,1,0,25,0,0
121493,-166.320958082441,4,1,0,25,0,0
121680,-166.94263186087,4,1,0,25,0,0
121868,-167.569972475682,4,1,0,25,0,0
122055,-134.651118950798,4,1,0,25,0,0
122243,-168.828366546461,4,1,0,25,0,0
122289,-169.03732950682,4,1,0,25,0,0
122336,-135.156504474356,4,1,0,25,0,0
122430,-169.459412505713,4,1,0,25,0,0
122571,-169.936787185379,4,1,0,25,0,0
122805,-170.731995634923,4,1,0,25,0,0
122992,-171.373576002478,4,1,0,25,0,0
123039,-171.530925212121,4,1,0,25,0,0
123368,-172.660533855031,4,1,0,25,0,0
123743,-173.957156327725,4,1,0,25,0,0
123789,-137.829325945681,4,1,0,25,0,0
123930,-174.607372655876,4,1,0,25,0,0
124024,-174.935136696282,4,1,0,25,0,0
124118,-175.263515998602,4,1,0,25,0,0
124305,-175.918615232443,4,1,0,25,0,0
124868,-177.905739976358,4,1,0,25,0,0
125055,-178.570715303884,4,1,0,25,0,0
125243,-179.241752180909,4,1,0,25,0,0
125430,-179.91172124924,4,1,0,25,0,0
125524,-180.249442341862,4,1,0,25,0,0
125618,-180.587797387267,4,1,0,25,0,0
125899,-141.902946898498,4,1,0,25,0,0
125993,-181.943950939897,4,1,0,25,0,0
126368,-183.310288749078,4,1,0,25,0,0
126555,-183.995465176302,4,1,0,25,0,0
126743,-184.686887295145,4,1,0,25,0,0
126836,-185.029880526867,4,1,0,25,0,0
126930,-185.377209166632,4,1,0,25,0,0
127118,-186.073823632778,4,1,0,25,0,0
127211,-186.419392628181,4,1,0,25,0,0
127305,-186.769329589082,4,1,0,25,0,0
127493,-187.471175395312,4,1,0,25,0,0
127680,-188.171904367163,4,1,0,25,0,0
127868,-188.87902079908,4,1,0,25,0,0
128055,-189.585012009567,4,1,0,25,0,0
128243,-190.297438647794,4,1,0,25,0,0
128289,-190.532974398935,4,1,0,25,0,0
128430,-191.008731614557,4,1,0,25,0,0
128618,-191.726508336956,4,1,0,25,0,0
128993,-193.166309858301,4,1,0,35,0,0
129696,-200,4,1,0,25,0,0
131993,-200,4,1,0,15,0,0
137243,-208.333333333333,4,1,0,15,0,0
137430,-217.391304347826,4,1,0,15,0,0
137618,-227.272727272727,4,1,0,15,0,0
137805,-238.095238095238,4,1,0,15,0,0
137993,-250,4,1,0,15,0,0
138180,-263.157894736842,4,1,0,15,0,0
138743,-303.030303030303,4,1,0,10,0,0
138993,-303.030303030303,4,1,0,10,0,0
139493,-318.110677066765,4,1,0,10,0,0
139993,-334.771735891882,4,1,0,10,0,0
140493,-353.273253328717,4,1,0,10,0,0
140993,-373.940812648174,4,1,0,10,0,0
141493,-397.175289342198,4,1,0,10,0,0
141993,-423.490151736521,4,1,0,10,0,0
142493,-453.537364675789,4,1,0,10,0,0
146243,-555.555555555556,4,1,0,10,0,0
146993,-500,4,1,0,10,0,0
149430,-200,4,1,0,10,0,0
151868,-25,4,1,0,20,0,0
151961,-25,4,1,0,25,0,0
152055,-25,4,1,0,30,0,0
152149,-25,4,1,0,35,0,0
152243,-25,4,1,0,5,0,0
152805,-40,4,1,0,50,0,0
152993,-40,4,1,0,50,0,1
153118,-50,4,1,0,50,0,1
153680,-39.5256916996047,4,1,0,50,0,1
153805,-50,4,1,0,50,0,1
154430,-39.0625,4,1,0,50,0,1
154555,-50,4,1,0,50,0,1
155180,-38.6100386100386,4,1,0,50,0,1
155305,-50,4,1,0,50,0,1
155930,-38.1679389312977,4,1,0,50,0,1
156055,-50,4,1,0,50,0,1
156680,-37.7358490566038,4,1,0,50,0,1
156805,-50,4,1,0,50,0,1
157430,-37.3134328358209,4,1,0,50,0,1
157555,-50,4,1,0,50,0,1
158180,-36.90036900369,4,1,0,50,0,1
158305,-50,4,1,0,50,0,1
158930,-36.4963503649635,4,1,0,50,0,1
159055,-50,4,1,0,50,0,1
159680,-36.101083032491,4,1,0,50,0,1
159805,-50,4,1,0,50,0,1
160430,-35.7142857142857,4,1,0,50,0,1
160555,-50,4,1,0,50,0,1
161180,-35.3356890459364,4,1,0,50,0,1
161305,-50,4,1,0,50,0,1
161930,-34.965034965035,4,1,0,50,0,1
162055,-50,4,1,0,50,0,1
162680,-34.6020761245675,4,1,0,50,0,1
162805,-50,4,1,0,50,0,1
163430,-34.2465753424658,4,1,0,50,0,1
163555,-50,4,1,0,50,0,1
164180,-33.8983050847458,4,1,0,50,0,1
164305,-50,4,1,0,50,0,1
164930,-33.5570469798658,4,1,0,50,0,1
165055,-50,4,1,0,50,0,1
165680,-33.2225913621262,4,1,0,50,0,1
165805,-50,4,1,0,50,0,1
166430,-32.8947368421053,4,1,0,50,0,1
166555,-50,4,1,0,50,0,1
167180,-32.5732899022801,4,1,0,50,0,1
167305,-50,4,1,0,50,0,1
167930,-32.258064516129,4,1,0,50,0,1
168055,-50,4,1,0,50,0,1
168680,-31.9488817891374,4,1,0,50,0,1
168805,-50,4,1,0,50,0,1
169430,-31.6455696202532,4,1,0,50,0,1
169555,-50,4,1,0,50,0,1
170180,-31.3479623824451,4,1,0,50,0,1
170305,-50,4,1,0,50,0,1
170930,-31.055900621118,4,1,0,50,0,1
171055,-50,4,1,0,50,0,1
171680,-31.4465408805031,4,1,0,50,0,1
171805,-50,4,1,0,50,0,1
172430,-32.258064516129,4,1,0,50,0,1
172555,-50,4,1,0,50,0,1
173180,-33.3333333333333,4,1,0,50,0,1
173305,-50,4,1,0,50,0,1
173930,-34.7222222222222,4,1,0,50,0,1
174055,-50,4,1,0,50,0,1
174680,-36.231884057971,4,1,0,50,0,1
174805,-50,4,1,0,50,0,1
175430,-38.0228136882129,4,1,0,50,0,1
175555,-50,4,1,0,50,0,1
176180,-40,4,1,0,50,0,1
176305,-50,4,1,0,50,0,1
176805,-33.3333333333333,4,1,0,50,0,1
177118,-50,4,1,0,50,0,1
177680,-25,4,1,0,50,0,1
177805,-50,4,1,0,50,0,1
178430,-30.7692307692308,4,1,0,50,0,1
178555,-50,4,1,0,50,0,1
179180,-22.9166666666667,4,1,0,50,0,1
179305,-50,4,1,0,50,0,1
179930,-22,4,1,0,50,0,1
180055,-50,4,1,0,50,0,1
180680,-21.1538461538462,4,1,0,50,0,1
180805,-50,4,1,0,50,0,1
181430,-26.6666666666667,4,1,0,50,0,1
181555,-50,4,1,0,50,0,1
182180,-19.6428571428571,4,1,0,50,0,1
182305,-50,4,1,0,50,0,1
182930,-18.9655172413793,4,1,0,50,0,1
183055,-50,4,1,0,50,0,1
183680,-18.3333333333333,4,1,0,50,0,1
183805,-50,4,1,0,50,0,1
184430,-23.5294117647059,4,1,0,50,0,1
184555,-50,4,1,0,50,0,1
185180,-17.1875,4,1,0,50,0,1
185305,-50,4,1,0,50,0,1
185930,-16.6666666666667,4,1,0,50,0,1
186055,-50,4,1,0,50,0,1
186680,-16.1764705882353,4,1,0,50,0,1
186805,-50,4,1,0,50,0,1
187430,-21.0526315789474,4,1,0,50,0,1
187555,-50,4,1,0,50,0,1
188180,-15.2777777777778,4,1,0,50,0,1
188305,-50,4,1,0,50,0,1
188930,-14.8648648648649,4,1,0,50,0,1
189055,-50,4,1,0,50,0,1
189680,-14.4736842105263,4,1,0,50,0,1
189805,-50,4,1,0,50,0,1
190430,-19.047619047619,4,1,0,50,0,1
190555,-50,4,1,0,50,0,1
191180,-13.75,4,1,0,50,0,1
191305,-50,4,1,0,50,0,1
191930,-13.4146341463415,4,1,0,50,0,1
192055,-50,4,1,0,50,0,1
192680,-13.0952380952381,4,1,0,50,0,1
192805,-50,4,1,0,50,0,1
193430,-17.3913043478261,4,1,0,50,0,1
193555,-50,4,1,0,50,0,1
194180,-12.5,4,1,0,50,0,1
194305,-50,4,1,0,50,0,1
194930,-16.6666666666667,4,1,0,50,0,1
195055,-50,4,1,0,50,0,1
195680,-14.2857142857143,4,1,0,50,0,1
195805,-50,4,1,0,50,0,1
196430,-20,4,1,0,50,0,1
196555,-50,4,1,0,50,0,1
197180,-16.6666666666667,4,1,0,50,0,1
197305,-50,4,1,0,50,0,1
197930,-25,4,1,0,50,0,1
198055,-50,4,1,0,50,0,1
198680,-21.2765957446809,4,1,0,50,0,1
198805,-50,4,1,0,50,0,1
199430,-40,4,1,0,50,0,1
199555,-50,4,1,0,50,0,1
200180,-40.8163265306122,4,1,0,50,0,1
200305,-55.5555555555556,4,1,0,50,0,1
200868,-66.6666666666667,4,1,0,35,0,1
200993,-66.6666666666667,4,1,0,35,0,0
201180,-63.6942675159236,4,1,0,20,0,0
201743,-76.9230769230769,4,1,0,20,0,0
201993,-73.5294117647059,4,1,0,20,0,0
202493,-83.3333333333333,4,1,0,20,0,0
202743,-80,4,1,0,20,0,0
203243,-90.9090909090909,4,1,0,20,0,0
203493,-87.719298245614,4,1,0,20,0,0
203711,-100,4,1,0,15,0,0
204087,-98.5221674876847,4,1,0,15,0,0
204649,-106.382978723404,4,1,0,10,0,0
205493,-117.647058823529,4,1,0,10,0,0
206243,-128.205128205128,4,1,0,10,0,0
206805,-138.888888888889,4,1,0,10,0,0
207087,-136.054421768707,4,1,0,10,0,0
207743,-147.058823529412,4,1,0,10,0,0
208493,-161.290322580645,4,1,0,10,0,0
209243,-178.571428571429,4,1,0,10,0,0
209805,-200,4,1,0,10,0,0
210087,-194.174757281553,4,1,0,10,0,0

[HitObjects]
0,0,1500,5,0,0:0:0:0:
512,0,2250,1,0,0:0:0:0:
0,384,3000,1,0,0:0:0:0:
512,384,3750,1,0,0:0:0:0:
320,128,4500,1,8,0:0:0:0:
320,128,5250,1,8,0:0:0:0:
192,128,6000,1,0,0:0:0:0:
320,128,6375,1,8,0:0:0:0:
192,128,6750,1,0,0:0:0:0:
320,128,7312,1,8,0:0:0:0:
192,128,7500,1,0,0:0:0:0:
320,128,7625,1,8,0:0:0:0:
192,128,8250,1,0,0:0:0:0:
320,128,8625,1,8,0:0:0:0:
320,128,8812,1,8,0:0:0:0:
192,128,9000,1,0,0:0:0:0:
320,128,9187,1,8,0:0:0:0:
320,128,9375,1,8,0:0:0:0:
192,128,9750,1,0,0:0:0:0:
320,128,10312,1,8,0:0:0:0:
192,128,10500,1,0,0:0:0:0:
320,128,10687,1,8,0:0:0:0:
320,128,10875,1,8,0:0:0:0:
192,128,11250,1,0,0:0:0:0:
192,128,11625,1,0,0:0:0:0:
192,128,11812,1,0,0:0:0:0:
320,128,12000,1,8,0:0:0:0:
192,128,12750,1,0,0:0:0:0:
320,128,13125,1,8,0:0:0:0:
320,128,13312,1,8,0:0:0:0:
192,128,13500,1,0,0:0:0:0:
192,128,13750,1,0,0:0:0:0:
192,128,14250,1,0,0:0:0:0:
192,128,14812,1,0,0:0:0:0:
320,128,15000,1,8,0:0:0:0:
320,128,15562,1,8,0:0:0:0:
320,128,15750,1,8,0:0:0:0:
320,128,16125,1,8,0:0:0:0:
192,128,16500,1,0,0:0:0:0:
192,128,17250,1,0,0:0:0:0:
192,128,18000,1,0,0:0:0:0:
192,128,18750,1,0,0:0:0:0:
320,128,18937,1,8,0:0:0:0:
320,128,19125,1,8,0:0:0:0:
320,128,19312,1,8,0:0:0:0:
96,288,19500,6,0,L|165:311,1,73.23119875288
416,352,21000,2,0,L|358:299,1,78.655731993834
320,288,22500,2,0,L|252:303,1,70.518932132403
198,183,24000,2,0,L|184:246,1,65.094398891449
323,293,25500,2,0,L|276:243,1,67.806665511926
320,320,27000,2,0,L|335:260,1,62.382132270972
256,192,28500,12,0,32812,0:0:0:0:
64,64,33000,5,0,0:0:0:0:
256,192,34875,12,0,35812,0:0:0:0:
192,256,36000,5,0,0:0:0:0:
320,256,36187,1,8,0:0:0:0:
192,256,37062,1,0,0:0:0:0:
320,256,37125,1,8,0:0:0:0:
64,64,37750,1,0,0:0:0:0:
64,64,37812,1,0,0:0:0:0:
64,64,38062,1,8,0:0:0:0:
320,64,38625,1,8,0:0:0:0:
64,64,38718,1,0,0:0:0:0:
320,64,38812,1,8,0:0:0:0:
64,64,39187,1,0,0:0:0:0:
320,64,40125,1,8,0:0:0:0:
320,64,40312,1,8,0:0:0:0:
320,64,40687,1,8,0:0:0:0:
64,64,40750,1,0,0:0:0:0:
320,64,40812,1,8,0:0:0:0:
64,64,40875,1,0,0:0:0:0:
320,64,40937,1,8,0:0:0:0:
64,64,41000,1,0,0:0:0:0:
320,64,41062,1,8,0:0:0:0:
320,64,41625,1,8,0:0:0:0:
320,64,41718,1,8,0:0:0:0:
320,64,41812,1,8,0:0:0:0:
64,64,42187,1,0,0:0:0:0:
320,64,42375,1,8,0:0:0:0:
64,64,42562,1,0,0:0:0:0:
320,64,42937,1,8,0:0:0:0:
320,64,43125,1,8,0:0:0:0:
64,64,43312,1,0,0:0:0:0:
64,64,43687,1,0,0:0:0:0:
320,64,43875,1,8,0:0:0:0:
64,64,44062,1,0,0:0:0:0:
320,64,44437,1,8,0:0:0:0:
320,64,44625,1,8,0:0:0:0:
64,64,44812,1,0,0:0:0:0:
320,64,45000,1,8,0:0:0:0:
320,64,45125,1,8,0:0:0:0:
64,64,45250,1,0,0:0:0:0:
320,64,45375,1,8,0:0:0:0:
64,64,45500,1,0,0:0:0:0:
320,64,45562,1,8,0:0:0:0:
64,64,45625,1,0,0:0:0:0:
320,64,45687,1,8,0:0:0:0:
64,64,45750,1,0,0:0:0:0:
320,64,45843,1,8,0:0:0:0:
64,64,45937,1,0,0:0:0:0:
64,64,46062,1,0,0:0:0:0:
320,64,46187,1,8,0:0:0:0:
320,64,46350,1,8,0:0:0:0:
320,64,46500,1,8,0:0:0:0:
256,192,46687,12,0,48000,0:0:0:0:
320,64,48187,5,8,0:0:0:0:
320,64,48281,1,8,0:0:0:0:
320,64,48375,1,8,0:0:0:0:
64,64,48750,1,0,0:0:0:0:
320,64,48937,1,8,0:0:0:0:
320,64,49125,1,8,0:0:0:0:
64,64,49312,1,0,0:0:0:0:
64,64,49593,1,0,0:0:0:0:
320,64,49781,1,8,0:0:0:0:
320,64,49875,1,8,0:0:0:0:
64,64,50250,1,0,0:0:0:0:
64,64,50437,1,0,0:0:0:0:
320,64,50531,1,8,0:0:0:0:
320,64,50625,1,8,0:0:0:0:
64,64,51000,1,0,0:0:0:0:
320,64,51281,1,8,0:0:0:0:
320,64,51375,1,8,0:0:0:0:
64,64,51750,1,0,0:0:0:0:
320,64,52125,1,8,0:0:0:0:
64,64,52500,1,0,0:0:0:0:
320,64,52687,1,8,0:0:0:0:
320,64,52781,1,8,0:0:0:0:
320,64,52875,1,8,0:0:0:0:
64,64,53062,1,0,0:0:0:0:
64,64,53250,1,0,0:0:0:0:
64,64,53437,1,0,0:0:0:0:
320,64,53625,1,8,0:0:0:0:
320,64,53718,1,8,0:0:0:0:
320,64,53812,1,8,0:0:0:0:
320,64,53906,1,8,0:0:0:0:
64,64,54234,1,0,0:0:0:0:
64,64,54422,1,0,0:0:0:0:
320,64,54609,1,8,0:0:0:0:
320,64,54750,1,8,0:0:0:0:
64,64,54796,1,0,0:0:0:0:
64,64,54984,1,0,0:0:0:0:
64,64,55172,1,0,0:0:0:0:
64,64,55359,1,0,0:0:0:0:
320,64,55500,1,8,0:0:0:0:
64,64,55687,1,0,0:0:0:0:
320,64,55875,1,8,0:0:0:0:
320,64,56062,1,8,0:0:0:0:
64,64,56250,1,0,0:0:0:0:
320,64,56296,1,8,0:0:0:0:
64,64,56437,1,0,0:0:0:0:
320,64,56625,1,8,0:0:0:0:
320,64,56812,1,8,0:0:0:0:
320,64,57000,1,8,0:0:0:0:
64,64,57046,1,0,0:0:0:0:
320,64,57375,1,8,0:0:0:0:
64,64,57750,1,0,0:0:0:0:
256,192,58125,12,0,58406,0:0:0:0:
256,192,58500,12,0,59812,0:0:0:0:
64,64,59993,5,0,0:0:0:0:
320,64,60180,1,8,0:0:0:0:
320,64,60368,1,8,0:0:0:0:
320,64,60555,1,8,0:0:0:0:
64,64,60743,1,0,0:0:0:0:
64,64,60930,1,0,0:0:0:0:
320,64,61118,1,8,0:0:0:0:
320,64,61305,1,8,0:0:0:0:
64,64,61493,1,0,0:0:0:0:
320,64,61680,1,8,0:0:0:0:
64,64,61868,1,0,0:0:0:0:
64,64,62055,1,0,0:0:0:0:
64,64,62149,1,0,0:0:0:0:
320,64,62243,1,8,0:0:0:0:
320,64,62430,1,8,0:0:0:0:
64,64,62618,1,0,0:0:0:0:
320,64,62805,1,8,0:0:0:0:
64,64,62993,1,0,0:0:0:0:
320,64,63243,1,8,0:0:0:0:
320,64,63368,1,8,0:0:0:0:
320,64,63493,1,8,0:0:0:0:
320,64,63618,1,8,0:0:0:0:
64,64,63743,1,0,0:0:0:0:
64,64,64118,1,0,0:0:0:0:
320,64,64305,1,8,0:0:0:0:
64,64,64493,1,0,0:0:0:0:
320,64,64680,1,8,0:0:0:0:
320,64,64868,1,8,0:0:0:0:
320,64,65055,1,8,0:0:0:0:
64,64,65243,1,0,0:0:0:0:
64,64,65430,1,0,0:0:0:0:
320,64,65618,1,8,0:0:0:0:
320,64,65805,1,8,0:0:0:0:
64,64,65993,1,0,0:0:0:0:
320,64,66180,1,8,0:0:0:0:
64,64,66368,1,0,0:0:0:0:
64,64,66493,1,0,0:0:0:0:
64,64,66618,1,0,0:0:0:0:
320,64,66743,1,8,0:0:0:0:
320,64,66930,1,8,0:0:0:0:
320,64,67024,1,8,0:0:0:0:
64,64,67118,1,0,0:0:0:0:
320,64,67305,1,8,0:0:0:0:
64,64,67493,1,0,0:0:0:0:
320,64,67680,1,8,0:0:0:0:
192,256,67868,1,0,0:0:0:0:
192,256,67993,1,0,0:0:0:0:
192,256,68118,1,0,0:0:0:0:
320,128,68243,1,8,0:0:0:0:
320,128,68368,1,8,0:0:0:0:
320,128,68493,1,8,0:0:0:0:
320,128,68618,1,8,0:0:0:0:
64,64,68993,1,0,0:0:0:0:
320,64,69180,1,8,0:0:0:0:
64,64,69368,1,0,0:0:0:0:
64,64,69555,1,0,0:0:0:0:
320,64,69743,1,8,0:0:0:0:
320,64,69930,1,8,0:0:0:0:
320,64,70024,1,8,0:0:0:0:
64,64,70118,1,0,0:0:0:0:
320,64,70305,1,8,0:0:0:0:
64,64,70493,1,0,0:0:0:0:
320,64,70680,1,8,0:0:0:0:
64,64,70868,1,0,0:0:0:0:
64,64,71055,1,0,0:0:0:0:
320,64,71243,1,8,0:0:0:0:
64,64,71430,1,0,0:0:0:0:
320,64,71618,1,8,0:0:0:0:
64,64,71805,1,0,0:0:0:0:
64,64,71899,1,0,0:0:0:0:
64,64,71993,1,0,0:0:0:0:
320,64,72180,1,8,0:0:0:0:
320,64,72368,1,8,0:0:0:0:
320,64,72555,1,8,0:0:0:0:
64,64,72743,1,0,0:0:0:0:
320,64,72930,1,8,0:0:0:0:
64,64,73118,1,0,0:0:0:0:
64,64,73305,1,0,0:0:0:0:
320,64,73493,1,8,0:0:0:0:
320,64,73680,1,8,0:0:0:0:
64,64,73868,1,0,0:0:0:0:
64,64,74055,1,0,0:0:0:0:
64,64,74149,1,0,0:0:0:0:
320,64,74243,1,8,0:0:0:0:
320,64,74430,1,8,0:0:0:0:
320,64,74618,1,8,0:0:0:0:
320,64,74805,1,8,0:0:0:0:
64,64,74993,1,0,0:0:0:0:
320,64,75743,1,8,0:0:0:0:
64,64,76024,1,0,0:0:0:0:
320,64,76118,1,8,0:0:0:0:
64,64,76493,1,0,0:0:0:0:
320,64,77243,1,8,0:0:0:0:
64,64,77524,1,0,0:0:0:0:
320,64,77618,1,8,0:0:0:0:
64,64,77993,1,0,0:0:0:0:
320,64,78180,1,8,0:0:0:0:
320,64,78368,1,8,0:0:0:0:
320,64,78555,1,8,0:0:0:0:
64,64,78743,1,0,0:0:0:0:
192,256,78837,1,0,0:0:0:0:
64,64,78930,1,0,0:0:0:0:
320,64,79118,1,8,0:0:0:0:
320,64,79305,1,8,0:0:0:0:
64,64,79493,1,0,0:0:0:0:
320,64,79680,1,8,0:0:0:0:
64,64,79868,1,0,0:0:0:0:
64,64,80055,1,0,0:0:0:0:
64,64,80149,1,0,0:0:0:0:
320,64,80243,1,8,0:0:0:0:
320,64,80430,1,8,0:0:0:0:
64,64,80618,1,0,0:0:0:0:
320,128,80711,1,8,0:0:0:0:
64,64,80805,1,0,0:0:0:0:
64,64,80993,1,0,0:0:0:0:
320,64,81180,1,8,0:0:0:0:
320,64,81368,1,8,0:0:0:0:
64,64,81743,1,0,0:0:0:0:
320,64,82118,1,8,0:0:0:0:
320,64,82305,1,8,0:0:0:0:
64,64,82493,1,0,0:0:0:0:
64,64,82680,1,0,0:0:0:0:
320,64,82868,1,8,0:0:0:0:
320,64,82961,1,8,0:0:0:0:
64,64,83055,1,0,0:0:0:0:
320,64,83243,1,8,0:0:0:0:
64,64,83430,1,0,0:0:0:0:
64,64,83618,1,0,0:0:0:0:
64,64,83711,1,0,0:0:0:0:
320,64,83805,1,8,0:0:0:0:
64,64,83993,1,0,0:0:0:0:
320,64,84180,1,8,0:0:0:0:
64,64,84368,1,0,0:0:0:0:
320,64,84555,1,8,0:0:0:0:
320,64,84649,1,8,0:0:0:0:
64,64,84743,1,0,0:0:0:0:
64,64,84930,1,0,0:0:0:0:
320,64,85118,1,8,0:0:0:0:
64,64,85305,1,0,0:0:0:0:
64,64,85399,1,0,0:0:0:0:
64,64,85493,1,0,0:0:0:0:
320,64,85680,1,8,0:0:0:0:
320,64,85868,1,8,0:0:0:0:
64,64,86243,1,0,0:0:0:0:
64,64,86618,1,0,0:0:0:0:
320,64,86711,1,8,0:0:0:0:
64,64,86805,1,0,0:0:0:0:
320,64,87180,1,8,0:0:0:0:
320,64,87368,1,8,0:0:0:0:
64,64,87555,1,0,0:0:0:0:
64,64,87649,1,0,0:0:0:0:
320,64,87743,1,8,0:0:0:0:
64,64,87930,1,0,0:0:0:0:
320,64,88118,1,8,0:0:0:0:
320,64,88305,1,8,0:0:0:0:
320,64,88399,1,8,0:0:0:0:
64,64,88493,1,0,0:0:0:0:
320,64,88680,1,8,0:0:0:0:
320,64,88868,1,8,0:0:0:0:
64,64,89055,1,0,0:0:0:0:
64,64,89149,1,0,0:0:0:0:
64,64,89243,1,0,0:0:0:0:
64,64,89430,1,0,0:0:0:0:
320,64,89618,1,8,0:0:0:0:
320,64,89805,1,8,0:0:0:0:
64,64,89993,1,0,0:0:0:0:
320,64,90180,1,8,0:0:0:0:
320,64,90368,1,8,0:0:0:0:
320,64,90461,1,8,0:0:0:0:
64,64,90555,1,0,0:0:0:0:
64,64,90743,1,0,0:0:0:0:
320,64,90930,1,8,0:0:0:0:
320,64,91118,1,8,0:0:0:0:
64,64,91305,1,0,0:0:0:0:
320,64,91493,1,8,0:0:0:0:
192,256,91680,1,0,0:0:0:0:
320,64,91774,1,8,0:0:0:0:
320,128,91868,1,8,0:0:0:0:
320,128,92055,1,8,0:0:0:0:
192,256,92243,1,0,0:0:0:0:
192,256,92430,1,0,0:0:0:0:
320,64,92618,1,8,0:0:0:0:
192,256,92805,1,0,0:0:0:0:
320,64,92899,1,8,0:0:0:0:
64,64,92993,1,0,0:0:0:0:
320,128,93743,1,8,0:0:0:0:
192,256,94024,1,0,0:0:0:0:
320,128,94118,1,8,0:0:0:0:
256,320,94493,1,0,0:0:0:0:
320,128,95243,1,8,0:0:0:0:
192,256,95524,1,0,0:0:0:0:
320,128,95618,1,8,0:0:0:0:
256,320,95993,1,0,0:0:0:0:
96,128,96368,1,0,0:0:0:0:
416,160,96649,1,8,0:0:0:0:
416,160,96743,1,8,0:0:0:0:
416,160,97118,1,8,0:0:0:0:
320,160,97868,1,8,0:0:0:0:
320,160,97961,1,8,0:0:0:0:
96,256,98243,1,8,0:0:0:0:
132,124,98430,1,0,0:0:0:0:
384,224,98618,1,8,0:0:0:0:
352,64,98805,1,8,0:0:0:0:
256,64,98993,1,0,0:0:0:0:
96,288,99368,1,8,0:0:0:0:
128,256,99555,1,0,0:0:0:0:
352,320,99743,1,8,0:0:0:0:
96,128,100118,1,0,0:0:0:0:
448,128,100305,1,8,0:0:0:0:
192,192,100493,1,0,0:0:0:0:
96,96,100774,1,0,0:0:0:0:
416,224,100868,1,8,0:0:0:0:
320,32,101055,1,8,0:0:0:0:
384,160,101243,1,8,0:0:0:0:
192,256,101305,1,0,0:0:0:0:
416,128,101368,1,8,0:0:0:0:
192,256,101430,1,0,0:0:0:0:
416,128,101493,1,8,0:0:0:0:
288,128,101618,1,0,0:0:0:0:
192,256,101899,1,0,0:0:0:0:
320,128,101993,1,8,0:0:0:0:
96,128,102087,1,0,0:0:0:0:
320,128,102181,1,8,0:0:0:0:
96,128,102368,1,0,0:0:0:0:
352,320,102743,1,8,0:0:0:0:
0,0,102930,1,0,0:0:0:0:
416,160,103118,1,8,0:0:0:0:
192,256,103212,1,0,0:0:0:0:
416,160,103305,1,8,0:0:0:0:
160,224,103493,1,0,0:0:0:0:
192,256,103681,1,0,0:0:0:0:
192,256,103774,1,0,0:0:0:0:
256,192,104055,1,0,0:0:0:0:
256,96,104243,1,8,0:0:0:0:
192,256,104524,1,0,0:0:0:0:
320,128,104618,1,8,0:0:0:0:
256,96,104993,1,0,0:0:0:0:
128,64,105243,1,0,0:0:0:0:
352,96,105368,1,8,0:0:0:0:
320,128,105556,1,8,0:0:0:0:
192,256,105649,1,0,0:0:0:0:
320,128,105743,1,8,0:0:0:0:
192,256,105805,1,0,0:0:0:0:
192,256,105868,1,0,0:0:0:0:
320,128,105930,1,8,0:0:0:0:
352,96,106118,1,8,0:0:0:0:
192,256,106212,1,0,0:0:0:0:
192,256,106493,1,0,0:0:0:0:
192,288,106618,1,8,0:0:0:0:
96,128,106868,1,0,0:0:0:0:
256,192,107243,12,0,107805,0:0:0:0:
256,192,107993,5,0,0:0:0:0:
256,192,108368,1,8,0:0:0:0:
320,128,108556,1,8,0:0:0:0:
192,256,108743,1,0,0:0:0:0:
352,128,109118,1,8,0:0:0:0:
128,128,109493,1,0,0:0:0:0:
352,128,109680,1,8,0:0:0:0:
128,128,109868,1,0,0:0:0:0:
288,64,110243,1,8,0:0:0:0:
416,64,110618,1,8,0:0:0:0:
416,64,110806,1,8,0:0:0:0:
96,128,110993,1,0,0:0:0:0:
96,160,111368,1,0,0:0:0:0:
352,128,111743,1,8,0:0:0:0:
192,256,112493,1,0,0:0:0:0:
224,256,112868,1,8,0:0:0:0:
320,128,113056,1,8,0:0:0:0:
192,256,113243,1,0,0:0:0:0:
416,288,113430,1,0,0:0:0:0:
352,128,113524,1,8,0:0:0:0:
352,128,113618,1,8,0:0:0:0:
352,128,113805,1,8,0:0:0:0:
96,128,113993,1,0,0:0:0:0:
96,128,114180,1,0,0:0:0:0:
288,224,114274,1,8,0:0:0:0:
192,192,114555,1,0,0:0:0:0:
288,192,114649,1,8,0:0:0:0:
192,192,114743,1,0,0:0:0:0:
256,96,115118,1,8,0:0:0:0:
192,96,115305,1,8,0:0:0:0:
192,256,115399,1,0,0:0:0:0:
256,64,115493,1,0,0:0:0:0:
192,128,115680,1,0,0:0:0:0:
288,96,115868,1,8,0:0:0:0:
192,256,116056,1,0,0:0:0:0:
192,256,116149,1,0,0:0:0:0:
384,128,116243,1,8,0:0:0:0:
384,128,116305,1,8,0:0:0:0:
160,128,116430,1,0,0:0:0:0:
224,160,116993,1,0,0:0:0:0:
128,64,117180,1,0,0:0:0:0:
320,64,117368,1,8,0:0:0:0:
320,128,117431,1,8,0:0:0:0:
128,192,117743,1,0,0:0:0:0:
352,192,117930,1,8,0:0:0:0:
320,128,117993,1,8,0:0:0:0:
192,192,118118,1,0,0:0:0:0:
192,192,118305,1,0,0:0:0:0:
192,192,118493,1,0,0:0:0:0:
224,288,118868,1,0,0:0:0:0:
224,288,119055,1,0,0:0:0:0:
384,96,119243,1,8,0:0:0:0:
192,256,119306,1,0,0:0:0:0:
320,128,119430,1,8,0:0:0:0:
128,96,119806,1,0,0:0:0:0:
320,224,119993,1,8,0:0:0:0:
192,224,120180,1,0,0:0:0:0:
384,224,120368,1,8,0:0:0:0:
384,224,120555,1,8,0:0:0:0:
384,224,120649,1,8,0:0:0:0:
192,128,120743,1,0,0:0:0:0:
192,128,120836,1,0,0:0:0:0:
128,224,120930,1,0,0:0:0:0:
352,192,121118,1,8,0:0:0:0:
64,256,121211,1,8,0:0:0:0:
320,128,121305,1,8,0:0:0:0:
192,128,121493,1,0,0:0:0:0:
320,128,121680,1,8,0:0:0:0:
320,128,121868,1,8,0:0:0:0:
96,96,122243,1,0,0:0:0:0:
96,96,122305,1,0,0:0:0:0:
320,128,122430,1,8,0:0:0:0:
384,160,122571,1,8,0:0:0:0:
128,160,122805,1,0,0:0:0:0:
160,128,123039,1,0,0:0:0:0:
320,160,123368,1,8,0:0:0:0:
96,160,123743,1,0,0:0:0:0:
96,160,123930,1,0,0:0:0:0:
96,160,124024,1,0,0:0:0:0:
288,192,124118,1,8,0:0:0:0:
160,224,124305,1,0,0:0:0:0:
160,224,124868,1,0,0:0:0:0:
160,224,125055,1,0,0:0:0:0:
352,224,125243,1,8,0:0:0:0:
224,256,125430,1,0,0:0:0:0:
448,256,125524,1,8,0:0:0:0:
384,288,125618,1,8,0:0:0:0:
160,224,125993,1,4,0:0:0:0:
384,160,126368,1,8,0:0:0:0:
128,128,126555,1,0,0:0:0:0:
352,160,126743,1,8,0:0:0:0:
96,288,126836,1,8,0:0:0:0:
192,128,126930,1,0,0:0:0:0:
192,128,127118,1,0,0:0:0:0:
96,288,127211,1,8,0:0:0:0:
96,288,127305,1,8,0:0:0:0:
320,288,127493,1,8,0:0:0:0:
320,64,127680,1,0,0:0:0:0:
320,64,127868,1,0,0:0:0:0:
320,64,128055,1,8,0:0:0:0:
224,192,128243,1,0,0:0:0:0:
64,128,128305,1,0,0:0:0:0:
416,288,128430,1,8,0:0:0:0:
416,288,128618,1,8,0:0:0:0:
256,192,128993,12,0,129649,0:0:0:0:
320,64,129743,5,8,0:0:0:0:
64,64,129930,1,0,0:0:0:0:
64,64,130024,1,0,0:0:0:0:
320,64,130118,1,8,0:0:0:0:
416,128,130399,1,8,0:0:0:0:
64,64,130493,1,0,0:0:0:0:
64,64,130680,1,0,0:0:0:0:
64,64,130868,1,0,0:0:0:0:
320,64,131243,1,8,0:0:0:0:
64,64,131430,1,0,0:0:0:0:
320,64,131618,1,8,0:0:0:0:
320,64,131711,1,8,0:0:0:0:
320,64,131805,1,8,0:0:0:0:
64,64,131993,1,0,0:0:0:0:
64,64,132180,1,0,0:0:0:0:
320,64,132368,1,8,0:0:0:0:
64,64,132696,1,0,0:0:0:0:
320,64,133118,1,8,0:0:0:0:
64,64,133305,1,0,0:0:0:0:
320,64,133493,1,8,0:0:0:0:
320,64,133680,1,8,0:0:0:0:
64,64,133868,1,0,0:0:0:0:
320,64,134243,1,8,0:0:0:0:
64,64,134430,1,0,0:0:0:0:
64,64,134618,1,0,0:0:0:0:
320,64,134805,1,8,0:0:0:0:
320,64,134993,1,8,0:0:0:0:
64,64,135180,1,0,0:0:0:0:
320,64,135368,1,8,0:0:0:0:
64,64,135555,1,0,0:0:0:0:
320,64,135743,1,8,0:0:0:0:
320,64,135930,1,8,0:0:0:0:
64,64,136118,1,0,0:0:0:0:
320,64,136305,1,8,0:0:0:0:
64,64,136680,1,0,0:0:0:0:
320,64,136868,1,8,0:0:0:0:
64,64,137243,1,0,0:0:0:0:
320,64,137430,1,8,0:0:0:0:
320,64,137618,1,8,0:0:0:0:
64,64,137805,1,0,0:0:0:0:
320,64,137993,1,8,0:0:0:0:
64,64,138180,1,0,0:0:0:0:
64,64,138993,1,0,0:0:0:0:
320,64,139493,1,8,0:0:0:0:
64,64,139993,1,0,0:0:0:0:
320,64,140493,1,8,0:0:0:0:
320,64,140993,1,8,0:0:0:0:
64,64,141493,1,0,0:0:0:0:
320,64,141993,1,8,0:0:0:0:
160,224,142493,2,0,L|279:312,1,146.604603530005
160,192,146243,2,0,L|164:192,6,3.1500000769043
96,88,149430,1,0,0:0:0:0:
84,202,149805,1,0,0:0:0:0:
84,202,149993,1,0,0:0:0:0:
279,196,150180,1,8,0:0:0:0:
279,196,150368,1,8,0:0:0:0:
84,202,150555,1,0,0:0:0:0:
84,202,150743,1,0,0:0:0:0:
286,192,150930,1,8,0:0:0:0:
84,202,151118,1,0,0:0:0:0:
96,192,152993,1,4,0:0:0:0:
128,96,153243,1,0,0:0:0:0:
0,0,153368,1,8,0:0:0:0:
0,0,153555,1,0,0:0:0:0:
448,160,153743,1,12,0:0:0:0:
32,128,153993,1,8,0:0:0:0:
0,0,154118,1,8,0:0:0:0:
0,0,154305,1,0,0:0:0:0:
448,64,154493,1,4,0:0:0:0:
128,64,154743,1,0,0:0:0:0:
0,0,154868,1,8,0:0:0:0:
0,0,155055,1,0,0:0:0:0:
256,64,155243,1,12,0:0:0:0:
128,128,155493,1,0,0:0:0:0:
0,0,155618,1,0,0:0:0:0:
192,256,155806,1,0,0:0:0:0:
96,64,155993,1,4,0:0:0:0:
64,64,156243,1,0,0:0:0:0:
0,0,156368,1,8,0:0:0:0:
0,0,156555,1,8,0:0:0:0:
96,320,156743,1,12,0:0:0:0:
416,128,156993,1,8,0:0:0:0:
0,0,157118,1,8,0:0:0:0:
256,192,157305,1,0,0:0:0:0:
320,64,157493,1,4,0:0:0:0:
384,160,157743,1,8,0:0:0:0:
0,0,157868,1,0,0:0:0:0:
0,0,158055,1,8,0:0:0:0:
352,224,158243,1,12,0:0:0:0:
384,96,158493,1,8,0:0:0:0:
448,64,158618,1,8,0:0:0:0:
192,160,158805,1,8,0:0:0:0:
96,160,158993,1,4,0:0:0:0:
96,160,159243,1,0,0:0:0:0:
192,224,159368,1,8,0:0:0:0:
96,160,159555,1,0,0:0:0:0:
352,128,159743,1,12,0:0:0:0:
192,224,159993,1,8,0:0:0:0:
96,192,160118,1,0,0:0:0:0:
224,224,160305,1,8,0:0:0:0:
96,96,160493,1,4,0:0:0:0:
128,224,160743,1,0,0:0:0:0:
352,192,160868,1,8,0:0:0:0:
128,224,161055,1,0,0:0:0:0:
352,192,161243,1,12,0:0:0:0:
288,96,161493,1,8,0:0:0:0:
192,160,161618,1,0,0:0:0:0:
448,192,161805,1,8,0:0:0:0:
160,320,161993,1,4,0:0:0:0:
128,128,162243,1,0,0:0:0:0:
256,96,162368,1,0,0:0:0:0:
128,96,162555,1,0,0:0:0:0:
416,96,162743,1,12,0:0:0:0:
288,160,162993,1,8,0:0:0:0:
267,313,163118,1,0,0:0:0:0:
352,160,163305,1,8,0:0:0:0:
320,96,163493,1,4,0:0:0:0:
352,224,163743,1,8,0:0:0:0:
448,192,163868,1,0,0:0:0:0:
352,224,164055,1,8,0:0:0:0:
288,192,164243,1,12,0:0:0:0:
480,160,164493,1,8,0:0:0:0:
160,96,164618,1,0,0:0:0:0:
416,96,164805,1,8,0:0:0:0:
256,352,164993,1,4,0:0:0:0:
384,192,165243,1,8,0:0:0:0:
480,224,165368,1,8,0:0:0:0:
384,192,165555,1,0,0:0:0:0:
288,96,165743,1,12,0:0:0:0:
224,192,165993,1,0,0:0:0:0:
224,192,166118,1,0,0:0:0:0:
320,96,166305,1,8,0:0:0:0:
384,64,166493,1,4,0:0:0:0:
224,256,166743,1,8,0:0:0:0:
256,256,166868,1,8,0:0:0:0:
96,192,167055,1,0,0:0:0:0:
320,160,167243,1,12,0:0:0:0:
288,64,167493,1,8,0:0:0:0:
184,197,167618,1,0,0:0:0:0:
416,128,167805,1,8,0:0:0:0:
160,96,167993,1,4,0:0:0:0:
352,224,168243,1,8,0:0:0:0:
64,192,168368,1,8,0:0:0:0:
64,192,168555,1,0,0:0:0:0:
384,128,168743,1,12,0:0:0:0:
384,32,168993,1,0,0:0:0:0:
192,160,169118,1,0,0:0:0:0:
416,192,169305,1,8,0:0:0:0:
416,352,169493,1,4,0:0:0:0:
448,128,169743,1,8,0:0:0:0:
416,128,169868,1,8,0:0:0:0:
192,224,170055,1,0,0:0:0:0:
352,160,170243,1,12,0:0:0:0:
320,224,170493,1,8,0:0:0:0:
64,160,170618,1,0,0:0:0:0:
320,224,170805,1,8,0:0:0:0:
32,224,170993,1,4,0:0:0:0:
128,192,171243,1,0,0:0:0:0:
384,128,171368,1,8,0:0:0:0:
224,288,171743,1,12,0:0:0:0:
384,128,171993,1,8,0:0:0:0:
320,128,172118,1,8,0:0:0:0:
96,128,172306,1,0,0:0:0:0:
480,192,172493,1,4,0:0:0:0:
256,96,172743,1,8,0:0:0:0:
320,128,172868,1,8,0:0:0:0:
320,256,173243,1,12,0:0:0:0:
192,192,173493,1,0,0:0:0:0:
128,320,173993,1,4,0:0:0:0:
320,160,174243,1,8,0:0:0:0:
128,160,174493,1,0,0:0:0:0:
224,128,174743,1,12,0:0:0:0:
256,352,174993,1,8,0:0:0:0:
288,192,175243,1,0,0:0:0:0:
320,96,175493,1,4,0:0:0:0:
416,160,175743,1,8,0:0:0:0:
416,192,176243,1,12,0:0:0:0:
288,96,176493,1,8,0:0:0:0:
96,192,176993,1,4,0:0:0:0:
128,96,177243,1,0,0:0:0:0:
320,128,177368,1,8,0:0:0:0:
192,256,177556,1,0,0:0:0:0:
448,160,177743,1,12,0:0:0:0:
288,160,177993,1,8,0:0:0:0:
320,128,178118,1,8,0:0:0:0:
192,256,178306,1,0,0:0:0:0:
448,64,178493,1,4,0:0:0:0:
192,256,178743,1,0,0:0:0:0:
96,128,178868,1,8,0:0:0:0:
192,256,179056,1,0,0:0:0:0:
256,64,179243,1,12,0:0:0:0:
224,256,179493,1,0,0:0:0:0:
192,256,179618,1,0,0:0:0:0:
192,256,179806,1,0,0:0:0:0:
96,64,179993,1,4,0:0:0:0:
160,128,180243,1,0,0:0:0:0:
320,128,180368,1,8,0:0:0:0:
320,128,180556,1,8,0:0:0:0:
96,320,180743,1,12,0:0:0:0:
416,128,180993,1,8,0:0:0:0:
320,128,181118,1,8,0:0:0:0:
192,256,181306,1,0,0:0:0:0:
320,64,181493,1,4,0:0:0:0:
384,160,181743,1,8,0:0:0:0:
192,256,181868,1,0,0:0:0:0:
320,128,182056,1,8,0:0:0:0:
352,224,182243,1,12,0:0:0:0:
288,128,182493,1,8,0:0:0:0:
320,128,182618,1,8,0:0:0:0:
116,100,182805,1,8,0:0:0:0:
96,160,182993,1,4,0:0:0:0:
96,160,183243,1,0,0:0:0:0:
192,224,183368,1,8,0:0:0:0:
96,160,183555,1,0,0:0:0:0:
352,128,183743,1,12,0:0:0:0:
192,224,183993,1,8,0:0:0:0:
96,192,184118,1,0,0:0:0:0:
224,224,184305,1,8,0:0:0:0:
96,96,184493,1,4,0:0:0:0:
128,224,184743,1,0,0:0:0:0:
352,192,184868,1,8,0:0:0:0:
128,224,185055,1,0,0:0:0:0:
352,192,185243,1,12,0:0:0:0:
128,64,185493,1,8,0:0:0:0:
192,160,185618,1,0,0:0:0:0:
448,192,185805,1,8,0:0:0:0:
160,320,185993,1,4,0:0:0:0:
128,128,186243,1,0,0:0:0:0:
256,96,186368,1,0,0:0:0:0:
128,96,186555,1,0,0:0:0:0:
416,96,186743,1,12,0:0:0:0:
160,192,186993,1,8,0:0:0:0:
160,192,187118,1,0,0:0:0:0:
352,160,187305,1,8,0:0:0:0:
320,96,187493,1,4,0:0:0:0:
352,224,187743,1,8,0:0:0:0:
448,192,187868,1,0,0:0:0:0:
352,224,188055,1,8,0:0:0:0:
288,192,188243,1,12,0:0:0:0:
160,96,188493,1,8,0:0:0:0:
160,96,188618,1,0,0:0:0:0:
416,96,188805,1,8,0:0:0:0:
256,352,188993,1,4,0:0:0:0:
384,192,189243,1,8,0:0:0:0:
480,224,189368,1,8,0:0:0:0:
384,192,189555,1,0,0:0:0:0:
288,96,189743,1,12,0:0:0:0:
320,160,189993,1,0,0:0:0:0:
224,192,190118,1,0,0:0:0:0:
320,96,190305,1,8,0:0:0:0:
384,64,190493,1,4,0:0:0:0:
224,256,190743,1,8,0:0:0:0:
256,256,190868,1,8,0:0:0:0:
96,192,191055,1,0,0:0:0:0:
320,160,191243,1,12,0:0:0:0:
416,192,191493,1,8,0:0:0:0:
320,128,191618,1,8,0:0:0:0:
416,128,191805,1,8,0:0:0:0:
160,96,191993,1,4,0:0:0:0:
352,224,192243,1,8,0:0:0:0:
64,192,192368,1,8,0:0:0:0:
64,192,192555,1,0,0:0:0:0:
384,128,192743,1,12,0:0:0:0:
384,32,192993,1,0,0:0:0:0:
192,160,193118,1,0,0:0:0:0:
416,192,193305,1,8,0:0:0:0:
416,352,193493,1,4,0:0:0:0:
448,128,193743,1,8,0:0:0:0:
416,128,193868,1,8,0:0:0:0:
192,224,194055,1,0,0:0:0:0:
352,160,194243,1,12,0:0:0:0:
192,256,194493,1,0,0:0:0:0:
64,160,194618,1,8,0:0:0:0:
320,224,194805,1,8,0:0:0:0:
32,224,194993,1,4,0:0:0:0:
160,192,195243,1,0,0:0:0:0:
384,128,195368,1,8,0:0:0:0:
224,288,195743,1,12,0:0:0:0:
384,128,195993,1,8,0:0:0:0:
320,128,196118,1,8,0:0:0:0:
352,128,196306,1,0,0:0:0:0:
480,192,196493,1,4,0:0:0:0:
320,128,196743,1,8,0:0:0:0:
320,128,196868,1,8,0:0:0:0:
320,256,197243,1,12,0:0:0:0:
192,192,197493,1,0,0:0:0:0:
128,320,197993,1,4,0:0:0:0:
320,160,198243,1,8,0:0:0:0:
128,160,198493,1,0,0:0:0:0:
224,128,198743,1,12,0:0:0:0:
416,160,198993,1,8,0:0:0:0:
288,192,199243,1,0,0:0:0:0:
320,96,199493,1,4,0:0:0:0:
416,160,199743,1,8,0:0:0:0:
416,192,200243,1,12,0:0:0:0:
288,96,200493,1,8,0:0:0:0:
128,192,200993,5,0,0:0:0:0:
256,256,201243,1,8,0:0:0:0:
128,192,201743,1,0,0:0:0:0:
96,64,201993,1,8,0:0:0:0:
128,192,202493,1,0,0:0:0:0:
320,320,202743,1,8,0:0:0:0:
128,192,203243,1,0,0:0:0:0:
416,64,203493,1,8,0:0:0:0:
192,256,203805,1,0,0:0:0:0:
128,192,203993,1,0,0:0:0:0:
320,96,204180,1,8,0:0:0:0:
320,96,204368,1,8,0:0:0:0:
128,192,204743,1,0,0:0:0:0:
128,192,205493,1,0,0:0:0:0:
128,192,206243,1,0,0:0:0:0:
128,128,206805,1,0,0:0:0:0:
192,192,206993,1,0,0:0:0:0:
352,192,207180,1,8,0:0:0:0:
352,192,207368,1,8,0:0:0:0:
256,192,207743,1,0,0:0:0:0:
256,224,208493,1,0,0:0:0:0:
256,256,209243,1,0,0:0:0:0:
256,288,209805,1,0,0:0:0:0:
256,256,209993,1,0,0:0:0:0:
256,224,210180,1,8,0:0:0:0:
256,192,210368,1,8,0:0:0:0:
