osu file format v14

[General]
AudioFilename: tenshofull.mp3
AudioLeadIn: 0
PreviewTime: 89226
Countdown: 0
SampleSet: Soft
StackLeniency: 0.7
Mode: 0
LetterboxInBreaks: 0
WidescreenStoryboard: 0

[Editor]
DistanceSpacing: 2
BeatDivisor: 3
GridSize: 4
TimelineZoom: 4.499998

[Metadata]
Title:Ten Sho Sho Ten Sho
TitleUnicode:てんしょう しょうてんしょう
Artist:Kikuo
ArtistUnicode:きくお
Creator:Squigly
Version:Ascension Reincarnation
Source:
Tags:Dubstep Hatsune_Miku Kikuo Vocaloid Kikuo_P Glitch hop Drumstep Vocastep Marathon Dolphin
BeatmapID:451362
BeatmapSetID:189457

[Difficulty]
HPDrainRate:6.5
CircleSize:4
OverallDifficulty:8
ApproachRate:9
SliderMultiplier:1.4
SliderTickRate:1

[Events]
//Background and Video events
0,0,"bg resized ten sho.png",0,0
//Break Periods
2,245240,254040
2,261740,263630
//Storyboard Layer 0 (Background)
//Storyboard Layer 1 (Fail)
//Storyboard Layer 2 (Pass)
//Storyboard Layer 3 (Foreground)
//Storyboard Sound Samples

[TimingPoints]
158,352.941176470588,4,2,0,5,1,0
1216,-100,4,2,0,10,0,0
1922,-100,4,2,0,15,0,0
2275,-100,4,2,0,20,0,0
2628,-100,4,2,0,25,0,0
2981,-100,4,2,0,30,0,0
3334,-100,4,2,0,40,0,0
3687,-100,4,2,0,5,0,0
4393,-100,4,2,0,35,0,0
10040,-80,4,2,0,45,0,0
14275,-100,4,2,0,50,0,0
14628,-100,4,2,0,35,0,0
14981,-100,4,2,0,15,0,0
15687,-66.6666666666667,4,2,0,60,0,0
20452,-58.8235294117647,4,2,0,60,0,0
20982,-66.6666666666667,4,2,0,60,0,0
26982,-66.6666666666667,4,2,0,30,0,0
32629,-100,4,2,0,40,0,0
38275,-100,4,2,0,50,0,0
40128,-66.6666666666667,4,2,0,50,0,0
41099,-100,4,2,0,50,0,0
42246,-100,4,2,0,50,0,0
42510,-66.6666666666667,4,2,0,50,0,0
43922,-100,4,2,0,50,0,0
45157,-66.6666666666667,4,2,0,50,0,0
47628,-100,4,2,0,50,0,0
48157,-66.6666666666667,4,2,0,50,0,0
49569,-100,4,2,0,50,0,0
50275,-66.6666666666667,4,2,0,50,0,0
51687,-80,4,2,0,50,0,0
53805,-66.6666666666667,4,2,0,50,0,0
54687,-76.9230769230769,4,2,0,50,0,0
54863,-58.8235294117647,4,2,0,50,0,0
55569,-100,4,2,0,50,0,0
55922,-66.6666666666667,4,2,0,50,0,0
56628,-100,4,2,0,50,0,0
57334,-80,4,2,0,50,0,0
58040,-100,4,2,0,50,0,0
58922,-80,4,2,0,50,0,0
59099,-66.6666666666667,4,2,0,50,0,0
60863,-100,4,2,0,50,0,0
61657,-80,4,2,0,50,0,0
62452,-100,4,2,0,50,0,0
62805,-80,4,2,0,50,0,0
64393,-100,4,2,0,50,0,0
65099,-66.6666666666667,4,2,0,50,0,0
66510,-100,4,2,0,50,0,0
68628,-66.6666666666667,4,2,0,50,0,0
69334,-100,4,2,0,50,0,0
70746,348.33091436865,4,2,0,50,1,0
70746,-66.6666666666667,4,2,0,50,0,0
71442,-100,4,2,0,50,0,0
72139,352.941176470588,4,2,0,50,1,0
72315,-100,4,2,0,60,0,0
74962,350.877192982456,4,2,0,50,1,0
74962,-90.9090909090909,4,2,0,50,0,0
76365,340.909090909091,4,2,0,50,1,0
76876,-66.6666666666667,4,2,0,50,0,0
77046,-90.9090909090909,4,2,0,50,0,0
77728,331.491712707182,4,2,0,50,1,0
77728,-80,4,2,0,50,0,0
79053,319.148936170213,4,2,0,50,1,0
80329,310.880829015544,4,2,0,50,1,0
80329,-80,4,2,0,50,0,0
81417,-66.6666666666667,4,2,0,50,0,0
81572,301.507537688442,4,2,0,50,1,0
81572,-80,4,2,0,50,0,0
82778,297.029702970297,4,2,0,60,1,0
83966,285.714285714286,4,2,0,63,1,0
85108,277.777777777778,4,2,0,65,1,0
86219,274.599542334096,4,2,0,70,1,0
87317,272.727272727273,4,2,0,50,1,0
87317,-80,4,2,0,50,0,0
88407,-66.6666666666667,4,2,0,50,0,0
89226,-66.6666666666667,4,2,0,50,0,0
90589,-66.6666666666667,4,2,0,35,0,0
91135,-100,4,2,0,50,0,0
91680,-100,4,2,0,50,0,1
92135,-66.6666666666667,4,2,0,50,0,1
92498,-71.4285714285714,4,2,0,50,0,1
92771,-80,4,2,0,50,0,1
94589,-66.6666666666667,4,2,0,50,0,1
96044,-100,4,2,0,50,0,1
96498,-66.6666666666667,4,2,0,50,0,1
97135,-80,4,2,0,50,0,1
98226,-100,4,2,0,50,0,1
99862,-66.6666666666667,4,2,0,50,0,1
100407,-80,4,2,0,50,0,1
100680,-66.6666666666667,4,2,0,50,0,1
101498,-80,4,2,0,50,0,1
102044,-100,4,2,0,50,0,1
103544,-80,4,2,0,50,0,1
105226,-66.6666666666667,4,2,0,50,0,1
106953,-100,4,2,0,50,0,1
108226,-80,4,2,0,50,0,1
108589,-66.6666666666667,4,2,0,50,0,1
109135,-100,4,2,0,50,0,1
110771,-133.333333333333,4,2,0,50,0,1
111498,-100,4,2,0,50,0,1
113498,-66.6666666666667,4,2,0,50,0,1
115135,-133.333333333333,4,2,0,50,0,1
115680,-100,4,2,0,50,0,1
116226,-133.333333333333,4,2,0,50,0,1
116771,-100,4,2,0,50,0,1
117317,-66.6666666666667,4,2,0,50,0,1
118953,-100,4,2,0,50,0,1
119498,-200,4,2,0,50,0,1
120135,-100,4,2,0,50,0,1
122226,-80,4,2,0,50,0,1
122635,-66.6666666666667,4,2,0,50,0,1
124407,-100,4,2,0,50,0,1
124953,-100,4,2,0,10,0,1
125430,-100,4,2,0,50,0,1
126589,533.333333333333,4,2,0,50,1,0
126589,-200,4,2,0,50,0,0
128722,510.63829787234,4,2,0,50,1,0
128722,-200,4,2,0,50,0,0
130764,489.795918367347,4,2,0,50,1,0
130764,-100,4,2,0,50,0,0
132723,470.588235294118,4,2,0,50,1,0
134605,452.830188679245,4,2,0,50,1,0
134605,-86.9565217391304,4,2,0,50,0,0
136416,436.363636363636,4,2,0,50,1,0
138161,421.052631578947,4,2,0,50,1,0
138161,-80,4,2,0,50,0,0
139845,406.779661016949,4,2,0,50,1,0
139845,-66.6666666666667,4,2,0,50,0,0
140251,-60.6060606060606,4,2,0,50,0,0
140658,-57.1428571428571,4,2,0,50,0,0
141065,-54.054054054054,4,2,0,50,0,0
141472,393.44262295082,4,2,0,20,1,0
141472,-200,4,2,0,20,0,0
143045,380.952380952381,4,2,0,20,1,0
143045,-200,4,2,0,20,0,0
144568,369.230769230769,4,2,0,25,1,0
144568,-200,4,2,0,25,0,0
146044,358.208955223881,4,2,0,25,1,0
146044,-200,4,2,0,25,0,0
147476,355.029585798817,4,2,0,30,1,0
147476,-133.333333333333,4,2,0,30,0,0
150316,352.941176470588,4,2,0,40,1,0
150316,-100,4,2,0,40,0,0
152433,-100,4,2,0,60,0,0
153139,-100,4,2,0,50,0,0
154109,-80,4,2,0,50,0,0
154550,-100,4,2,0,50,0,0
155080,-66.6666666666667,4,2,0,50,0,0
155962,-57.1428571428571,4,2,0,50,0,0
156315,-66.6666666666667,4,2,0,50,0,0
157374,-50,4,2,0,50,0,0
158786,-100,4,2,0,50,0,0
160727,-66.6666666666667,4,2,0,50,0,0
161962,-100,4,2,0,50,0,0
162315,-133.333333333333,4,2,0,50,0,0
163021,-50,4,2,0,50,0,0
163727,-100,4,2,0,50,0,0
165139,-66.6666666666667,4,2,0,50,0,0
165844,-80,4,2,0,50,0,0
166550,-100,4,2,0,50,0,0
167962,-66.6666666666667,4,2,0,50,0,0
168315,-50,4,2,0,50,0,0
170080,-66.6666666666667,4,2,0,50,0,0
170786,-100,4,2,0,50,0,0
170962,-80,4,2,0,50,0,0
171139,-66.6666666666667,4,2,0,50,0,0
171491,-100,4,2,0,50,0,0
172904,-66.6666666666667,4,2,0,50,0,0
173256,-66.6666666666667,4,2,0,50,0,0
173609,-100,4,2,0,50,0,0
173786,-80,4,2,0,50,0,0
173962,-66.6666666666667,4,2,0,50,0,0
174315,-50,4,2,0,50,0,0
175257,-66.6666666666667,4,2,0,50,0,0
175727,-133.333333333333,4,2,0,50,0,0
176433,-100,4,2,0,50,0,0
177139,-80,4,2,0,50,0,0
177668,-66.6666666666667,4,2,0,50,0,0
181374,-100,4,2,0,50,0,0
182080,-80,4,2,0,50,0,0
183315,-66.6666666666667,4,2,0,50,0,0
184551,-80,4,2,0,50,0,0
185609,-50,4,2,0,50,0,0
186315,-100,4,2,0,50,0,0
187021,681.818181818182,4,3,0,50,1,0
187702,645.161290322581,4,3,0,50,1,8
188347,600,4,3,0,50,1,8
188947,576.923076923077,4,3,0,50,1,8
189523,545.454545454546,4,3,0,50,1,0
190068,521.739130434783,4,3,0,50,1,8
190589,500,4,3,0,50,1,8
191089,472.44094488189,4,3,0,50,1,8
191561,454.545454545455,4,3,0,50,1,0
192015,431.654676258993,4,3,0,50,1,8
192446,413.793103448276,4,3,0,50,1,8
192859,400,4,3,0,50,1,8
193259,389.61038961039,4,3,0,50,1,0
193648,379.746835443038,4,3,0,50,1,8
194027,355.029585798817,4,3,0,50,1,8
194382,340.909090909091,4,3,0,50,1,8
194722,331.491712707182,4,3,0,50,1,0
194722,-66.6666666666667,4,3,0,50,0,0
195384,314.13612565445,4,3,0,55,1,8
195384,-66.6666666666667,4,3,0,55,0,0
196012,297.029702970297,4,3,0,60,1,0
196012,-57.1428571428571,4,3,0,60,0,0
196606,283.018867924528,4,3,0,65,1,8
196606,-57.1428571428571,4,3,0,65,0,0
196889,-100,4,3,0,30,0,0
197172,272.727272727273,4,3,0,45,1,0
198467,-100,4,2,0,30,0,0
199353,-80,4,2,0,40,0,1
199763,-66.6666666666667,4,2,0,50,0,1
200444,-100,4,2,0,50,0,1
201944,-66.6666666666667,4,2,0,50,0,1
204808,-100,4,2,0,50,0,1
205899,-80,4,2,0,50,0,1
206512,-100,4,2,0,50,0,1
207535,-80,4,2,0,50,0,1
209172,-100,4,2,0,50,0,1
209717,-133.333333333333,4,2,0,50,0,1
210263,-100,4,2,0,50,0,1
211217,-100,4,2,0,50,0,1
211899,-133.333333333333,4,2,0,50,0,1
212444,-66.6666666666667,4,2,0,50,0,1
214626,-80,4,2,0,50,0,1
214899,-100,4,2,0,50,0,1
215717,-100,4,2,0,50,0,0
216262,-66.6666666666667,4,2,0,50,0,0
216808,265.486725663717,4,2,0,50,1,1
216808,-100,4,2,0,50,0,1
218931,-66.6666666666667,4,2,0,50,0,1
222117,-80,4,2,0,50,0,1
222648,-100,4,2,0,50,0,1
223710,-133.333333333333,4,2,0,50,0,1
224241,-80,4,2,0,50,0,1
224418,-66.6666666666667,4,2,0,50,0,1
225701,-80,4,2,0,50,0,1
226365,-100,4,2,0,50,0,1
226896,-133.333333333333,4,2,0,50,0,1
228400,-76.9230769230769,4,2,0,50,0,1
229020,-80,4,2,0,50,0,1
229993,-66.6666666666667,4,2,0,50,0,1
230613,-100,4,2,0,50,0,1
231940,-80,4,2,0,50,0,1
232737,-66.6666666666667,4,2,0,50,0,1
233799,272.727272727273,4,2,0,40,1,0
233799,-100,4,2,0,40,0,0
235435,292.682926829268,4,2,0,40,1,8
236020,300,4,2,0,35,1,0
237220,315.789473684211,4,2,0,30,1,0
238483,333.333333333333,4,2,0,25,1,0
238483,-200,4,2,0,25,0,0
239149,342.857142857143,4,2,0,25,1,8
239834,352.941176470588,4,2,0,25,1,0
239834,-200,4,2,0,25,0,0
240539,368.098159509202,4,2,0,20,1,8
241275,389.61038961039,4,2,0,25,1,0
241275,-200,4,2,0,25,0,0
242054,434.782608695652,4,2,0,40,1,8
242923,487.80487804878,4,2,0,40,1,0
243166,-100,4,2,0,35,0,0
243410,-100,4,2,0,30,0,0
243654,-100,4,2,0,25,0,0
243898,571.428571428571,4,2,0,20,1,8
244183,-100,4,2,0,15,0,0
244469,-100,4,2,0,10,0,0
244755,-100,4,2,0,5,0,0
245040,600,4,2,0,25,1,0
261540,-100,4,2,0,10,0,0
264230,1428.57142857143,4,2,0,20,1,0
264230,-200,4,2,0,20,0,0
265658,1333.33333333333,4,2,0,20,1,8
266991,1250,4,2,0,20,1,8
266991,-200,4,2,0,20,0,0
268241,1176.47058823529,4,2,0,20,1,8
269417,1090.90909090909,4,2,0,20,1,0
269417,-200,4,2,0,20,0,0
270507,1016.94915254237,4,2,0,20,1,8
271523,983.606557377049,4,2,0,20,1,8
271523,-200,4,2,0,20,0,0
272506,937.5,4,2,0,20,1,8
273443,869.565217391304,4,2,0,20,1,0
273443,-200,4,2,0,20,0,0
274312,845.070422535211,4,2,0,20,1,8
275157,800,4,2,0,20,1,8
275157,-200,4,2,0,20,0,0
275957,769.230769230769,4,2,0,20,1,8
276726,740.740740740741,4,2,0,20,1,0
276726,-200,4,2,0,20,0,0
277466,714.285714285714,4,2,0,20,1,8
278180,681.818181818182,4,2,0,20,1,8
278180,-200,4,2,0,20,0,0
278861,666.666666666667,4,2,0,20,1,8
279527,631.578947368421,4,2,0,20,1,0
279527,-200,4,2,0,20,0,0
280158,612.244897959184,4,2,0,20,1,8
280770,594.059405940594,4,2,0,20,1,8
280770,-200,4,2,0,20,0,0
281364,576.923076923077,4,2,0,20,1,8
281940,550.45871559633,4,2,0,20,1,0
281940,-200,4,2,0,20,0,0
282490,540.540540540541,4,2,0,20,1,8
283030,530.973451327434,4,2,0,20,1,8
283030,-200,4,2,0,20,0,0
283560,517.241379310345,4,2,0,20,1,8
284077,491.803278688525,4,2,0,20,1,0
284077,-200,4,2,0,20,0,0
284568,476.190476190476,4,2,0,20,1,8
285044,465.116279069767,4,2,0,20,1,8
285044,-200,4,2,0,20,0,0
285509,458.015267175573,4,2,0,20,1,8
285967,451.127819548872,4,2,0,20,1,0
285967,-200,4,2,0,20,0,0
286418,441.176470588235,4,2,0,20,1,8
286859,428.571428571429,4,2,0,20,1,8
286859,-200,4,2,0,20,0,0
287287,413.793103448276,4,2,0,20,1,8
287700,405.405405405405,4,2,0,25,1,0
287700,-200,4,2,0,25,0,0
288105,397.350993377483,4,2,0,25,1,8
288502,392.156862745098,4,2,0,25,1,8
288502,-200,4,2,0,25,0,0
288894,387.096774193548,4,2,0,30,1,8
289281,379.746835443038,4,2,0,30,1,0
289281,-200,4,2,0,30,0,0
289660,370.37037037037,4,2,0,30,1,8
290030,363.636363636364,4,2,0,30,1,8
290030,-200,4,2,0,30,0,0
290393,352.941176470588,4,2,0,30,1,8
290745,346.820809248555,4,2,0,30,1,0
290745,-200,4,2,0,30,0,0
291091,340.909090909091,4,2,0,30,1,8
291431,333.333333333333,4,2,0,35,1,8
291431,-200,4,2,0,35,0,0
291764,326.086956521739,4,2,0,35,1,8
292090,319.148936170213,4,2,0,35,1,0
292090,-200,4,2,0,35,0,0
292409,312.5,4,2,0,40,1,8
292721,307.692307692308,4,2,0,40,1,8
292721,-200,4,2,0,40,0,0
293028,300,4,2,0,45,1,8
293328,297.029702970297,4,2,0,50,1,0
293328,-200,4,2,0,50,0,0
293922,291.26213592233,4,2,0,50,1,8
293922,-200,4,2,0,50,0,0
294504,272.727272727273,4,2,0,50,1,0
294504,-200,4,2,0,50,0,0
295049,-200,4,2,0,50,0,0
296140,-200,4,2,0,50,0,0
297231,-200,4,2,0,50,0,0
298867,-133.333333333333,4,2,0,50,0,0
301049,-100,4,2,0,50,0,0
304867,-100,4,2,0,50,0,1
304901,-100,4,2,0,50,0,0
305413,-80,4,2,0,50,0,1
306504,-100,4,2,0,50,0,1
307594,-66.6666666666667,4,2,0,50,0,1
308685,-57.1428571428571,4,2,0,50,0,1
309776,-66.6666666666667,4,2,0,50,0,1
311413,-100,4,2,0,50,0,1
311958,-133.333333333333,4,2,0,50,0,0
313185,-100,4,2,0,50,0,0
313594,-66.6666666666667,4,2,0,50,0,0
314140,-80,4,2,0,50,0,1
315231,-100,4,2,0,50,0,1
315776,-133.333333333333,4,2,0,50,0,1
317322,-76.9230769230769,4,2,0,50,0,1
317549,-100,4,2,0,50,0,1
318913,-66.6666666666667,4,2,0,50,0,1
319776,-80,4,2,0,50,0,1
320140,292.682926829268,4,2,0,50,1,8
320725,300,4,2,0,50,1,1
320725,-100,4,2,0,50,0,1
321325,-133.333333333333,4,2,0,50,0,1
321925,324.324324324324,4,2,0,50,1,0
321925,-100,4,2,0,50,0,0
322571,352.941176470588,4,2,0,50,1,8
322571,-100,4,2,0,50,0,0
323276,352.941176470588,4,2,0,50,1,1
323276,-100,4,2,0,50,0,1
324511,-80,4,2,0,50,0,1
325217,-66.6666666666667,4,2,0,50,0,1
327512,-50,4,2,0,50,0,1
328923,-66.6666666666667,4,2,0,50,0,1
329628,-80,4,2,0,50,0,1
330864,-66.6666666666667,4,2,0,50,0,1
331746,-80,4,2,0,50,0,1
333158,-50,4,2,0,50,0,1
333864,-80,4,2,0,50,0,1
334570,-100,4,2,0,50,0,1
335628,-66.6666666666667,4,2,0,50,0,1
336687,-100,4,2,0,50,0,1
337040,-133.333333333333,4,2,0,50,0,1
337746,-66.6666666666667,4,2,0,50,0,1
338805,-50,4,2,0,50,0,1
340923,-66.6666666666667,4,2,0,50,0,1
342334,-100,4,2,0,50,0,1
343393,-80,4,2,0,50,0,1
343923,-66.6666666666667,4,2,0,50,0,1
345511,-133.333333333333,4,2,0,50,0,1
345865,413.793103448276,4,2,0,50,1,1
346278,-100,4,2,0,50,0,0
347520,582.52427184466,4,2,0,50,1,0
347520,-76.9230769230769,4,2,0,50,0,0
349850,500,4,2,0,50,1,0
349850,-83.3333333333333,4,2,0,50,0,0
351850,363.636363636364,4,2,0,50,1,0
352577,352.941176470588,4,2,0,50,1,0
352683,381.558028616852,4,2,0,50,1,8
355735,381.558028616852,4,2,0,50,1,8
355812,272.727272727273,4,2,0,20,1,0
355812,-100,4,2,0,20,0,0
363777,272.727272727273,4,2,0,20,1,0
364867,272.727272727273,4,2,0,20,1,0
364936,272.727272727273,4,2,0,20,1,8

[Colours]
Combo1 : 90,129,192
Combo2 : 60,151,162
Combo3 : 125,99,197
Combo4 : 221,149,128

[HitObjects]
256,192,510,12,2,3687,0:0:0:0:
176,80,4393,6,0,L|276:196,1,140,4|2,0:0|0:0,0:0:0:0:
352,284,5099,1,2,0:0:0:0:
376,136,5452,2,0,P|344:108|312:96,1,70,2|0,0:0|0:0,0:0:0:0:
248,88,5805,5,2,0:0:0:0:
304,216,6157,1,2,0:0:0:0:
164,208,6510,1,2,0:0:0:0:
232,332,6863,1,2,0:0:0:0:
368,304,7216,6,0,P|416:272|436:236,1,70,2|0,0:0|0:0,0:0:0:0:
352,184,7569,2,0,P|348:136|332:104,1,70,2|0,0:0|0:0,0:0:0:0:
244,160,7922,2,0,P|196:140|176:116,1,70,2|0,0:0|0:0,0:0:0:0:
84,164,8275,2,0,P|76:112|88:80,1,70,2|0,0:0|0:0,0:0:0:0:
212,24,8628,6,0,P|248:68|256:96,1,70,2|0,0:0|0:0,0:0:0:0:
356,76,8981,2,0,P|344:132|312:164,1,70,2|0,0:0|0:0,0:0:0:0:
176,192,9334,2,0,P|180:236|212:276,1,70,2|0,0:0|0:0,0:0:0:0:
296,272,9687,2,0,P|324:304|368:320,1,70,2|0,0:0|0:0,0:0:0:0:
216,340,10040,6,0,P|172:336|116:304,1,87.5,2|0,0:0|0:0,0:0:0:0:
300,248,10393,2,0,P|372:232|392:216,1,87.5,2|0,0:0|0:0,0:0:0:0:
216,160,10746,2,0,P|172:132|148:92,1,87.5,2|0,0:0|0:0,0:0:0:0:
312,88,11099,2,0,P|348:48|356:8,1,87.5,2|0,0:0|0:0,0:0:0:0:
208,8,11452,6,0,P|220:64|272:100,1,87.5,2|0,0:0|0:0,0:0:0:0:
412,84,11805,2,0,P|384:136|336:176,1,87.5,2|0,0:0|0:0,0:0:0:0:
248,236,12157,1,2,0:0:0:0:
385,261,12334,1,0,0:0:0:0:
385,261,12422,1,0,0:0:0:0:
385,261,12510,2,0,L|348:284,3,43.75,2|0|0|0,0:0|0:0|0:0|0:0,0:0:0:0:
316,296,12863,6,0,P|256:312|208:308,1,87.5,2|0,0:0|0:0,0:0:0:0:
76,284,13216,2,0,P|132:240|176:228,1,87.5,2|0,0:0|0:0,0:0:0:0:
304,228,13569,2,0,P|244:192|200:180,1,87.5,2|0,0:0|0:0,0:0:0:0:
64,168,13922,2,0,P|104:148|180:132,1,87.5,2|0,0:0|0:0,0:0:0:0:
276,120,14275,6,0,P|328:112|360:96,1,70,2|0,0:0|0:0,0:0:0:0:
456,48,14628,2,0,P|400:24|368:24,1,70,2|0,0:0|0:0,0:0:0:0:
264,24,14981,2,0,P|216:32|184:48,2,70,2|10|10,0:0|1:3|1:3,0:0:0:0:
392,28,15510,1,0,1:2:0:0:
392,28,15687,6,0,P|416:108|408:156,1,105.000004005432,6|8,1:2|1:2,0:0:0:0:
380,284,16040,1,8,0:0:0:0:
316,140,16216,1,0,1:2:0:0:
168,84,16393,2,0,P|176:150|205:190,1,105.000004005432,8|0,1:2|1:2,0:0:0:0:
292,316,16746,1,4,1:0:0:0:
316,140,16922,1,0,1:2:0:0:
292,316,17099,6,0,P|228:292|180:236,1,105.000004005432,6|0,0:2|0:2,0:0:0:0:
108,140,17452,1,2,0:0:0:0:
252,192,17628,1,0,1:2:0:0:
228,36,17805,2,0,P|308:52|348:76,1,105.000004005432,2|0,0:0|1:2,0:0:0:0:
480,164,18157,1,8,0:0:0:0:
480,164,18334,2,0,L|464:228,1,52.5000020027161,2|0,0:0|0:0,0:0:0:0:
436,288,18510,6,0,P|392:328|312:336,1,105.000004005432,6|0,1:2|0:0,0:0:0:0:
192,336,18863,1,2,0:0:0:0:
312,232,19040,1,0,1:2:0:0:
180,148,19216,2,0,P|116:200|88:244,1,105.000004005432,2|0,0:0|1:2,0:0:0:0:
40,364,19569,1,4,0:0:0:0:
192,336,19746,1,0,0:0:0:0:
192,336,19922,6,0,P|244:312|284:272,1,105.000004005432,6|2,0:0|1:2,0:0:0:0:
348,156,20275,1,2,0:0:0:0:
204,72,20452,6,2,P|228:128|292:200,1,119.000002269745,6|2,0:0|0:0,0:0:0:0:
492,248,20805,2,2,P|464:184|408:112,1,119.000002269745,6|2,1:2|0:0,0:0:0:0:
332,24,21157,1,0,1:2:0:0:
332,24,21334,6,0,P|332:72|292:164,1,105.000004005432,8|0,1:2|0:0,0:0:0:0:
232,256,21687,1,2,0:0:0:0:
388,232,21863,1,0,1:2:0:0:
264,332,22040,2,0,P|204:336|152:276,1,105.000004005432,6|8,0:0|0:0,0:0:0:0:
92,176,22393,1,2,0:0:0:0:
92,176,22569,1,0,0:0:0:0:
92,176,22746,6,0,P|144:148|204:148,1,105.000004005432,2|0,0:0|1:2,0:0:0:0:
348,156,23099,1,2,0:0:0:0:
460,268,23275,1,0,1:2:0:0:
436,296,23363,1,0,0:0:0:0:
412,324,23452,2,8,P|364:308|324:256,1,105.000004005432,6|4,1:2|0:2,0:0:0:0:
248,128,23805,1,4,0:0:0:0:
248,128,23981,1,8,1:2:0:0:
108,56,24157,6,0,P|124:120|156:164,1,105.000004005432,6|0,1:2|1:2,1:2:0:0:
244,276,24510,1,2,0:0:0:0:
100,212,24687,1,8,1:2:0:0:
124,368,24863,2,0,P|132:320|172:244,1,105.000004005432,2|0,0:0|1:2,0:0:0:0:
252,104,25216,1,2,0:0:0:0:
355,147,25393,2,2,P|389:188|408:236,1,105.000004005432
428,364,25746,5,0,0:0:0:0:
276,236,25922,1,8,0:0:0:0:
340,336,26099,1,2,0:0:0:0:
460,168,26275,1,8,0:0:0:0:
416,260,26452,1,10,1:2:0:0:
300,48,26628,1,10,0:0:0:0:
340,120,26805,1,14,1:2:0:0:
228,76,26981,5,2,0:0:0:0:
228,76,27687,1,2,0:0:0:0:
136,216,28393,5,2,0:0:0:0:
136,216,29099,1,2,0:0:0:0:
276,308,29805,5,2,0:0:0:0:
276,308,30510,1,2,0:0:0:0:
372,168,31216,5,2,0:0:0:0:
372,168,31922,1,2,0:0:0:0:
224,68,32628,5,2,0:0:0:0:
307,75,32981,1,2,0:0:0:0:
365,134,33334,1,2,0:0:0:0:
365,218,33687,1,2,0:0:0:0:
315,285,34040,1,2,0:0:0:0:
233,303,34393,1,2,0:0:0:0:
156,270,34746,1,2,0:0:0:0:
125,192,35099,1,2,0:0:0:0:
147,111,35452,5,2,0:1:0:0:
320,24,36863,5,0,0:0:0:0:
336,40,36922,1,0,0:0:0:0:
352,56,36981,1,0,0:0:0:0:
368,72,37040,1,0,0:0:0:0:
384,88,37099,1,0,0:0:0:0:
400,104,37157,1,0,0:0:0:0:
416,120,37216,6,0,L|448:152,4,35
412,156,37657,2,0,L|432:204,2,46.6666666666667
384,192,38010,2,0,P|388:232|376:272,1,70
304,228,38275,6,0,P|184:256|116:144,1,245,4|0,0:1|0:0,0:0:0:0:
184,136,38981,2,0,L|184:48,1,70,4|0,1:2|0:0,0:0:0:0:
256,40,39246,2,0,L|280:84,1,35
408,72,39510,6,0,L|440:124,1,46.6666666666667
376,156,39687,2,0,L|408:208,1,46.6666666666667
440,260,39863,2,0,P|416:316|356:312,1,105
312,300,40216,2,0,L|244:328,1,52.5000020027161
208,264,40393,2,0,L|264:240,1,52.5000020027161,4|0,0:0|0:0,0:0:0:0:
208,184,40569,2,0,L|140:212,1,52.5000020027161
116,144,40746,2,0,P|184:108|272:120,1,157.500006008148,0|0,1:2|0:0,0:0:0:0:
284,184,41099,6,0,P|348:192|392:144,1,105,0|0,1:2|0:0,0:0:0:0:
440,96,41452,2,0,L|448:68,7,17.5
444,132,41805,2,0,P|448:204|432:272,1,140,4|0,0:0|0:0,0:0:0:0:
368,232,42246,2,0,P|376:196|372:144,1,70
364,84,42510,6,0,L|312:36,1,52.5000020027161,6|0,1:2|0:0,0:0:0:0:
272,40,42687,1,0,0:0:0:0:
220,44,42775,1,0,0:0:0:0:
168,48,42863,2,0,L|128:4,1,52.5000020027161,0|0,1:2|0:0,0:0:0:0:
46,14,43040,2,0,L|90:66,1,52.5000020027161
136,112,43216,6,0,P|164:136|224:144,1,52.5000020027161,4|0,0:0|0:0,0:0:0:0:
268,112,43393,2,0,P|299:124|320:156,1,52.5000020027161
268,240,43569,2,0,P|280:272|356:296,1,105.000004005432
380,164,43922,6,0,P|268:80|152:144,1,280,4|4,1:2|0:0,0:0:0:0:
128,184,44716,2,0,L|96:240,1,35
60,308,44981,1,0,1:2:0:0:
212,216,45157,6,0,P|224:184|264:160,1,52.5000020027161
296,240,45334,2,0,P|344:204|356:148,1,105.000004005432,0|0,1:2|0:0,0:0:0:0:
324,8,45687,1,0,0:0:0:0:
448,104,45863,2,0,P|464:136|464:176,1,52.5000020027161,0|0,1:2|0:0,0:0:0:0:
428,240,46040,2,0,P|396:208|388:176,1,52.5000020027161,6|0,0:0|0:0,0:0:0:0:
352,108,46216,2,0,P|316:80|284:72,1,52.5000020027161
240,156,46393,2,0,P|192:192|196:256,1,105.000004005432,0|0,1:2|0:0,0:0:0:0:
340,260,46746,6,0,L|360:260,14,13.125000500679,0|0|0|0|0|0|0|0|0|0|0|0|0|0|0,1:2|0:0|0:0|0:0|0:0|0:0|0:0|0:0|0:0|0:0|0:0|0:0|0:0|0:0|0:0,0:0:0:0:
312,256,47099,2,0,P|244:216|224:112,1,157.500006008148
196,68,47452,2,0,L|152:28,1,52.5000020027161
80,48,47628,6,0,P|80:136|148:192,1,175
220,204,48157,6,0,L|248:268,1,52.5000020027161
292,272,48334,1,0,0:0:0:0:
340,288,48422,1,0,0:0:0:0:
392,304,48510,2,0,L|364:244,1,52.5000020027161
396,152,48687,2,0,L|432:236,1,52.5000020027161,0|0,1:2|0:0,0:0:0:0:
472,328,48863,5,6,0:0:0:0:
288,40,49569,6,0,P|392:108|372:240,1,245,6|0,0:2|0:0,0:0:0:0:
308,284,50275,6,0,P|272:304|216:308,1,52.5000020027161,4|0,0:0|0:0,0:0:0:0:
160,276,50452,2,0,P|180:244|212:228,1,52.5000020027161
296,208,50628,2,0,P|316:180|320:140,1,52.5000020027161
236,76,50805,2,0,P|220:100|216:140,1,52.5000020027161
216,228,50981,2,0,P|176:236|136:224,1,52.5000020027161,8|0,1:2|0:0,0:0:0:0:
52,184,51157,1,0,0:0:0:0:
52,160,51246,1,2,0:2:0:0:
52,136,51334,2,0,P|80:124|116:120,1,52.5000020027161,2|0,0:0|0:0,0:0:0:0:
188,160,51510,2,0,P|216:152|260:152,1,52.5000020027161
396,164,51687,6,0,L|524:216,1,116.666666666667,12|0,0:0|0:0,0:0:0:0:
380,240,52040,2,0,L|476:280,1,87.5
364,312,52275,2,0,L|428:340,1,58.3333333333333,0|6,0:0|0:0,0:0:0:0:
76,164,52746,6,0,L|140:88,1,87.5
132,216,53040,2,0,L|152:192,1,29.1666666666667,0|4,0:0|0:0,0:0:0:0:
208,208,53157,2,0,L|228:184,1,29.1666666666667
284,188,53275,2,0,P|312:156|364:144,1,87.5
416,184,53540,2,0,P|428:136|392:80,1,87.5
364,36,53805,6,0,L|312:76,1,52.5000020027161,10|0,1:2|0:0,0:0:0:0:
268,68,53981,1,0,0:0:0:0:
216,68,54069,1,0,0:0:0:0:
164,64,54157,2,0,L|104:120,1,52.5000020027161,2|0,1:2|0:0,0:0:0:0:
176,156,54334,2,0,L|132:196,1,52.5000020027161,2|0,0:0|0:0,0:0:0:0:
68,252,54510,6,0,P|100:256|156:284,1,70.0000026702882,4|0,0:0|0:0,0:0:0:0:
208,260,54687,2,0,P|244:304|248:324,1,60.6666638895672
304,288,54863,2,0,P|260:368|184:296,1,198.333337116242
184,256,55216,5,2,1:2:0:0:
184,112,55393,1,2,0:0:0:0:
336,196,55569,2,0,P|392:176|412:112,1,116.666666666667
376,68,55922,6,0,L|312:4,1,70.0000026702882,4|0,0:0|0:0,0:0:0:0:
256,16,56099,2,0,P|208:32|192:60,1,70.0000026702882
232,108,56275,2,0,P|208:156|184:164,1,70.0000026702882,0|0,1:2|0:0,0:0:0:0:
124,160,56452,2,0,L|124:88,1,70.0000026702882
124,20,56628,6,0,P|44:56|32:160,1,175,2|0,1:2|0:0,0:0:0:0:
36,184,57157,2,0,P|45:207|68:232,1,46.6666666666667,0|0,1:2|0:0,0:0:0:0:
108,284,57334,6,0,L|204:216,1,116.666666666667,6|0,0:0|0:0,0:0:0:0:
172,328,57687,2,0,L|264:260,1,87.5
284,244,57922,2,0,L|316:220,1,29.1666666666667
348,196,58040,6,0,P|348:76|228:64,1,256.666666666667,0|0,1:2|0:0,0:0:0:0:
196,88,58746,2,0,P|168:124|164:140,1,46.6666666666667
212,164,58922,6,0,P|204:212|208:236,1,58.3333333333333
276,228,59099,6,0,P|280:268|316:308,1,70.0000026702882
348,244,59275,2,0,P|372:212|388:152,1,70.0000026702882
400,116,59452,6,0,L|464:160,1,52.5000020027161
444,200,59628,1,0,0:0:0:0:
444,252,59716,1,0,0:0:0:0:
444,304,59805,2,0,L|404:344,1,52.5000020027161
336,304,59981,2,0,L|296:340,1,52.5000020027161
205,335,60157,5,6,0:0:0:0:
192,316,60216,1,0,0:0:0:0:
180,296,60275,1,0,0:0:0:0:
168,276,60334,1,0,0:0:0:0:
156,256,60393,2,0,L|120:224,4,35.0000013351441
124,160,60687,2,0,P|148:124|184:108,1,52.5000020027161
196,184,60863,6,0,P|324:200|400:84,1,280,6|4,1:2|0:0,0:0:0:0:
392,36,61657,6,0,P|368:20|344:16,1,43.75
316,76,61834,2,0,P|276:60|196:68,1,87.5
216,128,62099,2,0,P|196:120|168:92,1,43.75
108,72,62275,2,0,L|108:144,1,43.75,8|0,0:0|0:0,0:0:0:0:
108,188,62452,2,0,P|108:228|132:284,1,70,0|2,0:0|2:0,0:0:0:0:
208,332,62805,6,0,P|240:332|284:312,1,43.75
232,244,62981,2,0,P|256:220|276:212,1,43.75,4|0,0:0|0:0,0:0:0:0:
328,276,63157,2,0,P|384:268|396:252,1,43.75
356,188,63334,2,0,P|352:164|332:136,1,43.75
292,76,63510,2,0,L|276:56,3,14.5833333333333,0|0|0|0,0:0|0:0|0:0|0:0,0:0:0:0:
368,80,63687,6,0,P|432:116|432:200,1,131.25,0|0,1:2|0:0,0:0:0:0:
440,256,64040,2,0,P|392:240|360:148,1,131.25
352,100,64393,6,0,P|316:64|252:52,1,116.666666666667,4|0,0:0|0:0,0:0:0:0:
232,124,64746,2,0,P|172:112|132:64,1,116.666666666667
52,92,65099,6,0,L|100:144,1,52.5000020027161,8|0,1:2|0:0,0:0:0:0:
88,184,65275,1,0,0:0:0:0:
88,236,65363,1,0,0:0:0:0:
88,288,65452,2,0,L|144:248,1,52.5000020027161,0|0,1:2|0:0,0:0:0:0:
200,292,65628,2,0,L|268:244,1,52.5000020027161
312,296,65805,6,0,P|332:264|328:216,1,52.5000020027161,4|0,0:0|0:0,0:0:0:0:
264,168,65981,2,0,P|272:132|300:104,1,52.5000020027161
392,144,66157,2,0,P|420:148|452:172,1,52.5000020027161,0|0,1:2|0:0,0:0:0:0:
412,264,66334,2,0,P|424:304|408:344,1,52.5000020027161
352,304,66510,6,0,P|240:284|188:184,1,210,10|0,1:2|0:0,0:0:0:0:
172,68,67216,2,0,P|224:80|264:160,1,140,4|0,0:0|1:2,0:0:0:0:
268,224,67687,1,0,0:0:0:0:
268,296,67805,1,0,0:0:0:0:
268,372,67922,2,0,P|192:356|164:280,1,140,0|0,1:2|0:0,0:0:0:0:
164,232,68393,1,0,0:0:0:0:
164,160,68510,1,0,0:0:0:0:
164,88,68628,6,0,L|220:32,1,52.5000020027161,4|0,0:0|0:0,0:0:0:0:
280,72,68805,2,0,L|228:124,1,52.5000020027161
292,160,68981,2,0,P|352:112|420:104,1,105.000004005432
468,124,69246,1,0,0:0:0:0:
468,124,69334,6,0,P|416:248|284:256,1,280,2|0,1:2|0:0,0:0:0:0:
292,160,70128,2,0,P|252:84|132:96,1,210
104,112,70746,6,0,L|44:152,1,52.5000020027161,2|0,0:0|0:0,0:0:0:0:
60,192,70920,1,0,0:0:0:0:
60,244,71007,1,0,0:0:0:0:
60,296,71094,2,0,L|104:344,1,52.5000020027161,2|0,0:0|0:0,0:0:0:0:
172,312,71268,2,0,L|128:264,1,52.5000020027161,2|0,1:2|0:0,0:0:0:0:
208,244,71442,6,0,P|332:280|412:168,1,280,6|2,0:0|1:2,0:0:0:0:
408,68,72315,5,0,0:0:0:0:
408,68,72491,2,0,P|344:60|312:64,1,70,4|0,0:0|1:2,0:0:0:0:
232,64,72844,1,0,0:0:0:0:
292,152,73021,1,2,0:0:0:0:
232,64,73197,1,4,0:0:0:0:
232,64,73374,1,0,0:0:0:0:
184,156,73550,5,0,0:0:0:0:
240,244,73727,2,0,P|268:264|320:264,1,70,2|4,0:0|0:0,0:0:0:0:
404,236,74080,1,0,0:0:0:0:
404,236,74256,1,0,0:0:0:0:
404,236,74433,2,0,P|384:284|352:312,1,70,2|4,0:0|0:0,0:0:0:0:
276,340,74786,1,0,0:0:0:0:
180,276,74962,5,2,0:0:0:0:
180,276,75137,1,0,0:0:0:0:
244,180,75312,2,0,P|224:144|192:116,1,77.0000023498536,4|2,0:0|0:0,0:0:0:0:
100,56,75663,1,0,0:0:0:0:
136,164,75839,1,2,0:0:0:0:
100,56,76014,1,4,0:0:0:0:
100,56,76190,1,0,0:0:0:0:
208,56,76365,5,0,0:0:0:0:
208,56,76535,2,0,P|260:80|300:76,1,70,2|4,0:3|3:2,0:0:0:0:
480,44,76876,6,2,P|468:100|448:144,1,105,2|6,0:0|0:0,0:0:0:0:
388,244,77217,1,2,1:2:0:0:
388,244,77387,2,0,P|360:208|352:160,1,77.0000023498536,4|2,0:0|0:0,0:0:0:0:
340,44,77728,5,2,0:0:0:0:
340,44,77893,1,0,0:0:0:0:
276,160,78059,2,0,P|252:196|192:228,1,87.5,4|2,0:0|0:0,0:0:0:0:
88,256,78390,1,0,0:0:0:0:
72,124,78556,2,0,P|112:124|172:100,1,87.5,2|4,0:0|0:0,0:0:0:0:
260,48,78888,1,0,0:0:0:0:
260,48,79053,5,0,0:0:0:0:
348,104,79212,2,0,P|372:136|380:188,1,70,2|4,0:0|0:0,0:0:0:0:
316,248,79531,1,2,0:0:0:0:
292,272,79611,1,2,0:0:0:0:
268,296,79691,2,0,P|232:288|216:260,1,70,2|4,0:0|0:0,1:2:0:0:
220,160,80010,1,2,1:3:0:0:
192,136,80090,1,0,0:0:0:0:
164,112,80170,1,2,1:2:0:0:
80,44,80329,5,2,0:0:0:0:
76,176,80484,1,0,0:0:0:0:
76,176,80639,2,0,P|88:232|112:260,1,87.5,4|2,0:0|0:0,0:0:0:0:
232,296,80950,1,0,0:0:0:0:
232,296,81106,2,0,P|248:244|280:204,1,87.5,2|4,0:0|0:0,0:0:0:0:
396,176,81417,6,2,P|356:124|300:88,1,105.000004005432,2|6,0:0|0:0,0:0:0:0:
204,48,81722,1,2,0:0:0:0:
204,48,81873,1,4,0:2:0:0:
72,56,82024,1,2,0:0:0:0:
92,184,82175,6,0,P|116:228|164:264,1,87.5,4|2,0:0|0:0,0:0:0:0:
260,312,82476,1,4,0:0:0:0:
412,284,82627,1,2,0:0:0:0:
304,180,82778,6,0,P|236:176|164:128,1,140,2|0,0:3|0:0,0:0:0:0:
368,60,83372,1,0,0:0:0:0:
472,244,83669,1,0,0:0:0:0:
252,248,83966,6,0,P|192:264|124:312,1,140,2|0,0:3|0:0,0:0:0:0:
336,340,84537,1,0,0:0:0:0:
288,136,84823,1,0,0:0:0:0:
288,136,84894,1,0,0:0:0:0:
288,136,84966,1,0,0:0:0:0:
288,136,85037,1,0,0:0:0:0:
288,136,85108,6,0,P|300:200|352:272,1,140,2|0,0:3|0:0,0:0:0:0:
452,84,85663,1,0,0:0:0:0:
248,36,85941,1,0,0:0:0:0:
76,160,86219,6,0,P|128:208|216:224,1,140,2|0,1:3|0:0,0:0:0:0:
404,224,86768,1,0,0:0:0:0:
228,336,87042,1,0,0:0:0:0:
228,336,87111,1,0,0:0:0:0:
228,336,87180,1,0,0:0:0:0:
228,336,87248,1,0,0:0:0:0:
228,336,87317,6,0,P|200:296|188:252,1,87.5,2|0,1:3|0:0,0:0:0:0:
336,252,87589,2,0,P|364:212|376:168,1,87.5
200,184,87862,2,0,P|164:168|124:128,1,87.5,2|0,1:3|0:0,0:0:0:0:
304,128,88135,2,0,P|340:112|380:72,1,87.5
204,64,88407,6,0,P|144:52|68:68,1,105.000004005432,2|0,1:3|0:0,0:0:0:0:
304,128,88680,2,0,P|356:132|432:164,1,105.000004005432
200,184,88953,2,0,P|148:224|128:260,1,105.000004005432,2|0,1:3|0:0,0:0:0:0:
352,296,89226,2,0,L|404:320,3,52.5000020027161
304,272,89498,5,2,1:3:0:0:
272,300,89567,1,0,0:0:0:0:
232,300,89635,1,0,0:0:0:0:
196,276,89703,1,0,0:0:0:0:
188,236,89771,5,2,1:3:0:0:
152,216,89839,1,0,0:0:0:0:
132,180,89907,1,0,0:0:0:0:
140,140,89976,1,0,0:0:0:0:
172,116,90044,5,2,1:3:0:0:
176,76,90112,1,0,0:0:0:0:
208,48,90180,1,0,0:0:0:0:
248,44,90248,1,0,0:0:0:0:
284,68,90317,5,2,1:3:0:0:
324,60,90385,1,0,0:0:0:0:
364,76,90453,1,0,0:0:0:0:
388,112,90521,1,0,0:0:0:0:
380,152,90589,6,0,P|416:168|424:216,2,52.5000020027161,4|0|0,1:3|0:0|0:0,0:0:0:0:
336,156,90794,1,0,0:0:0:0:
309,188,90862,1,0,0:0:0:0:
310,229,90930,1,0,0:0:0:0:
336,261,90998,1,0,0:0:0:0:
377,268,91067,1,0,0:0:0:0:
414,255,91135,6,2,P|462:203|454:127,1,140
356,20,91544,2,0,P|328:20|304:24,1,35
252,32,91680,6,0,P|176:84|216:188,1,210,0|0,1:2|0:0,0:0:0:0:
280,228,92135,6,0,L|212:284,1,70.0000026702882,0|4,0:0|0:0,0:0:0:0:
96,380,92407,1,0,0:0:0:0:
96,380,92498,2,0,L|176:316,1,97.9999970092774
120,256,92680,2,0,L|164:220,1,32.6666656697591
208,184,92771,6,0,P|268:144|360:164,1,145.833333333333,0|0,1:2|0:0,0:0:0:0:
320,232,93044,2,0,P|392:236|444:176,1,145.833333333333
472,124,93317,2,0,L|488:92,15,21.875,4|0|0|0|0|0|0|0|0|0|0|0|0|0|0|0,0:0|0:0|0:0|0:0|0:0|0:0|0:0|0:0|0:0|0:0|0:0|0:0|0:0|0:0|0:0|0:0,0:0:0:0:
456,160,93862,6,0,P|440:204|440:256,1,87.5,0|0,1:2|0:0,0:0:0:0:
320,140,94135,1,0,0:0:0:0:
116,148,94317,2,0,P|152:160|168:188,1,58.3333333333333,0|4,0:0|0:0,0:0:0:0:
184,244,94498,1,0,0:0:0:0:
204,312,94589,5,0,0:0:0:0:
204,312,94680,2,0,P|272:332|344:320,1,140.000005340576
432,268,94953,2,0,P|384:200|272:184,1,175.00000667572,0|0,1:2|0:0,0:0:0:0:
300,260,95226,2,0,P|220:240|176:160,1,175.00000667572
176,88,95498,2,0,L|308:88,1,105.000004005432,0|0,1:2|0:0,0:0:0:0:
360,92,95680,1,0,0:0:0:0:
360,92,95771,2,0,P|436:116|476:208,1,157.500006008148
476,248,96044,6,0,L|328:248,1,140,0|0,1:2|0:0,0:0:0:0:
124,244,96498,6,0,P|92:228|80:180,1,70.0000026702882,0|4,0:0|0:0,0:0:0:0:
204,28,96771,2,0,P|240:64|240:112,1,70.0000026702882
240,292,97044,1,0,0:0:0:0:
240,292,97135,6,0,P|376:228|328:84,1,306.25,0|0,1:2|0:0,0:0:0:0:
296,52,97680,1,6,0:0:0:0:
240,292,98226,6,0,P|124:304|68:184,1,245,0|0,1:2|0:0,0:0:0:0:
64,152,98771,2,0,L|48:128,7,17.5,0|0|0|0|0|0|0|0,0:0|0:0|0:0|0:0|0:0|0:0|0:0|0:0,0:0:0:0:
76,164,99044,2,0,P|124:200|208:196,1,140
272,68,99498,2,0,P|312:124|312:164,1,93.3333333333333,0|0,1:2|0:0,0:0:0:0:
312,232,99771,1,4,1:2:0:0:
312,232,99862,6,0,P|260:216|224:168,1,105.000004005432,2|0,1:2|0:0,0:0:0:0:
172,32,100135,2,0,P|216:84|316:96,1,157.500006008148,2|0,0:0|0:0,0:0:0:0:
344,96,100407,6,0,P|424:120|472:232,1,175
340,360,100862,2,0,P|304:360|260:312,1,70.0000026702882,0|4,0:0|0:0,0:0:0:0:
208,136,101135,2,0,P|252:140|292:168,1,70.0000026702882
452,264,101407,1,0,0:0:0:0:
452,264,101498,6,0,P|324:324|224:200,1,306.25,0|0,1:2|0:0,0:0:0:0:
216,168,102044,6,0,P|137:86|43:169,1,245,4|0,0:0|0:0,0:0:0:0:
36,188,102589,1,0,1:2:0:0:
28,228,102680,1,0,0:0:0:0:
20,268,102771,2,0,L|0:312,5,46.6666666666667
76,324,103317,2,0,P|112:324|152:296,1,70
92,252,103544,6,0,P|124:224|192:224,1,87.5
180,368,103862,2,0,P|272:372|336:292,1,175,0|0,1:2|0:0,0:0:0:0:
272,268,104226,2,0,P|316:196|400:188,1,175,4|0,0:0|0:0,0:0:0:0:
440,368,104680,1,4,0:0:0:0:
440,368,104771,2,0,P|380:336|384:248,1,131.25,0|0,1:2|0:0,0:0:0:0:
404,40,105226,6,0,P|400:72|360:104,1,70.0000026702882,0|4,0:0|0:0,0:0:0:0:
156,140,105498,1,0,0:0:0:0:
156,140,105589,2,0,P|204:184|284:196,1,140.000005340576,0|0,1:2|0:0,0:0:0:0:
376,200,105862,2,0,L|448:200,1,70.0000026702882,0|0,1:2|0:0,0:0:0:0:
500,204,106044,2,0,P|436:280|288:268,1,210.000008010865,4|0,0:0|0:0,0:0:0:0:
240,240,106407,2,0,P|132:216|56:280,1,210.000008010865,4|0,0:0|0:0,0:0:0:0:
188,136,106953,6,0,P|229:31|326:94,1,245,0|0,1:2|0:0,0:0:0:0:
300,124,107498,2,0,P|268:224|412:220,1,280
464,188,108135,1,0,0:0:0:0:
464,188,108226,6,0,P|476:256|396:312,1,175
404,236,108589,6,0,P|380:200|336:192,1,70.0000026702882
284,192,108771,1,4,0:0:0:0:
212,192,108862,1,6,1:2:0:0:
92,120,109135,6,0,P|44:192|100:264,1,186.666666666667,0|0,1:2|0:0,0:0:0:0:
164,328,109589,2,0,L|176:384,2,46.6666666666667,0|2|0,0:0|0:0|0:0,0:0:0:0:
216,248,109862,2,0,L|248:192,2,46.6666666666667,0|2|0,0:0|0:0|0:0,0:0:0:0:
272,324,110135,1,0,0:0:0:0:
272,324,110226,1,2,0:0:0:0:
464,236,110498,1,2,0:0:0:0:
308,208,110771,6,0,P|236:160|260:60,1,175.00000667572,4|0,0:0|0:0,0:0:0:0:
264,40,111317,1,0,1:2:0:0:
432,124,111498,6,0,L|452:56,1,46.6666666666667
396,260,111771,1,0,0:0:0:0:
116,264,112044,1,0,0:0:0:0:
116,264,112135,2,0,P|136:304|188:316,1,93.3333333333333
276,320,112407,2,0,L|336:320,1,46.6666666666667,0|0,1:2|0:0,0:0:0:0:
392,320,112544,2,0,P|380:236|308:172,1,175
280,236,112953,2,0,P|244:244|204:228,1,70
248,120,113226,2,0,P|264:68|320:84,1,116.666666666667
296,172,113498,6,0,P|252:192|192:164,1,105.000004005432,0|0,1:2|0:0,0:0:0:0:
16,32,113953,2,0,P|64:24|104:48,1,70.0000026702882,0|4,0:0|0:0,0:0:0:0:
88,176,114226,2,0,P|100:204|132:232,1,70.0000026702882
168,160,114363,2,0,P|244:192|292:172,1,105.000004005432
364,140,114589,2,0,B|440:96|496:196|416:232|416:232|332:264|380:364|452:320,1,367.500014019013,4|0,0:0|0:0,0:0:0:0:
512,292,115135,2,0,L|552:272,7,26.2500010013581,4|0|0|0|0|0|0|0,0:0|0:0|0:0|0:0|0:0|0:0|0:0|0:0,0:0:0:0:
496,300,115680,6,0,L|400:348,1,105,0|0,1:2|0:0,0:0:0:0:
372,284,115953,2,0,L|472:236,1,105
432,176,116226,6,0,L|348:216,1,78.7500030040742
332,144,116498,2,0,L|408:108,1,78.7500030040742
368,48,116771,6,0,L|300:80,1,46.6666666666667
228,112,116953,2,0,P|180:160|216:256,1,140,4|0,0:0|1:2,0:0:0:0:
296,320,117317,6,0,P|372:276|372:184,1,157.500006008148,0|0,1:2|0:0,0:0:0:0:
448,180,117589,2,0,P|432:104|344:68,1,157.500006008148,0|0,1:2|0:0,0:0:0:0:
360,136,117862,6,0,P|272:180|168:116,1,210.000008010865,0|0,1:2|0:0,0:0:0:0:
36,16,118317,2,0,P|20:44|20:92,1,70.0000026702882,0|4,0:0|0:0,0:0:0:0:
44,256,118589,1,0,0:0:0:0:
44,256,118680,2,0,P|84:316|168:300,1,140.000005340576
116,252,118953,6,0,P|152:136|288:104,1,245,0|0,1:2|0:0,0:0:0:0:
312,100,119498,6,0,L|312:236,1,122.5,0|0,1:2|0:0,0:0:0:0:
336,244,120044,5,0,1:2:0:0:
368,268,120135,1,0,0:0:0:0:
396,288,120226,2,0,L|448:328,8,46.6666666666667
364,360,121044,2,0,P|312:380|264:356,1,93.3333333333333
216,304,121317,1,0,1:2:0:0:
216,304,121407,2,0,P|160:260|84:264,1,140,0|2,0:0|0:0,0:0:0:0:
412,56,122135,5,0,1:2:0:0:
412,56,122226,2,0,P|404:124|320:188,1,175,0|0,1:2|0:0,0:0:0:0:
104,204,122680,6,0,P|112:160|152:124,1,70.0000026702882,0|4,0:0|0:0,0:0:0:0:
328,24,122953,1,0,0:0:0:0:
328,24,123044,2,0,P|272:56|248:128,1,140.000005340576
256,248,123317,2,0,P|264:280|292:308,1,70.0000026702882,0|0,1:2|0:0,0:0:0:0:
376,332,123498,2,0,P|480:264|456:152,1,245.000009346009,4|0,1:2|0:0,0:0:0:0:
416,104,123862,1,6,0:0:0:0:
68,336,124407,6,0,P|76:212|188:192,1,245,0|0,1:2|0:0,0:0:0:0:
220,220,124953,2,0,L|228:232,28,8.75
208,168,125498,2,0,P|208:128|216:104,1,46.6666666666667
280,148,125635,2,0,P|320:72|412:64,1,175
436,124,126044,2,0,P|424:152|408:176,1,46.6666666666667
348,256,126226,2,0,L|348:188,1,46.6666666666667,4|0,0:0|1:2,0:0:0:0:
348,140,126407,1,2,0:0:0:0:
348,140,126589,5,0,0:0:0:0:
272,212,126989,2,0,L|252:192,1,17.5,0|2,0:0|0:0,0:0:0:0:
160,100,127655,1,0,0:0:0:0:
76,212,128189,1,2,0:0:0:0:
192,300,128722,5,0,0:0:0:0:
176,196,129104,2,0,L|204:180,1,17.5,0|2,0:0|0:0,0:0:0:0:
312,116,129743,1,0,0:0:0:0:
424,156,130253,1,2,0:0:0:0:
424,156,130381,1,0,0:0:0:0:
424,156,130509,2,0,L|403:175,1,17.5
388,244,130764,6,0,P|360:288|320:304,1,70
244,248,131253,2,0,P|288:228|328:224,1,70,4|0,0:0|0:0,0:0:0:0:
408,172,131743,2,0,P|376:152|324:148,1,70
196,144,132233,2,0,P|236:120|276:108,1,70,4|0,0:0|0:0,0:0:0:0:
404,80,132723,6,0,P|352:48|328:44,1,70
204,40,133193,2,0,P|160:48|124:68,1,70,4|0,0:0|0:0,0:0:0:0:
4,112,133664,2,0,P|40:136|64:164,1,70
204,152,134134,2,0,P|152:164|120:180,1,70,4|0,0:0|0:0,0:0:0:0:
212,288,134605,6,0,P|248:316|304:328,1,80.5000015354157,6|0,0:0|0:0,0:0:0:0:
440,304,135057,2,0,P|400:272|360:260,1,80.5000015354157,4|0,0:0|0:0,0:0:0:0:
220,212,135510,2,0,P|276:200|320:208,1,80.5000015354157
468,220,135963,2,0,P|416:200|396:172,1,80.5000015354157,4|0,0:0|0:0,0:0:0:0:
340,40,136416,6,0,P|320:76|312:116,1,70
316,248,136852,2,0,P|260:232|236:208,1,70,4|0,0:0|0:0,0:0:0:0:
116,196,137288,2,0,P|72:216|44:240,1,70
160,332,137725,2,0,P|204:348|240:348,1,70,4|0,0:0|0:0,0:0:0:0:
372,328,138161,6,0,P|320:320|268:288,1,87.5
112,268,138582,2,0,P|152:248|232:232,1,87.5,4|0,0:0|0:0,0:0:0:0:
368,256,139003,2,0,P|428:248|464:228,1,87.5
456,56,139424,2,0,P|400:76|364:124,1,87.5,4|0,0:0|0:0,0:0:0:0:
296,236,139845,6,0,P|240:276|188:280,1,105.000004005432
8,260,140251,2,0,P|56:216|108:200,1,115.500001101494,4|0,0:0|0:0,0:0:0:0:
364,160,140658,2,0,P|284:160|236:140,1,122.500001168251
0,72,141065,2,4,P|44:40|132:28,1,129.499999505997
380,80,141472,6,6,P|428:124|444:204,1,140,4|6,1:0|0:0,0:0:0:0:
132,304,143045,6,6,P|84:260|68:180,1,140
448,188,144568,6,6,P|455:258|420:321,1,140
64,196,146044,6,6,P|56:125|91:62,1,140
480,80,147476,5,4,1:2:0:0:
32,304,148186,1,0,1:2:0:0:
356,12,148896,5,4,1:2:0:0:
156,372,149606,1,0,1:2:0:0:
336,276,150316,5,6,0:0:0:0:
176,108,150668,1,6,0:0:0:0:
336,108,151021,1,6,0:0:0:0:
176,276,151374,1,6,0:0:0:0:
424,108,151727,5,4,0:0:0:0:
424,109,151904,2,0,L|476:109,5,35,0|0|0|0|0|0,0:0|0:0|0:0|0:0|0:0|0:0,1:2:0:0:
392,112,152433,1,0,0:0:0:0:
352,124,152521,1,0,0:0:0:0:
318,150,152610,1,0,0:0:0:0:
293,183,152698,1,0,0:0:0:0:
278,222,152786,1,0,0:0:0:0:
255,257,152874,1,0,0:0:0:0:
222,284,152963,1,0,0:0:0:0:
180,288,153051,1,0,0:0:0:0:
141,271,153139,6,0,P|100:164|217:105,1,245,0|0,1:2|0:0,0:0:0:0:
192,172,153845,2,0,P|210:206|240:224,1,70,4|0,0:0|0:0,0:0:0:0:
261,157,154110,6,0,L|336:96,1,87.5
400,52,154374,2,0,P|420:72|432:120,1,43.75
452,168,154551,6,0,P|448:240|344:312,1,175,0|0,1:2|0:0,0:0:0:0:
272,328,155080,6,0,P|240:332|192:328,1,52.5000020027161
204,236,155257,2,0,P|184:208|176:172,1,52.5000020027161,4|0,1:2|0:0,0:0:0:0:
124,296,155433,2,0,P|84:308|60:340,1,52.5000020027161
88,204,155610,2,0,P|120:124|184:100,1,157.500006008148
244,104,155963,6,0,P|264:192|360:220,1,183.750001752377,4|0,1:2|0:0,0:0:0:0:
396,224,156316,2,0,L|396:36,1,157.500006008148
344,68,156668,2,0,P|264:84|220:152,1,157.500006008148,4|0,0:0|0:0,0:0:0:0:
196,216,157021,2,0,P|148:288|76:300,1,157.500006008148
8,224,157374,6,0,L|8:152,1,70,0|0,1:2|0:0,0:0:0:0:
40,128,157551,1,0,0:0:0:0:
72,100,157639,1,0,0:0:0:0:
104,72,157727,2,0,L|104:156,1,70
184,168,157904,2,0,L|184:96,1,70
248,16,158080,2,0,P|252:56|288:100,1,70,4|0,0:0|0:0,0:0:0:0:
392,92,158257,2,0,P|392:140|368:176,1,70
260,228,158433,2,0,P|304:316|412:288,1,210
440,244,158786,6,0,P|396:136|280:172,1,245,0|0,1:2|0:0,0:0:0:0:
248,216,159492,2,0,P|164:244|116:184,1,175,0|0,1:2|0:0,0:0:0:0:
188,176,160021,2,0,L|196:136,1,35
212,72,160198,2,0,P|292:48|360:116,1,175,0|0,1:2|0:0,0:0:0:0:
392,204,160727,6,0,P|396:244|388:280,1,52.5000020027161,0|0,1:2|0:0,0:0:0:0:
340,344,160904,2,0,P|316:320|300:276,1,52.5000020027161,4|0,0:0|0:0,0:0:0:0:
204,276,161080,2,0,P|212:236|252:196,1,52.5000020027161
124,176,161257,2,0,P|176:116|256:120,1,157.500006008148
344,160,161610,2,0,L|360:172,14,13.125000500679,0|0|0|0|0|0|0|0|0|0|0|0|0|0|0,1:2|0:0|0:0|0:0|0:0|0:0|0:0|0:0|0:0|0:0|0:0|0:0|0:0|0:0|0:0,0:0:0:0:
308,160,161963,6,0,L|308:284,1,105
308,304,162316,6,0,P|224:280|184:196,1,183.750007009506
184,128,163021,6,0,L|232:72,1,70
272,76,163198,1,0,0:0:0:0:
316,76,163286,1,0,0:0:0:0:
356,76,163374,2,0,L|304:144,1,70
340,212,163551,2,0,L|392:144,1,70,0|0,1:2|0:0,0:0:0:0:
456,56,163727,6,0,P|524:144|452:248,1,245,4|0,0:0|0:0,0:0:0:0:
392,256,164433,6,0,P|336:160|208:160,1,245,0|0,1:2|0:0,0:0:0:0:
140,192,165139,6,0,P|100:220|80:272,1,70.0000026702882,4|0,0:0|0:0,0:0:0:0:
84,308,165316,2,0,P|124:316|172:292,1,70.0000026702882
216,280,165492,2,0,L|216:200,1,70.0000026702882
288,200,165668,2,0,P|312:160|336:148,1,70.0000026702882
408,144,165845,6,0,P|488:204|436:304,1,218.75,0|0,1:2|0:0,0:0:0:0:
360,312,166374,2,0,L|304:268,1,43.75
268,244,166551,6,0,L|156:216,1,93.3333333333333,4|0,0:0|0:0,0:0:0:0:
152,132,166904,2,0,L|216:148,1,46.6666666666667
292,128,167139,2,0,L|352:144,1,46.6666666666667,0|2,0:0|1:2,0:0:0:0:
124,320,167610,6,0,P|144:272|200:240,1,105
240,236,167963,6,0,L|296:188,1,52.5000020027161,4|0,0:0|0:0,0:0:0:0:
320,236,168139,2,0,L|376:188,1,52.5000020027161
432,232,168316,6,0,L|364:292,1,70
408,348,168492,2,0,L|480:284,1,70
500,240,168668,2,0,L|500:160,1,70,0|0,1:2|0:0,0:0:0:0:
468,144,168845,1,0,0:0:0:0:
436,116,168933,1,0,0:0:0:0:
404,88,169021,2,0,L|404:168,1,70
360,232,169198,2,0,P|332:208|324:156,1,70
296,60,169374,6,0,P|256:76|232:132,1,70,4|0,0:0|0:0,0:0:0:0:
108,88,169551,2,0,P|104:136|128:192,1,70
16,260,169727,2,0,P|52:356|164:348,1,210
104,280,170080,6,0,P|104:192|192:156,1,157.500006008148,0|0,1:2|0:0,0:0:0:0:
172,236,170433,2,0,L|340:236,1,157.500006008148
380,228,170786,6,0,P|384:204|380:168,1,35,4|0,0:0|0:0,0:0:0:0:
304,164,170963,6,0,P|280:148|272:104,1,43.75
220,68,171139,6,0,P|192:60|152:72,1,52.5000020027161
96,96,171316,2,0,L|96:168,1,70.0000026702882
96,272,171492,6,0,P|112:332|200:336,1,140,0|0,1:2|1:2,0:0:0:0:
312,292,172021,1,0,1:2:0:0:
312,292,172198,2,0,L|248:200,1,93.3333333333333,4|0,0:0|0:0,0:0:0:0:
280,120,172551,2,0,L|316:172,1,46.6666666666667
392,232,172786,2,0,L|416:268,1,23.3333333333333
456,308,172904,2,0,L|472:316,14,13.125000500679,4|0|0|0|0|0|0|0|0|0|0|0|0|0|0,0:0|0:0|0:0|0:0|0:0|0:0|0:0|0:0|0:0|0:0|0:0|0:0|0:0|0:0|0:0,0:0:0:0:
412,328,173257,6,0,P|332:352|248:320,1,157.500006008148
204,296,173610,6,0,P|200:272|200:248,1,35
264,240,173786,6,0,P|272:208|296:184,1,43.75
356,208,173963,6,0,P|376:176|408:164,1,52.5000020027161
464,144,174139,2,0,P|436:108|408:96,1,52.5000020027161
340,52,174316,6,0,L|296:120,1,70,2|0,0:0|0:0,0:0:0:0:
260,112,174492,1,0,0:0:0:0:
216,112,174580,1,0,0:0:0:0:
176,112,174668,2,0,L|128:184,1,70,2|0,0:0|0:0,0:0:0:0:
52,172,174845,2,0,P|56:224|84:264,1,70,2|0,0:0|0:0,0:0:0:0:
124,300,175021,5,0,0:0:0:0:
156,308,175080,1,0,0:0:0:0:
188,316,175139,1,0,0:0:0:0:
220,324,175198,1,0,0:0:0:0:
256,332,175257,2,0,L|292:320,4,35.0000013351441
280,244,175551,2,0,P|244:232|224:208,1,52.5000020027161
289,168,175727,6,0,P|321:97|423:81,1,175.00000667572,6|0,1:2|0:0,0:0:0:0:
478,87,176433,6,0,P|459:171|389:229,1,175,4|0,0:0|0:0,0:0:0:0:
358,166,176963,2,0,P|325:163|296:166,1,35
252,159,177139,6,0,P|248:229|322:268,1,131.25,0|0,1:2|0:0,0:0:0:0:
376,283,177492,2,0,L|392:280,3,14.5833333333333,0|0|0|0,0:0|0:0|0:0|0:0,0:0:0:0:
303,344,177668,6,0,P|275:367|245:374,1,52.5000020027161
200,286,177845,2,0,P|168:265|120:264,1,52.5000020027161,4|0,0:0|0:0,0:0:0:0:
64,332,178021,2,0,P|56:296|68:260,1,52.5000020027161
4,205,178198,2,0,P|40:136|120:116,1,157.500006008148
108,227,178551,6,0,P|166:276|257:256,1,157.500006008148,0|0,1:2|0:0,0:0:0:0:
340,226,178904,2,0,L|333:247,10,17.500000667572
350,192,179257,2,0,P|320:108|216:120,1,210.000008010865,4|0,0:0|0:0,0:0:0:0:
274,174,179698,2,0,P|292:248|356:276,1,131.25000500679
424,272,179963,6,0,L|484:228,1,52.5000020027161,0|0,1:2|0:0,0:0:0:0:
468,200,180139,1,0,0:0:0:0:
468,156,180227,1,0,0:0:0:0:
468,116,180315,2,0,L|420:152,1,52.5000020027161
376,88,180492,2,0,L|320:124,1,52.5000020027161
324,212,180668,6,0,P|296:228|240:232,1,52.5000020027161,4|0,0:0|0:0,0:0:0:0:
224,144,180845,2,0,P|184:140|152:152,1,52.5000020027161
140,244,181021,2,0,P|160:320|256:340,1,157.500006008148
228,276,181374,6,0,P|288:156|396:148,1,245,0|0,1:2|0:0,0:0:0:0:
392,216,182080,6,0,P|408:256|448:284,2,87.5,4|0|0,0:0|0:0|0:0,0:0:0:0:
300,44,182610,2,0,L|284:108,1,43.75
268,152,182786,2,0,P|196:228|92:196,1,218.75,0|0,1:2|0:0,0:0:0:0:
44,108,183315,6,0,P|72:80|120:72,1,52.5000020027161,2|0,0:0|0:0,0:0:0:0:
148,156,183492,2,0,P|180:160|204:128,1,52.5000020027161,4|0,0:0|0:0,0:0:0:0:
292,96,183668,2,0,P|296:124|288:160,1,52.5000020027161,2|0,0:0|0:0,0:0:0:0:
220,224,183845,2,0,P|252:292|328:272,1,157.500006008148
384,212,184198,2,0,L|404:188,9,17.500000667572,0|0|0|0|0|0|0|0|0|0,1:2|0:0|0:0|0:0|0:0|0:0|0:0|0:0|0:0|0:0,0:0:0:0:
412,172,184551,6,0,P|416:104|332:64,1,131.25
348,136,184904,2,0,P|212:136|192:296,1,306.25
216,340,185610,6,0,L|300:340,1,70,2|0,0:0|0:0,0:0:0:0:
308,304,185786,1,0,0:0:0:0:
332,268,185874,1,0,0:0:0:0:
356,232,185963,2,0,L|272:232,1,70,2|0,0:0|0:0,0:0:0:0:
208,160,186139,2,0,L|300:160,1,70,2|0,0:0|0:0,0:0:0:0:
384,160,186315,6,0,P|316:44|184:64,1,280,4|2,0:0|1:3,0:0:0:0:
176,72,187702,1,0,0:0:0:0:
164,84,188347,1,0,0:0:0:0:
152,96,188947,1,0,0:0:0:0:
328,232,189523,5,0,1:2:0:0:
336,244,190068,1,0,0:0:0:0:
344,256,190589,1,0,0:0:0:0:
200,300,191089,1,0,0:0:0:0:
200,300,191207,1,0,0:0:0:0:
200,300,191325,1,0,0:0:0:0:
200,300,191443,1,0,0:0:0:0:
200,300,191561,5,0,1:2:0:0:
208,288,192015,1,0,0:0:0:0:
216,276,192446,1,0,0:0:0:0:
224,264,192859,1,0,0:0:0:0:
416,168,193259,5,0,1:2:0:0:
404,160,193648,1,0,0:0:0:0:
392,152,194027,1,0,0:0:0:0:
196,56,194382,1,0,0:0:0:0:
196,56,194467,1,0,0:0:0:0:
196,56,194552,1,0,0:0:0:0:
196,56,194637,1,0,0:0:0:0:
196,56,194722,6,0,P|144:80|96:128,1,105.000004005432,0|0,1:3|0:0,0:0:0:0:
320,124,195053,2,0,P|372:144|432:192,1,105.000004005432
196,212,195384,2,0,P|140:224|80:264,1,105.000004005432,0|0,1:3|0:0,0:0:0:0:
296,320,195698,2,0,P|368:320|416:304,1,105.000004005432
160,280,196012,6,0,P|96:256|48:212,1,122.500001168251,0|0,1:3|0:0,0:0:0:0:
328,224,196309,2,0,P|396:200|440:152,1,122.500001168251
192,136,196606,2,0,P|148:84|132:28,1,122.500001168251,0|0,1:3|0:0,0:0:0:0:
332,84,196889,6,0,L|376:52,3,35,0|0|0|0,0:0|0:0|0:0|0:0,0:0:0:0:
312,112,197172,1,0,1:3:0:0:
300,152,197240,1,0,0:0:0:0:
312,192,197308,1,0,0:0:0:0:
348,212,197376,1,0,0:0:0:0:
332,252,197444,5,0,1:3:0:0:
292,240,197512,1,0,0:0:0:0:
252,256,197581,1,0,0:0:0:0:
232,296,197649,1,0,0:0:0:0:
192,280,197717,5,0,1:3:0:0:
200,240,197785,1,0,0:0:0:0:
184,200,197853,1,0,0:0:0:0:
148,180,197922,1,0,0:0:0:0:
164,140,197990,5,0,1:3:0:0:
204,148,198058,1,0,0:0:0:0:
240,128,198126,1,0,0:0:0:0:
256,88,198194,1,0,0:0:0:0:
244,48,198262,6,0,P|220:28|212:0,2,35,0|0|0,1:3|0:0|0:0,0:0:0:0:
284,60,198467,1,0,0:0:0:0:
324,72,198535,1,0,0:0:0:0:
364,84,198603,1,0,0:0:0:0:
404,96,198672,1,0,0:0:0:0:
496,120,198808,6,2,L|508:120,12,11.6666666666667,0|0|0|0|0|0|0|0|0|0|0|0|0,0:0|0:0|0:0|0:0|0:0|0:0|0:0|0:0|0:0|0:0|0:0|0:0|0:0,0:0:0:0:
440,276,199353,6,0,P|396:344|300:328,1,175,2|0,1:2|0:0,0:0:0:0:
220,128,199808,6,0,P|260:132|288:184,1,70.0000026702882,0|4,0:0|0:0,0:0:0:0:
200,312,200081,1,0,0:0:0:0:
200,312,200172,2,0,P|132:296|116:208,1,140.000005340576
112,132,200444,6,0,P|176:32|292:52,1,245,0|0,1:2|0:0,0:0:0:0:
348,88,200990,2,0,L|404:88,7,35,4|0|0|0|0|0|0|0,0:0|0:0|0:0|0:0|0:0|0:0|0:0|0:0,0:0:0:0:
312,92,201535,2,0,P|264:112|228:196,1,140,0|0,1:2|0:0,0:0:0:0:
460,340,201990,6,0,P|432:372|400:376,1,70.0000026702882,0|4,0:0|0:0,0:0:0:0:
196,360,202262,1,0,0:0:0:0:
196,360,202353,2,0,P|148:320|148:256,1,105.000004005432
244,244,202535,1,0,0:0:0:0:
244,244,202626,6,0,P|268:160|348:128,1,175.00000667572,0|0,1:2|0:0,0:0:0:0:
348,208,202899,2,0,P|432:176|460:88,1,175.00000667572
456,28,203172,2,0,L|356:28,1,70.0000026702882,4|0,0:0|0:0,0:0:0:0:
315,28,203353,1,0,0:0:0:0:
245,28,203444,1,0,0:0:0:0:
36,28,203717,5,0,1:2:0:0:
36,28,204172,2,0,P|44:60|80:88,1,70.0000026702882,0|4,0:0|0:0,0:0:0:0:
200,40,204444,1,0,0:0:0:0:
200,40,204535,2,0,P|240:88|224:176,1,140.000005340576
196,248,204808,6,0,P|232:352|356:312,1,256.666666666667,0|0,1:2|0:0,0:0:0:0:
384,296,205353,2,0,L|436:284,7,35,4|0|0|0|0|0|0|0,0:0|0:0|0:0|0:0|0:0|0:0|0:0|0:0,0:0:0:0:
384,248,205899,6,0,P|312:108|160:172,1,350,0|0,1:2|0:0,0:0:0:0:
140,216,206512,6,0,P|184:324|284:280,1,245
376,116,207172,2,0,P|388:52|316:16,1,140,4|0,0:0|1:2,0:0:0:0:
216,8,207535,6,0,L|252:76,1,58.3333333333333,2|0,1:2|0:0,0:0:0:0:
336,344,207808,2,0,L|296:272,1,58.3333333333333,2|0,1:2|0:0,0:0:0:0:
120,204,208081,5,0,1:2:0:0:
120,204,208535,2,0,P|148:172|184:156,1,58.3333333333333,0|4,0:0|0:0,0:0:0:0:
336,144,208808,1,0,0:0:0:0:
336,144,208899,2,0,P|328:200|272:248,1,116.666666666667,0|0,1:2|0:0,0:0:0:0:
196,260,209172,6,0,P|120:180|204:104,1,245,0|0,1:2|0:0,0:0:0:0:
268,104,209717,6,0,L|268:288,1,183.750007009506,4|0,0:0|0:0,0:0:0:0:
292,324,210262,5,0,0:0:0:0:
324,300,210353,1,0,0:0:0:0:
356,276,210444,2,0,L|400:240,8,46.6666666666667
256,216,211262,2,0,P|280:224|300:240,2,46.6666666666667
236,296,211535,2,0,P|172:316|112:268,1,140,0|0,1:2|0:0,0:0:0:0:
184,240,211899,6,0,L|184:88,1,140.000005340576,4|0,0:0|0:0,0:0:0:0:
184,20,212353,1,4,0:0:0:0:
184,20,212444,6,0,P|272:44|320:148,1,210.000008010865,0|0,1:2|0:0,0:0:0:0:
132,304,212899,1,0,0:0:0:0:
132,304,212990,2,0,P|100:272|100:212,1,70.0000026702882,4|0,0:0|0:0,0:0:0:0:
168,128,213172,1,0,0:0:0:0:
168,128,213262,2,0,P|200:192|272:208,1,140.000005340576
352,184,213535,2,0,P|384:168|408:128,1,70.0000026702882,0|0,1:2|0:0,0:0:0:0:
460,40,213717,2,0,P|480:152|416:248,1,210.000008010865,4|0,0:0|0:0,0:0:0:0:
348,292,214081,1,6,0:0:0:0:
348,292,214353,1,2,0:0:0:0:
212,324,214626,6,0,L|192:324,10,14.5833333333333,0|0|0|0|0|0|0|0|0|0|0,1:2|0:0|0:0|0:0|0:0|0:0|0:0|0:0|0:0|0:0|0:0,0:0:0:0:
160,320,214899,2,0,P|120:296|92:232,1,116.666666666667
92,188,215172,2,0,P|200:240|328:184,1,256.666666666667
376,144,215717,2,0,L|328:92,1,46.6666666666667
276,44,215899,1,0,0:0:0:0:
276,44,215990,2,0,P|232:80|232:128,1,93.3333333333333
232,272,216262,6,0,P|176:248|152:172,1,140.000005340576,0|4,0:0|0:0,0:0:0:0:
156,68,216535,1,2,1:2:0:0:
352,128,216808,6,0,P|408:192|336:264,1,186.666666666667,0|0,1:2|0:0,0:0:0:0:
268,312,217250,2,0,L|244:356,2,46.6666666666667,0|2|0,0:0|0:0|0:0,0:0:0:0:
216,228,217515,2,0,L|192:180,2,46.6666666666667,0|2|0,0:0|0:0|0:0,0:0:0:0:
140,288,217781,1,2,0:0:0:0:
140,288,217869,1,2,0:0:0:0:
416,328,218135,1,2,0:0:0:0:
416,328,218400,2,0,P|484:228|408:136,1,245,4|0,0:0|0:0,0:0:0:0:
396,216,218931,6,0,P|312:148|316:48,1,210.000008010865,0|0,1:2|0:0,0:0:0:0:
492,24,219374,2,0,L|424:72,1,70.0000026702882,0|0,0:0|0:0,0:0:0:0:
312,133,219639,1,0,0:0:0:0:
312,133,219728,2,0,P|288:192|216:216,1,140.000005340576
116,208,219993,2,0,P|64:156|112:60,1,157.500006008148,0|0,1:2|0:0,0:0:0:0:
140,28,220259,2,0,P|180:84|268:84,1,157.500006008148
336,64,220524,2,0,P|372:72|408:112,1,70.0000026702882,0|0,1:2|0:0,0:0:0:0:
332,144,220701,1,0,0:0:0:0:
332,144,220790,2,0,P|308:224|240:268,1,157.500006008148
172,284,221055,1,2,1:2:0:0:
504,144,221498,6,0,P|472:108|436:100,1,70.0000026702882,0|4,0:0|0:0,0:0:0:0:
244,128,221763,1,0,0:0:0:0:
244,128,221852,2,0,P|284:192|360:200,1,140.000005340576
460,208,222117,6,0,P|468:328|324:300,1,306.25,0|0,1:2|0:0,0:0:0:0:
296,260,222648,2,0,L|240:260,7,35,4|0|0|0|0|0|0|0,0:0|0:0|0:0|0:0|0:0|0:0|0:0|0:0,0:0:0:0:
208,260,223179,6,0,L|92:260,1,105,0|0,1:2|0:0,0:0:0:0:
104,188,223445,2,0,L|208:188,1,105
192,116,223710,6,0,L|112:116,1,78.7500030040742
112,44,223976,2,0,L|200:44,1,78.7500030040742
276,44,224241,6,0,L|336:44,1,58.3333333333333
496,48,224418,2,0,P|528:140|456:224,1,210.000008010865,4|0,1:2|1:2,0:0:0:0:
328,256,224772,2,0,P|276:248|236:212,1,105.000004005432,4|0,0:0|0:0,0:0:0:0:
164,72,225038,2,0,P|244:68|312:136,1,157.500006008148,4|0,0:0|0:0,0:0:0:0:
344,180,225303,2,0,L|360:212,6,35.0000013351441,4|0|0|0|0|0|0,0:0|0:0|0:0|0:0|0:0|0:0|0:0,0:0:0:0:
172,220,225746,5,0,0:0:0:0:
172,220,225834,2,0,P|192:272|264:304,1,116.666666666667,4|0,0:0|0:0,0:0:0:0:
264,236,226100,2,0,P|276:184|352:164,1,116.666666666667
400,160,226365,6,0,P|476:236|392:304,1,233.333333333333,0|0,1:2|0:0,0:0:0:0:
340,308,226896,6,0,L|340:120,1,183.750007009506,4|0,0:0|0:0,0:0:0:0:
312,104,227427,5,0,1:2:0:0:
280,84,227515,1,0,0:0:0:0:
248,64,227604,2,0,L|212:64,8,35.0000013351441
216,144,228400,2,0,P|236:176|280:196,2,60.6666638895672
296,116,228666,1,0,1:2:0:0:
296,116,228754,2,0,P|340:136|372:200,1,121.333327779134
372,272,229020,6,0,P|332:352|228:352,1,175,4|0,0:0|0:0,0:0:0:0:
96,268,229462,1,4,0:0:0:0:
96,268,229551,2,0,P|140:212|256:216,1,175,0|0,1:2|0:0,0:0:0:0:
428,300,229993,6,0,P|436:260|400:208,1,70.0000026702882,0|4,0:0|0:0,0:0:0:0:
300,64,230259,1,0,0:0:0:0:
300,64,230347,2,0,P|280:132|332:200,1,140.000005340576
396,232,230613,6,0,P|488:144|376:64,1,280,4|0,0:0|1:2,0:0:0:0:
56,304,231675,6,0,L|44:320,10,11.6666666666667,0|0|0|0|0|0|0|0|0|0|0,1:2|0:0|0:0|0:0|0:0|0:0|0:0|0:0|0:0|0:0|0:0,0:0:0:0:
92,264,231940,2,0,P|164:216|244:216,1,131.25,0|0,1:2|0:0,0:0:0:0:
280,208,232206,1,0,1:2:0:0:
492,316,232471,1,0,1:2:0:0:
364,28,232737,5,0,1:2:0:0:
364,28,232914,2,0,P|356:124|260:160,1,210.000008010865,4|0,0:0|1:2,0:0:0:0:
156,140,233268,1,4,0:0:0:0:
396,340,233533,2,0,L|312:272,1,105.000004005432,2|0,1:2|0:0,0:0:0:0:
228,212,233799,5,2,0:0:0:0:
228,212,234344,1,4,3:2:0:0:
452,76,234889,5,0,0:0:0:0:
452,76,235435,1,4,3:2:0:0:
288,284,236020,5,0,0:0:0:0:
288,284,236620,1,4,3:2:0:0:
136,68,237220,5,0,0:0:0:0:
136,68,237851,1,4,3:2:0:0:
96,332,238483,6,0,P|156:344|232:324,1,140,0|4,0:0|3:2,0:0:0:0:
392,120,239834,6,0,P|404:192|356:248,1,140,2|4,0:0|3:2,0:0:0:0:
148,92,241275,6,0,P|152:156|216:172,1,140,2|2,0:0|2:0,0:0:0:0:
256,192,242923,12,4,245040,0:0:0:0:
256,192,254640,12,4,261540,2:2:0:0:
72,172,264230,6,0,P|76:212|88:240,1,70
440,212,266991,6,0,P|436:172|424:144,1,70
292,68,269417,6,0,P|288:104|304:140,1,70
284,280,271523,6,0,P|252:300|216:304,1,70
76,264,273443,6,0,P|56:228|56:192,1,70
152,88,275157,6,0,P|168:132|164:168,1,70
72,264,276726,6,0,P|92:296|124:312,1,70
264,336,278180,6,0,P|300:340|344:332,1,70
460,260,279527,6,0,P|476:216|472:180,1,70
368,100,280770,6,0,P|356:132|360:172,1,70
480,252,281940,6,0,P|460:288|432:304,1,70
300,344,283030,6,0,P|264:352|216:344,1,70
100,280,284077,6,0,P|76:248|72:208,1,70
156,104,285044,6,0,P|176:148|176:184,1,70
56,244,285967,6,0,P|64:204|80:176,1,70
220,148,286859,6,0,P|204:196|180:220,1,70
100,320,287700,6,0,P|136:344|172:344,1,70
304,344,288502,6,0,P|344:336|372:312,1,70
448,200,289281,6,0,P|464:152|464:124,1,70
356,40,290030,6,0,P|332:72|328:108,1,70
456,164,290745,6,0,P|440:128|408:104,1,70
276,108,291431,6,0,P|284:144|312:168,1,70
424,252,292090,6,0,P|408:280|372:300,1,70
240,332,292721,6,0,P|200:336|164:320,1,70
60,232,293328,6,0,P|44:188|48:156,1,70
152,68,293922,6,0,P|164:112|152:144,1,70
32,200,294504,6,0,P|44:168|84:140,1,70
208,116,295049,6,0,P|196:156|172:176,1,70
36,156,295594,2,0,P|60:128|104:120,1,70
224,168,296140,6,0,P|196:188|156:188,1,70
60,92,296685,2,0,P|108:92|132:108,1,70
208,216,297231,6,0,P|168:216|144:196,1,70
92,68,297776,1,0,0:0:0:0:
228,100,298049,1,0,0:0:0:0:
96,144,298322,1,0,0:0:0:0:
184,36,298594,1,0,0:0:0:0:
184,36,298663,1,0,0:0:0:0:
184,36,298731,1,0,0:0:0:0:
184,36,298799,1,0,0:0:0:0:
184,36,298867,6,0,P|240:40|296:76,1,105.000004005432,2|0,0:0|0:0,0:0:0:0:
412,152,299413,1,0,0:0:0:0:
268,220,299685,1,0,0:0:0:0:
364,92,299958,1,0,0:0:0:0:
336,248,300231,1,0,0:0:0:0:
288,100,300504,1,0,0:0:0:0:
396,216,300776,1,0,0:0:0:0:
396,216,300844,1,0,0:0:0:0:
396,216,300913,1,0,0:0:0:0:
396,216,300981,1,0,0:0:0:0:
396,216,301049,6,0,P|372:272|296:308,1,140,6|0,0:0|0:0,0:0:0:0:
96,320,301594,1,0,0:0:0:0:
244,168,301867,1,0,0:0:0:0:
160,360,302140,1,0,0:0:0:0:
172,152,302413,1,0,0:0:0:0:
236,352,302685,1,0,0:0:0:0:
108,184,302958,6,0,L|72:148,3,35,0|0|0|0,1:2|0:0|0:0|0:0,0:0:0:0:
152,276,303231,2,0,L|112:240,3,35,0|0|0|0,1:2|0:0|0:0|0:0,0:0:0:0:
184,274,303504,1,0,0:0:0:0:
218,266,303572,1,0,0:0:0:0:
251,252,303640,1,0,0:0:0:0:
276,228,303708,1,0,0:0:0:0:
288,195,303776,5,0,0:0:0:0:
291,163,303844,1,0,0:0:0:0:
283,132,303913,1,0,0:0:0:0:
265,109,303981,1,0,0:0:0:0:
239,98,304049,1,0,0:0:0:0:
214,101,304117,1,0,0:0:0:0:
198,114,304185,1,0,0:0:0:0:
191,130,304254,1,0,0:0:0:0:
194,143,304322,1,0,0:0:0:0:
256,188,304594,5,2,0:0:0:0:
256,271,304867,6,2,L|256:263,28,8.75,0|0|0|0|0|0|0|0|0|0|0|0|0|0|0|0|0|0|0|0|0|0|0|0|0|0|0|0|0,0:0|0:0|0:0|0:0|0:0|0:0|0:0|0:0|0:0|0:0|0:0|0:0|0:0|0:0|0:0|0:0|0:0|0:0|0:0|0:0|0:0|0:0|0:0|0:0|0:0|0:0|0:0|0:0|0:0,0:0:0:0:
256,324,305413,6,0,P|320:376|384:308,1,175,0|0,1:2|0:0,0:0:0:0:
412,152,305867,2,0,P|400:120|364:88,1,58.3333333333333,0|4,0:0|0:0,0:0:0:0:
232,16,306140,1,0,0:0:0:0:
232,16,306231,2,0,P|224:80|168:124,1,116.666666666667
120,124,306504,6,0,P|36:200|124:272,1,245,0|0,1:2|0:0,0:0:0:0:
164,276,307049,2,0,L|232:276,5,46.6666666666667,4|0|0|0|0|0,0:0|0:0|0:0|0:0|0:0|0:0,0:0:0:0:
280,276,307594,6,0,P|340:244|360:168,1,140.000005340576,0|0,1:2|0:0,0:0:0:0:
176,76,308049,1,0,0:0:0:0:
176,76,308140,2,0,P|192:144|256:176,1,140.000005340576,4|0,0:0|0:0,0:0:0:0:
360,180,308413,2,0,P|336:108|264:84,1,140.000005340576
176,76,308685,6,0,P|104:96|96:204,1,183.750001752377,0|0,1:2|0:0,0:0:0:0:
164,196,308958,2,0,L|356:196,1,183.750001752377
420,200,309231,2,0,L|476:280,2,81.6666674455007,4|0|0,1:2|0:0|0:0,0:0:0:0:
368,128,309504,2,0,P|316:68|200:56,1,183.750001752377
140,80,309776,6,0,P|80:152|124:256,1,210.000008010865,0|0,1:2|0:0,0:0:0:0:
316,332,310231,2,0,P|280:296|280:252,1,70.0000026702882,0|4,0:0|0:0,0:0:0:0:
268,68,310504,1,0,0:0:0:0:
268,68,310594,2,0,P|280:136|340:176,1,140.000005340576
440,180,310867,2,0,P|420:248|344:300,1,157.500006008148,0|0,1:2|0:0,0:0:0:0:
316,240,311140,2,0,P|224:284|216:356,1,157.500006008148
280,336,311413,6,0,L|348:336,5,46.6666666666667,4|0|0|0|0|0,0:0|0:0|0:0|0:0|0:0|0:0,0:0:0:0:
396,332,311958,6,0,P|372:240|288:208,1,183.750007009506,0|0,1:2|0:0,0:0:0:0:
296,260,312504,2,0,P|200:224|168:128,1,210.000008010865
332,36,313231,6,0,L|388:172,1,140,4|0,0:0|1:2,0:0:0:0:
440,296,313594,1,4,0:0:0:0:
440,296,313685,6,0,P|400:288|372:256,1,70.0000026702882
312,184,313867,2,0,P|292:272|224:316,1,157.500006008148,0|0,1:2|0:0,0:0:0:0:
156,336,314140,6,0,P|72:320|48:232,1,175,0|0,1:2|0:0,0:0:0:0:
56,68,314594,2,0,P|60:104|84:128,1,58.3333333333333,0|4,0:0|0:0,0:0:0:0:
232,200,314867,1,0,0:0:0:0:
232,200,314958,2,0,P|260:136|328:116,1,116.666666666667
372,108,315231,6,0,P|436:128|464:180,1,105,0|0,1:2|0:0,0:0:0:0:
396,188,315504,2,0,P|360:220|344:288,1,105
340,328,315776,6,0,L|152:328,1,183.750007009506,4|0,0:0|0:0,0:0:0:0:
128,304,316322,1,0,1:2:0:0:
104,276,316413,1,0,0:0:0:0:
80,248,316504,2,0,L|36:248,8,35.0000013351441
60,164,317322,2,0,P|64:132|84:104,2,60.6666638895672
140,164,317594,6,0,P|212:180|252:244,1,151.666666666667,0|0,1:2|0:0,0:0:0:0:
256,296,317958,2,0,P|332:372|404:280,1,233.333333333333,4|4,0:0|0:0,0:0:0:0:
408,228,318504,1,2,1:2:0:0:
136,8,318958,6,0,P|144:52|168:72,1,70.0000026702882,0|4,0:0|0:0,0:0:0:0:
360,136,319231,1,0,0:0:0:0:
360,136,319322,2,0,P|320:200|240:208,1,140.000005340576
156,212,319594,1,0,1:2:0:0:
156,212,319776,6,0,P|200:104|320:64,1,233.333333333333,4|6,0:0|0:0,0:0:0:0:
400,308,320432,1,2,0:0:0:0:
400,308,320725,6,0,P|292:348|272:236,1,256.666666666667,0|0,1:2|0:0,0:0:0:0:
292,204,321325,6,0,P|268:120|188:160,1,192.500007343293
172,188,321925,6,0,L|140:240,1,46.6666666666667
64,344,322141,2,0,P|4:272|20:168,1,185.666666666667
160,40,322806,2,0,P|180:60|208:64,1,46.6666666666667,4|4,0:0|1:0,0:0:0:0:
464,128,323276,5,0,0:0:0:0:
464,128,323364,2,0,L|424:176,1,46.6666666666667,4|0,0:0|0:0,0:0:0:0:
288,168,323570,2,0,P|256:232|296:300,1,140
332,232,323981,2,0,P|364:168|332:104,1,140,4|0,0:0|0:0,0:0:0:0:
224,40,324511,6,0,L|176:108,1,58.3333333333333
144,160,324687,1,0,1:2:0:0:
144,160,324776,1,0,0:0:0:0:
144,160,324864,2,0,P|120:216|168:292,1,131.25
232,340,325217,6,0,P|264:352|304:348,1,52.5000020027161
320,256,325393,2,0,P|364:252|400:232,1,52.5000020027161,4|0,0:0|0:0,0:0:0:0:
364,144,325570,2,0,P|396:132|420:88,1,52.5000020027161
340,40,325746,2,0,P|268:52|232:148,1,157.500006008148
220,172,326099,2,0,P|168:220|108:156,1,157.500006008148,0|0,1:2|0:0,0:0:0:0:
108,124,326452,2,0,L|108:88,7,26.2500010013581
108,176,326805,2,0,P|144:248|224:268,1,157.500006008148,4|0,0:0|0:0,0:0:0:0:
212,216,327158,2,0,P|232:140|312:120,1,157.500006008148
408,124,327511,6,0,L|476:160,1,70,0|0,1:2|0:0,0:0:0:0:
472,204,327687,1,0,0:0:0:0:
472,252,327776,1,0,0:0:0:0:
472,300,327864,2,0,L|396:260,1,70
348,312,328040,2,0,L|424:352,1,70
324,380,328217,6,0,P|292:356|276:308,1,70,4|0,0:0|0:0,0:0:0:0:
176,348,328393,2,0,P|176:288|192:260,1,70
60,264,328570,2,0,P|96:168|192:144,1,210
192,204,328923,6,0,L|192:244,7,26.2500010013581,0|0|0|0|0|0|0|0,1:2|0:0|0:0|0:0|0:0|0:0|0:0|0:0,0:0:0:0:
244,204,329276,2,0,P|320:192|368:120,1,157.500006008148,0|0,0:0|0:0,0:0:0:0:
372,64,329628,6,0,P|424:-8|488:88,1,218.75,4|0,0:0|0:0,0:0:0:0:
496,132,330158,2,0,L|464:168,1,43.75
404,228,330334,2,0,P|284:256|220:192,1,218.75,0|0,1:2|0:0,0:0:0:0:
196,96,330864,6,0,P|192:64|164:24,1,52.5000020027161,0|0,1:2|0:0,0:0:0:0:
92,100,331040,2,0,P|60:88|20:92,1,52.5000020027161,4|0,0:0|0:0,0:0:0:0:
48,192,331217,2,0,P|12:220|4:252,1,52.5000020027161
100,276,331393,2,0,P|124:352|224:368,1,157.500006008148
260,376,331746,6,0,L|280:380,14,10.9375,0|0|0|0|0|0|0|0|0|0|0|0|0|0|0,1:2|0:0|0:0|0:0|0:0|0:0|0:0|0:0|0:0|0:0|0:0|0:0|0:0|0:0|0:0,0:0:0:0:
220,324,332099,2,0,P|200:240|264:168,1,175
368,136,332540,1,0,0:0:0:0:
368,136,332628,2,0,P|424:56|328:36,1,218.75
248,80,333158,6,0,L|188:127,1,70
190,167,333334,1,0,0:0:0:0:
188,210,333423,1,0,0:0:0:0:
187,252,333511,2,0,L|125:303,1,70
144,374,333687,2,0,L|220:314,1,70,0|0,1:2|0:0,0:0:0:0:
304,248,333864,6,0,P|336:184|304:124,1,131.25,4|0,0:0|0:0,0:0:0:0:
256,172,334217,2,0,P|200:200|112:200,1,131.25
80,204,334570,6,0,P|116:248|120:316,1,105,0|0,1:2|0:0,0:0:0:0:
124,348,334923,2,0,P|160:380|200:336,1,105
204,296,335276,2,0,P|220:236|276:204,1,105,4|0,0:0|0:0,0:0:0:0:
312,192,335628,6,0,P|344:192|384:204,1,52.5000020027161
372,116,335805,2,0,P|400:128|424:152,1,52.5000020027161
476,196,335981,2,0,P|504:264|420:292,1,157.500006008148,0|0,1:2|0:0,0:0:0:0:
364,300,336334,2,0,P|336:296|296:276,1,52.5000020027161
308,368,336511,2,0,P|272:348|252:320,1,52.5000020027161
196,276,336687,6,0,L|96:328,1,105,4|0,0:0|0:0,0:0:0:0:
104,244,337040,6,0,L|164:212,1,52.5000020027161
224,184,337305,2,0,L|256:168,1,26.2500010013581,0|4,0:0|0:0,0:0:0:0:
456,148,337746,6,0,P|400:92|312:76,1,157.500006008148
272,76,338099,2,0,L|228:120,1,52.5000020027161,4|0,0:0|0:0,0:0:0:0:
180,72,338276,2,0,L|112:140,1,52.5000020027161
84,72,338452,2,0,P|44:132|88:200,1,157.500006008148
148,224,338805,6,0,L|212:160,1,70,0|0,1:2|0:0,0:0:0:0:
248,176,338981,1,0,0:0:0:0:
296,176,339070,1,0,0:0:0:0:
344,176,339158,2,0,L|404:116,1,70
484,132,339334,2,0,L|424:196,1,70
472,276,339511,6,0,P|440:292|396:288,1,70,4|0,0:0|0:0,0:0:0:0:
320,368,339687,2,0,P|288:344|280:292,1,70
148,336,339864,2,0,P|144:232|232:176,1,210
296,180,340217,6,0,P|336:208|352:256,1,93.3333333333333,4|0,1:0|0:0,0:0:0:0:
364,316,340393,2,0,P|408:288|420:244,1,93.3333333333333
420,180,340570,2,0,P|364:88|264:72,1,210
196,96,340923,6,0,L|132:136,1,52.5000020027161,4|0,1:0|0:0,0:0:0:0:
156,204,341099,2,0,L|212:168,2,52.5000020027161,0|0|0,0:0|0:0|0:0,0:0:0:0:
20,284,341452,2,0,P|52:308|88:308,1,52.5000020027161
140,316,341628,2,0,L|168:316,6,26.2500010013581,4|0|0|0|0|0|0,1:0|0:0|0:0|0:0|0:0|0:0|0:0,0:0:0:0:
220,316,341981,2,0,P|244:312|276:280,1,52.5000020027161
340,320,342158,2,0,P|364:280|360:244,1,52.5000020027161
384,208,342334,6,0,L|248:208,1,105,4|0,1:0|0:0,0:0:0:0:
296,140,342687,2,0,L|368:140,1,70
348,72,342952,1,0,0:0:0:0:
296,72,343040,2,0,L|276:72,7,17.5,4|0|0|0|0|0|0|0,1:0|0:0|0:0|0:0|0:0|0:0|0:0|0:0,0:0:0:0:
240,76,343393,6,0,P|180:100|156:164,1,131.25,4|0,1:0|0:0,0:0:0:0:
244,164,343746,2,0,L|296:208,1,58.3333333333333,4|0,1:0|0:0,0:0:0:0:
344,252,343923,6,0,P|344:304|292:332,1,105.000004005432,0|4,0:0|1:0,0:0:0:0:
100,88,344452,2,0,P|84:136|124:192,1,105.000004005432,12|4,1:0|1:0,1:0:0:0:
256,268,344805,2,4,P|304:268|344:212,1,105.000004005432,12|4,1:0|1:0,1:0:0:0:
336,72,345158,1,0,3:0:0:0:
312,45,345217,1,0,3:0:0:0:
282,28,345276,1,0,3:0:0:0:
248,21,345334,1,0,3:0:0:0:
213,24,345393,1,0,3:0:0:0:
180,38,345452,1,0,3:0:0:0:
155,63,345511,6,4,P|140:88|136:116,2,52.5000020027161,4|4|4,1:0|1:0|1:0,1:0:0:0:
144,268,346278,6,0,L|172:288,1,35
228,344,346485,2,0,L|164:364,4,46.6666666666667
304,332,347106,2,0,P|364:312|400:268,1,117.249994453812
411,225,347520,6,0,P|363:229|312:200,1,90.9999958343508,2|0,0:0|0:0,0:0:0:0:
284,148,347908,2,0,L|288:128,10,15.1666659723918
240,212,348490,2,0,L|196:228,6,30.3333319447836
98,69,349850,6,0,P|121:120|184:148,1,125.999996154785,0|0,1:2|0:0,0:0:0:0:
256,140,350350,2,0,L|316:120,7,41.9999987182618
344,196,351350,2,0,L|400:208,3,41.9999987182618
440,144,351850,1,0,1:2:0:0:
48,308,352577,6,0,L|128:284,1,70.3499966722871,0|0,1:2|0:0,0:0:0:0:
200,336,352937,2,0,L|300:312,1,93.3333333333333
200,208,353446,2,0,L|304:184,2,93.3333333333333,0|0|0,0:0|0:0|0:0,0:0:0:0:
384,236,354209,2,0,L|288:260,1,93.3333333333333
400,104,354717,2,0,L|512:76,2,93.3333333333333,0|0|0,0:0|0:0|0:0,0:0:0:0:
228,180,355481,2,0,L|148:204,1,70
256,252,355812,6,0,L|256:264,130,8.75,0|4|0|0|0|0|0|0|0|0|0|0|0|0|0|0|0|0|0|0|0|0|0|0|0|0|0|0|0|0|0|0|0|0|0|0|0|0|0|0|0|0|0|0|0|0|0|0|0|0|0|0|0|0|0|0|0|0|0|0|0|0|0|0|0|0|0|0|0|0|0|0|0|0|0|0|0|0|0|0|0|0|0|0|0|0|0|0|0|0|0|0|0|0|0|0|0|0|0|0|0|0|0|0|0|0|0|0|0|0|0|0|0|0|0|0|0|0|0|0|0|0|0|0|0|0|0|0|0|0|0,0:0|0:0|0:0|0:0|0:0|0:0|0:0|0:0|0:0|0:0|0:0|0:0|0:0|0:0|0:0|0:0|0:0|0:0|0:0|0:0|0:0|0:0|0:0|0:0|0:0|0:0|0:0|0:0|0:0|0:0|0:0|0:0|0:0|0:0|0:0|0:0|0:0|0:0|0:0|0:0|0:0|0:0|0:0|0:0|0:0|0:0|0:0|0:0|0:0|0:0|0:0|0:0|0:0|0:0|0:0|0:0|0:0|0:0|0:0|0:0|0:0|0:0|0:0|0:0|0:0|0:0|0:0|0:0|0:0|0:0|0:0|0:0|0:0|0:0|0:0|0:0|0:0|0:0|0:0|0:0|0:0|0:0|0:0|0:0|0:0|0:0|0:0|0:0|0:0|0:0|0:0|0:0|0:0|0:0|0:0|0:0|0:0|0:0|0:0|0:0|0:0|0:0|0:0|0:0|0:0|0:0|0:0|0:0|0:0|0:0|0:0|0:0|0:0|0:0|0:0|0:0|0:0|0:0|0:0|0:0|0:0|0:0|0:0|0:0|0:0|0:0|0:0|0:0|0:0|0:0|0:0,0:0:0:0:
256,208,358062,6,0,L|256:192,40,11.6666666666667
256,148,359016,6,0,L|256:116,22,17.5
256,192,359834,12,0,360925,0:0:0:0:
256,192,360993,12,0,362152,0:0:0:0:
256,192,362221,12,0,364799,0:0:0:0:
256,192,364936,5,2,2:2:0:0:
