osu file format v14

[General]
AudioFilename: tenshofull.mp3
AudioLeadIn: 0
PreviewTime: 89226
Countdown: 0
SampleSet: Normal
StackLeniency: 0.7
Mode: 1
LetterboxInBreaks: 0
WidescreenStoryboard: 1

[Editor]
Bookmarks: 4394,15688,26982,38276,49570,60864,72139,82778,91680,100407,109135,117862,126589,134605,141472,147476,153139,164433,175727,187021,199354,208081,216808,225303,233799,245030,264230,298318,305409,314136,323277,334571,345865,355777,364923
DistanceSpacing: 1.5
BeatDivisor: 4
GridSize: 32
TimelineZoom: 2.22

[Metadata]
Title:Ten Sho Sho Ten Sho
TitleUnicode:てんしょう しょうてんしょう
Artist:Kikuo
ArtistUnicode:きくお
Creator:Squigly
Version:Donphin Inner Oni
Source:
Tags:Dubstep Hatsune_Miku Kikuo Vocaloid Kikuo_P Glitch hop Drumstep Vocastep Marathon Dolphin
BeatmapID:460595
BeatmapSetID:189457

[Difficulty]
HPDrainRate:5
CircleSize:2
OverallDifficulty:5
ApproachRate:9
SliderMultiplier:1.40399990653992
SliderTickRate:1

[Events]
//Background and Video events
0,0,"bg resized ten sho.png",0,70
//Break Periods
2,245240,263630
//Storyboard Layer 0 (Background)
//Storyboard Layer 1 (Fail)
//Storyboard Layer 2 (Pass)
//Storyboard Layer 3 (Foreground)
//Storyboard Sound Samples

[TimingPoints]
158,352.941176470588,4,1,0,60,1,0
7216,-100,4,1,0,70,0,0
10040,-100,4,1,0,75,0,0
15687,-100,4,1,0,80,0,0
27687,-100,4,1,0,60,0,0
32981,-100,4,1,0,65,0,0
33334,-100,4,1,0,70,0,0
33687,-100,4,1,0,75,0,0
34040,-100,4,1,0,80,0,0
34393,-100,4,1,0,85,0,0
34746,-100,4,1,0,90,0,0
35099,-100,4,1,0,95,0,0
35452,-100,4,1,0,80,0,0
70746,348.33091436865,4,1,0,80,1,0
70746,-101.010101010101,4,1,0,80,0,0
72139,352.941176470588,4,1,0,80,1,0
74962,350.877192982456,4,1,0,80,1,0
76365,340.909090909091,4,1,0,80,1,0
76365,-103.092783505155,4,1,0,80,0,0
76535,-102.040816326531,4,1,0,80,0,0
76705,-101.010101010101,4,1,0,80,0,0
76876,-100,4,1,0,80,0,0
77217,-99.009900990099,4,1,0,80,0,0
77387,-98.0392156862745,4,1,0,80,0,0
77558,-97.0873786407767,4,1,0,80,0,0
77728,331.491712707182,4,1,0,80,1,0
78556,-99.009900990099,4,1,0,80,0,0
78722,-98.0392156862745,4,1,0,80,0,0
78888,-97.0873786407767,4,1,0,80,0,0
79053,319.148936170213,4,1,0,80,1,0
80329,310.880829015544,4,1,0,80,1,0
80329,-103.092783505155,4,1,0,80,0,0
80484,-102.040816326531,4,1,0,80,0,0
80639,-101.010101010101,4,1,0,80,0,0
80795,-100,4,1,0,80,0,0
81572,301.507537688442,4,1,0,80,1,0
81572,-103.092783505155,4,1,0,80,0,0
81722,-102.040816326531,4,1,0,80,0,0
81873,-101.010101010101,4,1,0,80,0,0
82024,-100,4,1,0,80,0,0
82778,297.029702970297,4,1,0,80,1,0
83966,285.714285714286,4,1,0,80,1,0
85108,277.777777777778,4,1,0,80,1,0
85108,-103.092783505155,4,1,0,80,0,0
85385,-100,4,1,0,80,0,0
86219,274.599542334096,4,1,0,80,1,0
87317,272.727272727273,4,1,0,80,1,0
91680,-100,4,1,0,80,0,1
126589,533.333333333333,4,1,0,50,1,0
126589,-51.2820512820513,4,1,0,50,0,0
126989,-54.054054054054,4,1,0,50,0,0
127655,-57.1428571428571,4,1,0,50,0,0
128189,-60.6060606060606,4,1,0,50,0,0
128722,510.63829787234,4,1,0,50,1,0
128722,-62.5,4,1,0,50,0,0
129104,-66.6666666666667,4,1,0,50,0,0
129743,-71.4285714285714,4,1,0,50,0,0
130253,-76.9230769230769,4,1,0,50,0,0
130764,489.795918367347,4,1,0,65,1,0
130764,-83.3333333333333,4,1,0,65,0,0
131008,-84.7457627118644,4,1,0,65,0,0
131498,-86.2068965517241,4,1,0,65,0,0
131743,-87.719298245614,4,1,0,65,0,0
131988,-89.2857142857143,4,1,0,65,0,0
132233,-90.9090909090909,4,1,0,65,0,0
132478,-92.5925925925926,4,1,0,65,0,0
132723,470.588235294118,4,1,0,75,1,0
132723,-98.0392156862745,4,1,0,75,0,0
132958,-100,4,1,0,75,0,0
134605,452.830188679245,4,1,0,80,1,0
136416,436.363636363636,4,1,0,80,1,0
138161,421.052631578947,4,1,0,80,1,0
139845,406.779661016949,4,1,0,80,1,0
141472,393.44262295082,4,1,0,80,1,0
143045,380.952380952381,4,1,0,80,1,0
144568,369.230769230769,4,1,0,80,1,0
146044,358.208955223881,4,1,0,80,1,0
147476,355.029585798817,4,1,0,80,1,0
150316,352.941176470588,4,1,0,80,1,0
187021,681.818181818182,4,1,0,80,1,0
187021,-51.8134715025907,4,1,0,80,0,0
187702,645.161290322581,4,1,0,80,1,8
187702,-54.6448087431694,4,1,0,80,0,0
188347,600,4,1,0,80,1,8
188347,-58.8235294117647,4,1,0,80,0,0
188947,576.923076923077,4,1,0,80,1,8
188947,-61.3496932515337,4,1,0,80,0,0
189523,545.454545454546,4,1,0,80,1,0
189523,-64.5161290322581,4,1,0,80,0,0
190068,521.739130434783,4,1,0,80,1,8
190068,-67.5675675675676,4,1,0,80,0,0
190589,500,4,1,0,80,1,8
190589,-70.4225352112676,4,1,0,80,0,0
191089,472.44094488189,4,1,0,80,1,8
191089,-74.6268656716418,4,1,0,80,0,0
191561,454.545454545455,4,1,0,80,1,0
191561,-77.5193798449612,4,1,0,80,0,0
192015,431.654676258993,4,1,0,80,1,8
192015,-81.9672131147541,4,1,0,80,0,0
192446,413.793103448276,4,1,0,80,1,8
192446,-85.4700854700855,4,1,0,80,0,0
192859,400,4,1,0,80,1,8
192859,-88.4955752212389,4,1,0,80,0,0
193259,389.61038961039,4,1,0,80,1,0
193259,-90.9090909090909,4,1,0,80,0,0
193648,379.746835443038,4,1,0,80,1,8
193648,-92.5925925925926,4,1,0,80,0,0
194027,355.029585798817,4,1,0,80,1,8
194027,-99.009900990099,4,1,0,80,0,0
194382,340.909090909091,4,1,0,80,1,8
194382,-103.092783505155,4,1,0,80,0,0
194722,331.491712707182,4,1,0,80,1,0
194722,-104.166666666667,4,1,0,80,0,0
194887,-102.040816326531,4,1,0,80,0,0
195053,-100,4,1,0,80,0,0
195219,-98.0392156862745,4,1,0,80,0,0
195384,314.13612565445,4,1,0,80,1,8
195384,-102.040816326531,4,1,0,80,0,8
195541,-100,4,1,0,80,0,8
195698,-98.0392156862745,4,1,0,80,0,8
195855,-96.1538461538461,4,1,0,80,0,8
196012,297.029702970297,4,1,0,80,1,0
196160,-99.009900990099,4,1,0,80,0,0
196309,-98.0392156862745,4,1,0,80,0,0
196457,-97.0873786407767,4,1,0,80,0,0
196606,283.018867924528,4,1,0,80,1,8
196889,-99.009900990099,4,1,0,80,0,8
196959,-98.0392156862745,4,1,0,80,0,8
197030,-97.0873786407767,4,1,0,80,0,8
197101,-96.1538461538461,4,1,0,80,0,8
197172,272.727272727273,4,1,0,80,1,0
199353,-100,4,1,0,80,0,1
216808,265.486725663717,4,1,0,80,1,1
233799,272.727272727273,4,1,0,80,1,0
233799,-100,4,1,0,80,0,0
234344,-100,4,1,0,70,0,0
235435,292.682926829268,4,1,0,70,1,8
236020,300,4,1,0,65,1,0
237220,315.789473684211,4,1,0,65,1,0
238483,333.333333333333,4,1,0,60,1,0
239149,342.857142857143,4,1,0,60,1,8
239149,-97.0873786407767,4,1,0,60,0,8
239834,352.941176470588,4,1,0,55,1,0
240539,368.098159509202,4,1,0,55,1,8
240539,-97.0873786407767,4,1,0,55,0,8
241275,389.61038961039,4,1,0,50,1,0
242054,434.782608695652,4,1,0,50,1,8
242054,-91.743119266055,4,1,0,50,0,8
242923,487.80487804878,4,1,0,45,1,0
243898,571.428571428571,4,1,0,45,1,8
245040,600,4,1,0,40,1,0
264230,1428.57142857143,4,1,0,30,1,0
265658,1333.33333333333,4,1,0,31,1,8
266991,1250,4,1,0,32,1,8
268241,1176.47058823529,4,1,0,33,1,8
269417,1090.90909090909,4,1,0,34,1,0
270507,1016.94915254237,4,1,0,35,1,8
271523,983.606557377049,4,1,0,36,1,8
272506,937.5,4,1,0,37,1,8
273443,869.565217391304,4,1,0,38,1,0
274312,845.070422535211,4,1,0,39,1,8
275157,800,4,1,0,40,1,8
275957,769.230769230769,4,1,0,41,1,8
276726,740.740740740741,4,1,0,42,1,0
277466,714.285714285714,4,1,0,43,1,8
278180,681.818181818182,4,1,0,44,1,8
278861,666.666666666667,4,1,0,45,1,8
279527,631.578947368421,4,1,0,46,1,0
280158,612.244897959184,4,1,0,47,1,8
280770,594.059405940594,4,1,0,48,1,8
281364,576.923076923077,4,1,0,49,1,8
281940,550.45871559633,4,1,0,50,1,0
282490,540.540540540541,4,1,0,41,1,8
283030,530.973451327434,4,1,0,52,1,8
283428,-99.009900990099,4,1,0,52,0,8
283560,517.241379310345,4,1,0,53,1,8
284077,491.803278688525,4,1,0,54,1,0
284568,476.190476190476,4,1,0,55,1,8
285044,465.116279069767,4,1,0,56,1,8
285509,458.015267175573,4,1,0,57,1,8
285967,451.127819548872,4,1,0,58,1,0
286418,441.176470588235,4,1,0,59,1,8
286859,428.571428571429,4,1,0,60,1,8
287287,413.793103448276,4,1,0,61,1,8
287700,405.405405405405,4,1,0,62,1,0
288105,397.350993377483,4,1,0,63,1,8
288502,392.156862745098,4,1,0,64,1,8
288894,387.096774193548,4,1,0,65,1,8
289281,379.746835443038,4,1,0,66,1,0
289660,370.37037037037,4,1,0,67,1,8
290030,363.636363636364,4,1,0,68,1,8
290393,352.941176470588,4,1,0,69,1,8
290745,346.820809248555,4,1,0,70,1,0
291091,340.909090909091,4,1,0,71,1,8
291431,333.333333333333,4,1,0,72,1,8
291764,326.086956521739,4,1,0,73,1,8
292090,319.148936170213,4,1,0,74,1,0
292409,312.5,4,1,0,75,1,8
292721,307.692307692308,4,1,0,76,1,8
293028,300,4,1,0,77,1,8
293328,297.029702970297,4,1,0,78,1,0
293922,291.26213592233,4,1,0,79,1,8
294504,272.727272727273,4,1,0,80,1,0
294504,-102.040816326531,4,1,0,80,0,0
295594,-100,4,1,0,80,0,0
305413,-100,4,1,0,80,0,1
320140,292.682926829268,4,1,0,80,1,9
320140,-92.5925925925926,4,1,0,80,0,9
320725,300,4,1,0,80,1,0
321925,324.324324324324,4,1,0,80,1,0
321925,-92.5925925925926,4,1,0,80,0,0
322571,352.941176470588,4,1,0,80,1,8
322571,-85.4700854700855,4,1,0,80,0,8
323276,352.941176470588,4,1,0,80,1,1
345865,413.793103448276,4,1,0,80,1,1
345865,-85.4700854700855,4,1,0,80,0,1
347520,582.52427184466,4,1,0,80,1,1
347520,-87.719298245614,4,1,0,80,0,1
349850,500,4,1,0,80,1,1
349850,-102.040816326531,4,1,0,80,0,1
351850,363.636363636364,4,1,0,80,1,1
351850,-140.845070422535,4,1,0,80,0,1
352577,352.941176470588,4,1,0,80,1,1
352577,-144.927536231884,4,1,0,80,0,1
352683,381.558028616852,4,1,0,80,1,8
352683,-133.333333333333,4,1,0,80,0,0
355735,381.558028616852,4,1,0,80,1,8
355812,272.727272727273,4,1,0,80,1,0
355812,-188.679245283019,4,1,0,80,0,0
363777,272.727272727273,4,1,0,80,1,8
363777,-188.679245283019,4,1,0,80,0,0
364867,272.727272727273,4,1,0,80,1,8
364936,272.727272727273,4,1,0,80,1,0
364936,-188.679245283019,4,1,0,80,0,0

[HitObjects]
256,192,4394,5,4,0:0:0:0:
256,192,4746,1,8,0:0:0:0:
256,192,4923,1,0,0:0:0:0:
256,192,5099,1,8,0:0:0:0:
256,192,5452,1,0,0:0:0:0:
256,192,5629,1,0,0:0:0:0:
256,192,5805,1,8,0:0:0:0:
256,192,5982,1,0,0:0:0:0:
256,192,6158,1,0,0:0:0:0:
256,192,6511,1,8,0:0:0:0:
256,192,6864,1,0,0:0:0:0:
256,192,7217,1,0,0:0:0:0:
256,192,7393,1,8,0:0:0:0:
256,192,7570,1,0,0:0:0:0:
256,192,7746,1,8,0:0:0:0:
256,192,7923,1,0,0:0:0:0:
256,192,8099,1,8,0:0:0:0:
256,192,8276,1,0,0:0:0:0:
256,192,8452,1,8,0:0:0:0:
256,192,8629,1,8,0:0:0:0:
256,192,8805,1,0,0:0:0:0:
256,192,8982,1,8,0:0:0:0:
256,192,9158,1,0,0:0:0:0:
256,192,9335,1,8,0:0:0:0:
256,192,9511,1,0,0:0:0:0:
256,192,9688,1,8,0:0:0:0:
256,192,9864,1,0,0:0:0:0:
256,192,10041,1,8,0:0:0:0:
256,192,10217,1,8,0:0:0:0:
256,192,10393,1,0,0:0:0:0:
256,192,10570,1,8,0:0:0:0:
256,192,10746,1,0,0:0:0:0:
256,192,10923,1,8,0:0:0:0:
256,192,11011,1,8,0:0:0:0:
256,192,11099,1,0,0:0:0:0:
256,192,11276,1,0,0:0:0:0:
256,192,11452,1,8,0:0:0:0:
256,192,11629,1,8,0:0:0:0:
256,192,11805,1,0,0:0:0:0:
256,192,11982,1,8,0:0:0:0:
256,192,12158,1,0,0:0:0:0:
256,192,12335,1,0,0:0:0:0:
256,192,12423,1,0,0:0:0:0:
256,192,12511,1,8,0:0:0:0:
256,192,12599,1,0,0:0:0:0:
256,192,12688,1,8,0:0:0:0:
256,192,12864,1,0,0:0:0:0:
256,192,13041,1,8,0:0:0:0:
256,192,13129,1,8,0:0:0:0:
256,192,13217,1,0,0:0:0:0:
256,192,13393,1,0,0:0:0:0:
256,192,13570,1,8,0:0:0:0:
256,192,13746,1,0,0:0:0:0:
256,192,13923,1,8,0:0:0:0:
256,192,14011,1,0,0:0:0:0:
256,192,14099,1,8,0:0:0:0:
256,192,14276,1,0,0:0:0:0:
256,192,14452,1,8,0:0:0:0:
256,192,14541,1,8,0:0:0:0:
256,192,14629,1,0,0:0:0:0:
256,192,14805,1,8,0:0:0:0:
256,192,14982,1,0,0:0:0:0:
256,192,15158,1,0,0:0:0:0:
256,192,15335,1,8,0:0:0:0:
256,192,15511,1,0,0:0:0:0:
256,192,15688,1,12,0:0:0:0:
256,192,16041,1,8,0:0:0:0:
256,192,16217,1,0,0:0:0:0:
256,192,16393,1,0,0:0:0:0:
256,192,16570,1,0,0:0:0:0:
256,192,16746,1,8,0:0:0:0:
256,192,16835,1,0,0:0:0:0:
256,192,16923,1,8,0:0:0:0:
256,192,17099,1,0,0:0:0:0:
256,192,17276,1,0,0:0:0:0:
256,192,17452,1,8,0:0:0:0:
256,192,17629,1,0,0:0:0:0:
256,192,17717,1,0,0:0:0:0:
256,192,17805,1,8,0:0:0:0:
256,192,17982,1,0,0:0:0:0:
256,192,18158,1,8,0:0:0:0:
256,192,18246,1,0,0:0:0:0:
256,192,18335,1,8,0:0:0:0:
256,192,18511,1,0,0:0:0:0:
256,192,18688,1,0,0:0:0:0:
256,192,18864,1,8,0:0:0:0:
256,192,19041,1,0,0:0:0:0:
256,192,19217,1,8,0:0:0:0:
256,192,19393,1,0,0:0:0:0:
256,192,19570,1,8,0:0:0:0:
256,192,19658,1,0,0:0:0:0:
256,192,19746,1,8,0:0:0:0:
256,192,19923,1,0,0:0:0:0:
256,192,20099,1,0,0:0:0:0:
256,192,20276,1,8,0:0:0:0:
256,192,20452,1,8,0:0:0:0:
256,192,20541,1,8,0:0:0:0:
256,192,20629,1,0,0:0:0:0:
256,192,20805,1,0,0:0:0:0:
256,192,20982,1,8,0:0:0:0:
256,192,21070,1,8,0:0:0:0:
256,192,21158,1,0,0:0:0:0:
256,192,21335,1,4,0:0:0:0:
256,192,21511,1,0,0:0:0:0:
256,192,21688,1,8,0:0:0:0:
256,192,21864,1,0,0:0:0:0:
256,192,22041,1,0,0:0:0:0:
256,192,22217,1,0,0:0:0:0:
256,192,22393,1,8,0:0:0:0:
256,192,22482,1,0,0:0:0:0:
256,192,22570,1,8,0:0:0:0:
256,192,22746,1,0,0:0:0:0:
256,192,22923,1,0,0:0:0:0:
256,192,23099,1,8,0:0:0:0:
256,192,23276,1,0,0:0:0:0:
256,192,23364,1,0,0:0:0:0:
256,192,23452,1,0,0:0:0:0:
256,192,23629,1,0,0:0:0:0:
256,192,23717,1,0,0:0:0:0:
256,192,23805,1,8,0:0:0:0:
256,192,23893,1,0,0:0:0:0:
256,192,23982,1,8,0:0:0:0:
256,192,24158,1,0,0:0:0:0:
256,192,24335,1,0,0:0:0:0:
256,192,24511,1,8,0:0:0:0:
256,192,24688,1,0,0:0:0:0:
256,192,24864,1,8,0:0:0:0:
256,192,25041,1,0,0:0:0:0:
256,192,25217,1,8,0:0:0:0:
256,192,25393,1,8,0:0:0:0:
256,192,25482,1,8,0:0:0:0:
256,192,25570,1,0,0:0:0:0:
256,192,25746,1,0,0:0:0:0:
256,192,25923,1,8,0:0:0:0:
256,192,26099,1,8,0:0:0:0:
256,192,26188,1,8,0:0:0:0:
256,192,26276,1,0,0:0:0:0:
256,192,26364,1,8,0:0:0:0:
256,192,26452,1,0,0:0:0:0:
256,192,26629,1,8,0:0:0:0:
256,192,26805,1,8,0:0:0:0:
256,192,26982,1,4,0:0:0:0:
256,192,27688,1,0,0:0:0:0:
256,192,28393,1,0,0:0:0:0:
256,192,29099,1,0,0:0:0:0:
256,192,29805,1,8,0:0:0:0:
256,192,30158,1,8,0:0:0:0:
256,192,30335,1,8,0:0:0:0:
256,192,30511,1,0,0:0:0:0:
256,192,30688,1,0,0:0:0:0:
256,192,30776,1,0,0:0:0:0:
256,192,30864,1,8,0:0:0:0:
256,192,31041,1,0,0:0:0:0:
256,192,31129,1,0,0:0:0:0:
256,192,31217,1,0,0:0:0:0:
256,192,31393,1,8,0:0:0:0:
256,192,31570,1,8,0:0:0:0:
256,192,31746,1,0,0:0:0:0:
256,192,31923,1,8,0:0:0:0:
256,192,32099,1,8,0:0:0:0:
256,192,32188,1,8,0:0:0:0:
256,192,32276,1,0,0:0:0:0:
256,192,32452,1,8,0:0:0:0:
256,192,32541,1,8,0:0:0:0:
256,192,32629,1,0,0:0:0:0:
256,192,32982,1,0,0:0:0:0:
256,192,33335,1,0,0:0:0:0:
256,192,33688,1,0,0:0:0:0:
256,192,34041,1,0,0:0:0:0:
256,192,34393,1,0,0:0:0:0:
256,192,34746,1,0,0:0:0:0:
256,192,35099,1,0,0:0:0:0:
256,192,35452,1,12,0:0:0:0:
256,192,36864,1,0,0:0:0:0:
256,192,36923,1,0,0:0:0:0:
256,192,36982,1,0,0:0:0:0:
256,192,37040,1,8,0:0:0:0:
256,192,37099,1,8,0:0:0:0:
256,192,37158,1,8,0:0:0:0:
256,192,37216,1,0,0:0:0:0:
256,192,37334,1,0,0:0:0:0:
256,192,37452,1,0,0:0:0:0:
256,192,37569,1,8,0:0:0:0:
256,192,37687,1,8,0:0:0:0:
256,192,37805,1,8,0:0:0:0:
256,192,37922,1,0,0:0:0:0:
256,192,38099,1,8,0:0:0:0:
256,192,38276,1,4,0:0:0:0:
256,192,38540,1,8,0:0:0:0:
256,192,38629,1,0,0:0:0:0:
256,192,38717,1,0,0:0:0:0:
256,192,38805,1,0,0:0:0:0:
256,192,38893,1,0,0:0:0:0:
256,192,38982,1,8,0:0:0:0:
256,192,39246,1,8,0:0:0:0:
256,192,39335,1,0,0:0:0:0:
256,192,39423,1,0,0:0:0:0:
256,192,39511,1,8,0:0:0:0:
256,192,39599,1,0,0:0:0:0:
256,192,39688,1,8,0:0:0:0:
256,192,40041,1,8,0:0:0:0:
256,192,40217,1,8,0:0:0:0:
256,192,40306,1,0,0:0:0:0:
256,192,40394,1,8,0:0:0:0:
256,192,40482,1,0,0:0:0:0:
256,192,40570,1,8,0:0:0:0:
256,192,40657,1,0,0:0:0:0:
256,192,40747,1,8,0:0:0:0:
256,192,41099,1,8,0:0:0:0:
256,192,41452,1,0,0:0:0:0:
256,192,41541,1,0,0:0:0:0:
256,192,41629,1,0,0:0:0:0:
256,192,41717,1,0,0:0:0:0:
256,192,41805,1,8,0:0:0:0:
256,192,41893,1,8,0:0:0:0:
256,192,41982,1,8,0:0:0:0:
256,192,42070,1,8,0:0:0:0:
256,192,42158,1,0,0:0:0:0:
256,192,42246,1,0,0:0:0:0:
256,192,42335,1,8,0:0:0:0:
256,192,42423,1,8,0:0:0:0:
256,192,42511,1,0,0:0:0:0:
256,192,42688,1,0,0:0:0:0:
256,192,42776,1,0,0:0:0:0:
256,192,42864,1,8,0:0:0:0:
256,192,43041,1,8,0:0:0:0:
256,192,43217,1,8,0:0:0:0:
256,192,43393,1,0,0:0:0:0:
256,192,43570,1,0,0:0:0:0:
256,192,43923,1,0,0:0:0:0:
256,192,44011,1,0,0:0:0:0:
256,192,44099,1,8,0:0:0:0:
256,192,44188,1,8,0:0:0:0:
256,192,44276,1,0,0:0:0:0:
256,192,44364,1,0,0:0:0:0:
256,192,44452,1,8,0:0:0:0:
256,192,44541,1,0,0:0:0:0:
256,192,44629,1,8,0:0:0:0:
256,192,44717,1,8,0:0:0:0:
256,192,44805,1,0,0:0:0:0:
256,192,44893,1,0,0:0:0:0:
256,192,44982,1,8,0:0:0:0:
256,192,45070,1,0,0:0:0:0:
256,192,45158,1,8,0:0:0:0:
256,192,45246,1,0,0:0:0:0:
256,192,45335,1,8,0:0:0:0:
256,192,45688,1,8,0:0:0:0:
256,192,45864,1,0,0:0:0:0:
256,192,45952,1,0,0:0:0:0:
256,192,46041,1,8,0:0:0:0:
256,192,46129,1,0,0:0:0:0:
256,192,46217,1,8,0:0:0:0:
256,192,46305,1,0,0:0:0:0:
256,192,46393,1,8,0:0:0:0:
256,192,46746,1,8,0:0:0:0:
256,192,46835,1,8,0:0:0:0:
256,192,46923,1,8,0:0:0:0:
256,192,47011,1,8,0:0:0:0:
256,192,47099,1,0,0:0:0:0:
256,192,47188,1,0,0:0:0:0:
256,192,47276,1,0,0:0:0:0:
256,192,47364,1,0,0:0:0:0:
256,192,47452,1,8,0:0:0:0:
256,192,47541,1,8,0:0:0:0:
256,192,47629,1,8,0:0:0:0:
256,192,47717,1,0,0:0:0:0:
256,192,47805,1,0,0:0:0:0:
256,192,47893,1,0,0:0:0:0:
256,192,47982,1,0,0:0:0:0:
256,192,48070,1,0,0:0:0:0:
256,192,48158,1,8,0:0:0:0:
256,192,48246,1,8,0:0:0:0:
256,192,48335,1,0,0:0:0:0:
256,192,48423,1,0,0:0:0:0:
256,192,48511,1,8,0:0:0:0:
256,192,48599,1,0,0:0:0:0:
256,192,48688,1,8,0:0:0:0:
256,192,48776,1,0,0:0:0:0:
256,192,48864,1,8,0:0:0:0:
256,192,48952,1,8,0:0:0:0:
256,192,49041,1,8,0:0:0:0:
256,192,49129,1,8,0:0:0:0:
256,192,49217,1,0,0:0:0:0:
256,192,49570,1,12,0:0:0:0:
256,192,49746,1,8,0:0:0:0:
256,192,49835,1,8,0:0:0:0:
256,192,49923,1,0,0:0:0:0:
256,192,50011,1,0,0:0:0:0:
256,192,50099,1,0,0:0:0:0:
256,192,50188,1,0,0:0:0:0:
256,192,50276,1,8,0:0:0:0:
256,192,50364,1,8,0:0:0:0:
256,192,50452,1,0,0:0:0:0:
256,192,50541,1,0,0:0:0:0:
256,192,50629,1,8,0:0:0:0:
256,192,50717,1,0,0:0:0:0:
256,192,50805,1,8,0:0:0:0:
256,192,50893,1,0,0:0:0:0:
256,192,50982,1,8,0:0:0:0:
256,192,51158,1,0,0:0:0:0:
256,192,51246,1,0,0:0:0:0:
256,192,51335,1,8,0:0:0:0:
256,192,51511,1,8,0:0:0:0:
256,192,51599,1,8,0:0:0:0:
256,192,51688,1,0,0:0:0:0:
256,192,51982,1,0,0:0:0:0:
256,192,52276,1,0,0:0:0:0:
256,192,52393,1,8,0:0:0:0:
256,192,52482,1,8,0:0:0:0:
256,192,52570,1,8,0:0:0:0:
256,192,52658,1,8,0:0:0:0:
256,192,52746,1,0,0:0:0:0:
256,192,53011,1,8,0:0:0:0:
256,192,53099,1,0,0:0:0:0:
256,192,53188,1,0,0:0:0:0:
256,192,53276,1,8,0:0:0:0:
256,192,53364,1,8,0:0:0:0:
256,192,53452,1,0,0:0:0:0:
256,192,53541,1,8,0:0:0:0:
256,192,53629,1,8,0:0:0:0:
256,192,53717,1,8,0:0:0:0:
256,192,53805,1,0,0:0:0:0:
256,192,53982,1,0,0:0:0:0:
256,192,54070,1,0,0:0:0:0:
256,192,54158,1,8,0:0:0:0:
256,192,54335,1,8,0:0:0:0:
256,192,54511,1,8,0:0:0:0:
256,192,54599,1,0,0:0:0:0:
256,192,54688,1,8,0:0:0:0:
256,192,54776,1,0,0:0:0:0:
256,192,54864,1,8,0:0:0:0:
256,192,55217,1,8,0:0:0:0:
256,192,55393,1,0,0:0:0:0:
256,192,55482,1,0,0:0:0:0:
256,192,55570,1,8,0:0:0:0:
256,192,55658,1,8,0:0:0:0:
256,192,55746,1,8,0:0:0:0:
256,192,55835,1,8,0:0:0:0:
256,192,55923,1,0,0:0:0:0:
256,192,56011,1,8,0:0:0:0:
256,192,56099,1,0,0:0:0:0:
256,192,56276,1,8,0:0:0:0:
256,192,56364,1,0,0:0:0:0:
256,192,56452,1,8,0:0:0:0:
256,192,56541,1,0,0:0:0:0:
256,192,56629,1,8,0:0:0:0:
256,192,56717,1,0,0:0:0:0:
256,192,56805,1,8,0:0:0:0:
256,192,56893,1,8,0:0:0:0:
256,192,56982,1,8,0:0:0:0:
256,192,57070,1,8,0:0:0:0:
256,192,57158,1,0,0:0:0:0:
256,192,57246,1,0,0:0:0:0:
256,192,57335,1,8,0:0:0:0:
256,192,57629,1,8,0:0:0:0:
256,192,57923,1,8,0:0:0:0:
256,192,58041,1,0,0:0:0:0:
256,192,58129,1,0,0:0:0:0:
256,192,58217,1,8,0:0:0:0:
256,192,58305,1,8,0:0:0:0:
256,192,58393,1,8,0:0:0:0:
256,192,58482,1,8,0:0:0:0:
256,192,58570,1,0,0:0:0:0:
256,192,58658,1,0,0:0:0:0:
256,192,58746,1,0,0:0:0:0:
256,192,58835,1,0,0:0:0:0:
256,192,58923,1,8,0:0:0:0:
256,192,59011,1,0,0:0:0:0:
256,192,59099,1,8,0:0:0:0:
256,192,59188,1,0,0:0:0:0:
256,192,59276,1,0,0:0:0:0:
256,192,59364,1,0,0:0:0:0:
256,192,59452,1,8,0:0:0:0:
256,192,59629,1,0,0:0:0:0:
256,192,59717,1,0,0:0:0:0:
256,192,59805,1,8,0:0:0:0:
256,192,59982,1,8,0:0:0:0:
256,192,60158,1,0,0:0:0:0:
256,192,60217,1,0,0:0:0:0:
256,192,60276,1,0,0:0:0:0:
256,192,60335,1,8,0:0:0:0:
256,192,60393,1,8,0:0:0:0:
256,192,60452,1,8,0:0:0:0:
256,192,60511,1,8,0:0:0:0:
256,192,60864,1,12,0:0:0:0:
256,192,61217,1,0,0:0:0:0:
256,192,61305,1,0,0:0:0:0:
256,192,61393,1,0,0:0:0:0:
256,192,61482,1,0,0:0:0:0:
256,192,61570,1,8,0:0:0:0:
256,192,61923,1,0,0:0:0:0:
256,192,62011,1,0,0:0:0:0:
256,192,62099,1,8,0:0:0:0:
256,192,62188,1,0,0:0:0:0:
256,192,62276,1,8,0:0:0:0:
256,192,62629,1,8,0:0:0:0:
256,192,62717,1,0,0:0:0:0:
256,192,62805,1,8,0:0:0:0:
256,192,62893,1,0,0:0:0:0:
256,192,62982,1,8,0:0:0:0:
256,192,63070,1,0,0:0:0:0:
256,192,63158,1,8,0:0:0:0:
256,192,63246,1,0,0:0:0:0:
256,192,63335,1,8,0:0:0:0:
256,192,63688,1,12,0:0:0:0:
256,192,64041,1,0,0:0:0:0:
256,192,64129,1,0,0:0:0:0:
256,192,64217,1,0,0:0:0:0:
256,192,64305,1,0,0:0:0:0:
256,192,64393,1,8,0:0:0:0:
256,192,64482,1,8,0:0:0:0:
256,192,64570,1,8,0:0:0:0:
256,192,64658,1,8,0:0:0:0:
256,192,64746,1,8,0:0:0:0:
256,192,64835,1,8,0:0:0:0:
256,192,64923,1,8,0:0:0:0:
256,192,65011,1,8,0:0:0:0:
256,192,65099,1,0,0:0:0:0:
256,192,65276,1,0,0:0:0:0:
256,192,65364,1,0,0:0:0:0:
256,192,65452,1,8,0:0:0:0:
256,192,65629,1,8,0:0:0:0:
256,192,65805,1,8,0:0:0:0:
256,192,65982,1,0,0:0:0:0:
256,192,66158,1,0,0:0:0:0:
256,192,66511,1,0,0:0:0:0:
256,192,66599,1,0,0:0:0:0:
256,192,66688,1,8,0:0:0:0:
256,192,66776,1,8,0:0:0:0:
256,192,66864,1,0,0:0:0:0:
256,192,66952,1,0,0:0:0:0:
256,192,67041,1,0,0:0:0:0:
256,192,67129,1,0,0:0:0:0:
256,192,67217,1,8,0:0:0:0:
256,192,67570,1,8,0:0:0:0:
256,192,67746,1,8,0:0:0:0:
256,192,67835,1,0,0:0:0:0:
256,192,67923,1,8,0:0:0:0:
256,192,68276,1,0,0:0:0:0:
256,192,68452,1,0,0:0:0:0:
256,192,68541,1,0,0:0:0:0:
256,192,68629,1,0,0:0:0:0:
256,192,68805,1,0,0:0:0:0:
256,192,68982,1,0,0:0:0:0:
256,192,69335,1,0,0:0:0:0:
256,192,69423,1,0,0:0:0:0:
256,192,69511,1,8,0:0:0:0:
256,192,69599,1,8,0:0:0:0:
256,192,69688,1,8,0:0:0:0:
256,192,69776,1,8,0:0:0:0:
256,192,69864,1,0,0:0:0:0:
256,192,69952,1,0,0:0:0:0:
256,192,70041,1,8,0:0:0:0:
256,192,70129,1,8,0:0:0:0:
256,192,70217,1,8,0:0:0:0:
256,192,70305,1,8,0:0:0:0:
256,192,70393,1,0,0:0:0:0:
256,192,70482,1,0,0:0:0:0:
256,192,70570,1,0,0:0:0:0:
256,192,70658,1,0,0:0:0:0:
256,192,70746,1,8,0:0:0:0:
256,192,70920,1,0,0:0:0:0:
256,192,71007,1,0,0:0:0:0:
256,192,71094,1,8,0:0:0:0:
256,192,71268,1,8,0:0:0:0:
256,192,71442,1,8,0:0:0:0:
256,192,71529,1,8,0:0:0:0:
256,192,71616,1,8,0:0:0:0:
256,192,71703,1,8,0:0:0:0:
256,192,71790,1,0,0:0:0:0:
256,192,71878,1,0,0:0:0:0:
256,192,71965,1,0,0:0:0:0:
256,192,72052,1,0,0:0:0:0:
256,192,72139,1,8,0:0:0:0:
256,192,72315,1,0,0:0:0:0:
256,192,72491,1,8,0:0:0:0:
256,192,72668,1,0,0:0:0:0:
256,192,73021,1,0,0:0:0:0:
256,192,73197,1,8,0:0:0:0:
256,192,73374,1,8,0:0:0:0:
256,192,73550,1,0,0:0:0:0:
256,192,73727,1,0,0:0:0:0:
256,192,73903,1,8,0:0:0:0:
256,192,74080,1,0,0:0:0:0:
256,192,74433,1,0,0:0:0:0:
256,192,74609,1,8,0:0:0:0:
256,192,74786,1,8,0:0:0:0:
256,192,74874,1,8,0:0:0:0:
256,192,74962,1,0,0:0:0:0:
256,192,75137,1,0,0:0:0:0:
256,192,75312,1,8,0:0:0:0:
256,192,75488,1,0,0:0:0:0:
256,192,75839,1,0,0:0:0:0:
256,192,76014,1,8,0:0:0:0:
256,192,76190,1,0,0:0:0:0:
256,192,76365,1,8,0:0:0:0:
256,192,76535,1,0,0:0:0:0:
256,192,76705,1,8,0:0:0:0:
256,192,76876,1,8,0:0:0:0:
256,192,76961,1,0,0:0:0:0:
256,192,77046,1,0,0:0:0:0:
256,192,77217,1,8,0:0:0:0:
256,192,77387,1,0,0:0:0:0:
256,192,77558,1,0,0:0:0:0:
256,192,77728,1,0,0:0:0:0:
256,192,78059,1,8,0:0:0:0:
256,192,78225,1,0,0:0:0:0:
256,192,78556,1,0,0:0:0:0:
256,192,78722,1,8,0:0:0:0:
256,192,78888,1,8,0:0:0:0:
256,192,79053,1,8,0:0:0:0:
256,192,79212,1,0,0:0:0:0:
256,192,79372,1,8,0:0:0:0:
256,192,79531,1,0,0:0:0:0:
256,192,79611,1,0,0:0:0:0:
256,192,79691,1,0,0:0:0:0:
256,192,79850,1,8,0:0:0:0:
256,192,80010,1,8,0:0:0:0:
256,192,80090,1,8,0:0:0:0:
256,192,80170,1,0,0:0:0:0:
256,192,80329,1,0,0:0:0:0:
256,192,80484,1,8,0:0:0:0:
256,192,80639,1,8,0:0:0:0:
256,192,80795,1,0,0:0:0:0:
256,192,80950,1,0,0:0:0:0:
256,192,81106,1,0,0:0:0:0:
256,192,81261,1,8,0:0:0:0:
256,192,81417,1,8,0:0:0:0:
256,192,81494,1,0,0:0:0:0:
256,192,81572,1,0,0:0:0:0:
256,192,81722,1,0,0:0:0:0:
256,192,81873,1,8,0:0:0:0:
256,192,82024,1,8,0:0:0:0:
256,192,82175,1,0,0:0:0:0:
256,192,82325,1,0,0:0:0:0:
256,192,82476,1,8,0:0:0:0:
256,192,82627,1,0,0:0:0:0:
256,192,82778,1,4,0:0:0:0:
256,192,83075,1,8,0:0:0:0:
256,192,83372,1,8,0:0:0:0:
256,192,83669,1,8,0:0:0:0:
256,192,83966,1,0,0:0:0:0:
256,192,84251,1,8,0:0:0:0:
256,192,84537,1,8,0:0:0:0:
256,192,84823,1,8,0:0:0:0:
256,192,84894,1,8,0:0:0:0:
256,192,84966,1,8,0:0:0:0:
256,192,85037,1,8,0:0:0:0:
256,192,85108,1,0,0:0:0:0:
256,192,85385,1,8,0:0:0:0:
256,192,85663,1,8,0:0:0:0:
256,192,85941,1,8,0:0:0:0:
256,192,86219,1,0,0:0:0:0:
256,192,86493,1,8,0:0:0:0:
256,192,86768,1,8,0:0:0:0:
256,192,87042,1,8,0:0:0:0:
256,192,87111,1,8,0:0:0:0:
256,192,87180,1,8,0:0:0:0:
256,192,87248,1,8,0:0:0:0:
256,192,87317,1,0,0:0:0:0:
256,192,87453,1,0,0:0:0:0:
256,192,87589,1,8,0:0:0:0:
256,192,87726,1,0,0:0:0:0:
256,192,87862,1,0,0:0:0:0:
256,192,87998,1,0,0:0:0:0:
256,192,88135,1,8,0:0:0:0:
256,192,88271,1,0,0:0:0:0:
256,192,88407,1,0,0:0:0:0:
256,192,88544,1,0,0:0:0:0:
256,192,88680,1,8,0:0:0:0:
256,192,88817,1,0,0:0:0:0:
256,192,88953,1,0,0:0:0:0:
256,192,89089,1,0,0:0:0:0:
256,192,89226,1,8,0:0:0:0:
256,192,89294,1,8,0:0:0:0:
256,192,89362,1,8,0:0:0:0:
256,192,89430,1,8,0:0:0:0:
256,192,89498,1,0,0:0:0:0:
256,192,89567,1,0,0:0:0:0:
256,192,89635,1,8,0:0:0:0:
256,192,89703,1,8,0:0:0:0:
256,192,89771,1,0,0:0:0:0:
256,192,89839,1,0,0:0:0:0:
256,192,89907,1,8,0:0:0:0:
256,192,89976,1,8,0:0:0:0:
256,192,90044,1,0,0:0:0:0:
256,192,90112,1,0,0:0:0:0:
256,192,90180,1,8,0:0:0:0:
256,192,90248,1,8,0:0:0:0:
256,192,90317,1,0,0:0:0:0:
256,192,90385,1,0,0:0:0:0:
256,192,90453,1,8,0:0:0:0:
256,192,90521,1,8,0:0:0:0:
256,192,90589,1,0,0:0:0:0:
256,192,90726,1,0,0:0:0:0:
256,192,90862,1,8,0:0:0:0:
256,192,91135,1,8,0:0:0:0:
256,192,91203,1,8,0:0:0:0:
256,192,91271,1,8,0:0:0:0:
256,192,91339,1,8,0:0:0:0:
256,192,91407,1,0,0:0:0:0:
256,192,91544,1,0,0:0:0:0:
256,192,91680,1,12,0:0:0:0:
256,192,91817,1,0,0:0:0:0:
256,192,92135,1,0,0:0:0:0:
256,192,92226,1,8,0:0:0:0:
256,192,92407,1,0,0:0:0:0:
256,192,92498,1,8,0:0:0:0:
256,192,92680,1,8,0:0:0:0:
256,192,92771,1,0,0:0:0:0:
256,192,92839,1,0,0:0:0:0:
256,192,92907,1,0,0:0:0:0:
256,192,92976,1,8,0:0:0:0:
256,192,93044,1,8,0:0:0:0:
256,192,93112,1,8,0:0:0:0:
256,192,93180,1,0,0:0:0:0:
256,192,93248,1,0,0:0:0:0:
256,192,93317,1,8,0:0:0:0:
256,192,93589,1,8,0:0:0:0:
256,192,93862,1,0,0:0:0:0:
256,192,93930,1,0,0:0:0:0:
256,192,93998,1,8,0:0:0:0:
256,192,94135,1,0,0:0:0:0:
256,192,94317,1,8,0:0:0:0:
256,192,94407,1,8,0:0:0:0:
256,192,94589,1,8,0:0:0:0:
256,192,94680,1,0,0:0:0:0:
256,192,94862,1,8,0:0:0:0:
256,192,94953,1,0,0:0:0:0:
256,192,95021,1,0,0:0:0:0:
256,192,95089,1,8,0:0:0:0:
256,192,95157,1,8,0:0:0:0:
256,192,95226,1,0,0:0:0:0:
256,192,95294,1,0,0:0:0:0:
256,192,95362,1,0,0:0:0:0:
256,192,95430,1,0,0:0:0:0:
256,192,95498,1,8,0:0:0:0:
256,192,95589,1,8,0:0:0:0:
256,192,95680,1,8,0:0:0:0:
256,192,95771,1,0,0:0:0:0:
256,192,96044,1,0,0:0:0:0:
256,192,96112,1,0,0:0:0:0:
256,192,96180,1,8,0:0:0:0:
256,192,96498,1,0,0:0:0:0:
256,192,96589,1,8,0:0:0:0:
256,192,96771,1,0,0:0:0:0:
256,192,96862,1,8,0:0:0:0:
256,192,97044,1,8,0:0:0:0:
256,192,97135,1,0,0:0:0:0:
256,192,97203,1,0,0:0:0:0:
256,192,97271,1,8,0:0:0:0:
256,192,97339,1,0,0:0:0:0:
256,192,97407,1,8,0:0:0:0:
256,192,97476,1,8,0:0:0:0:
256,192,97544,1,0,0:0:0:0:
256,192,97612,1,0,0:0:0:0:
256,192,97680,1,8,0:0:0:0:
256,192,98226,1,0,0:0:0:0:
256,192,98294,1,0,0:0:0:0:
256,192,98362,1,8,0:0:0:0:
256,192,98430,1,8,0:0:0:0:
256,192,98498,1,0,0:0:0:0:
256,192,98567,1,0,0:0:0:0:
256,192,98635,1,0,0:0:0:0:
256,192,98703,1,0,0:0:0:0:
256,192,98771,1,8,0:0:0:0:
256,192,98953,1,8,0:0:0:0:
256,192,99044,1,8,0:0:0:0:
256,192,99226,1,8,0:0:0:0:
256,192,99317,1,0,0:0:0:0:
256,192,99407,1,0,0:0:0:0:
256,192,99498,1,8,0:0:0:0:
256,192,99771,1,0,0:0:0:0:
256,192,99862,1,8,0:0:0:0:
256,192,100135,1,8,0:0:0:0:
256,192,100407,1,4,0:0:0:0:
256,192,100544,1,8,0:0:0:0:
256,192,100862,1,0,0:0:0:0:
256,192,100953,1,8,0:0:0:0:
256,192,101135,1,0,0:0:0:0:
256,192,101226,1,8,0:0:0:0:
256,192,101407,1,8,0:0:0:0:
256,192,101498,1,0,0:0:0:0:
256,192,101567,1,0,0:0:0:0:
256,192,101635,1,8,0:0:0:0:
256,192,101703,1,8,0:0:0:0:
256,192,101771,1,0,0:0:0:0:
256,192,101839,1,0,0:0:0:0:
256,192,101907,1,0,0:0:0:0:
256,192,101976,1,0,0:0:0:0:
256,192,102044,1,8,0:0:0:0:
256,192,102589,1,0,0:0:0:0:
256,192,102657,1,0,0:0:0:0:
256,192,102726,1,0,0:0:0:0:
256,192,102794,1,0,0:0:0:0:
256,192,102862,1,8,0:0:0:0:
256,192,102930,1,8,0:0:0:0:
256,192,102998,1,8,0:0:0:0:
256,192,103067,1,8,0:0:0:0:
256,192,103135,1,0,0:0:0:0:
256,192,103226,1,0,0:0:0:0:
256,192,103317,1,0,0:0:0:0:
256,192,103407,1,8,0:0:0:0:
256,192,103498,1,8,0:0:0:0:
256,192,103589,1,8,0:0:0:0:
256,192,103680,1,0,0:0:0:0:
256,192,103771,1,8,0:0:0:0:
256,192,103862,1,0,0:0:0:0:
256,192,103953,1,8,0:0:0:0:
256,192,104044,1,8,0:0:0:0:
256,192,104135,1,8,0:0:0:0:
256,192,104226,1,0,0:0:0:0:
256,192,104680,1,8,0:0:0:0:
256,192,104771,1,0,0:0:0:0:
256,192,104839,1,0,0:0:0:0:
256,192,104907,1,8,0:0:0:0:
256,192,105226,1,0,0:0:0:0:
256,192,105317,1,8,0:0:0:0:
256,192,105498,1,0,0:0:0:0:
256,192,105589,1,8,0:0:0:0:
256,192,105771,1,8,0:0:0:0:
256,192,105862,1,0,0:0:0:0:
256,192,106044,1,8,0:0:0:0:
256,192,106135,1,0,0:0:0:0:
256,192,106203,1,0,0:0:0:0:
256,192,106271,1,8,0:0:0:0:
256,192,106407,1,0,0:1:0:0:
256,192,106544,1,8,0:0:0:0:
256,192,106953,1,0,0:0:0:0:
256,192,107021,1,0,0:0:0:0:
256,192,107089,1,0,0:0:0:0:
256,192,107157,1,8,0:0:0:0:
256,192,107226,1,8,0:0:0:0:
256,192,107294,1,8,0:0:0:0:
256,192,107362,1,0,0:0:0:0:
256,192,107430,1,0,0:0:0:0:
256,192,107498,1,8,0:0:0:0:
256,192,107567,1,8,0:0:0:0:
256,192,107635,1,0,0:0:0:0:
256,192,107703,1,0,0:0:0:0:
256,192,107771,1,8,0:0:0:0:
256,192,107839,1,8,0:0:0:0:
256,192,107907,1,8,0:0:0:0:
256,192,107976,1,8,0:0:0:0:
256,192,108044,1,0,0:0:0:0:
256,192,108112,1,0,0:0:0:0:
256,192,108180,1,8,0:0:0:0:
256,192,108453,1,0,0:0:0:0:
256,192,108589,1,8,0:0:0:0:
256,192,108771,1,8,0:0:0:0:
256,192,108862,1,0,0:0:0:0:
256,192,109135,1,12,0:0:0:0:
256,192,109407,1,0,0:0:0:0:
256,192,109589,1,8,0:0:0:0:
256,192,109680,1,8,0:0:0:0:
256,192,109771,1,8,0:0:0:0:
256,192,109862,1,0,0:0:0:0:
256,192,109953,1,8,0:0:0:0:
256,192,110135,1,8,0:0:0:0:
256,192,110226,1,0,0:0:0:0:
256,192,110294,1,0,0:0:0:0:
256,192,110362,1,8,0:0:0:0:
256,192,110430,1,8,0:0:0:0:
256,192,110498,1,0,0:0:0:0:
256,192,110567,1,0,0:0:0:0:
256,192,110635,1,0,0:0:0:0:
256,192,110703,1,0,0:0:0:0:
256,192,110771,1,8,0:0:0:0:
256,192,111317,1,0,0:0:0:0:
256,192,111498,1,0,0:0:0:0:
256,192,111589,1,8,0:0:0:0:
256,192,111771,1,8,0:0:0:0:
256,192,112044,1,8,0:0:0:0:
256,192,112135,1,0,0:0:0:0:
256,192,112317,1,8,0:0:0:0:
256,192,112407,1,0,0:0:0:0:
256,192,112476,1,0,0:0:0:0:
256,192,112544,1,8,0:0:0:0:
256,192,112612,1,8,0:0:0:0:
256,192,112680,1,0,0:0:0:0:
256,192,112748,1,0,0:0:0:0:
256,192,112817,1,0,0:0:0:0:
256,192,112885,1,0,0:0:0:0:
256,192,112953,1,8,0:0:0:0:
256,192,113044,1,8,0:0:0:0:
256,192,113135,1,8,0:0:0:0:
256,192,113226,1,0,0:0:0:0:
256,192,113498,1,0,0:0:0:0:
256,192,113567,1,0,0:0:0:0:
256,192,113635,1,8,0:0:0:0:
256,192,113953,1,0,0:0:0:0:
256,192,114044,1,8,0:0:0:0:
256,192,114226,1,0,0:0:0:0:
256,192,114317,1,8,0:0:0:0:
256,192,114498,1,8,0:0:0:0:
256,192,114589,1,0,0:0:0:0:
256,192,114657,1,0,0:0:0:0:
256,192,114726,1,8,0:0:0:0:
256,192,114794,1,8,0:0:0:0:
256,192,114862,1,0,0:0:0:0:
256,192,114930,1,0,0:0:0:0:
256,192,114998,1,8,0:0:0:0:
256,192,115067,1,8,0:0:0:0:
256,192,115135,1,0,0:0:0:0:
256,192,115680,1,12,0:0:0:0:
256,192,115953,1,12,0:0:0:0:
256,192,116226,1,4,0:0:0:0:
256,192,116498,1,4,0:0:0:0:
256,192,116771,1,0,0:0:0:0:
256,192,116953,1,8,0:0:0:0:
256,192,117226,1,0,0:0:0:0:
256,192,117317,1,8,0:0:0:0:
256,192,117589,1,8,0:0:0:0:
256,192,117862,1,4,0:0:0:0:
256,192,117998,1,8,0:0:0:0:
256,192,118317,1,0,0:0:0:0:
256,192,118407,1,8,0:0:0:0:
256,192,118589,1,0,0:0:0:0:
256,192,118680,1,8,0:0:0:0:
256,192,118862,1,8,0:0:0:0:
256,192,118953,1,0,0:0:0:0:
256,192,119021,1,0,0:0:0:0:
256,192,119089,1,8,0:0:0:0:
256,192,119157,1,8,0:0:0:0:
256,192,119226,1,0,0:0:0:0:
256,192,119294,1,0,0:0:0:0:
256,192,119362,1,0,0:0:0:0:
256,192,119430,1,0,0:0:0:0:
256,192,119498,1,8,0:0:0:0:
256,192,120044,1,0,0:0:0:0:
256,192,120112,1,0,0:0:0:0:
256,192,120180,1,0,0:0:0:0:
256,192,120248,1,0,0:0:0:0:
256,192,120317,1,8,0:0:0:0:
256,192,120385,1,8,0:0:0:0:
256,192,120453,1,8,0:0:0:0:
256,192,120521,1,8,0:0:0:0:
256,192,120589,1,0,0:0:0:0:
256,192,120680,1,0,0:0:0:0:
256,192,120771,1,0,0:0:0:0:
256,192,120862,1,8,0:0:0:0:
256,192,120953,1,8,0:0:0:0:
256,192,121044,1,8,0:0:0:0:
256,192,121135,1,0,0:0:0:0:
256,192,121226,1,8,0:0:0:0:
256,192,121317,1,0,0:0:0:0:
256,192,121407,1,8,0:0:0:0:
256,192,121680,1,8,0:0:0:0:
256,192,122135,1,8,0:0:0:0:
256,192,122226,1,0,0:0:0:0:
256,192,122362,1,8,0:0:0:0:
256,192,122680,1,0,0:0:0:0:
256,192,122771,1,8,0:0:0:0:
256,192,122953,1,0,0:0:0:0:
256,192,123044,1,8,0:0:0:0:
256,192,123226,1,0,0:0:0:0:
256,192,123317,1,0,0:0:0:0:
256,192,123407,1,8,0:0:0:0:
256,192,123498,1,8,0:0:0:0:
256,192,123589,1,0,0:0:0:0:
256,192,123657,1,0,0:0:0:0:
256,192,123726,1,0,0:0:0:0:
256,192,123794,1,0,0:0:0:0:
256,192,123862,1,8,0:0:0:0:
256,192,124407,1,0,0:0:0:0:
256,192,124476,1,0,0:0:0:0:
256,192,124544,1,0,0:0:0:0:
256,192,124612,1,8,0:0:0:0:
256,192,124680,1,8,0:0:0:0:
256,192,124748,1,8,0:0:0:0:
256,192,124817,1,0,0:0:0:0:
256,192,124885,1,0,0:0:0:0:
256,192,124953,1,8,0:0:0:0:
256,192,125021,1,8,0:0:0:0:
256,192,125089,1,8,0:0:0:0:
256,192,125157,1,0,0:0:0:0:
256,192,125226,1,0,0:0:0:0:
256,192,125294,1,0,0:0:0:0:
256,192,125362,1,8,0:0:0:0:
256,192,125498,1,8,0:0:0:0:
256,192,125589,1,0,0:0:0:0:
256,192,125680,1,8,0:0:0:0:
256,192,126044,1,8,0:0:0:0:
256,192,126135,1,0,0:0:0:0:
256,192,126226,1,8,0:0:0:0:
256,192,126317,1,0,0:0:0:0:
256,192,126589,1,12,0:0:0:0:
256,192,126989,1,8,0:0:0:0:
256,192,127122,1,0,0:0:0:0:
256,192,127655,1,8,0:0:0:0:
256,192,128189,1,0,0:0:0:0:
256,192,128722,1,8,0:0:0:0:
256,192,129104,1,0,0:0:0:0:
256,192,129232,1,8,0:0:0:0:
256,192,129743,1,8,0:0:0:0:
256,192,130253,1,0,0:0:0:0:
256,192,130381,1,0,0:0:0:0:
256,192,130509,1,8,0:0:0:0:
256,192,130764,1,0,0:0:0:0:
256,192,131008,1,0,0:0:0:0:
256,192,131131,1,8,0:0:0:0:
256,192,131253,1,8,0:0:0:0:
256,192,131376,1,0,0:0:0:0:
256,192,131498,1,8,0:0:0:0:
256,192,131743,1,0,0:0:0:0:
256,192,131988,1,0,0:0:0:0:
256,192,132233,1,8,0:0:0:0:
256,192,132478,1,0,0:0:0:0:
256,192,132723,1,8,0:0:0:0:
256,192,132958,1,0,0:0:0:0:
256,192,133075,1,8,0:0:0:0:
256,192,133193,1,0,0:0:0:0:
256,192,133428,1,0,0:0:0:0:
256,192,133664,1,8,0:0:0:0:
256,192,133899,1,0,0:0:0:0:
256,192,134134,1,8,0:0:0:0:
256,192,134370,1,0,0:0:0:0:
256,192,134605,1,12,0:0:0:0:
256,192,134831,1,0,0:0:0:0:
256,192,134944,1,8,0:0:0:0:
256,192,135057,1,8,0:0:0:0:
256,192,135284,1,0,0:0:0:0:
256,192,135510,1,8,0:0:0:0:
256,192,135737,1,0,0:0:0:0:
256,192,135963,1,8,0:0:0:0:
256,192,136189,1,8,0:0:0:0:
256,192,136416,1,0,0:0:0:0:
256,192,136634,1,0,0:0:0:0:
256,192,136743,1,8,0:0:0:0:
256,192,136852,1,0,0:0:0:0:
256,192,137070,1,0,0:0:0:0:
256,192,137288,1,8,0:0:0:0:
256,192,137506,1,0,0:0:0:0:
256,192,137725,1,8,0:0:0:0:
256,192,137834,1,0,0:0:0:0:
256,192,137943,1,8,0:0:0:0:
256,192,138161,1,0,0:0:0:0:
256,192,138371,1,0,0:0:0:0:
256,192,138476,1,8,0:0:0:0:
256,192,138582,1,8,0:0:0:0:
256,192,138792,1,0,0:0:0:0:
256,192,139003,1,8,0:0:0:0:
256,192,139213,1,0,0:0:0:0:
256,192,139424,1,8,0:0:0:0:
256,192,139634,1,8,0:0:0:0:
256,192,139845,1,0,0:0:0:0:
256,192,140048,1,0,0:0:0:0:
256,192,140251,1,8,0:0:0:0:
256,192,140455,1,8,0:0:0:0:
256,192,140658,1,0,0:0:0:0:
256,192,140861,1,0,0:0:0:0:
256,192,141065,1,8,0:0:0:0:
256,192,141268,1,0,0:0:0:0:
256,192,141472,1,12,0:0:0:0:
256,192,142258,1,4,0:0:0:0:
256,192,143045,1,12,0:0:0:0:
256,192,143806,1,4,0:0:0:0:
256,192,144568,1,4,0:0:0:0:
256,192,145306,1,12,0:0:0:0:
256,192,146044,1,4,0:0:0:0:
256,192,146760,1,12,0:0:0:0:
256,192,147476,1,4,0:0:0:0:
256,192,147831,1,8,0:0:0:0:
256,192,148186,1,0,0:0:0:0:
256,192,148363,1,0,0:0:0:0:
256,192,148452,1,0,0:0:0:0:
256,192,148541,1,8,0:0:0:0:
256,192,148718,1,8,0:0:0:0:
256,192,148807,1,8,0:0:0:0:
256,192,148896,1,0,0:0:0:0:
256,192,149073,1,0,0:0:0:0:
256,192,149162,1,0,0:0:0:0:
256,192,149251,1,8,0:0:0:0:
256,192,149428,1,8,0:0:0:0:
256,192,149517,1,8,0:0:0:0:
256,192,149606,1,0,0:0:0:0:
256,192,149783,1,0,0:0:0:0:
256,192,149872,1,0,0:0:0:0:
256,192,149961,1,8,0:0:0:0:
256,192,150138,1,8,0:0:0:0:
256,192,150316,1,4,0:0:0:0:
256,192,150668,1,0,0:0:0:0:
256,192,150845,1,8,0:0:0:0:
256,192,150933,1,8,0:0:0:0:
256,192,151021,1,0,0:0:0:0:
256,192,151374,1,0,0:0:0:0:
256,192,151727,1,12,0:0:0:0:
256,192,151904,1,0,0:0:0:0:
256,192,151992,1,0,0:0:0:0:
256,192,152080,1,8,0:0:0:0:
256,192,152257,1,8,0:0:0:0:
256,192,152345,1,0,0:0:0:0:
256,192,152433,1,8,0:0:0:0:
256,192,152521,1,8,0:0:0:0:
256,192,152610,1,8,0:0:0:0:
256,192,152698,1,8,0:0:0:0:
256,192,152786,1,0,0:0:0:0:
256,192,152874,1,0,0:0:0:0:
256,192,152963,1,0,0:0:0:0:
256,192,153051,1,0,0:0:0:0:
256,192,153139,1,8,0:0:0:0:
256,192,153404,1,0,0:0:0:0:
256,192,153491,1,8,0:0:0:0:
256,192,153580,1,8,0:0:0:0:
256,192,153668,1,8,0:0:0:0:
256,192,153756,1,8,0:0:0:0:
256,192,153844,1,0,0:0:0:0:
256,192,154110,1,8,0:0:0:0:
256,192,154197,1,0,0:0:0:0:
256,192,154286,1,0,0:0:0:0:
256,192,154374,1,8,0:0:0:0:
256,192,154462,1,0,0:0:0:0:
256,192,154550,1,8,0:0:0:0:
256,192,154903,1,0,0:0:0:0:
256,192,155080,1,8,0:0:0:0:
256,192,155168,1,0,0:0:0:0:
256,192,155256,1,8,0:0:0:0:
256,192,155344,1,0,0:0:0:0:
256,192,155433,1,8,0:0:0:0:
256,192,155521,1,0,0:0:0:0:
256,192,155609,1,8,0:0:0:0:
256,192,155962,1,8,0:0:0:0:
256,192,156139,1,8,0:0:0:0:
256,192,156227,1,8,0:0:0:0:
256,192,156315,1,0,0:0:0:0:
256,192,156403,1,0,0:0:0:0:
256,192,156491,1,0,0:0:0:0:
256,192,156580,1,0,0:0:0:0:
256,192,156668,1,8,0:0:0:0:
256,192,156756,1,8,0:0:0:0:
256,192,156844,1,8,0:0:0:0:
256,192,156933,1,8,0:0:0:0:
256,192,157021,1,0,0:0:0:0:
256,192,157109,1,0,0:0:0:0:
256,192,157197,1,8,0:0:0:0:
256,192,157286,1,8,0:0:0:0:
256,192,157374,1,0,0:0:0:0:
256,192,157550,1,0,0:0:0:0:
256,192,157639,1,0,0:0:0:0:
256,192,157727,1,8,0:0:0:0:
256,192,157903,1,0,0:0:0:0:
256,192,158080,1,8,0:0:0:0:
256,192,158256,1,8,0:0:0:0:
256,192,158433,1,0,0:0:0:0:
256,192,158609,1,8,0:0:0:0:
256,192,158786,1,8,0:0:0:0:
256,192,158874,1,8,0:0:0:0:
256,192,158962,1,8,0:0:0:0:
256,192,159050,1,8,0:0:0:0:
256,192,159139,1,0,0:0:0:0:
256,192,159227,1,0,0:0:0:0:
256,192,159315,1,0,0:0:0:0:
256,192,159403,1,0,0:0:0:0:
256,192,159491,1,8,0:0:0:0:
256,192,159580,1,8,0:0:0:0:
256,192,159668,1,8,0:0:0:0:
256,192,159756,1,8,0:0:0:0:
256,192,159844,1,0,0:0:0:0:
256,192,159933,1,0,0:0:0:0:
256,192,160021,1,8,0:0:0:0:
256,192,160109,1,0,0:0:0:0:
256,192,160197,1,8,0:0:0:0:
256,192,160550,1,8,0:0:0:0:
256,192,160727,1,0,0:0:0:0:
256,192,160815,1,0,0:0:0:0:
256,192,160903,1,8,0:0:0:0:
256,192,160991,1,0,0:0:0:0:
256,192,161080,1,8,0:0:0:0:
256,192,161168,1,0,0:0:0:0:
256,192,161256,1,8,0:0:0:0:
256,192,161344,1,8,0:0:0:0:
256,192,161433,1,0,0:0:0:0:
256,192,161609,1,0,0:0:0:0:
256,192,161697,1,0,0:0:0:0:
256,192,161786,1,8,0:0:0:0:
256,192,161874,1,8,0:0:0:0:
256,192,161962,1,8,0:0:0:0:
256,192,162050,1,8,0:0:0:0:
256,192,162139,1,0,0:0:0:0:
256,192,162315,1,0,0:0:0:0:
256,192,162403,1,0,0:0:0:0:
256,192,162491,1,8,0:0:0:0:
256,192,162580,1,8,0:0:0:0:
256,192,162668,1,0,0:0:0:0:
256,192,162756,1,0,0:0:0:0:
256,192,162844,1,0,0:0:0:0:
256,192,162933,1,0,0:0:0:0:
256,192,163021,1,8,0:0:0:0:
256,192,163197,1,0,0:0:0:0:
256,192,163286,1,0,0:0:0:0:
256,192,163374,1,8,0:0:0:0:
256,192,163462,1,8,0:0:0:0:
256,192,163550,1,0,0:0:0:0:
256,192,163727,1,8,0:0:0:0:
256,192,163815,1,8,0:0:0:0:
256,192,163903,1,8,0:0:0:0:
256,192,163991,1,8,0:0:0:0:
256,192,164080,1,0,0:0:0:0:
256,192,164168,1,0,0:0:0:0:
256,192,164256,1,0,0:0:0:0:
256,192,164344,1,0,0:0:0:0:
256,192,164433,1,8,0:0:0:0:
256,192,164786,1,0,0:0:0:0:
256,192,164874,1,0,0:0:0:0:
256,192,164962,1,0,0:0:0:0:
256,192,165050,1,0,0:0:0:0:
256,192,165139,1,8,0:0:0:0:
256,192,165227,1,8,0:0:0:0:
256,192,165315,1,0,0:0:0:0:
256,192,165403,1,0,0:0:0:0:
256,192,165491,1,8,0:0:0:0:
256,192,165580,1,0,0:0:0:0:
256,192,165668,1,8,0:0:0:0:
256,192,165756,1,0,0:0:0:0:
256,192,165844,1,8,0:0:0:0:
256,192,166197,1,8,0:0:0:0:
256,192,166286,1,8,0:0:0:0:
256,192,166374,1,0,0:0:0:0:
256,192,166462,1,0,0:0:0:0:
256,192,166550,1,8,0:0:0:0:
256,192,166844,1,8,0:0:0:0:
256,192,167139,1,8,0:0:0:0:
256,192,167256,1,0,0:0:0:0:
256,192,167609,1,8,0:0:0:0:
256,192,167697,1,8,0:0:0:0:
256,192,167786,1,0,0:0:0:0:
256,192,167874,1,8,0:0:0:0:
256,192,167962,1,0,0:0:0:0:
256,192,168050,1,0,0:0:0:0:
256,192,168139,1,8,0:0:0:0:
256,192,168227,1,8,0:0:0:0:
256,192,168315,1,0,0:0:0:0:
256,192,168403,1,8,0:0:0:0:
256,192,168491,1,8,0:0:0:0:
256,192,168580,1,8,0:0:0:0:
256,192,168668,1,0,0:0:0:0:
256,192,168844,1,0,0:0:0:0:
256,192,168933,1,0,0:0:0:0:
256,192,169021,1,8,0:0:0:0:
256,192,169197,1,0,0:0:0:0:
256,192,169374,1,8,0:0:0:0:
256,192,169550,1,8,0:0:0:0:
256,192,169727,1,0,0:0:0:0:
256,192,170080,1,0,0:0:0:0:
256,192,170168,1,0,0:0:0:0:
256,192,170256,1,0,0:0:0:0:
256,192,170344,1,0,0:0:0:0:
256,192,170433,1,8,0:0:0:0:
256,192,170521,1,8,0:0:0:0:
256,192,170609,1,8,0:0:0:0:
256,192,170697,1,8,0:0:0:0:
256,192,170786,1,0,0:0:0:0:
256,192,170874,1,0,0:0:0:0:
256,192,170962,1,0,0:0:0:0:
256,192,171050,1,0,0:0:0:0:
256,192,171139,1,8,0:0:0:0:
256,192,171227,1,0,0:0:0:0:
256,192,171315,1,8,0:0:0:0:
256,192,171403,1,0,0:0:0:0:
256,192,171491,1,8,0:0:0:0:
256,192,171580,1,0,0:0:0:0:
256,192,171668,1,8,0:0:0:0:
256,192,171756,1,8,0:0:0:0:
256,192,171844,1,8,0:0:0:0:
256,192,171933,1,0,0:0:0:0:
256,192,172021,1,0,0:0:0:0:
256,192,172109,1,0,0:0:0:0:
256,192,172197,1,8,0:0:0:0:
256,192,172462,1,8,0:0:0:0:
256,192,172727,1,8,0:0:0:0:
256,192,172903,1,0,0:0:0:0:
256,192,172991,1,0,0:0:0:0:
256,192,173080,1,8,0:0:0:0:
256,192,173168,1,8,0:0:0:0:
256,192,173256,1,8,0:0:0:0:
256,192,173344,1,8,0:0:0:0:
256,192,173433,1,0,0:0:0:0:
256,192,173521,1,0,0:0:0:0:
256,192,173609,1,0,0:0:0:0:
256,192,173697,1,0,0:0:0:0:
256,192,173786,1,8,0:0:0:0:
256,192,173874,1,0,0:0:0:0:
256,192,173962,1,8,0:0:0:0:
256,192,174050,1,8,0:0:0:0:
256,192,174139,1,0,0:0:0:0:
256,192,174227,1,0,0:0:0:0:
256,192,174315,1,8,0:0:0:0:
256,192,174491,1,0,0:0:0:0:
256,192,174580,1,0,0:0:0:0:
256,192,174668,1,8,0:0:0:0:
256,192,174844,1,0,0:0:0:0:
256,192,175021,1,0,0:0:0:0:
256,192,175080,1,0,0:0:0:0:
256,192,175139,1,0,0:0:0:0:
256,192,175197,1,8,0:0:0:0:
256,192,175256,1,8,0:0:0:0:
256,192,175315,1,8,0:0:0:0:
256,192,175374,1,8,0:0:0:0:
256,192,175727,1,4,0:0:0:0:
256,192,175903,1,8,0:0:0:0:
256,192,175991,1,8,0:0:0:0:
256,192,176080,1,0,0:0:0:0:
256,192,176168,1,0,0:0:0:0:
256,192,176256,1,0,0:0:0:0:
256,192,176344,1,0,0:0:0:0:
256,192,176433,1,8,0:0:0:0:
256,192,176786,1,8,0:0:0:0:
256,192,176874,1,0,0:0:0:0:
256,192,176962,1,8,0:0:0:0:
256,192,177050,1,0,0:0:0:0:
256,192,177139,1,8,0:0:0:0:
256,192,177491,1,0,0:0:0:0:
256,192,177580,1,0,0:0:0:0:
256,192,177668,1,8,0:0:0:0:
256,192,177756,1,0,0:0:0:0:
256,192,177844,1,8,0:0:0:0:
256,192,177933,1,0,0:0:0:0:
256,192,178021,1,8,0:0:0:0:
256,192,178109,1,0,0:0:0:0:
256,192,178197,1,8,0:0:0:0:
256,192,178550,1,12,0:0:0:0:
256,192,178903,1,0,0:0:0:0:
256,192,178991,1,0,0:0:0:0:
256,192,179080,1,0,0:0:0:0:
256,192,179168,1,0,0:0:0:0:
256,192,179256,1,8,0:0:0:0:
256,192,179344,1,8,0:0:0:0:
256,192,179433,1,8,0:0:0:0:
256,192,179521,1,8,0:0:0:0:
256,192,179609,1,0,0:0:0:0:
256,192,179697,1,0,0:0:0:0:
256,192,179786,1,8,0:0:0:0:
256,192,179874,1,8,0:0:0:0:
256,192,179962,1,0,0:0:0:0:
256,192,180138,1,0,0:0:0:0:
256,192,180227,1,0,0:0:0:0:
256,192,180315,1,8,0:0:0:0:
256,192,180491,1,0,0:0:0:0:
256,192,180668,1,8,0:0:0:0:
256,192,180756,1,8,0:0:0:0:
256,192,180844,1,0,0:0:0:0:
256,192,180933,1,0,0:0:0:0:
256,192,181021,1,8,0:0:0:0:
256,192,181374,1,4,0:0:0:0:
256,192,181550,1,8,0:0:0:0:
256,192,181638,1,8,0:0:0:0:
256,192,181727,1,0,0:0:0:0:
256,192,181815,1,0,0:0:0:0:
256,192,181903,1,0,0:0:0:0:
256,192,181991,1,0,0:0:0:0:
256,192,182080,1,8,0:0:0:0:
256,192,182433,1,8,0:0:0:0:
256,192,182609,1,8,0:0:0:0:
256,192,182697,1,8,0:0:0:0:
256,192,182786,1,8,0:0:0:0:
256,192,183138,1,8,0:0:0:0:
256,192,183315,1,0,0:0:0:0:
256,192,183403,1,0,0:0:0:0:
256,192,183491,1,8,0:0:0:0:
256,192,183668,1,0,0:0:0:0:
256,192,183844,1,8,0:0:0:0:
256,192,184197,1,0,0:0:0:0:
256,192,184286,1,0,0:0:0:0:
256,192,184374,1,8,0:0:0:0:
256,192,184462,1,8,0:0:0:0:
256,192,184550,1,8,0:0:0:0:
256,192,184638,1,8,0:0:0:0:
256,192,184727,1,0,0:0:0:0:
256,192,184815,1,0,0:0:0:0:
256,192,184903,1,0,0:0:0:0:
256,192,184991,1,0,0:0:0:0:
256,192,185080,1,8,0:0:0:0:
256,192,185168,1,8,0:0:0:0:
256,192,185256,1,0,0:0:0:0:
256,192,185344,1,0,0:0:0:0:
256,192,185433,1,0,0:0:0:0:
256,192,185521,1,0,0:0:0:0:
256,192,185609,1,8,0:0:0:0:
256,192,185786,1,0,0:0:0:0:
256,192,185874,1,0,0:0:0:0:
256,192,185962,1,8,0:0:0:0:
256,192,186138,1,0,0:0:0:0:
256,192,186315,1,8,0:0:0:0:
256,192,186403,1,8,0:0:0:0:
256,192,186491,1,8,0:0:0:0:
256,192,186580,1,8,0:0:0:0:
256,192,186668,1,0,0:0:0:0:
256,192,186756,1,0,0:0:0:0:
256,192,186844,1,0,0:0:0:0:
256,192,186933,1,0,0:0:0:0:
256,192,187021,1,8,0:0:0:0:
256,192,187361,1,8,0:0:0:0:
256,192,187702,1,0,0:0:0:0:
256,192,188024,1,8,0:0:0:0:
256,192,188347,1,0,0:0:0:0:
256,192,188647,1,8,0:0:0:0:
256,192,188947,1,0,0:0:0:0:
256,192,189235,1,8,0:0:0:0:
256,192,189523,1,0,0:0:0:0:
256,192,189795,1,8,0:0:0:0:
256,192,190068,1,0,0:0:0:0:
256,192,190328,1,8,0:0:0:0:
256,192,190589,1,0,0:0:0:0:
256,192,190839,1,8,0:0:0:0:
256,192,191089,1,0,0:0:0:0:
256,192,191207,1,0,0:0:0:0:
256,192,191325,1,8,0:0:0:0:
256,192,191384,1,8,0:0:0:0:
256,192,191443,1,8,0:0:0:0:
256,192,191502,1,8,0:0:0:0:
256,192,191561,1,0,0:0:0:0:
256,192,191788,1,8,0:0:0:0:
256,192,192015,1,0,0:0:0:0:
256,192,192230,1,8,0:0:0:0:
256,192,192446,1,0,0:0:0:0:
256,192,192652,1,8,0:0:0:0:
256,192,192859,1,0,0:0:0:0:
256,192,193059,1,8,0:0:0:0:
256,192,193259,1,0,0:0:0:0:
256,192,193453,1,0,0:0:0:0:
256,192,193648,1,8,0:0:0:0:
256,192,193837,1,0,0:0:0:0:
256,192,194027,1,8,0:0:0:0:
256,192,194204,1,0,0:0:0:0:
256,192,194293,1,0,0:0:0:0:
256,192,194382,1,8,0:0:0:0:
256,192,194552,1,8,0:0:0:0:
256,192,194722,1,0,0:0:0:0:
256,192,194887,1,0,0:0:0:0:
256,192,195053,1,8,0:0:0:0:
256,192,195219,1,0,0:0:0:0:
256,192,195384,1,0,0:0:0:0:
256,192,195541,1,0,0:0:0:0:
256,192,195698,1,8,0:0:0:0:
256,192,195855,1,0,0:0:0:0:
256,192,196012,1,0,0:0:0:0:
256,192,196161,1,0,0:0:0:0:
256,192,196310,1,8,0:0:0:0:
256,192,196457,1,0,0:0:0:0:
256,192,196606,1,0,0:0:0:0:
256,192,196747,1,0,0:0:0:0:
256,192,196889,1,8,0:0:0:0:
256,192,196959,1,8,0:0:0:0:
256,192,197030,1,8,0:0:0:0:
256,192,197101,1,8,0:0:0:0:
256,192,197172,1,0,0:0:0:0:
256,192,197240,1,0,0:0:0:0:
256,192,197308,1,8,0:0:0:0:
256,192,197376,1,8,0:0:0:0:
256,192,197444,1,0,0:0:0:0:
256,192,197512,1,0,0:0:0:0:
256,192,197581,1,8,0:0:0:0:
256,192,197649,1,8,0:0:0:0:
256,192,197717,1,0,0:0:0:0:
256,192,197785,1,0,0:0:0:0:
256,192,197853,1,8,0:0:0:0:
256,192,197922,1,8,0:0:0:0:
256,192,197990,1,0,0:0:0:0:
256,192,198058,1,0,0:0:0:0:
256,192,198126,1,8,0:0:0:0:
256,192,198194,1,8,0:0:0:0:
256,192,198262,1,0,0:0:0:0:
256,192,198399,1,0,0:0:0:0:
256,192,198535,1,8,0:0:0:0:
256,192,198808,1,8,0:0:0:0:
256,192,198876,1,8,0:0:0:0:
256,192,198944,1,8,0:0:0:0:
256,192,199012,1,8,0:0:0:0:
256,192,199081,1,0,0:0:0:0:
256,192,199285,1,8,0:0:0:0:
256,192,199353,1,4,0:0:0:0:
256,192,199626,1,0,0:0:0:0:
256,192,199808,1,0,0:0:0:0:
256,192,199899,1,8,0:0:0:0:
256,192,200081,1,0,0:0:0:0:
256,192,200172,1,8,0:0:0:0:
256,192,200353,1,8,0:0:0:0:
256,192,200444,1,0,0:0:0:0:
256,192,200512,1,0,0:0:0:0:
256,192,200581,1,0,0:0:0:0:
256,192,200649,1,0,0:0:0:0:
256,192,200717,1,0,0:0:0:0:
256,192,200785,1,0,0:0:0:0:
256,192,200853,1,0,0:0:0:0:
256,192,200922,1,0,0:0:0:0:
256,192,200990,1,8,0:0:0:0:
256,192,201262,1,8,0:0:0:0:
256,192,201535,1,0,0:0:0:0:
256,192,201808,1,8,0:0:0:0:
256,192,201990,1,0,0:0:0:0:
256,192,202081,1,8,0:0:0:0:
256,192,202262,1,0,0:0:0:0:
256,192,202353,1,0,0:0:0:0:
256,192,202535,1,8,0:0:0:0:
256,192,202626,1,0,0:0:0:0:
256,192,202694,1,0,0:0:0:0:
256,192,202762,1,0,0:0:0:0:
256,192,202831,1,0,0:0:0:0:
256,192,202899,1,8,0:0:0:0:
256,192,202967,1,8,0:0:0:0:
256,192,203035,1,0,0:0:0:0:
256,192,203103,1,0,0:0:0:0:
256,192,203172,1,8,0:0:0:0:
256,192,203262,1,8,0:0:0:0:
256,192,203353,1,8,0:0:0:0:
256,192,203444,1,0,0:0:0:0:
256,192,203717,1,0,0:0:0:0:
256,192,203785,1,0,0:0:0:0:
256,192,203853,1,8,0:0:0:0:
256,192,204172,1,0,0:0:0:0:
256,192,204263,1,8,0:0:0:0:
256,192,204444,1,0,0:0:0:0:
256,192,204535,1,8,0:0:0:0:
256,192,204717,1,8,0:0:0:0:
256,192,204808,1,0,0:0:0:0:
256,192,204876,1,0,0:0:0:0:
256,192,204944,1,0,0:0:0:0:
256,192,205012,1,8,0:0:0:0:
256,192,205081,1,8,0:0:0:0:
256,192,205149,1,8,0:0:0:0:
256,192,205217,1,0,0:0:0:0:
256,192,205285,1,0,0:0:0:0:
256,192,205353,1,8,0:0:0:0:
256,192,205626,1,0,0:0:0:0:
256,192,205899,1,0,0:0:0:0:
256,192,205967,1,0,0:0:0:0:
256,192,206035,1,8,0:0:0:0:
256,192,206104,1,8,0:0:0:0:
256,192,206172,1,0,0:0:0:0:
256,192,206240,1,0,0:0:0:0:
256,192,206308,1,0,0:0:0:0:
256,192,206376,1,0,0:0:0:0:
256,192,206444,1,8,0:0:0:0:
256,192,206513,1,8,0:0:0:0:
256,192,206581,1,0,0:0:0:0:
256,192,206649,1,0,0:0:0:0:
256,192,206717,1,0,0:0:0:0:
256,192,206785,1,0,0:0:0:0:
256,192,206854,1,8,0:0:0:0:
256,192,206922,1,8,0:0:0:0:
256,192,206990,1,0,0:0:0:0:
256,192,207126,1,8,0:0:0:0:
256,192,207399,1,0,0:0:0:0:
256,192,207535,1,8,0:0:0:0:
256,192,207808,1,0,0:0:0:0:
256,192,208081,1,12,0:0:0:0:
256,192,208354,1,0,0:0:0:0:
256,192,208535,1,0,0:0:0:0:
256,192,208626,1,8,0:0:0:0:
256,192,208808,1,0,0:0:0:0:
256,192,208899,1,8,0:0:0:0:
256,192,209081,1,8,0:0:0:0:
256,192,209172,1,0,0:0:0:0:
256,192,209240,1,0,0:0:0:0:
256,192,209308,1,0,0:0:0:0:
256,192,209376,1,0,0:0:0:0:
256,192,209444,1,0,0:0:0:0:
256,192,209513,1,0,0:0:0:0:
256,192,209581,1,0,0:0:0:0:
256,192,209649,1,0,0:0:0:0:
256,192,209717,1,8,0:0:0:0:
256,192,209990,1,8,0:0:0:0:
256,192,210263,1,0,0:0:0:0:
256,192,210331,1,0,0:0:0:0:
256,192,210399,1,0,0:0:0:0:
256,192,210467,1,8,0:0:0:0:
256,192,210535,1,8,0:0:0:0:
256,192,210604,1,8,0:0:0:0:
256,192,210672,1,0,0:0:0:0:
256,192,210740,1,0,0:0:0:0:
256,192,210808,1,8,0:0:0:0:
256,192,210899,1,8,0:0:0:0:
256,192,210990,1,8,0:0:0:0:
256,192,211081,1,0,0:0:0:0:
256,192,211172,1,0,0:0:0:0:
256,192,211263,1,0,0:0:0:0:
256,192,211354,1,8,0:0:0:0:
256,192,211490,1,0,0:0:0:0:
256,192,211626,1,8,0:0:0:0:
256,192,211899,1,8,0:0:0:0:
256,192,212354,1,8,0:0:0:0:
256,192,212444,1,0,0:0:0:0:
256,192,212513,1,0,0:0:0:0:
256,192,212581,1,8,0:0:0:0:
256,192,212899,1,0,0:0:0:0:
256,192,212990,1,8,0:0:0:0:
256,192,213172,1,0,0:0:0:0:
256,192,213263,1,8,0:0:0:0:
256,192,213444,1,8,0:0:0:0:
256,192,213535,1,0,0:0:0:0:
256,192,213604,1,0,0:0:0:0:
256,192,213672,1,8,0:0:0:0:
256,192,213740,1,8,0:0:0:0:
256,192,213808,1,0,0:0:0:0:
256,192,213876,1,0,0:0:0:0:
256,192,213944,1,0,0:0:0:0:
256,192,214013,1,0,0:0:0:0:
256,192,214081,1,8,0:0:0:0:
256,192,214354,1,0,0:0:0:0:
256,192,214626,1,0,0:0:0:0:
256,192,214694,1,0,0:0:0:0:
256,192,214763,1,0,0:0:0:0:
256,192,214831,1,8,0:0:0:0:
256,192,214899,1,8,0:0:0:0:
256,192,214967,1,8,0:0:0:0:
256,192,215035,1,0,0:0:0:0:
256,192,215104,1,0,0:0:0:0:
256,192,215172,1,8,0:0:0:0:
256,192,215240,1,8,0:0:0:0:
256,192,215308,1,0,0:0:0:0:
256,192,215376,1,0,0:0:0:0:
256,192,215444,1,0,0:0:0:0:
256,192,215513,1,0,0:0:0:0:
256,192,215581,1,0,0:0:0:0:
256,192,215649,1,0,0:0:0:0:
256,192,215717,1,8,0:0:0:0:
256,192,215808,1,8,0:0:0:0:
256,192,215899,1,0,0:0:0:0:
256,192,216172,1,0,0:0:0:0:
256,192,216263,1,8,0:0:0:0:
256,192,216444,1,8,0:0:0:0:
256,192,216535,1,0,0:0:0:0:
256,192,216808,1,12,0:0:0:0:
256,192,217250,1,0,0:0:0:0:
256,192,217338,1,8,0:0:0:0:
256,192,217427,1,8,0:0:0:0:
256,192,217515,1,0,0:0:0:0:
256,192,217604,1,8,0:0:0:0:
256,192,217781,1,8,0:0:0:0:
256,192,217869,1,0,0:0:0:0:
256,192,217936,1,0,0:0:0:0:
256,192,218002,1,0,0:0:0:0:
256,192,218069,1,0,0:0:0:0:
256,192,218135,1,0,0:0:0:0:
256,192,218201,1,0,0:0:0:0:
256,192,218268,1,0,0:0:0:0:
256,192,218334,1,0,0:0:0:0:
256,192,218400,1,8,0:0:0:0:
256,192,218666,1,8,0:0:0:0:
256,192,218931,1,0,0:0:0:0:
256,192,218998,1,0,0:0:0:0:
256,192,219064,1,8,0:0:0:0:
256,192,219374,1,0,0:0:0:0:
256,192,219639,1,0,0:0:0:0:
256,192,219728,1,8,0:0:0:0:
256,192,219905,1,8,0:0:0:0:
256,192,219993,1,0,0:0:0:0:
256,192,220060,1,0,0:0:0:0:
256,192,220126,1,8,0:0:0:0:
256,192,220192,1,8,0:0:0:0:
256,192,220259,1,0,0:0:0:0:
256,192,220325,1,0,0:0:0:0:
256,192,220392,1,8,0:0:0:0:
256,192,220458,1,8,0:0:0:0:
256,192,220524,1,0,0:0:0:0:
256,192,220613,1,8,0:0:0:0:
256,192,220701,1,8,0:0:0:0:
256,192,220790,1,0,0:0:0:0:
256,192,221055,1,0,0:0:0:0:
256,192,221122,1,0,0:0:0:0:
256,192,221188,1,8,0:0:0:0:
256,192,221498,1,0,0:0:0:0:
256,192,221586,1,8,0:0:0:0:
256,192,221763,1,0,0:0:0:0:
256,192,221852,1,0,0:0:0:0:
256,192,222029,1,8,0:0:0:0:
256,192,222117,1,0,0:0:0:0:
256,192,222184,1,0,0:0:0:0:
256,192,222250,1,0,0:0:0:0:
256,192,222316,1,0,0:0:0:0:
256,192,222383,1,0,0:0:0:0:
256,192,222449,1,0,0:0:0:0:
256,192,222515,1,0,0:0:0:0:
256,192,222582,1,0,0:0:0:0:
256,192,222648,1,8,0:0:0:0:
256,192,222914,1,0,0:0:0:0:
256,192,223179,1,12,0:0:0:0:
256,192,223445,1,12,0:0:0:0:
256,192,223710,1,4,0:0:0:0:
256,192,223976,1,4,0:0:0:0:
256,192,224241,1,0,0:0:0:0:
256,192,224374,1,8,0:0:0:0:
256,192,224684,1,0,0:0:0:0:
256,192,224772,1,8,0:0:0:0:
256,192,225038,1,8,0:0:0:0:
256,192,225303,1,4,0:0:0:0:
256,192,225436,1,8,0:0:0:0:
256,192,225746,1,0,0:0:0:0:
256,192,225834,1,8,0:0:0:0:
256,192,226011,1,0,0:0:0:0:
256,192,226100,1,0,0:0:0:0:
256,192,226277,1,8,0:0:0:0:
256,192,226365,1,0,0:0:0:0:
256,192,226431,1,0,0:0:0:0:
256,192,226498,1,0,0:0:0:0:
256,192,226564,1,0,0:0:0:0:
256,192,226631,1,0,0:0:0:0:
256,192,226697,1,0,0:0:0:0:
256,192,226763,1,0,0:0:0:0:
256,192,226830,1,0,0:0:0:0:
256,192,226896,1,8,0:0:0:0:
256,192,227161,1,8,0:0:0:0:
256,192,227427,1,0,0:0:0:0:
256,192,227493,1,0,0:0:0:0:
256,192,227560,1,0,0:0:0:0:
256,192,227626,1,0,0:0:0:0:
256,192,227692,1,8,0:0:0:0:
256,192,227759,1,8,0:0:0:0:
256,192,227825,1,8,0:0:0:0:
256,192,227892,1,8,0:0:0:0:
256,192,227958,1,0,0:0:0:0:
256,192,228046,1,0,0:0:0:0:
256,192,228135,1,0,0:0:0:0:
256,192,228223,1,8,0:0:0:0:
256,192,228312,1,8,0:0:0:0:
256,192,228400,1,8,0:0:0:0:
256,192,228489,1,0,0:0:0:0:
256,192,228622,1,0,0:0:0:0:
256,192,228754,1,8,0:0:0:0:
256,192,229020,1,8,0:0:0:0:
256,192,229462,1,8,0:0:0:0:
256,192,229551,1,0,0:0:0:0:
256,192,229617,1,0,0:0:0:0:
256,192,229684,1,8,0:0:0:0:
256,192,229993,1,0,0:0:0:0:
256,192,230082,1,0,0:0:0:0:
256,192,230259,1,0,0:0:0:0:
256,192,230347,1,8,0:0:0:0:
256,192,230524,1,8,0:0:0:0:
256,192,230613,1,0,0:0:0:0:
256,192,230679,1,0,0:0:0:0:
256,192,230746,1,0,0:0:0:0:
256,192,230812,1,0,0:0:0:0:
256,192,230878,1,8,0:0:0:0:
256,192,230945,1,8,0:0:0:0:
256,192,231011,1,8,0:0:0:0:
256,192,231077,1,8,0:0:0:0:
256,192,231144,1,0,0:0:0:0:
256,192,231409,1,0,0:0:0:0:
256,192,231675,1,0,0:0:0:0:
256,192,231741,1,0,0:0:0:0:
256,192,231808,1,8,0:0:0:0:
256,192,231874,1,8,0:0:0:0:
256,192,231940,1,0,0:0:0:0:
256,192,232007,1,0,0:0:0:0:
256,192,232073,1,8,0:0:0:0:
256,192,232139,1,0,0:0:0:0:
256,192,232206,1,0,0:0:0:0:
256,192,232272,1,8,0:0:0:0:
256,192,232338,1,8,0:0:0:0:
256,192,232405,1,8,0:0:0:0:
256,192,232471,1,0,0:0:0:0:
256,192,232538,1,0,0:0:0:0:
256,192,232604,1,8,0:0:0:0:
256,192,232670,1,8,0:0:0:0:
256,192,232737,1,0,0:0:0:0:
256,192,232825,1,0,0:0:0:0:
256,192,232914,1,8,0:0:0:0:
256,192,233002,1,0,0:0:0:0:
256,192,233091,1,0,0:0:0:0:
256,192,233179,1,0,0:0:0:0:
256,192,233268,1,8,0:0:0:0:
256,192,233533,1,8,0:0:0:0:
256,192,233799,1,4,0:0:0:0:
256,192,234344,1,8,0:0:0:0:
256,192,235435,1,8,0:0:0:0:
256,192,236620,1,8,0:0:0:0:
256,192,237220,1,8,0:0:0:0:
256,192,237851,1,0,0:0:0:0:
256,192,238483,1,8,0:0:0:0:
256,192,238816,1,0,0:0:0:0:
256,192,239149,1,8,0:0:0:0:
256,192,239834,1,8,0:0:0:0:
256,192,240186,1,0,0:0:0:0:
256,192,240539,1,8,0:0:0:0:
256,192,241275,1,8,0:0:0:0:
256,192,241664,1,0,0:0:0:0:
256,192,242054,1,0,0:0:0:0:
256,192,242923,1,8,0:0:0:0:
256,192,243898,1,0,0:0:0:0:
256,192,245040,1,4,0:0:0:0:
256,192,264230,5,0,0:0:0:0:
256,192,265658,1,0,0:0:0:0:
256,192,266991,1,0,0:0:0:0:
256,192,268241,1,0,0:0:0:0:
256,192,269417,1,0,0:0:0:0:
256,192,270507,1,0,0:0:0:0:
256,192,271523,1,0,0:0:0:0:
256,192,272506,1,0,0:0:0:0:
256,192,273443,1,8,0:0:0:0:
256,192,274312,1,8,0:0:0:0:
256,192,275157,1,8,0:0:0:0:
256,192,275957,1,8,0:0:0:0:
256,192,276726,1,8,0:0:0:0:
256,192,277466,1,8,0:0:0:0:
256,192,278180,1,8,0:0:0:0:
256,192,278861,1,8,0:0:0:0:
256,192,279527,1,0,0:0:0:0:
256,192,280158,1,0,0:0:0:0:
256,192,280770,1,0,0:0:0:0:
256,192,281364,1,0,0:0:0:0:
256,192,281940,1,0,0:0:0:0:
256,192,282490,1,0,0:0:0:0:
256,192,283030,1,0,0:0:0:0:
256,192,283295,1,8,0:0:0:0:
256,192,283428,1,8,0:0:0:0:
256,192,283560,1,0,0:0:0:0:
256,192,284077,1,8,0:0:0:0:
256,192,284568,1,8,0:0:0:0:
256,192,285044,1,8,0:0:0:0:
256,192,285509,1,8,0:0:0:0:
256,192,285967,1,0,0:0:0:0:
256,192,286418,1,0,0:0:0:0:
256,192,286859,1,0,0:0:0:0:
256,192,287287,1,0,0:0:0:0:
256,192,287700,1,8,0:0:0:0:
256,192,288105,1,8,0:0:0:0:
256,192,288502,1,8,0:0:0:0:
256,192,288894,1,8,0:0:0:0:
256,192,289281,1,0,0:0:0:0:
256,192,289660,1,0,0:0:0:0:
256,192,290030,1,0,0:0:0:0:
256,192,290393,1,0,0:0:0:0:
256,192,290745,1,8,0:0:0:0:
256,192,291091,1,8,0:0:0:0:
256,192,291431,1,8,0:0:0:0:
256,192,291764,1,8,0:0:0:0:
256,192,292090,1,0,0:0:0:0:
256,192,292409,1,0,0:0:0:0:
256,192,292721,1,0,0:0:0:0:
256,192,293028,1,0,0:0:0:0:
256,192,293328,1,8,0:0:0:0:
256,192,293625,1,8,0:0:0:0:
256,192,293922,1,8,0:0:0:0:
256,192,294213,1,8,0:0:0:0:
256,192,294504,1,0,0:0:0:0:
256,192,294776,1,0,0:0:0:0:
256,192,295049,1,0,0:0:0:0:
256,192,295322,1,0,0:0:0:0:
256,192,295594,1,8,0:0:0:0:
256,192,295867,1,8,0:0:0:0:
256,192,296140,1,8,0:0:0:0:
256,192,296413,1,8,0:0:0:0:
256,192,296685,1,0,0:0:0:0:
256,192,296958,1,0,0:0:0:0:
256,192,297231,1,0,0:0:0:0:
256,192,297504,1,0,0:0:0:0:
256,192,297776,1,8,0:0:0:0:
256,192,298049,1,8,0:0:0:0:
256,192,298322,1,8,0:0:0:0:
256,192,298594,1,8,0:0:0:0:
256,192,298663,1,0,0:0:0:0:
256,192,298731,1,0,0:0:0:0:
256,192,298799,1,0,0:0:0:0:
256,192,298867,1,8,0:0:0:0:
256,192,299140,1,8,0:0:0:0:
256,192,299413,1,8,0:0:0:0:
256,192,299685,1,8,0:0:0:0:
256,192,299958,1,0,0:0:0:0:
256,192,300231,1,0,0:0:0:0:
256,192,300504,1,0,0:0:0:0:
256,192,300776,1,8,0:0:0:0:
256,192,300844,1,8,0:0:0:0:
256,192,300913,1,8,0:0:0:0:
256,192,300981,1,8,0:0:0:0:
256,192,301049,1,0,0:0:0:0:
256,192,301185,1,0,0:0:0:0:
256,192,301322,1,8,0:0:0:0:
256,192,301458,1,0,0:0:0:0:
256,192,301594,1,0,0:0:0:0:
256,192,301731,1,0,0:0:0:0:
256,192,301867,1,8,0:0:0:0:
256,192,302004,1,0,0:0:0:0:
256,192,302140,1,12,0:0:0:0:
256,192,302276,1,0,0:0:0:0:
256,192,302413,1,8,0:0:0:0:
256,192,302549,1,0,0:0:0:0:
256,192,302685,1,0,0:0:0:0:
256,192,302822,1,0,0:0:0:0:
256,192,302958,1,8,0:0:0:0:
256,192,303026,1,0,0:0:0:0:
256,192,303094,1,0,0:0:0:0:
256,192,303163,1,0,0:0:0:0:
256,192,303231,1,8,0:0:0:0:
256,192,303299,1,0,0:0:0:0:
256,192,303367,1,0,0:0:0:0:
256,192,303435,1,0,0:0:0:0:
256,192,303504,1,8,0:0:0:0:
256,192,303572,1,0,0:0:0:0:
256,192,303640,1,0,0:0:0:0:
256,192,303708,1,0,0:0:0:0:
256,192,303776,1,8,0:0:0:0:
256,192,303844,1,0,0:0:0:0:
256,192,303913,1,8,0:0:0:0:
256,192,303981,1,8,0:0:0:0:
256,192,304049,1,0,0:0:0:0:
256,192,304117,1,0,0:0:0:0:
256,192,304185,1,8,0:0:0:0:
256,192,304254,1,8,0:0:0:0:
256,192,304322,1,0,0:0:0:0:
256,192,304594,1,8,0:0:0:0:
256,192,304867,1,8,0:0:0:0:
256,192,304935,1,8,0:0:0:0:
256,192,305004,1,8,0:0:0:0:
256,192,305072,1,8,0:0:0:0:
256,192,305140,1,8,0:0:0:0:
256,192,305413,1,12,0:0:0:0:
256,192,305594,1,0,0:0:0:0:
256,192,305685,1,0,0:0:0:0:
256,192,305867,1,0,0:0:0:0:
256,192,305958,1,8,0:0:0:0:
256,192,306140,1,0,0:0:0:0:
256,192,306231,1,8,0:0:0:0:
256,192,306413,1,8,0:0:0:0:
256,192,306504,1,0,0:0:0:0:
256,192,306572,1,0,0:0:0:0:
256,192,306640,1,8,0:0:0:0:
256,192,306708,1,8,0:0:0:0:
256,192,306776,1,8,0:0:0:0:
256,192,306844,1,0,0:0:0:0:
256,192,306913,1,0,0:0:0:0:
256,192,306981,1,0,0:0:0:0:
256,192,307049,1,8,0:0:0:0:
256,192,307140,1,8,0:0:0:0:
256,192,307231,1,8,0:0:0:0:
256,192,307322,1,8,0:0:0:0:
256,192,307413,1,8,0:0:0:0:
256,192,307504,1,8,0:0:0:0:
256,192,307594,1,0,0:0:0:0:
256,192,307663,1,0,0:0:0:0:
256,192,307731,1,8,0:0:0:0:
256,192,307867,1,0,0:0:0:0:
256,192,308049,1,0,0:0:0:0:
256,192,308140,1,8,0:0:0:0:
256,192,308322,1,0,0:0:0:0:
256,192,308413,1,0,0:0:0:0:
256,192,308504,1,0,0:0:0:0:
256,192,308594,1,8,0:0:0:0:
256,192,308685,1,0,0:0:0:0:
256,192,308754,1,0,0:0:0:0:
256,192,308822,1,8,0:0:0:0:
256,192,308890,1,8,0:0:0:0:
256,192,308958,1,0,0:0:0:0:
256,192,309026,1,0,0:0:0:0:
256,192,309094,1,0,0:0:0:0:
256,192,309163,1,0,0:0:0:0:
256,192,309231,1,8,0:0:0:0:
256,192,309322,1,8,0:0:0:0:
256,192,309413,1,8,0:0:0:0:
256,192,309504,1,0,0:0:0:0:
256,192,309685,1,8,0:0:0:0:
256,192,309776,1,0,0:0:0:0:
256,192,309844,1,0,0:0:0:0:
256,192,309913,1,8,0:0:0:0:
256,192,310049,1,0,0:0:0:0:
256,192,310231,1,0,0:0:0:0:
256,192,310322,1,8,0:0:0:0:
256,192,310504,1,0,0:0:0:0:
256,192,310594,1,8,0:0:0:0:
256,192,310776,1,8,0:0:0:0:
256,192,310867,1,0,0:0:0:0:
256,192,310935,1,0,0:0:0:0:
256,192,311004,1,8,0:0:0:0:
256,192,311072,1,0,0:0:0:0:
256,192,311140,1,8,0:0:0:0:
256,192,311208,1,8,0:0:0:0:
256,192,311276,1,0,0:0:0:0:
256,192,311344,1,0,0:0:0:0:
256,192,311413,1,8,0:0:0:0:
256,192,311504,1,8,0:0:0:0:
256,192,311594,1,8,0:0:0:0:
256,192,311685,1,8,0:0:0:0:
256,192,311776,1,8,0:0:0:0:
256,192,311867,1,8,0:0:0:0:
256,192,311958,1,0,0:0:0:0:
256,192,312026,1,0,0:0:0:0:
256,192,312094,1,0,0:0:0:0:
256,192,312163,1,8,0:0:0:0:
256,192,312231,1,8,0:0:0:0:
256,192,312299,1,8,0:0:0:0:
256,192,312367,1,0,0:0:0:0:
256,192,312435,1,0,0:0:0:0:
256,192,312503,1,8,0:0:0:0:
256,192,312572,1,8,0:0:0:0:
256,192,312640,1,0,0:0:0:0:
256,192,312708,1,0,0:0:0:0:
256,192,312776,1,0,0:0:0:0:
256,192,312844,1,0,0:0:0:0:
256,192,312913,1,0,0:0:0:0:
256,192,312981,1,0,0:0:0:0:
256,192,313049,1,8,0:0:0:0:
256,192,313231,1,8,0:0:0:0:
256,192,313504,1,0,0:0:0:0:
256,192,313594,1,8,0:0:0:0:
256,192,313685,1,0,0:0:0:0:
256,192,313776,1,0,0:0:0:0:
256,192,313867,1,8,0:0:0:0:
256,192,314140,1,4,0:0:0:0:
256,192,314322,1,8,0:0:0:0:
256,192,314413,1,0,0:0:0:0:
256,192,314594,1,0,0:0:0:0:
256,192,314685,1,8,0:0:0:0:
256,192,314867,1,0,0:0:0:0:
256,192,314958,1,0,0:0:0:0:
256,192,315140,1,8,0:0:0:0:
256,192,315231,1,0,0:0:0:0:
256,192,315299,1,0,0:0:0:0:
256,192,315367,1,8,0:0:0:0:
256,192,315435,1,8,0:0:0:0:
256,192,315504,1,0,0:0:0:0:
256,192,315572,1,0,0:0:0:0:
256,192,315640,1,0,0:0:0:0:
256,192,315708,1,0,0:0:0:0:
256,192,315776,1,8,0:0:0:0:
256,192,315867,1,8,0:0:0:0:
256,192,315958,1,8,0:0:0:0:
256,192,316049,1,8,0:0:0:0:
256,192,316140,1,8,0:0:0:0:
256,192,316231,1,8,0:0:0:0:
256,192,316322,1,0,0:0:0:0:
256,192,316390,1,0,0:0:0:0:
256,192,316458,1,0,0:0:0:0:
256,192,316526,1,8,0:0:0:0:
256,192,316594,1,8,0:0:0:0:
256,192,316663,1,8,0:0:0:0:
256,192,316731,1,0,0:0:0:0:
256,192,316799,1,0,0:0:0:0:
256,192,316867,1,8,0:0:0:0:
256,192,316958,1,8,0:0:0:0:
256,192,317049,1,8,0:0:0:0:
256,192,317140,1,0,0:0:0:0:
256,192,317231,1,0,0:0:0:0:
256,192,317322,1,0,0:0:0:0:
256,192,317413,1,8,0:0:0:0:
256,192,317594,1,0,0:0:0:0:
256,192,317685,1,8,0:0:0:0:
256,192,317958,1,8,0:0:0:0:
256,192,318140,1,0,0:0:0:0:
256,192,318231,1,8,0:0:0:0:
256,192,318413,1,8,0:0:0:0:
256,192,318504,1,0,0:0:0:0:
256,192,318572,1,0,0:0:0:0:
256,192,318640,1,8,0:0:0:0:
256,192,318776,1,0,0:0:0:0:
256,192,318958,1,0,0:0:0:0:
256,192,319049,1,8,0:0:0:0:
256,192,319231,1,0,0:0:0:0:
256,192,319322,1,8,0:0:0:0:
256,192,319504,1,8,0:0:0:0:
256,192,319594,1,0,0:0:0:0:
256,192,319663,1,0,0:0:0:0:
256,192,319731,1,8,0:0:0:0:
256,192,319799,1,0,0:0:0:0:
256,192,319867,1,0,0:0:0:0:
256,192,319935,1,0,0:0:0:0:
256,192,320003,1,0,0:0:0:0:
256,192,320072,1,0,0:0:0:0:
256,192,320140,1,8,0:0:0:0:
256,192,320432,1,8,0:0:0:0:
256,192,320725,1,0,0:0:0:0:
256,192,320800,1,0,0:0:0:0:
256,192,320875,1,8,0:0:0:0:
256,192,320950,1,8,0:0:0:0:
256,192,321025,1,8,0:0:0:0:
256,192,321100,1,8,0:0:0:0:
256,192,321175,1,0,0:0:0:0:
256,192,321250,1,0,0:0:0:0:
256,192,321325,1,8,0:0:0:0:
256,192,321400,1,8,0:0:0:0:
256,192,321475,1,8,0:0:0:0:
256,192,321550,1,0,0:0:0:0:
256,192,321625,1,0,0:0:0:0:
256,192,321700,1,0,0:0:0:0:
256,192,321775,1,8,0:0:0:0:
256,192,321850,1,8,0:0:0:0:
256,192,321925,1,0,0:0:0:0:
256,192,322033,1,0,0:0:0:0:
256,192,322141,1,8,0:0:0:0:
256,192,322249,1,0,0:0:0:0:
256,192,322330,1,0,0:0:0:0:
256,192,322411,1,0,0:0:0:0:
256,192,322492,1,0,0:0:0:0:
256,192,322571,1,8,0:0:0:0:
256,192,322806,1,8,0:0:0:0:
256,192,322923,1,0,0:0:0:0:
256,192,323276,1,12,0:0:0:0:
256,192,323511,1,8,0:0:0:0:
256,192,323628,1,0,0:0:0:0:
256,192,323717,1,0,0:0:0:0:
256,192,323805,1,0,0:0:0:0:
256,192,323893,1,0,0:0:0:0:
256,192,323981,1,8,0:0:0:0:
256,192,324070,1,8,0:0:0:0:
256,192,324158,1,8,0:0:0:0:
256,192,324246,1,8,0:0:0:0:
256,192,324334,1,0,0:0:0:0:
256,192,324423,1,0,0:0:0:0:
256,192,324511,1,8,0:0:0:0:
256,192,324599,1,0,0:0:0:0:
256,192,324687,1,8,0:0:0:0:
256,192,324776,1,0,0:0:0:0:
256,192,324864,1,0,0:0:0:0:
256,192,324952,1,0,0:0:0:0:
256,192,325040,1,8,0:0:0:0:
256,192,325128,1,0,0:0:0:0:
256,192,325217,1,8,0:0:0:0:
256,192,325305,1,0,0:0:0:0:
256,192,325393,1,8,0:0:0:0:
256,192,325481,1,0,0:0:0:0:
256,192,325570,1,8,0:0:0:0:
256,192,325658,1,0,0:0:0:0:
256,192,325746,1,8,0:0:0:0:
256,192,325834,1,0,0:0:0:0:
256,192,325923,1,0,0:0:0:0:
256,192,326011,1,0,0:0:0:0:
256,192,326099,1,8,0:0:0:0:
256,192,326187,1,8,0:0:0:0:
256,192,326276,1,8,0:0:0:0:
256,192,326364,1,8,0:0:0:0:
256,192,326452,1,0,0:0:0:0:
256,192,326540,1,0,0:0:0:0:
256,192,326628,1,0,0:0:0:0:
256,192,326717,1,0,0:0:0:0:
256,192,326805,1,8,0:0:0:0:
256,192,326893,1,8,0:0:0:0:
256,192,326981,1,8,0:0:0:0:
256,192,327070,1,0,0:0:0:0:
256,192,327158,1,0,0:0:0:0:
256,192,327246,1,0,0:0:0:0:
256,192,327334,1,8,0:0:0:0:
256,192,327423,1,8,0:0:0:0:
256,192,327511,1,0,0:0:0:0:
256,192,327687,1,0,0:0:0:0:
256,192,327776,1,0,0:0:0:0:
256,192,327864,1,8,0:0:0:0:
256,192,328040,1,0,0:0:0:0:
256,192,328217,1,8,0:0:0:0:
256,192,328305,1,0,0:0:0:0:
256,192,328393,1,8,0:0:0:0:
256,192,328481,1,0,0:0:0:0:
256,192,328570,1,0,0:0:0:0:
256,192,328746,1,8,0:0:0:0:
256,192,328923,1,0,0:0:0:0:
256,192,329011,1,0,0:0:0:0:
256,192,329099,1,8,0:0:0:0:
256,192,329187,1,8,0:0:0:0:
256,192,329276,1,0,0:0:0:0:
256,192,329364,1,0,0:0:0:0:
256,192,329452,1,0,0:0:0:0:
256,192,329540,1,0,0:0:0:0:
256,192,329628,1,8,0:0:0:0:
256,192,329717,1,0,0:0:0:0:
256,192,329805,1,0,0:0:0:0:
256,192,329893,1,0,0:0:0:0:
256,192,329981,1,8,0:0:0:0:
256,192,330070,1,0,0:0:0:0:
256,192,330158,1,8,0:0:0:0:
256,192,330246,1,0,0:0:0:0:
256,192,330334,1,8,0:0:0:0:
256,192,330423,1,0,0:0:0:0:
256,192,330511,1,0,0:0:0:0:
256,192,330599,1,0,0:0:0:0:
256,192,330687,1,8,0:0:0:0:
256,192,330776,1,8,0:0:0:0:
256,192,330864,1,0,0:0:0:0:
256,192,330952,1,0,0:0:0:0:
256,192,331040,1,8,0:0:0:0:
256,192,331128,1,0,0:0:0:0:
256,192,331217,1,8,0:0:0:0:
256,192,331305,1,0,0:0:0:0:
256,192,331393,1,8,0:0:0:0:
256,192,331481,1,8,0:0:0:0:
256,192,331570,1,8,0:0:0:0:
256,192,331658,1,8,0:0:0:0:
256,192,331746,1,0,0:0:0:0:
256,192,331834,1,0,0:0:0:0:
256,192,331923,1,8,0:0:0:0:
256,192,332011,1,8,0:0:0:0:
256,192,332099,1,8,0:0:0:0:
256,192,332187,1,8,0:0:0:0:
256,192,332276,1,0,0:0:0:0:
256,192,332364,1,0,0:0:0:0:
256,192,332452,1,0,0:0:0:0:
256,192,332540,1,0,0:0:0:0:
256,192,332628,1,8,0:0:0:0:
256,192,332717,1,8,0:0:0:0:
256,192,332805,1,0,0:0:0:0:
256,192,332893,1,0,0:0:0:0:
256,192,332981,1,8,0:0:0:0:
256,192,333070,1,0,0:0:0:0:
256,192,333158,1,8,0:0:0:0:
256,192,333335,1,0,0:0:0:0:
256,192,333424,1,0,0:0:0:0:
256,192,333512,1,8,0:0:0:0:
256,192,333688,1,0,0:0:0:0:
256,192,333865,1,8,0:0:0:0:
256,192,333953,1,8,0:0:0:0:
256,192,334041,1,8,0:0:0:0:
256,192,334129,1,8,0:0:0:0:
256,192,334218,1,0,0:0:0:0:
256,192,334571,1,12,0:0:0:0:
256,192,334806,1,8,0:0:0:0:
256,192,334924,1,0,0:0:0:0:
256,192,335012,1,0,0:0:0:0:
256,192,335100,1,0,0:0:0:0:
256,192,335188,1,0,0:0:0:0:
256,192,335277,1,8,0:0:0:0:
256,192,335365,1,8,0:0:0:0:
256,192,335453,1,0,0:0:0:0:
256,192,335541,1,0,0:0:0:0:
256,192,335629,1,8,0:0:0:0:
256,192,335718,1,0,0:0:0:0:
256,192,335806,1,8,0:0:0:0:
256,192,335894,1,0,0:0:0:0:
256,192,335982,1,8,0:0:0:0:
256,192,336071,1,0,0:0:0:0:
256,192,336159,1,0,0:0:0:0:
256,192,336247,1,0,0:0:0:0:
256,192,336335,1,8,0:0:0:0:
256,192,336424,1,8,0:0:0:0:
256,192,336512,1,0,0:0:0:0:
256,192,336688,1,12,0:0:0:0:
256,192,336982,1,12,0:0:0:0:
256,192,337277,1,12,0:0:0:0:
256,192,337394,1,0,0:0:0:0:
256,192,337747,1,8,0:0:0:0:
256,192,337835,1,0,0:0:0:0:
256,192,337924,1,8,0:0:0:0:
256,192,338012,1,8,0:0:0:0:
256,192,338100,1,0,0:0:0:0:
256,192,338188,1,8,0:0:0:0:
256,192,338277,1,8,0:0:0:0:
256,192,338365,1,8,0:0:0:0:
256,192,338453,1,0,0:0:0:0:
256,192,338541,1,0,0:0:0:0:
256,192,338629,1,8,0:0:0:0:
256,192,338718,1,0,0:0:0:0:
256,192,338806,1,0,0:0:0:0:
256,192,338982,1,0,0:0:0:0:
256,192,339071,1,0,0:0:0:0:
256,192,339159,1,8,0:0:0:0:
256,192,339335,1,0,0:0:0:0:
256,192,339512,1,8,0:0:0:0:
256,192,339600,1,0,0:0:0:0:
256,192,339688,1,8,0:0:0:0:
256,192,339777,1,0,0:0:0:0:
256,192,339865,1,0,0:0:0:0:
256,192,340218,1,0,0:0:0:0:
256,192,340306,1,0,0:0:0:0:
256,192,340394,1,0,0:0:0:0:
256,192,340482,1,8,0:0:0:0:
256,192,340571,1,8,0:0:0:0:
256,192,340659,1,8,0:0:0:0:
256,192,340747,1,0,0:0:0:0:
256,192,340835,1,0,0:0:0:0:
256,192,340924,1,8,0:0:0:0:
256,192,341012,1,8,0:0:0:0:
256,192,341100,1,0,0:0:0:0:
256,192,341188,1,0,0:0:0:0:
256,192,341277,1,8,0:0:0:0:
256,192,341365,1,0,0:0:0:0:
256,192,341453,1,8,0:0:0:0:
256,192,341541,1,0,0:0:0:0:
256,192,341629,1,8,0:0:0:0:
256,192,341718,1,0,0:0:0:0:
256,192,341806,1,8,0:0:0:0:
256,192,341894,1,8,0:0:0:0:
256,192,341982,1,8,0:0:0:0:
256,192,342071,1,8,0:0:0:0:
256,192,342159,1,0,0:0:0:0:
256,192,342335,1,12,0:0:0:0:
256,192,342629,1,12,0:0:0:0:
256,192,342924,1,12,0:0:0:0:
256,192,343041,1,0,0:0:0:0:
256,192,343100,1,0,0:0:0:0:
256,192,343159,1,0,0:0:0:0:
256,192,343218,1,8,0:0:0:0:
256,192,343277,1,8,0:0:0:0:
256,192,343335,1,8,0:0:0:0:
256,192,343394,1,0,0:0:0:0:
256,192,343482,1,0,0:0:0:0:
256,192,343571,1,0,0:0:0:0:
256,192,343659,1,0,0:0:0:0:
256,192,343747,1,8,0:0:0:0:
256,192,343806,1,8,0:0:0:0:
256,192,343865,1,8,0:0:0:0:
256,192,343924,1,0,0:0:0:0:
256,192,343982,1,0,0:0:0:0:
256,192,344041,1,0,0:0:0:0:
256,192,344100,1,8,0:0:0:0:
256,192,344188,1,8,0:0:0:0:
256,192,344277,1,0,0:0:0:0:
256,192,344365,1,0,0:0:0:0:
256,192,344453,1,8,0:0:0:0:
256,192,344629,1,8,0:0:0:0:
256,192,344806,1,0,0:0:0:0:
256,192,344982,1,0,0:0:0:0:
256,192,345159,1,0,0:0:0:0:
256,192,345218,1,0,0:0:0:0:
256,192,345277,1,0,0:0:0:0:
256,192,345335,1,8,0:0:0:0:
256,192,345424,1,8,0:0:0:0:
256,192,345512,1,8,0:0:0:0:
256,192,345688,1,8,0:0:0:0:
256,192,345865,1,12,0:0:0:0:
256,192,347520,1,12,0:0:0:0:
256,192,349850,1,4,0:0:0:0:
256,192,351850,1,4,0:0:0:0:
256,192,352577,1,12,0:0:0:0:
256,192,352937,1,12,0:0:0:0:
256,192,353191,1,12,0:0:0:0:
256,192,353446,1,12,0:0:0:0:
256,192,353700,1,12,0:0:0:0:
256,192,353954,1,12,0:0:0:0:
256,192,354209,1,12,0:0:0:0:
256,192,354463,1,12,0:0:0:0:
256,192,354717,1,12,0:0:0:0:
256,192,354972,1,12,0:0:0:0:
256,192,355226,1,12,0:0:0:0:
256,192,355481,1,12,0:0:0:0:
256,192,355812,1,4,0:0:0:0:
256,192,356084,12,0,359493,0:0:0:0:
256,192,359766,12,0,364731,0:0:0:0:
256,192,364936,5,4,0:0:0:0:
