osu file format v14

[General]
AudioFilename: audio.mp3
AudioLeadIn: 0
PreviewTime: 150293
Countdown: 0
SampleSet: Normal
StackLeniency: 0.1
Mode: 1
LetterboxInBreaks: 0
WidescreenStoryboard: 0

[Editor]
Bookmarks: 4394,36864,72139,91680,126589,175764,175798,186932,186933,199352,216807,264230,305413,323276
DistanceSpacing: 1
BeatDivisor: 12
GridSize: 32
TimelineZoom: 4.349997

[Metadata]
Title:Ten Sho Sho Ten Sho (Extended mix)
TitleUnicode:てんしょう しょうてんしょう (Extended mix)
Artist:Kikuo
ArtistUnicode:きくお
Creator:Alchyr
Version:Samsara
Source:
Tags:Reincarnation Ascension 双転生 昇天抄 tensho shotensho tenshou shoutenshou zetera featured artist fa japanese electronic dubstep vocaloid hatsune 初音ミク kikuo miku 3 o!tfac #3 osu!taiko featured artist cup mappers' guild mg
BeatmapID:3936926
BeatmapSetID:1908793

[Difficulty]
HPDrainRate:5
CircleSize:2
OverallDifficulty:7.7
ApproachRate:10
SliderMultiplier:1.4
SliderTickRate:1

[Events]
//Background and Video events
0,0,"bg.jpg",0,0
//Break Periods
2,244097,261839
//Storyboard Layer 0 (Background)
//Storyboard Layer 1 (Fail)
//Storyboard Layer 2 (Pass)
//Storyboard Layer 3 (Foreground)
//Storyboard Layer 4 (Overlay)
//Storyboard Sound Samples

[TimingPoints]
-1253,352.941176470588,4,1,0,100,1,8
1512,-151.515151515152,4,1,0,35,0,0
2951,-117.647058823529,4,1,0,35,0,0
2976,-117.647058823529,4,1,0,35,0,0
3038,-117.647058823529,4,1,0,36,0,0
3094,-117.647058823529,4,1,0,37,0,0
3151,-117.647058823529,4,1,0,38,0,0
3207,-117.647058823529,4,1,0,39,0,0
3264,-117.647058823529,4,1,0,40,0,0
3320,-117.647058823529,4,1,0,41,0,0
3377,-117.647058823529,4,1,0,42,0,0
3433,-117.647058823529,4,1,0,43,0,0
3490,-117.647058823529,4,1,0,44,0,0
3546,-117.647058823529,4,1,0,45,0,0
3603,-117.647058823529,4,1,0,46,0,0
3659,-117.647058823529,4,1,0,47,0,0
3716,-117.647058823529,4,1,0,48,0,0
3772,-117.647058823529,4,1,0,49,0,0
3829,-117.647058823529,4,1,0,50,0,0
3885,-117.647058823529,4,1,0,51,0,0
3942,-117.647058823529,4,1,0,52,0,0
3998,-117.647058823529,4,1,0,53,0,0
4055,-117.647058823529,4,1,0,54,0,0
4111,-117.647058823529,4,1,0,55,0,0
4168,-117.647058823529,4,1,0,56,0,0
4224,-117.647058823529,4,1,0,57,0,0
4281,-117.647058823529,4,1,0,58,0,0
4337,-117.647058823529,4,1,0,59,0,0
4364,-50,4,1,0,60,0,0
4741,-93.4579439252336,4,1,0,45,0,0
5430,-98.3280348016933,4,1,0,45,0,0
5783,-103.451905979204,4,1,0,45,0,0
6139,-108.842781942244,4,1,0,45,0,0
6315,-111.634634283289,4,1,0,45,0,0
6492,-114.514576302812,4,1,0,45,0,0
6845,-120.481927710843,4,1,0,45,0,0
7124,-87.719298245614,4,1,0,60,0,0
7381,-91.7466091223715,4,1,0,60,0,0
7558,-96.1368545333331,4,1,0,60,0,0
7734,-100.828791695454,4,1,0,60,0,0
7910,-105.821006205569,4,1,0,60,0,0
8087,-111.100959928331,4,1,0,60,0,0
8263,-116.543669208028,4,1,0,60,0,0
8440,-122.118945255852,4,1,0,60,0,0
8616,-127.643775538013,4,1,0,60,0,0
8793,-133.030851178348,4,1,0,60,0,0
8969,-138.044747799799,4,1,0,60,0,0
9146,-142.548905440864,4,1,0,60,0,0
9322,-146.295994453712,4,1,0,60,0,0
9499,-149.143965797355,4,1,0,60,0,0
9675,-150.910277111943,4,1,0,60,0,0
9852,-151.515151515152,4,1,0,60,0,0
10028,-100,4,1,0,60,0,0
15124,-91.3106704729834,4,1,0,75,0,0
15212,-87.2533876392213,4,1,0,75,0,0
15301,-83.3333333333333,4,1,0,75,0,0
15477,-87.719298245614,4,1,0,75,0,0
15649,-66.6666666666667,4,1,0,85,0,0
15810,-76.9230769230769,4,1,0,70,0,0
16028,-79.8512264734221,4,1,0,70,0,0
16205,-86.0826944297541,4,1,0,70,0,0
16558,-100,4,1,0,70,0,0
16734,-96.1497747941003,4,1,0,70,0,0
16910,-86.995406083178,4,1,0,70,0,0
16999,-81.7997445317246,4,1,0,70,0,0
17087,-76.9230769230769,4,1,0,70,0,0
17352,-83.2321912386897,4,1,0,70,0,0
17440,-85.4397219040354,4,1,0,70,0,0
17616,-90.031984197556,4,1,0,70,0,0
17969,-100,4,1,0,70,0,0
18090,-83.3333333333333,4,1,0,40,0,0
18245,-85.9507050979541,4,1,0,40,0,0
18323,-88.6814437884829,4,1,0,40,0,0
18471,-94.3396226415094,4,1,0,70,0,0
18763,-87.3326769747135,4,1,0,70,0,0
18852,-88.7237506382821,4,1,0,70,0,0
19028,-91.5402101274576,4,1,0,70,0,0
19205,-94.4628471278887,4,1,0,70,0,0
19381,-97.4614893206939,4,1,0,70,0,0
19558,-100.573177117884,4,1,0,70,0,0
19646,-102.157010649456,4,1,0,70,0,0
19734,-103.765786503898,4,1,0,70,0,0
19910,-107.059742541015,4,1,0,70,0,0
20087,-110.477877198685,4,1,0,70,0,0
20263,-113.984902807293,4,1,0,70,0,0
20440,-117.624139531474,4,1,0,70,0,0
20616,-121.358017118437,4,1,0,70,0,0
20705,-123.291061510575,4,1,0,70,0,0
20793,-125.232657897996,4,1,0,70,0,0
20969,-129.208061385271,4,1,0,70,0,0
21146,-133.333333333333,4,1,0,70,0,0
21322,-76.9230769230769,4,1,0,70,0,0
21587,-83.2247611634841,4,1,0,70,0,0
21675,-85.429562128769,4,1,0,70,0,0
21852,-90.0426913193467,4,1,0,70,0,0
22205,-100,4,1,0,70,0,0
22301,-98.0392156862745,4,1,0,70,0,0
22381,-96.1497747941003,4,1,0,70,0,0
22469,-91.9495205995923,4,1,0,70,0,0
22558,-86.937075929645,4,1,0,70,0,0
22734,-76.9230769230769,4,1,0,70,0,0
22999,-84.8839836462422,4,1,0,70,0,0
23087,-87.7058019307029,4,1,0,70,0,0
23263,-93.633976038815,4,1,0,70,0,0
23352,-96.7826321379625,4,1,0,70,0,0
23440,-100,4,1,0,70,0,0
23616,-97.7795634411076,4,1,0,70,0,0
23793,-91.9229200216392,4,1,0,70,0,0
23969,-84.3962544248302,4,1,0,70,0,0
24146,-76.9230769230769,4,1,0,70,0,0
24410,-82.1224295644449,4,1,0,70,0,0
24499,-83.9532986970082,4,1,0,70,0,0
24675,-87.6949381709992,4,1,0,70,0,0
24852,-91.6260327074179,4,1,0,70,0,0
25028,-95.7096314003122,4,1,0,70,0,0
25205,-100,4,1,0,70,0,0
25381,-104.561605875309,4,1,0,70,0,0
25558,-108.865112837922,4,1,0,70,0,0
25734,-113.319916629123,4,1,0,70,0,0
25822,-115.615218948465,4,1,0,70,0,0
25910,-117.957012766336,4,1,0,70,0,0
25999,-120.373666330405,4,1,0,70,0,0
26087,-122.811842811069,4,1,0,70,0,0
26263,-127.837352349406,4,1,0,70,0,0
26440,-133.098833667642,4,1,0,70,0,0
26528,-135.794759244599,4,1,0,70,0,0
26616,-138.545290970357,4,1,0,70,0,0
26793,-144.247485569771,4,1,0,70,0,0
26959,-71.4285714285714,4,1,0,50,0,0
26982,-150.15015015015,4,1,0,50,0,0
27202,-150.15015015015,4,1,0,40,0,0
28365,-131.578947368421,4,1,0,50,0,0
28989,-142.857142857143,4,1,0,45,0,0
29740,-117.647058823529,4,1,0,50,0,0
30205,-133.333333333333,4,1,0,45,0,0
30692,-128.453346208922,4,1,0,45,0,0
30855,-125.03253233989,4,1,0,45,0,0
31031,-116.990653987422,4,1,0,45,0,0
31150,-108.695652173913,4,1,0,50,0,0
31347,-116.959064327485,4,1,0,45,0,0
31524,-119.357014768935,4,1,0,45,0,0
31700,-116.181248543348,4,1,0,45,0,0
31788,-113.960047020599,4,1,0,45,0,0
31906,-111.41291410931,4,1,0,55,0,0
32083,-105.618229637472,4,1,0,50,0,0
32171,-102.554225416744,4,1,0,50,0,0
32259,-99.4584196417652,4,1,0,50,0,0
32436,-94.3396226415094,4,1,0,50,0,0
32524,-90.9090909090909,4,1,0,50,0,0
32605,-87.719298245614,4,1,0,70,0,0
32787,-98.5124618264211,4,1,0,70,0,0
32875,-95.070372087673,4,1,0,70,0,0
32963,-91.7852225791648,4,1,0,70,0,0
33140,-102.85949393129,4,1,0,70,0,0
33228,-99.4168436443091,4,1,0,70,0,0
33316,-96.0522524253194,4,1,0,70,0,0
33493,-107.411385606874,4,1,0,70,0,0
33581,-103.919053477454,4,1,0,70,0,0
33669,-100.502512562814,4,1,0,70,0,0
33846,-112.157918349035,4,1,0,70,0,0
33934,-108.624187997744,4,1,0,70,0,0
34022,-105.163529288043,4,1,0,70,0,0
34199,-117.109731818714,4,1,0,70,0,0
34287,-113.543568302843,4,1,0,70,0,0
34363,-110.04732034775,4,1,0,70,0,0
34552,-122.27928588897,4,1,0,70,0,0
34640,-118.676663639752,4,1,0,70,0,0
34717,-115.180182728996,4,1,0,70,0,0
34904,-127.697612054655,4,1,0,70,0,0
34993,-124.037310775493,4,1,0,70,0,0
35050,-120.481927710843,4,1,0,70,0,0
35257,-133.333333333333,4,1,0,70,0,0
35346,-129.87012987013,4,1,0,70,0,0
35421,-25,4,1,0,80,0,0
35453,-25,4,1,0,80,0,0
35479,-25,4,1,0,78,0,0
35505,-25,4,1,0,77,0,0
35532,-25,4,1,0,75,0,0
35558,-25,4,1,0,74,0,0
35585,-25,4,1,0,72,0,0
35611,-25,4,1,0,71,0,0
35638,-25,4,1,0,69,0,0
35664,-25,4,1,0,68,0,0
35691,-25,4,1,0,66,0,0
35717,-25,4,1,0,65,0,0
35744,-25,4,1,0,63,0,0
35770,-25,4,1,0,62,0,0
35797,-25,4,1,0,60,0,0
35823,-25,4,1,0,59,0,0
35850,-25,4,1,0,58,0,0
35876,-25,4,1,0,57,0,0
35903,-25,4,1,0,55,0,0
35929,-25,4,1,0,54,0,0
35956,-25,4,1,0,53,0,0
35982,-25,4,1,0,52,0,0
36008,-25,4,1,0,51,0,0
36035,-25,4,1,0,50,0,0
36061,-25,4,1,0,49,0,0
36088,-25,4,1,0,48,0,0
36114,-25,4,1,0,47,0,0
36141,-25,4,1,0,46,0,0
36167,-25,4,1,0,45,0,0
36194,-25,4,1,0,44,0,0
36220,-25,4,1,0,44,0,0
36247,-25,4,1,0,43,0,0
36273,-25,4,1,0,42,0,0
36300,-25,4,1,0,42,0,0
36326,-25,4,1,0,42,0,0
36353,-25,4,1,0,41,0,0
36379,-25,4,1,0,41,0,0
36406,-25,4,1,0,40,0,0
36432,-25,4,1,0,40,0,0
36459,-25,4,1,0,40,0,0
36485,-25,4,1,0,40,0,0
36512,-25,4,1,0,40,0,0
36816,-25,4,1,0,75,0,0
36851,-50,4,1,0,75,0,0
36909,-51.5873697657853,4,1,0,75,0,0
36968,-53.2698784518985,4,1,0,75,0,0
37027,-55.0467562030596,4,1,0,75,0,0
37086,-56.8833650524384,4,1,0,75,0,0
37145,-58.8391138491006,4,1,0,75,0,0
37204,-60.8769904452016,4,1,0,75,0,0
37304,-64.0495914897738,4,1,0,75,0,0
37393,-67.3813796000378,4,1,0,75,0,0
37481,-70.7379632336602,4,1,0,75,0,0
37569,-74.0778557694508,4,1,0,75,0,0
37657,-77.3033381176355,4,1,0,75,0,0
37745,-80.2998357048857,4,1,0,75,0,0
37863,-83.7387632550301,4,1,0,75,0,0
38010,-86.680956182722,4,1,0,75,0,0
38157,-87.719298245614,4,1,0,75,0,0
38276,-50,4,1,0,75,0,0
38511,-87.5177304964539,4,1,0,75,0,0
38617,-82.3765020026702,4,1,0,75,0,0
38676,-79.2549775208735,4,1,0,75,0,0
38734,-76.4086687306501,4,1,0,75,0,0
38793,-73.715651135006,4,1,0,75,0,0
38970,-66.6666666666667,4,1,0,75,0,0
39323,-87.719298245614,4,1,0,75,0,0
39499,-83.3333333333333,4,1,0,75,0,0
39552,-86.5675789595045,4,1,0,75,0,0
39676,-89.9662678265809,4,1,0,75,0,0
39720,-91.6954874227688,4,1,0,75,0,0
39764,-93.4579439252336,4,1,0,75,0,0
40029,-74.0740740740741,4,1,0,75,0,0
40205,-87.719298245614,4,1,0,75,0,0
40293,-84.2786432707283,4,1,0,75,0,0
40382,-80.9361328379787,4,1,0,75,0,0
40426,-81.9672131147541,4,1,0,75,0,0
40558,-74.7114600626182,4,1,0,75,0,0
40617,-76.1614623000762,4,1,0,75,0,0
40734,-68.9655172413793,4,1,0,75,0,0
40780,-71.522092897401,4,1,0,75,0,0
40823,-74.1734417001546,4,1,0,75,0,0
40890,-76.9230769230769,4,1,0,75,0,0
41047,-66.6666666666667,4,1,0,75,0,0
41440,-100,4,1,0,75,0,0
41617,-90.8129524937225,4,1,0,75,0,0
41705,-86.5645189568913,4,1,0,75,0,0
41793,-82.5148366666746,4,1,0,75,0,0
41835,-80.561604370259,4,1,0,75,0,0
41872,-78.6117954767411,4,1,0,75,0,0
41911,-76.7509531845282,4,1,0,75,0,0
41970,-74.9341594223799,4,1,0,75,0,0
42069,-71.4285714285714,4,1,0,75,0,0
42146,-66.6666666666667,4,1,0,75,0,0
42216,-68.2804018083728,4,1,0,75,0,0
42275,-69.9331990666926,4,1,0,75,0,0
42323,-71.6260039802803,4,1,0,75,0,0
42382,-74.2273036952557,4,1,0,75,0,0
42495,-76.9230769230769,4,1,0,75,0,0
42676,-74.2606456565094,4,1,0,75,0,0
42764,-78.3522308510483,4,1,0,75,0,0
42852,-82.6692526716247,4,1,0,75,0,0
42911,-85.6960237989698,4,1,0,75,0,0
43029,-92.0860811900395,4,1,0,75,0,0
43087,-95.3994700929402,4,1,0,75,0,0
43205,-102.513080059274,4,1,0,75,0,0
43264,-106.266393665859,4,1,0,75,0,0
43382,-114.190312701587,4,1,0,75,0,0
43440,-118.299043467786,4,1,0,75,0,0
43558,-89.2857142857143,4,1,0,75,0,0
43617,-92.7430129689059,4,1,0,75,0,0
43676,-96.3341842909673,4,1,0,75,0,0
43734,-100,4,1,0,75,0,0
43912,-66.6666483787425,4,1,0,75,0,0
44264,-100,4,1,0,75,0,0
44323,-95.7096314003122,4,1,0,75,0,0
44382,-91.6033354278363,4,1,0,75,0,0
44441,-87.7384012853787,4,1,0,75,0,0
44529,-82.1224295644449,4,1,0,75,0,0
44617,-76.9230769230769,4,1,0,75,0,0
44786,-87.719298245614,4,1,0,75,0,0
44875,-93.6932540185389,4,1,0,75,0,0
44963,-100,4,1,0,75,0,0
45133,-90.9090909090909,4,1,0,75,0,0
45200,-87.5899996883769,4,1,0,75,0,0
45310,-81.3109330591077,4,1,0,75,0,0
45354,-79.0865801409626,4,1,0,75,0,0
45398,-76.9230769230769,4,1,0,75,0,0
45676,-83.3333333333333,4,1,0,75,0,0
45852,-93.4579439252336,4,1,0,75,0,0
45940,-91.6954874227688,4,1,0,75,0,0
46029,-81.9672131147541,4,1,0,75,0,0
46065,-83.3333333333333,4,1,0,75,0,0
46205,-75.2042401205781,4,1,0,75,0,0
46261,-76.9230769230769,4,1,0,75,0,0
46382,-68.9655172413793,4,1,0,75,0,0
46440,-74.1466510089803,4,1,0,75,0,0
46499,-77.0177387406202,4,1,0,75,0,0
46558,-80,4,1,0,75,0,0
46735,-66.6666666666667,4,1,0,75,0,0
46762,-25,4,1,0,75,0,0
46847,-72.9803245551545,4,1,0,75,0,0
46903,-76.4441536014548,4,1,0,75,0,0
46962,-80.0411094324792,4,1,0,75,0,0
47021,-83.6901091804571,4,1,0,75,0,0
47079,-87.2295882763433,4,1,0,75,0,0
47187,-90.2867323429579,4,1,0,75,0,0
47275,-93.4148577667282,4,1,0,75,0,0
47363,-96.6513620011266,4,1,0,75,0,0
47441,-100,4,1,0,75,0,0
47486,-102.040816326531,4,1,0,75,0,0
47617,-95.2380952380952,4,1,0,75,0,0
47667,-93.4579439252336,4,1,0,75,0,0
47793,-100,4,1,0,75,0,0
47852,-102.448518814028,4,1,0,75,0,0
47911,-104.956990071883,4,1,0,75,0,0
47970,-107.52688172043,4,1,0,75,0,0
48058,-102.040816326531,4,1,0,75,0,0
48146,-95.2380952380952,4,1,0,75,0,0
48180,-96.3391136801541,4,1,0,75,0,0
48323,-87.719298245614,4,1,0,75,0,0
48411,-85.1063829787234,4,1,0,75,0,0
48499,-81.3803863649425,4,1,0,75,0,0
48529,-83.3333333333333,4,1,0,75,0,0
48676,-64.2771378926145,4,1,0,75,0,0
48719,-66.6666666666667,4,1,0,75,0,0
48852,-50,4,1,0,75,0,0
48903,-24.9751351803353,4,1,0,75,0,0
49482,-66.6666666666667,4,1,0,75,0,0
49805,-87.5177304964539,4,1,0,75,0,0
49911,-82.3765020026702,4,1,0,75,0,0
49970,-79.2549775208735,4,1,0,75,0,0
50028,-76.4086687306501,4,1,0,75,0,0
50087,-73.715651135006,4,1,0,75,0,0
50264,-66.6666666666667,4,1,0,75,0,0
50617,-83.3333333333333,4,1,0,75,0,0
50776,-89.6229908061669,4,1,0,75,0,0
50852,-92.9820937504344,4,1,0,75,0,0
50953,-96.4272232050858,4,1,0,75,0,0
50997,-98.1973641219996,4,1,0,75,0,0
51041,-100,4,1,0,75,0,0
51323,-74.0740740740741,4,1,0,75,0,0
51499,-87.719298245614,4,1,0,75,0,0
51587,-85.4700854700855,4,1,0,75,0,0
51676,-81.9672131147541,4,1,0,75,0,0
51720,-82.8181756613986,4,1,0,75,0,0
51764,-83.6928747809367,4,1,0,75,0,0
51911,-85.4700854700855,4,1,0,75,0,0
52028,-76.9230769230769,4,1,0,75,0,0
52074,-78.433306755949,4,1,0,75,0,0
52117,-80,4,1,0,75,0,0
52217,-73.5294117647059,4,1,0,75,0,0
52341,-62.5,4,1,0,75,0,0
52409,-60.2409638554217,4,1,0,75,0,0
52734,-76.9230769230769,4,1,0,75,0,0
52804,-80.3654685978829,4,1,0,75,0,0
52863,-83.9619110584449,4,1,0,75,0,0
52911,-87.719298245614,4,1,0,75,0,0
52999,-90.9090909090909,4,1,0,75,0,0
53087,-87.719298245614,4,1,0,75,0,0
53217,-81.886844716405,4,1,0,75,0,0
53315,-80.0301811459011,4,1,0,75,0,0
53374,-78.2156146866728,4,1,0,75,0,0
53440,-76.4719112901873,4,1,0,75,0,0
53551,-73.043448780344,4,1,0,75,0,0
53617,-71.3872961848434,4,1,0,75,0,0
53676,-68.986615216211,4,1,0,75,0,0
53734,-69.9427033579707,4,1,0,75,0,0
53789,-66.6666666666667,4,1,0,75,0,0
53844,-68.0272108843537,4,1,0,75,0,0
53970,-71.4285714285714,4,1,0,75,0,0
54058,-70.4225352112676,4,1,0,75,0,0
54146,-69.4444444444444,4,1,0,75,0,0
54205,-70.9219858156028,4,1,0,75,0,0
54323,-73.5294117647059,4,1,0,75,0,0
54381,-75.187969924812,4,1,0,75,0,0
54499,-78.740157480315,4,1,0,75,0,0
54558,-77.4075890585408,4,1,0,75,0,0
54676,-76.0828140805243,4,1,0,75,0,0
54734,-75.2171135964144,4,1,0,75,0,0
54782,-74.3756878888146,4,1,0,75,0,0
54852,-73.5294117647059,4,1,0,75,0,0
54911,-72.8250097158811,4,1,0,75,0,0
54999,-72.1194663869822,4,1,0,75,0,0
55089,-71.4285714285714,4,1,0,75,0,0
55206,-57.1428571428571,4,1,0,75,0,0
55558,-100,4,1,0,75,0,0
55617,-95.9891230455473,4,1,0,75,0,0
55676,-92.2875816993464,4,1,0,75,0,0
55735,-88.8609188168659,4,1,0,75,0,0
55823,-84.1979725700656,4,1,0,75,0,0
55911,-80,4,1,0,75,0,0
56080,-87.719298245614,4,1,0,75,0,0
56169,-93.6932540185389,4,1,0,75,0,0
56257,-100,4,1,0,75,0,0
56427,-87.719298245614,4,1,0,75,0,0
56496,-90.9090909090909,4,1,0,75,0,0
56604,-76.9230769230769,4,1,0,75,0,0
56661,-80.1222389023067,4,1,0,75,0,0
56717,-83.3511706221187,4,1,0,75,0,0
56773,-86.289195220748,4,1,0,75,0,0
56834,-88.7355981044863,4,1,0,75,0,0
56893,-90.3462111766011,4,1,0,75,0,0
56941,-90.9090909090909,4,1,0,75,0,0
57069,-88.319918710137,4,1,0,75,0,0
57146,-85.8044884506173,4,1,0,75,0,0
57234,-83.3333333333333,4,1,0,75,0,0
57325,-76.9230769230769,4,1,0,75,0,0
57369,-80.7412877564482,4,1,0,75,0,0
57413,-84.2288499839955,4,1,0,75,0,0
57560,-87.719298245614,4,1,0,75,0,0
57677,-68.9655172413793,4,1,0,75,0,0
57723,-71.7724156579635,4,1,0,75,0,0
57766,-74.3887627931558,4,1,0,75,0,0
57866,-76.9230769230769,4,1,0,75,0,0
58017,-60.0240096038415,4,1,0,75,0,0
58069,-25,4,1,0,75,0,0
58394,-100,4,1,0,75,0,0
58780,-98.9109778583576,4,1,0,75,0,0
58839,-97.833815408965,4,1,0,75,0,0
58898,-96.7683834971477,4,1,0,75,0,0
58986,-95.2007851822267,4,1,0,75,0,0
59069,-93.6585811581694,4,1,0,75,0,0
59128,-92.6386184718088,4,1,0,75,0,0
59187,-91.6297634049391,4,1,0,75,0,0
59275,-90.6318949931247,4,1,0,75,0,0
59349,-89.1637046531103,4,1,0,75,0,0
59426,-87.719298245614,4,1,0,75,0,0
59628,-111.610770981199,4,1,0,75,0,0
59716,-103.470792104073,4,1,0,75,0,0
59804,-96.4374327044614,4,1,0,75,0,0
59863,-98.0392156862745,4,1,0,75,0,0
59981,-84.8382513436155,4,1,0,75,0,0
60040,-86.9565217391304,4,1,0,75,0,0
60157,-58.8235294117647,4,1,0,75,0,0
60216,-60.7637224201705,4,1,0,75,0,0
60275,-62.767909360044,4,1,0,75,0,0
60334,-64.8382009612182,4,1,0,75,0,0
60393,-66.9767775723219,4,1,0,75,0,0
60451,-69.1478485010353,4,1,0,75,0,0
60510,-71.4285714285714,4,1,0,75,0,0
60581,-72.7690268134785,4,1,0,75,0,0
60651,-74.1152269156432,4,1,0,75,0,0
60722,-75.5061010859608,4,1,0,75,0,0
60793,-76.9230769230769,4,1,0,75,0,0
60864,-50,4,1,0,75,0,0
61061,-66.6666666666667,4,1,0,70,0,0
61216,-66.6666666666667,4,1,0,70,0,0
61393,-60.2409638554217,4,1,0,70,0,0
61437,-59.8802395209581,4,1,0,70,0,0
61569,-74.1704889838984,4,1,0,70,0,0
61628,-75.5046003610179,4,1,0,70,0,0
61687,-76.8627085216417,4,1,0,70,0,0
61745,-78.221606354409,4,1,0,70,0,0
61834,-80.3536759660626,4,1,0,70,0,0
61922,-82.5189215416589,4,1,0,70,0,0
62098,-87.026021886188,4,1,0,70,0,0
62157,-88.5913669107976,4,1,0,70,0,0
62275,-91.8070314175318,4,1,0,70,0,0
62319,-93.0357454429519,4,1,0,70,0,0
62363,-94.2809041582063,4,1,0,70,0,0
62451,-96.8214389643301,4,1,0,70,0,0
62540,-99.4604802394111,4,1,0,70,0,0
62628,-102.140586185977,4,1,0,70,0,0
62804,-107.719402081635,4,1,0,70,0,0
62893,-110.655486808957,4,1,0,70,0,0
62981,-113.637258337739,4,1,0,70,0,0
63040,-115.681262109184,4,1,0,70,0,0
63157,-119.844010881721,4,1,0,70,0,0
63216,-121.999656079525,4,1,0,70,0,0
63334,-126.427965265495,4,1,0,70,0,0
63393,-128.702036653691,4,1,0,70,0,0
63451,-130.977430300952,4,1,0,70,0,0
63510,-133.333333333333,4,1,0,70,0,0
63678,-71.4285714285714,4,1,0,70,0,0
63736,-68.9900760872316,4,1,0,70,0,0
63790,-67.2742243259609,4,1,0,70,0,0
63845,-66.6666666666667,4,1,0,70,0,0
63891,-67.2674755247916,4,1,0,70,0,0
63951,-68.9655172413793,4,1,0,70,0,0
64040,-71.4285714285714,4,1,0,70,0,0
64192,-76.9230769230769,4,1,0,70,0,0
64278,-78.4827155210175,4,1,0,70,0,0
64369,-80.0109671693632,4,1,0,70,0,0
64427,-80.9227447979671,4,1,0,70,0,0
64486,-81.741128384895,4,1,0,70,0,0
64545,-82.4165853197329,4,1,0,70,0,0
64627,-83.0982607920781,4,1,0,70,0,0
64732,-83.3333333333333,4,1,0,70,0,0
64791,-81.7088658204805,4,1,0,70,0,0
64850,-80.1160650440314,4,1,0,70,0,0
64909,-78.5543137049718,4,1,0,70,0,0
64981,-76.2813086687698,4,1,0,70,0,0
65085,-74.0740740740741,4,1,0,70,0,0
65275,-76.9230769230769,4,1,0,70,0,0
65363,-79.8453110635465,4,1,0,70,0,0
65451,-82.8785580848486,4,1,0,70,0,0
65510,-84.9764732091516,4,1,0,70,0,0
65628,-89.3329620556162,4,1,0,70,0,0
65687,-91.5942583007005,4,1,0,70,0,0
65804,-96.2492321000335,4,1,0,70,0,0
65855,-98.685600738572,4,1,0,70,0,0
65970,-103.744915425192,4,1,0,70,0,0
66022,-106.371023216754,4,1,0,70,0,0
66069,-109.017405994774,4,1,0,70,0,0
66157,-111.776976987968,4,1,0,70,0,0
66242,-116.072446455444,4,1,0,70,0,0
66334,-120.481927710843,4,1,0,70,0,0
66496,-66.6666666666667,4,1,0,70,0,0
66863,-73.1490121926443,4,1,0,70,0,0
67040,-64.5161290322581,4,1,0,70,0,0
67084,-64.1025641025641,4,1,0,70,0,0
67216,-81.0504133571081,4,1,0,70,0,0
67275,-82.6141549261527,4,1,0,70,0,0
67334,-84.2080664547751,4,1,0,70,0,0
67393,-85.8327300253854,4,1,0,70,0,0
67481,-88.3143830940346,4,1,0,70,0,0
67569,-90.8677873693776,4,1,0,70,0,0
67687,-89.2857142857143,4,1,0,70,0,0
67804,-87.719298245614,4,1,0,70,0,0
67922,-103.39123242349,4,1,0,70,0,0
67981,-105.985838068141,4,1,0,70,0,0
68040,-108.645555408371,4,1,0,70,0,0
68098,-111.32524196644,4,1,0,70,0,0
68187,-115.566259910803,4,1,0,70,0,0
68275,-119.918455450294,4,1,0,70,0,0
68380,-113.636363636364,4,1,0,70,0,0
68497,-107.52688172043,4,1,0,70,0,0
68612,-125,4,1,0,70,0,0
68687,-125.903003301645,4,1,0,70,0,0
68804,-127.713044920886,4,1,0,70,0,0
68863,-128.6356473307,4,1,0,70,0,0
68981,-130.500895010303,4,1,0,70,0,0
69040,-131.443636922799,4,1,0,70,0,0
69098,-132.377038113505,4,1,0,70,0,0
69157,-133.333333333333,4,1,0,70,0,0
69335,-66.6666666666667,4,1,0,70,0,0
69365,-25,4,1,0,70,0,0
69423,-100.421771440048,4,1,0,70,0,0
70040,-100,4,1,0,70,0,0
70098,-98.8136452220679,4,1,0,70,0,0
70157,-97.6226469109928,4,1,0,70,0,0
70216,-96.4473521933435,4,1,0,70,0,0
70304,-94.7230326208909,4,1,0,70,0,0
70393,-93.0133188507677,4,1,0,70,0,0
70451,-91.917263032527,4,1,0,70,0,0
70510,-90.8167392839116,4,1,0,70,0,0
70569,-89.7305514813209,4,1,0,70,0,0
70657,-88.1366498542821,4,1,0,70,0,0
70746,348.33091436865,4,1,0,70,1,0
70746,-87.7192958192465,4,1,0,70,0,0
70908,-111.610770981199,4,1,0,75,0,0
70996,-103.470792104073,4,1,0,75,0,0
71084,-96.4374327044614,4,1,0,75,0,0
71143,-98.0392156862745,4,1,0,75,0,0
71261,-84.8382513436155,4,1,0,75,0,0
71320,-86.9565217391304,4,1,0,75,0,0
71423,-76.9230769230769,4,1,0,70,0,0
71481,-25,4,1,0,70,0,0
72052,-80.00813046585,4,1,0,80,0,0
72139,352.941176470588,4,1,0,80,1,0
72139,-71.4285714285714,4,1,0,80,0,0
72373,-87.719298245614,4,1,0,65,0,0
72667,-88.9228144348801,4,1,0,65,0,0
73020,-91.3688203238875,4,1,0,65,0,0
73196,-92.6114538439613,4,1,0,65,0,0
73550,-95.1509013044607,4,1,0,65,0,0
73726,-96.4482164652305,4,1,0,65,0,0
73902,-97.7543081081307,4,1,0,65,0,0
74079,-99.0841812542638,4,1,0,65,0,0
74167,-99.7515182162349,4,1,0,65,0,0
74432,-101.786056495987,4,1,0,65,0,0
74520,-102.470028119043,4,1,0,65,0,0
74608,-103.15819760599,4,1,0,65,0,0
74785,-104.555152452776,4,1,0,65,0,0
74962,350.877192982456,4,1,0,65,1,0
74962,-106.584599917646,4,1,0,65,0,0
75311,-109.4489453473,4,1,0,65,0,0
75487,-110.915567548978,4,1,0,65,0,0
75838,-113.893782884216,4,1,0,65,0,0
76013,-115.405501984553,4,1,0,65,0,0
76365,340.909090909091,4,1,0,65,1,0
76365,-121.956955808581,4,1,0,65,0,0
76534,-123.523006454103,4,1,0,65,0,0
76704,-125.107097896876,4,1,0,65,0,0
76875,-126.718864019243,4,1,0,65,0,0
76960,-127.526933011771,4,1,0,65,0,0
77045,-128.339608981608,4,1,0,65,0,0
77216,-129.988556710319,4,1,0,65,0,0
77386,-131.646576238035,4,1,0,65,0,0
77557,-133.333329667807,4,1,0,65,0,0
77728,331.491712707182,4,1,0,65,1,0
77728,-87.719298245614,4,1,0,65,0,0
78058,-88.0052945561571,4,1,0,65,0,0
78224,-88.1482097708481,4,1,0,65,0,0
78555,-88.4321472898022,4,1,0,65,0,0
78721,-88.5740253874223,4,1,0,65,0,0
78887,-88.7155550824011,4,1,0,65,0,0
79053,319.148936170213,4,1,0,65,1,0
79053,-92.2923038739151,4,1,0,65,0,0
79211,-92.4324215002848,4,1,0,65,0,0
79291,-92.502794421339,4,1,0,65,0,0
79371,-92.5730825026924,4,1,0,65,0,0
79530,-92.7125277664304,4,1,0,65,0,0
79610,-92.7825617521942,4,1,0,65,0,0
79849,-92.9912800196999,4,1,0,65,0,0
79929,-93.0609734026535,4,1,0,65,0,0
80009,-93.1305811130677,4,1,0,65,0,0
80169,-93.2695391153615,4,1,0,65,0,0
80329,310.880829015544,4,1,0,65,1,0
80329,-95.8915220417507,4,1,0,65,0,0
80638,-96.166226273204,4,1,0,65,0,0
80794,-96.3039603659387,4,1,0,65,0,0
81105,-96.5775349062138,4,1,0,65,0,0
81260,-96.7133783360098,4,1,0,65,0,0
81572,301.507537688442,4,1,0,65,1,0
81572,-100,4,1,0,65,0,0
81721,-94.8709396848258,4,1,0,65,0,0
81872,-89.983708299793,4,1,0,65,0,0
82023,-85.3575594882155,4,1,0,65,0,0
82098,-83.1522065395938,4,1,0,65,0,0
82174,-80.9776150208525,4,1,0,65,0,0
82324,-76.8566703753176,4,1,0,65,0,0
82400,-74.8520908447011,4,1,0,65,0,0
82475,-72.9267833509497,4,1,0,65,0,0
82550,-71.0525368754322,4,1,0,65,0,0
82626,-69.2039199176753,4,1,0,65,0,0
82701,-67.4281770462563,4,1,0,65,0,0
82748,-67.4281770462563,4,1,0,70,0,0
82778,297.029702970297,4,1,0,70,1,0
82778,-66.6666666666667,4,1,0,70,0,0
83074,-76.9230769230769,4,1,0,70,0,0
83371,-79.3650793650794,4,1,0,70,0,0
83668,-81.9672131147541,4,1,0,70,0,0
83966,285.714285714286,4,1,0,70,1,0
83966,-94.3396226415094,4,1,0,70,0,0
84130,-86.2068965517241,4,1,0,70,0,0
84501,-89.2857142857143,4,1,0,70,0,0
84822,-92.5925925925926,4,1,0,70,0,0
84893,-93.7369256800984,4,1,0,70,0,0
84965,-94.9035954789457,4,1,0,70,0,0
85036,-96.0600281834166,4,1,0,70,0,0
85108,277.777777777778,4,1,0,70,1,0
85108,-90.9090909090909,4,1,0,70,0,0
85356,-104.166666666667,4,1,0,70,0,0
85648,-108.695652173913,4,1,0,70,0,0
85940,-113.636363636364,4,1,0,70,0,0
86009,-117.152466367713,4,1,0,70,0,0
86079,-120.949074074074,4,1,0,70,0,0
86148,-124.940219990435,4,1,0,70,0,0
86219,274.599542334096,4,1,0,70,1,0
86219,-83.3333333333333,4,1,0,70,0,0
86455,-129.87012987013,4,1,0,70,0,0
86734,-135.135135135135,4,1,0,70,0,0
87041,-138.842083979241,4,1,0,70,0,0
87110,-142.147391664367,4,1,0,70,0,0
87179,-145.613911076553,4,1,0,70,0,0
87247,-149.253757328262,4,1,0,70,0,0
87317,272.727272727273,4,1,0,70,1,0
87317,-66.6666666666667,4,1,0,70,0,0
87575,-135.737660813926,4,1,0,70,0,0
87854,-71.4285714285714,4,1,0,70,0,0
88130,-115.358788795796,4,1,0,70,0,0
88407,-83.3333333333333,4,1,0,70,0,0
88543,-90.0648396148567,4,1,0,70,0,0
88679,-97.3401040181984,4,1,0,70,0,0
88816,-92.5925925925926,4,1,0,70,0,0
88952,-87.719298245614,4,1,0,70,0,0
89088,-91.8243536284618,4,1,0,70,0,0
89225,-96.1538461538461,4,1,0,70,0,0
89293,-90.9366931733823,4,1,0,70,0,0
89361,-86.0026145192227,4,1,0,70,0,0
89429,-81.3362510338895,4,1,0,70,0,0
89492,-76.9230769230769,4,1,0,70,0,0
89566,-81.3722154924308,4,1,0,70,0,0
89634,-86.0085701292349,4,1,0,70,0,0
89702,-90.9090909090909,4,1,0,70,0,0
89770,-86.2068965517241,4,1,0,70,0,0
89838,-90.5572441302208,4,1,0,70,0,0
89906,-95.1271277877406,4,1,0,70,0,0
89975,-100,4,1,0,70,0,0
90043,-95.2380952380952,4,1,0,70,0,0
90111,-100.259676153276,4,1,0,70,0,0
90179,-105.546027954777,4,1,0,70,0,0
90247,-111.111111111111,4,1,0,70,0,0
90316,-106.382978723404,4,1,0,70,0,0
90384,-110.889068036177,4,1,0,70,0,0
90452,-115.58602285336,4,1,0,70,0,0
90520,-120.481927710843,4,1,0,70,0,0
90563,-66.6666666666667,4,1,0,70,0,0
90763,-100,4,1,0,75,0,0
90907,-97.863350284201,4,1,0,75,0,0
90952,-95.7263977058556,4,1,0,75,0,0
90998,-93.6810599013288,4,1,0,75,0,0
91134,-87.719298245614,4,1,0,75,0,0
91533,-100,4,1,0,75,0,0
91654,-76.9230769230769,4,1,0,75,0,0
91816,-100,4,1,0,75,0,0
92009,-95.7596261400737,4,1,0,75,0,0
92077,-91.6990599848669,4,1,0,75,0,0
92145,-87.8106770154705,4,1,0,75,0,0
92213,-84.0336134453782,4,1,0,75,0,0
92395,-91.6698497028211,4,1,0,75,0,0
92441,-90.3361873144236,4,1,0,75,0,0
92486,-89.0502942962029,4,1,0,75,0,0
92668,-97.1424024200865,4,1,0,75,0,0
92713,-98.5451460946854,4,1,0,75,0,0
92759,-100,4,1,0,75,0,0
93316,-76.9230769230769,4,1,0,75,0,0
93361,-79.513146281593,4,1,0,75,0,0
93407,-82.2509335391745,4,1,0,75,0,0
93452,-85.0203966338736,4,1,0,75,0,0
93498,-87.9478088848541,4,1,0,75,0,0
93543,-90.9090909090909,4,1,0,75,0,0
93822,-83.3333333333333,4,1,0,75,0,0
93872,-81.3008130081301,4,1,0,75,0,0
93956,-93.4579439252336,4,1,0,75,0,0
94122,-95.2380952380952,4,1,0,75,0,0
94274,-93.4579439252336,4,1,0,75,0,0
94378,-90.9090909090909,4,1,0,75,0,0
94589,-81.9672131147541,4,1,0,75,0,0
94634,-84.4005095973023,4,1,0,75,0,0
94680,-86.8507903421921,4,1,0,75,0,0
94861,-85.4700854700855,4,1,0,75,0,0
94907,-88.1177727152305,4,1,0,75,0,0
94952,-90.9090909090909,4,1,0,75,0,0
95078,-90.0900900900901,4,1,0,75,0,0
95204,-87.719298245614,4,1,0,75,0,0
95498,-83.3333333333333,4,1,0,75,0,0
95543,-85.0548946955404,4,1,0,75,0,0
95589,-86.8514781472094,4,1,0,75,0,0
95680,-90.5181510762622,4,1,0,75,0,0
95771,-94.3396226415094,4,1,0,75,0,0
96014,-83.3333333333333,4,1,0,75,0,0
96153,-89.2857142857143,4,1,0,75,0,0
96521,-90.9090909090909,4,1,0,75,0,0
96589,-88.480248556213,4,1,0,75,0,0
96634,-86.8741115845552,4,1,0,75,0,0
96680,-85.331105920335,4,1,0,75,0,0
96725,-83.782133734028,4,1,0,75,0,0
96793,-81.5437041909234,4,1,0,75,0,0
96861,-79.3650793650794,4,1,0,75,0,0
97043,-90.9090909090909,4,1,0,75,0,0
97088,-88.5009495468969,4,1,0,75,0,0
97134,-86.2068965517241,4,1,0,75,0,0
97680,-117.647058823529,4,1,0,75,0,0
97725,-120.602642132515,4,1,0,75,0,0
97771,-123.700664167605,4,1,0,75,0,0
97816,-126.808328923361,4,1,0,75,0,0
97861,-129.994065856815,4,1,0,75,0,0
97907,-133.333333333333,4,1,0,75,0,0
98204,-87.719298245614,4,1,0,75,0,0
98271,-89.4482515468971,4,1,0,75,0,0
98316,-91.2112826346856,4,1,0,75,0,0
98361,-93.0494137673238,4,1,0,75,0,0
98430,-95.8347220601591,4,1,0,75,0,0
98498,-98.703404787846,4,1,0,75,0,0
98543,-100.692520563847,4,1,0,75,0,0
98589,-102.677176954462,4,1,0,75,0,0
98634,-104.746373989299,4,1,0,75,0,0
98702,-107.881814958829,4,1,0,75,0,0
98771,-111.111111111111,4,1,0,75,0,0
98935,-93.4579439252336,4,1,0,75,0,0
99014,-90.9090909090909,4,1,0,75,0,0
99206,-87.719298245614,4,1,0,75,0,0
99296,-90.9090909090909,4,1,0,75,0,0
99333,-92.5925925925926,4,1,0,75,0,0
99436,-71.4285714285714,4,1,0,100,0,0
99718,-87.719298245614,4,1,0,100,0,0
99819,-66.6666666666667,4,1,0,100,0,0
100043,-71.4285714285714,4,1,0,100,0,0
100089,-64.1025641025641,4,1,0,100,0,0
100134,-55.5555555555556,4,1,0,100,0,0
100332,-71.4285714285714,4,1,0,100,0,0
100544,-100,4,1,0,75,0,0
100737,-95.7596261400737,4,1,0,75,0,0
100805,-91.6990599848669,4,1,0,75,0,0
100873,-87.8106770154705,4,1,0,75,0,0
100941,-84.0336134453782,4,1,0,75,0,0
101123,-91.6698497028211,4,1,0,75,0,0
101169,-90.3361873144236,4,1,0,75,0,0
101214,-89.0502942962029,4,1,0,75,0,0
101396,-97.1424024200865,4,1,0,75,0,0
101441,-98.5451460946854,4,1,0,75,0,0
101487,-100,4,1,0,75,0,0
102027,-100,4,1,0,75,0,0
102072,-97.8756727188244,4,1,0,75,0,0
102118,-95.8411999973658,4,1,0,75,0,0
102163,-93.8052192392157,4,1,0,75,0,0
102209,-91.8553561693507,4,1,0,75,0,0
102254,-89.9040477790242,4,1,0,75,0,0
102316,-88.0352756145601,4,1,0,75,0,0
102384,-85.2847912812894,4,1,0,75,0,0
102469,-81.9672131147541,4,1,0,75,0,0
102570,-87.719298245614,4,1,0,75,0,0
102634,-90.4452269128427,4,1,0,75,0,0
102710,-93.2558654129979,4,1,0,75,0,0
102784,-96.1538461538461,4,1,0,75,0,0
102838,-87.719298245614,4,1,0,75,0,0
102906,-89.2824296140389,4,1,0,75,0,0
102952,-90.9090909090909,4,1,0,75,0,0
103018,-89.2857142857143,4,1,0,75,0,0
103111,-90.9241209316635,4,1,0,75,0,0
103156,-92.5925925925926,4,1,0,75,0,0
103227,-90.9090909090909,4,1,0,75,0,0
103327,-92.8616834174337,4,1,0,75,0,0
103384,-94.7867298578199,4,1,0,75,0,0
103431,-93.4579439252336,4,1,0,75,0,0
103526,-95.7009088995712,4,1,0,75,0,0
103588,-98.0392156862745,4,1,0,75,0,0
103647,-96.1538461538461,4,1,0,75,0,0
103721,-97.499240572529,4,1,0,75,0,0
103790,-98.8634598870867,4,1,0,75,0,0
103862,-100.267254009195,4,1,0,75,0,0
103939,-101.67020364997,4,1,0,75,0,0
104008,-103.092783505155,4,1,0,75,0,0
104076,-102.794453672204,4,1,0,75,0,0
104144,-101.916892193083,4,1,0,75,0,0
104212,-100.485870760391,4,1,0,75,0,0
104280,-98.6204589733735,4,1,0,75,0,0
104348,-96.3980446162432,4,1,0,75,0,0
104417,-93.9210808464888,4,1,0,75,0,0
104482,-91.291400335518,4,1,0,75,0,0
104544,-88.5639460574151,4,1,0,75,0,0
104628,-85.901448728599,4,1,0,75,0,0
104689,-83.3333333333333,4,1,0,75,0,0
104743,-71.4285714285714,4,1,0,75,0,0
104864,-87.719298245614,4,1,0,75,0,0
105111,-84.1017750245744,4,1,0,75,0,0
105180,-80.6334376100391,4,1,0,75,0,0
105248,-77.3081336144482,4,1,0,75,0,0
105316,-74.0740740740741,4,1,0,75,0,0
105453,-83.3333333333333,4,1,0,75,0,0
105543,-81.6313463997981,4,1,0,75,0,0
105589,-80,4,1,0,75,0,0
105754,-84.7457627118644,4,1,0,75,0,0
105800,-86.2033768125778,4,1,0,75,0,0
105845,-87.719298245614,4,1,0,75,0,0
106028,-78.740157480315,4,1,0,75,0,0
106106,-84.7457627118644,4,1,0,75,0,0
106329,-66.6666666666667,4,1,0,90,0,0
106510,-66.6666666666667,4,1,0,75,0,0
106915,-83.3333333333333,4,1,0,75,0,0
106982,-84.6232501559201,4,1,0,75,0,0
107027,-85.9044434072037,4,1,0,75,0,0
107072,-87.2050338825848,4,1,0,75,0,0
107141,-89.2376194649616,4,1,0,75,0,0
107209,-91.2870929175277,4,1,0,75,0,0
107254,-92.6691765311887,4,1,0,75,0,0
107300,-94.1036028881028,4,1,0,75,0,0
107345,-95.528328370988,4,1,0,75,0,0
107413,-97.7222772250498,4,1,0,75,0,0
107482,-100,4,1,0,75,0,0
107566,-99.1593719027684,4,1,0,75,0,0
107634,-98.3258103615153,4,1,0,75,0,0
107725,-97.2212615542635,4,1,0,75,0,0
107816,-96.1291207613786,4,1,0,75,0,0
107907,-95.2380952380952,4,1,0,75,0,0
107952,-96.1538461538461,4,1,0,75,0,0
107998,-97.0873786407767,4,1,0,75,0,0
108043,-111.111111111111,4,1,0,75,0,0
108147,-87.719298245614,4,1,0,75,0,0
108530,-83.3333333333333,4,1,0,75,0,0
108754,-94.3396226415094,4,1,0,75,0,0
108827,-58.8235294117647,4,1,0,90,0,0
109059,-76.9230769230769,4,1,0,80,0,0
109284,-83.3333333333333,4,1,0,75,0,0
109407,-82.3843900332006,4,1,0,75,0,0
109498,-81.4462526537103,4,1,0,75,0,0
109589,-80.5187981443905,4,1,0,75,0,0
109634,-80.0640769025435,4,1,0,75,0,0
109680,-79.6019048559842,4,1,0,75,0,0
109771,-78.6954525244936,4,1,0,75,0,0
109861,-77.8091141740941,4,1,0,75,0,0
109952,-76.9230769230769,4,1,0,75,0,0
110134,-81.9672131147541,4,1,0,75,0,0
110180,-80.3197556588906,4,1,0,75,0,0
110225,-78.740157480315,4,1,0,75,0,0
110460,-100,4,1,0,75,0,0
110703,-100,4,1,0,100,0,0
110771,-90.9090909090909,4,1,0,100,0,0
110793,-80.5304726389184,4,1,0,100,0,0
110816,-70.9447287677696,4,1,0,100,0,0
110839,-62.5,4,1,0,100,0,0
110930,-62.5,4,1,0,75,0,0
111289,-83.3333333333333,4,1,0,75,0,0
111473,-90.9090909090909,4,1,0,75,0,0
111565,-93.4579439252336,4,1,0,75,0,0
111745,-90.0900900900901,4,1,0,75,0,0
111837,-91.9117647058823,4,1,0,75,0,0
112043,-97.9113938781129,4,1,0,75,0,0
112089,-99.4888041835341,4,1,0,75,0,0
112134,-101.056510431805,4,1,0,75,0,0
112316,-109.89010989011,4,1,0,75,0,0
112361,-107.526337080504,4,1,0,75,0,0
112407,-105.263157894737,4,1,0,75,0,0
112587,-107.52688172043,4,1,0,75,0,0
112656,-111.111111111111,4,1,0,75,0,0
112952,-111.111111111111,4,1,0,75,0,0
112998,-107.918605410129,4,1,0,75,0,0
113043,-104.884279975822,4,1,0,75,0,0
113134,-99.0064096744187,4,1,0,75,0,0
113225,-93.4579439252336,4,1,0,75,0,0
113487,-79.3650793650794,4,1,0,75,0,0
113719,-83.3333333333333,4,1,0,75,0,0
113960,-87.719298245614,4,1,0,75,0,0
114043,-78.125,4,1,0,75,0,0
114089,-79.6647780762355,4,1,0,75,0,0
114134,-81.2004438456077,4,1,0,75,0,0
114180,-82.8008363347477,4,1,0,75,0,0
114248,-85.2245930317887,4,1,0,75,0,0
114316,-87.719298245614,4,1,0,75,0,0
114498,-90.9090909090909,4,1,0,75,0,0
114543,-88.1775325293121,4,1,0,75,0,0
114589,-85.4700854700855,4,1,0,75,0,0
114861,-80.6451612903226,4,1,0,75,0,0
114907,-83.955259063261,4,1,0,75,0,0
114952,-87.3248249236654,4,1,0,75,0,0
114998,-90.9090909090909,4,1,0,75,0,0
115134,-93.4579439252336,4,1,0,75,0,0
115189,-94.7743675946717,4,1,0,75,0,0
115243,-96.1093340567785,4,1,0,75,0,0
115298,-97.4631045003855,4,1,0,75,0,0
115352,-95.0995317576523,4,1,0,75,0,0
115407,-98.8359437933606,4,1,0,75,0,0
115475,-100.248739359998,4,1,0,75,0,0
115543,-101.660816362574,4,1,0,75,0,0
115611,-103.092783505155,4,1,0,75,0,0
115649,-76.9230769230769,4,1,0,100,0,0
115928,-78.740157480315,4,1,0,100,0,0
116129,-120.481927710843,4,1,0,100,0,0
116407,-112.116327502872,4,1,0,100,0,0
116498,-108.153939063879,4,1,0,100,0,0
116656,-100.644326358336,4,1,0,80,0,0
116701,-98.8693994841308,4,1,0,80,0,0
116747,-97.0873786407767,4,1,0,80,0,0
116914,-66.6666666666667,4,1,0,100,0,0
117188,-87.719298245614,4,1,0,100,0,0
117279,-71.4285714285714,4,1,0,100,0,0
117478,-76.9230769230769,4,1,0,100,0,0
117524,-68.4931506849315,4,1,0,100,0,0
117581,-58.8235294117647,4,1,0,100,0,0
117770,-71.4285714285714,4,1,0,100,0,0
117963,-87.719298245614,4,1,0,75,0,0
118186,-84.0887544030511,4,1,0,75,0,0
118254,-80.6084722344458,4,1,0,75,0,0
118322,-77.2722326796132,4,1,0,75,0,0
118390,-74.0740740740741,4,1,0,75,0,0
118544,-83.3333333333333,4,1,0,75,0,0
118617,-81.6313463997981,4,1,0,75,0,0
118663,-80,4,1,0,75,0,0
118845,-84.7457627118644,4,1,0,75,0,0
118891,-86.2033768125778,4,1,0,75,0,0
118936,-87.719298245614,4,1,0,75,0,0
119481,-76.9230769230769,4,1,0,75,0,0
119526,-78.8819486825449,4,1,0,75,0,0
119572,-80.9324453437064,4,1,0,75,0,0
119617,-82.9270214951783,4,1,0,75,0,0
119663,-84.8855179326497,4,1,0,75,0,0
119708,-86.6499888261986,4,1,0,75,0,0
119771,-88.2223202470225,4,1,0,75,0,0
119839,-87.3400336335224,4,1,0,75,0,0
119922,-86.2495730536901,4,1,0,75,0,0
119993,-87.719298245614,4,1,0,75,0,0
120057,-90.4452269128427,4,1,0,75,0,0
120133,-93.2558654129979,4,1,0,75,0,0
120207,-96.1538461538461,4,1,0,75,0,0
120294,-87.719298245614,4,1,0,75,0,0
120349,-89.2824296140389,4,1,0,75,0,0
120395,-90.9090909090909,4,1,0,75,0,0
120474,-89.2857142857143,4,1,0,75,0,0
120551,-90.9241209316635,4,1,0,75,0,0
120596,-92.5925925925926,4,1,0,75,0,0
120683,-90.9090909090909,4,1,0,75,0,0
120767,-92.8616834174337,4,1,0,75,0,0
120823,-94.7867298578199,4,1,0,75,0,0
120887,-93.4579439252336,4,1,0,75,0,0
120963,-95.7009088995712,4,1,0,75,0,0
121025,-98.0392156862745,4,1,0,75,0,0
121103,-96.1538461538461,4,1,0,75,0,0
121177,-97.499240572529,4,1,0,75,0,0
121246,-98.8634598870867,4,1,0,75,0,0
121318,-100.267254009195,4,1,0,75,0,0
121395,-101.67020364997,4,1,0,75,0,0
121464,-103.092783505155,4,1,0,75,0,0
121532,-102.794453672204,4,1,0,75,0,0
121600,-101.916892193083,4,1,0,75,0,0
121668,-100.485870760391,4,1,0,75,0,0
121736,-98.6204589733735,4,1,0,75,0,0
121804,-96.3980446162432,4,1,0,75,0,0
121873,-93.9210808464888,4,1,0,75,0,0
121938,-91.291400335518,4,1,0,75,0,0
122000,-88.5639460574151,4,1,0,75,0,0
122084,-85.901448728599,4,1,0,75,0,0
122145,-83.3333333333333,4,1,0,75,0,0
122199,-71.4285714285714,4,1,0,75,0,0
122318,-87.719298245614,4,1,0,75,0,0
122565,-84.0497046323343,4,1,0,75,0,0
122634,-80.5835145885238,4,1,0,75,0,0
122702,-77.2602694065944,4,1,0,75,0,0
122770,-74.0740740740741,4,1,0,75,0,0
122952,-83.3333333333333,4,1,0,75,0,0
122997,-81.6679738934595,4,1,0,75,0,0
123043,-80,4,1,0,75,0,0
123208,-84.7457627118644,4,1,0,75,0,0
123254,-87.7394949194805,4,1,0,75,0,0
123299,-90.9090909090909,4,1,0,75,0,0
123482,-78.740157480315,4,1,0,75,0,0
123560,-84.7457627118644,4,1,0,75,0,0
123830,-66.6666666666667,4,1,0,90,0,0
123990,-66.6666666666667,4,1,0,75,0,0
124369,-83.3333333333333,4,1,0,75,0,0
124436,-84.6232501559201,4,1,0,75,0,0
124481,-85.9044434072037,4,1,0,75,0,0
124526,-87.2050338825848,4,1,0,75,0,0
124595,-89.2376194649616,4,1,0,75,0,0
124663,-91.2870929175277,4,1,0,75,0,0
124708,-92.6691765311887,4,1,0,75,0,0
124754,-94.1036028881028,4,1,0,75,0,0
124799,-95.528328370988,4,1,0,75,0,0
124867,-97.7222772250498,4,1,0,75,0,0
124936,-100,4,1,0,75,0,0
125020,-99.1593719027684,4,1,0,75,0,0
125088,-98.3258103615153,4,1,0,75,0,0
125179,-97.2212615542635,4,1,0,75,0,0
125270,-96.1291207613786,4,1,0,75,0,0
125361,-95.2380952380952,4,1,0,75,0,0
125406,-96.1538461538461,4,1,0,75,0,0
125452,-97.0873786407767,4,1,0,75,0,0
125497,-87.719298245614,4,1,0,75,0,0
125634,-84.826099879487,4,1,0,75,0,0
125680,-81.9672131147541,4,1,0,75,0,0
126029,-84.7457627118644,4,1,0,75,0,0
126052,-86.2068965517241,4,1,0,75,0,0
126208,-94.3396226415094,4,1,0,75,0,0
126299,-66.6666666666667,4,1,0,90,0,0
126536,-71.4285714285714,4,1,0,70,0,0
126589,533.333333333333,4,1,0,70,1,0
126589,-41.6666666666667,4,1,0,70,0,0
126606,-41.6666666666667,4,1,0,68,0,0
126624,-41.6666666666667,4,1,0,67,0,0
126642,-41.6666666666667,4,1,0,65,0,0
126660,-41.6666666666667,4,1,0,64,0,0
126677,-41.6666666666667,4,1,0,62,0,0
126695,-41.6666666666667,4,1,0,61,0,0
126713,-41.6666666666667,4,1,0,59,0,0
126731,-41.6666666666667,4,1,0,58,0,0
126748,-41.6666666666667,4,1,0,56,0,0
126766,-41.6666666666667,4,1,0,55,0,0
126784,-41.6666666666667,4,1,0,54,0,0
126802,-41.6666666666667,4,1,0,52,0,0
126819,-41.6666666666667,4,1,0,51,0,0
126837,-41.6666666666667,4,1,0,50,0,0
126855,-41.6666666666667,4,1,0,49,0,0
126873,-41.6666666666667,4,1,0,48,0,0
126891,-41.6666666666667,4,1,0,47,0,0
126908,-41.6666666666667,4,1,0,46,0,0
126926,-41.6666666666667,4,1,0,45,0,0
126944,-41.6666666666667,4,1,0,44,0,0
126962,-41.6666666666667,4,1,0,43,0,0
126979,-41.6666666666667,4,1,0,43,0,0
126997,-41.6666666666667,4,1,0,42,0,0
127015,-41.6666666666667,4,1,0,41,0,0
127033,-41.6666666666667,4,1,0,41,0,0
127050,-41.6666666666667,4,1,0,41,0,0
127068,-41.6666666666667,4,1,0,40,0,0
127086,-41.6666666666667,4,1,0,40,0,0
127104,-41.6666666666667,4,1,0,40,0,0
127122,-41.6666666666667,4,1,0,40,0,0
128722,512.820512820512,4,1,0,40,1,0
128722,-120.481927710843,4,1,0,40,0,0
130773,489.795918367347,4,1,0,40,1,0
130773,-200,4,1,0,40,0,0
131007,-197.791262552796,4,1,0,41,0,0
131252,-191.43534746351,4,1,0,43,0,0
131497,-181.755422734846,4,1,0,44,0,0
131742,-169.846913293991,4,1,0,45,0,0
131987,-156.811248520186,4,1,0,46,0,0
132232,-143.568711366755,4,1,0,48,0,0
132477,-130.780634099156,4,1,0,49,0,0
132732,468.75,4,1,0,50,1,0
132732,-123.707591719535,4,1,0,50,0,0
132957,-112.849362872584,4,1,0,51,0,0
133192,-103.079559568022,4,1,0,53,0,0
133427,-94.3801419193229,4,1,0,54,0,0
133663,-86.6564671497381,4,1,0,55,0,0
133898,-79.8872434175763,4,1,0,56,0,0
134133,-73.9436872548341,4,1,0,58,0,0
134369,-68.7124228033529,4,1,0,59,0,0
134607,454.545454545454,4,1,0,60,1,0
134607,-66.6666666666667,4,1,0,60,0,0
134943,-107.407256082309,4,1,0,60,0,0
135056,-110.093943050663,4,1,0,60,0,0
135283,-115.818479854704,4,1,0,60,0,0
135509,-121.938556890616,4,1,0,60,0,0
135736,-128.474824754635,4,1,0,60,0,0
135962,-135.311549575659,4,1,0,60,0,0
136188,-142.387973179751,4,1,0,60,0,0
136425,436.363636363636,4,1,0,60,1,0
136425,-155.256729838578,4,1,0,60,0,0
136633,-162.407714307345,4,1,0,60,0,0
136742,-166.666666666667,4,1,0,60,0,0
136851,-169.319965921725,4,1,0,60,0,0
137069,-175.772287949493,4,1,0,60,0,0
137287,-181.522643908276,4,1,0,60,0,0
137505,-186.324702463341,4,1,0,60,0,0
137724,-189.963166113081,4,1,0,60,0,0
137833,-192.307692307692,4,1,0,60,0,0
137942,-192.216916464867,4,1,0,60,0,0
138170,421.052631578947,4,1,0,60,1,0
138170,-200,4,1,0,60,0,0
138370,-197.831488026973,4,1,0,60,0,0
138475,-194.174757281553,4,1,0,60,0,0
138581,-191.581019164811,4,1,0,60,0,0
138791,-182.097860583489,4,1,0,60,0,0
139002,-170.353137765078,4,1,0,60,0,0
139212,-157.524917876267,4,1,0,60,0,0
139423,-144.395061784496,4,1,0,60,0,0
139633,-131.740243262663,4,1,0,60,0,0
139854,406.779661016949,4,1,0,60,1,0
139854,-124.057344345624,4,1,0,60,0,0
140047,-113.236340374111,4,1,0,60,0,0
140250,-103.484628210711,4,1,0,60,0,0
140454,-94.7497826308178,4,1,0,60,0,0
140657,-87.0577131989716,4,1,0,60,0,0
140860,-80.2798506525142,4,1,0,60,0,0
141064,-74.2970983685831,4,1,0,60,0,0
141267,-69.0767029004886,4,1,0,60,0,0
141481,390.879478827362,4,1,0,60,1,0
141481,-50,4,1,0,60,0,0
142257,-134.030290845731,4,1,0,60,0,0
143044,380.952380952381,4,1,0,60,1,0
143044,-136.200266923885,4,1,0,60,0,0
143804,-130.241186241997,4,1,0,60,0,0
144567,369.230769230769,4,1,0,60,1,0
144567,-125.431943131519,4,1,0,60,0,0
144935,-120.486523843458,4,1,0,60,0,0
145304,-115.332797615923,4,1,0,60,0,0
145673,-110.093794805874,4,1,0,60,0,0
146043,358.208955223881,4,1,0,60,1,0
146043,-108.099663504818,4,1,0,60,0,0
146400,-102.976991621445,4,1,0,60,0,0
146758,-98.0116261767158,4,1,0,60,0,0
147116,-93.2468755575301,4,1,0,60,0,0
147423,-69.0206680322701,4,1,0,75,0,0
147475,355.029585798817,4,1,0,75,1,0
147475,-89.5065711260757,4,1,0,75,0,0
147558,-89.5065711260757,4,1,0,62,0,0
147627,-87.719298245614,4,1,0,58,0,0
147674,-87.719298245614,4,1,0,54,0,0
147740,-86.2683585072783,4,1,0,50,0,0
147829,-85.2165412336521,4,1,0,50,0,0
147917,-84.1923115670196,4,1,0,50,0,0
148006,-83.1724530247568,4,1,0,50,0,0
148184,-81.1811618096636,4,1,0,50,0,0
148361,-79.2650674600852,4,1,0,50,0,0
148450,-78.3256439575841,4,1,0,50,0,0
148539,-77.4022263282493,4,1,0,50,0,0
148627,-76.504843988785,4,1,0,50,0,0
148805,-74.736903708756,4,1,0,50,0,0
148894,-73.8764083803207,4,1,0,50,0,0
149071,-72.2109618096494,4,1,0,50,0,0
149160,-71.3963175108381,4,1,0,50,0,0
149249,-70.5967160051701,4,1,0,50,0,0
149426,-69.0505586973219,4,1,0,50,0,0
149604,-67.553662702477,4,1,0,50,0,0
149689,-66.8346703524562,4,1,0,50,0,0
149870,-65.421996233941,4,1,0,50,0,0
149959,-64.7361863099547,4,1,0,50,0,0
150047,-64.0712869600875,4,1,0,50,0,0
150136,-63.411995590701,4,1,0,50,0,0
150225,-62.7657490737917,4,1,0,50,0,0
150271,-62.4999983270343,4,1,0,75,0,0
150315,352.941176470588,4,1,0,75,1,0
150315,-62.5,4,1,0,75,0,0
150666,-65.5409949427604,4,1,0,75,0,0
151019,-75.4255295558851,4,1,0,75,0,0
151372,-94.015032326781,4,1,0,75,0,0
151717,-121.56576707999,4,1,0,75,0,0
151902,-130.843766894448,4,1,0,75,0,0
152078,-140.771364623269,4,1,0,75,0,0
152255,-151.515151515152,4,1,0,75,0,0
152431,-99.5231905055724,4,1,0,75,0,0
152519,-94.7434518996369,4,1,0,75,0,0
152608,-90.0034333593609,4,1,0,75,0,0
152696,-85.4868239864192,4,1,0,75,0,0
152784,-81.1933642123816,4,1,0,75,0,0
152872,-77.1577030240118,4,1,0,75,0,0
152961,-73.3581898812944,4,1,0,75,0,0
153049,-69.8880422859351,4,1,0,75,0,0
153094,-69.8906381452507,4,1,0,90,0,0
153138,-66.6666666666667,4,1,0,90,0,1
153315,-81.9672131147541,4,1,0,80,0,1
153479,-79.7468677467661,4,1,0,80,0,1
153538,-78.2920084537592,4,1,0,80,0,1
153597,-76.8636908372124,4,1,0,80,0,1
153655,-75.4849833531059,4,1,0,80,0,1
153736,-73.4173153403329,4,1,0,80,0,1
153832,-71.4285714285714,4,1,0,80,0,1
153994,-83.3333333333333,4,1,0,80,0,1
154082,-87.2533876392213,4,1,0,80,0,1
154140,-89.9067393431835,4,1,0,80,0,1
154190,-92.6886392968176,4,1,0,80,0,1
154262,-95.5566169728624,4,1,0,80,0,1
154359,-100,4,1,0,80,0,1
154531,-76.9230769230769,4,1,0,80,0,1
154575,-78.5416083448041,4,1,0,80,0,1
154619,-80.1941951380518,4,1,0,80,0,1
154707,-83.604416139919,4,1,0,80,0,1
154796,-87.2009124970798,4,1,0,80,0,1
154884,-90.9090909090909,4,1,0,80,0,1
155067,-87.719298245614,4,1,0,80,0,1
155155,-84.2786432707283,4,1,0,80,0,1
155244,-80.9361328379787,4,1,0,80,0,1
155288,-81.9672131147541,4,1,0,80,0,1
155420,-74.7114600626182,4,1,0,80,0,1
155479,-76.1614623000762,4,1,0,80,0,1
155596,-68.9655172413793,4,1,0,80,0,1
155642,-71.522092897401,4,1,0,80,0,1
155685,-74.1734417001546,4,1,0,80,0,1
155752,-76.9230769230769,4,1,0,80,0,1
155908,-57.1428571428571,4,1,0,80,0,1
156297,-87.719298245614,4,1,0,80,0,1
156385,-91.6354321773964,4,1,0,80,0,1
156473,-95.7263977058556,4,1,0,80,0,1
156561,-100,4,1,0,80,0,1
156649,-82.5148366666746,4,1,0,80,0,1
156691,-80.561604370259,4,1,0,80,0,1
156728,-78.6117954767411,4,1,0,80,0,1
156767,-76.7509531845282,4,1,0,80,0,1
156826,-74.9341594223799,4,1,0,80,0,1
156925,-71.4285714285714,4,1,0,80,0,1
157002,-66.6666666666667,4,1,0,80,0,1
157054,-68.2454104961441,4,1,0,80,0,1
157113,-69.9331990666926,4,1,0,80,0,1
157179,-71.6260039802803,4,1,0,80,0,1
157253,-74.2273036952557,4,1,0,80,0,1
157340,-76.9230769230769,4,1,0,80,0,1
157520,-74.0740740740741,4,1,0,80,0,1
157617,-78.125,4,1,0,80,0,1
157712,-82.6446280991736,4,1,0,80,0,1
157754,-85.4700854700855,4,1,0,80,0,1
157882,-91.743119266055,4,1,0,80,0,1
157927,-95.2380952380952,4,1,0,80,0,1
158067,-100,4,1,0,80,0,1
158126,-99.5716621954122,4,1,0,80,0,1
158185,-98.3155406586695,4,1,0,80,0,1
158244,-96.3137473551723,4,1,0,80,0,1
158332,-92.2152128617929,4,1,0,80,0,1
158420,-87.2260419102717,4,1,0,80,0,1
158597,-80,4,1,0,80,0,1
158769,-57.1428571428571,4,1,0,80,0,1
158962,-79.7468677467661,4,1,0,80,0,1
159180,-78.2920084537592,4,1,0,80,0,1
159239,-76.8636908372124,4,1,0,80,0,1
159297,-75.4849833531059,4,1,0,80,0,1
159356,-73.4173153403329,4,1,0,80,0,1
159474,-71.4285714285714,4,1,0,80,0,1
159651,-83.3333333333333,4,1,0,80,0,1
159739,-87.2533876392213,4,1,0,80,0,1
159797,-89.9067393431835,4,1,0,80,0,1
159827,-92.6886392968176,4,1,0,80,0,1
159916,-95.5566169728624,4,1,0,80,0,1
160004,-100,4,1,0,80,0,1
160180,-76.9230769230769,4,1,0,80,0,1
160224,-78.5416083448041,4,1,0,80,0,1
160268,-80.1941951380518,4,1,0,80,0,1
160356,-83.604416139919,4,1,0,80,0,1
160445,-87.2009124970798,4,1,0,80,0,1
160533,-90.9090909090909,4,1,0,80,0,1
160698,-87.719298245614,4,1,0,80,0,1
160786,-84.2786432707283,4,1,0,80,0,1
160875,-80.9361328379787,4,1,0,80,0,1
160919,-81.9672131147541,4,1,0,80,0,1
161051,-74.7114600626182,4,1,0,80,0,1
161110,-76.1614623000762,4,1,0,80,0,1
161227,-68.9655172413793,4,1,0,80,0,1
161273,-71.522092897401,4,1,0,80,0,1
161344,-74.1734417001546,4,1,0,80,0,1
161383,-76.9230769230769,4,1,0,80,0,1
161567,-57.1428571428571,4,1,0,80,0,1
161627,-25,4,1,0,80,0,1
162301,-100,4,1,0,80,0,1
162346,-102.040816326531,4,1,0,80,0,1
162477,-95.2380952380952,4,1,0,80,0,1
162527,-93.4579439252336,4,1,0,80,0,1
162653,-100,4,1,0,80,0,1
162712,-102.448518814028,4,1,0,80,0,1
162771,-104.956990071883,4,1,0,80,0,1
162830,-107.52688172043,4,1,0,80,0,1
162918,-106.382978723404,4,1,0,80,0,1
163006,-95.2380952380952,4,1,0,80,0,1
163040,-96.3391136801541,4,1,0,80,0,1
163183,-87.719298245614,4,1,0,80,0,1
163271,-85.1063829787234,4,1,0,80,0,1
163359,-81.3803863649425,4,1,0,80,0,1
163389,-83.3333333333333,4,1,0,80,0,1
163536,-64.2771378926145,4,1,0,80,0,1
163579,-66.6666666666667,4,1,0,80,0,1
163712,-50,4,1,0,80,0,1
163759,-25,4,1,0,80,0,1
164397,-57.1428571428571,4,1,0,80,0,1
164609,-81.9672131147541,4,1,0,80,0,1
164773,-79.7468677467661,4,1,0,80,0,1
164832,-78.2920084537592,4,1,0,80,0,1
164891,-76.8636908372124,4,1,0,80,0,1
164949,-75.4849833531059,4,1,0,80,0,1
165030,-73.4173153403329,4,1,0,80,0,1
165126,-71.4285714285714,4,1,0,80,0,1
165288,-83.3333333333333,4,1,0,80,0,1
165376,-87.2533876392213,4,1,0,80,0,1
165434,-89.9067393431835,4,1,0,80,0,1
165484,-92.6886392968176,4,1,0,80,0,1
165556,-95.5566169728624,4,1,0,80,0,1
165653,-100,4,1,0,80,0,1
165825,-76.9230769230769,4,1,0,80,0,1
165869,-78.5416083448041,4,1,0,80,0,1
165913,-80.1941951380518,4,1,0,80,0,1
166001,-83.604416139919,4,1,0,80,0,1
166090,-87.2009124970798,4,1,0,80,0,1
166178,-90.9090909090909,4,1,0,80,0,1
166361,-87.719298245614,4,1,0,80,0,1
166449,-84.2786432707283,4,1,0,80,0,1
166538,-80.9388911371914,4,1,0,80,0,1
166608,-82.000510992113,4,1,0,80,0,1
166666,-83.0577088127508,4,1,0,80,0,1
166784,-76.9230769230769,4,1,0,80,0,1
166843,-78.568987205729,4,1,0,80,0,1
166902,-80.2501147569421,4,1,0,80,0,1
166961,-81.9672131147541,4,1,0,80,0,1
167078,-71.4285714285714,4,1,0,80,0,1
167137,-73.5943803537242,4,1,0,80,0,1
167196,-75.8258594750808,4,1,0,80,0,1
167255,-78.125,4,1,0,80,0,1
167608,-66.6666666666667,4,1,0,80,0,1
167666,-69.8858579489203,4,1,0,80,0,1
167725,-73.3200874715792,4,1,0,80,0,1
167784,-76.9230769230769,4,1,0,80,0,1
167876,-79.3650793650794,4,1,0,80,0,1
167939,-76.9230769230769,4,1,0,80,0,1
168079,-81.886844716405,4,1,0,80,0,1
168177,-80.0301811459011,4,1,0,80,0,1
168236,-78.2156146866728,4,1,0,80,0,1
168302,-76.4719112901873,4,1,0,80,0,1
168413,-73.043448780344,4,1,0,80,0,1
168479,-71.3872961848434,4,1,0,80,0,1
168538,-68.986615216211,4,1,0,80,0,1
168596,-69.9427033579707,4,1,0,80,0,1
168651,-66.6666666666667,4,1,0,80,0,1
168706,-68.0272108843537,4,1,0,80,0,1
168832,-71.4285714285714,4,1,0,80,0,1
168920,-70.4225352112676,4,1,0,80,0,1
169008,-69.4444444444444,4,1,0,80,0,1
169067,-70.9219858156028,4,1,0,80,0,1
169185,-73.5294117647059,4,1,0,80,0,1
169243,-75.187969924812,4,1,0,80,0,1
169361,-78.740157480315,4,1,0,80,0,1
169420,-77.4075890585408,4,1,0,80,0,1
169538,-76.0828140805243,4,1,0,80,0,1
169596,-75.2171135964144,4,1,0,80,0,1
169644,-74.3756878888146,4,1,0,80,0,1
169714,-73.5294117647059,4,1,0,80,0,1
169773,-72.8250097158811,4,1,0,80,0,1
169861,-72.1194663869822,4,1,0,80,0,1
169951,-71.4285714285714,4,1,0,80,0,1
170063,-50,4,1,0,80,0,1
170256,-79.7468677467661,4,1,0,80,0,1
170474,-78.2920084537592,4,1,0,80,0,1
170533,-76.8636908372124,4,1,0,80,0,1
170591,-75.4849833531059,4,1,0,80,0,1
170650,-73.4173153403329,4,1,0,80,0,1
170768,-71.4285714285714,4,1,0,80,0,1
170945,-83.3333333333333,4,1,0,80,0,1
171018,-87.2533876392213,4,1,0,80,0,1
171081,-89.9067393431835,4,1,0,80,0,1
171121,-92.6886392968176,4,1,0,80,0,1
171190,-95.5566169728624,4,1,0,80,0,1
171298,-100,4,1,0,80,0,1
171474,-76.9230769230769,4,1,0,80,0,1
171534,-79.1011285828332,4,1,0,80,0,1
171593,-81.3408510600128,4,1,0,80,0,1
171651,-83.604416139919,4,1,0,80,0,1
171710,-85.9716477252936,4,1,0,80,0,1
171769,-88.4059066955543,4,1,0,80,0,1
171828,-90.9090909090909,4,1,0,80,0,1
171916,-88.319918710137,4,1,0,80,0,1
172004,-85.8044884506173,4,1,0,80,0,1
172093,-83.3333333333333,4,1,0,80,0,1
172169,-80,4,1,0,80,0,1
172223,-81.6639033604944,4,1,0,80,0,1
172281,-83.3333333333333,4,1,0,80,0,1
172399,-73.5294117647059,4,1,0,80,0,1
172458,-75.4253289132926,4,1,0,80,0,1
172517,-77.370131286826,4,1,0,80,0,1
172576,-79.3650793650794,4,1,0,80,0,1
172693,-66.6666666666667,4,1,0,80,0,1
172752,-69.9237497525591,4,1,0,80,0,1
172811,-73.3399616918777,4,1,0,80,0,1
172884,-50,4,1,0,80,0,1
172921,-25,4,1,0,80,0,1
173256,-100,4,1,0,80,0,1
173642,-98.9109778583576,4,1,0,80,0,1
173701,-97.833815408965,4,1,0,80,0,1
173760,-96.7683834971477,4,1,0,80,0,1
173848,-95.2007851822267,4,1,0,80,0,1
173931,-93.6585811581694,4,1,0,80,0,1
173990,-92.6386184718088,4,1,0,80,0,1
174049,-91.6297634049391,4,1,0,80,0,1
174137,-90.6318949931247,4,1,0,80,0,1
174211,-89.1637046531103,4,1,0,80,0,1
174288,-87.719298245614,4,1,0,80,0,1
174477,-111.111111111111,4,1,0,80,0,1
174565,-103.092783505155,4,1,0,80,0,1
174653,-96.1538461538461,4,1,0,80,0,1
174683,-98.0392156862745,4,1,0,80,0,1
174830,-84.7457627118644,4,1,0,80,0,1
174873,-86.9565217391304,4,1,0,80,0,1
175009,-58.8235294117647,4,1,0,80,0,1
175068,-60.7637224201705,4,1,0,80,0,1
175127,-62.767909360044,4,1,0,80,0,1
175186,-64.8382009612182,4,1,0,80,0,1
175245,-66.9767775723219,4,1,0,80,0,1
175303,-69.1478485010353,4,1,0,80,0,1
175362,-71.4285714285714,4,1,0,80,0,1
175433,-72.7690268134785,4,1,0,80,0,1
175503,-74.1152269156432,4,1,0,80,0,1
175574,-75.5061010859608,4,1,0,80,0,1
175645,-76.9230769230769,4,1,0,80,0,1
175704,-50,4,1,0,80,0,1
175848,-76.9230769230769,4,1,0,70,0,1
176137,-75.1050812881463,4,1,0,70,0,1
176196,-73.3300520588878,4,1,0,70,0,1
176255,-71.596973769708,4,1,0,70,0,1
176343,-69.0878541036498,4,1,0,70,0,1
176431,-66.6666666666667,4,1,0,70,0,1
176608,-74.0740740740741,4,1,0,70,0,1
176696,-75.967629165674,4,1,0,70,0,1
176755,-77.264202197784,4,1,0,70,0,1
176813,-78.5603671008495,4,1,0,70,0,1
176872,-79.9011915348132,4,1,0,70,0,1
176961,-81.9672131147541,4,1,0,70,0,1
177137,-76.9230769230769,4,1,0,70,0,1
177181,-78.1927095305286,4,1,0,70,0,1
177225,-79.483297708433,4,1,0,70,0,1
177311,-82.1592922162052,4,1,0,70,0,1
177402,-84.8937892755522,4,1,0,70,0,1
177490,-87.719298245614,4,1,0,70,0,1
177666,-93.4540213653732,4,1,0,70,0,1
177755,-96.4951938285726,4,1,0,70,0,1
177843,-99.5994879038781,4,1,0,70,0,1
177902,-101.736503892933,4,1,0,70,0,1
178019,-106.110888444262,4,1,0,70,0,1
178078,-108.387613656313,4,1,0,70,0,1
178196,-113.088661094148,4,1,0,70,0,1
178255,-115.515102053084,4,1,0,70,0,1
178313,-117.951156590763,4,1,0,70,0,1
178372,-120.481927710843,4,1,0,70,0,1
178521,-71.4285714285714,4,1,0,70,0,1
178579,-68.9900760872316,4,1,0,70,0,1
178633,-67.2742243259609,4,1,0,70,0,1
178688,-66.6666666666667,4,1,0,70,0,1
178757,-67.2674755247916,4,1,0,70,0,1
178817,-68.9655172413793,4,1,0,70,0,1
178883,-71.4285714285714,4,1,0,70,0,1
179070,-76.9230769230769,4,1,0,70,0,1
179158,-78.4797817059284,4,1,0,70,0,1
179247,-80.0054744328392,4,1,0,70,0,1
179305,-80.9310050849872,4,1,0,70,0,1
179364,-81.7340505221692,4,1,0,70,0,1
179423,-82.4098690811851,4,1,0,70,0,1
179499,-83.0938330515113,4,1,0,70,0,1
179599,-83.3333333333333,4,1,0,70,0,1
179658,-81.7088658204805,4,1,0,70,0,1
179717,-80.1160650440314,4,1,0,70,0,1
179776,-78.5543137049718,4,1,0,70,0,1
179835,-76.2813086687698,4,1,0,70,0,1
179939,-74.0740740740741,4,1,0,70,0,1
180129,-76.9230769230769,4,1,0,70,0,1
180217,-79.8453110635465,4,1,0,70,0,1
180305,-82.8785580848486,4,1,0,70,0,1
180364,-84.9764732091516,4,1,0,70,0,1
180482,-89.3329620556162,4,1,0,70,0,1
180541,-91.5942583007005,4,1,0,70,0,1
180666,-81.9672131147541,4,1,0,70,0,1
180725,-81.1016877943246,4,1,0,70,0,1
180784,-80.2453019096748,4,1,0,70,0,1
180843,-79.397958953765,4,1,0,70,0,1
180902,-78.5595634386132,4,1,0,70,0,1
180961,-77.7300208845334,4,1,0,70,0,1
181019,-76.9230769230769,4,1,0,70,0,1
181108,-75.1975194988131,4,1,0,70,0,1
181196,-73.5294117647059,4,1,0,70,0,1
181331,-60.0240096038415,4,1,0,70,0,1
181549,-69.3183944046845,4,1,0,70,0,1
181608,-72.5233141844046,4,1,0,70,0,1
181666,-75.4875304198516,4,1,0,70,0,1
181725,-78.126637911673,4,1,0,70,0,1
181810,-80.9662019049246,4,1,0,70,0,1
181902,-81.9672131147541,4,1,0,70,0,1
182078,-76.9230769230769,4,1,0,70,0,1
182137,-78.2200115127799,4,1,0,70,0,1
182196,-79.5388126137725,4,1,0,70,0,1
182255,-80.8798488987078,4,1,0,70,0,1
182343,-82.9221658929799,4,1,0,70,0,1
182431,-85.0160539369249,4,1,0,70,0,1
182549,-81.9672131147541,4,1,0,70,0,1
182666,-79.3650793650794,4,1,0,70,0,1
182784,-93.9604825510796,4,1,0,70,0,1
182843,-95.5446703495934,4,1,0,70,0,1
182902,-97.1555677914895,4,1,0,70,0,1
182961,-98.7936252053528,4,1,0,70,0,1
183049,-101.288287379306,4,1,0,70,0,1
183137,-103.845942882527,4,1,0,70,0,1
183255,-100,4,1,0,70,0,1
183372,-96.1538461538461,4,1,0,70,0,1
183490,-114.771439656012,4,1,0,70,0,1
183549,-116.706503306011,4,1,0,70,0,1
183666,-120.640864653865,4,1,0,70,0,1
183725,-122.674887687782,4,1,0,70,0,1
183843,-126.846393754783,4,1,0,70,0,1
183902,-128.985042938099,4,1,0,70,0,1
183961,-131.159750066728,4,1,0,70,0,1
184019,-133.333333333333,4,1,0,70,0,1
184181,-57.1428571428571,4,1,0,70,0,1
184215,-25,4,1,0,70,0,1
184550,-100,4,1,0,70,0,1
184939,-98.9109778583576,4,1,0,70,0,1
184997,-97.8519743104741,4,1,0,70,0,1
185056,-96.7863446441988,4,1,0,70,0,1
185144,-95.2184553678828,4,1,0,70,0,1
185233,-93.6585811581694,4,1,0,70,0,1
185292,-92.6386184718088,4,1,0,70,0,1
185350,-91.6467707744465,4,1,0,70,0,1
185409,-90.6487171486125,4,1,0,70,0,1
185497,-89.1802542982838,4,1,0,70,0,1
185586,-87.719298245614,4,1,0,70,0,1
185765,-100,4,1,0,80,0,1
185853,-94.3396226415094,4,1,0,80,0,1
185961,-89.2857142857143,4,1,0,80,0,1
186020,-90.9090909090909,4,1,0,80,0,1
186138,-83.3333333333333,4,1,0,80,0,1
186196,-85.4700854700855,4,1,0,80,0,1
186283,-66.6504891896606,4,1,0,80,0,1
186335,-25.0290078770191,4,1,0,80,0,1
186536,-25.0290078770191,4,1,0,70,0,1
187020,681.818181818182,4,1,0,80,1,0
187020,-76.9230769230769,4,1,0,80,0,0
187361,-100,4,1,0,65,0,0
187701,645.161290322581,4,1,0,65,1,8
187701,-95.0799798630539,4,1,0,65,0,0
188346,600,4,1,0,65,1,8
188346,-93.2693243871785,4,1,0,65,0,0
188946,576.923076923077,4,1,0,65,1,8
188946,-89.6074646461878,4,1,0,65,0,0
189522,545.454545454546,4,1,0,65,1,0
189522,-88.2522909113089,4,1,0,65,0,0
190067,521.739130434783,4,1,0,65,1,8
190067,-86.5682677032882,4,1,0,65,0,0
190588,500,4,1,0,65,1,8
190588,-85.2531685949734,4,1,0,65,0,0
191088,472.44094488189,4,1,0,65,1,8
191088,-85.5670259565778,4,1,0,65,0,0
191323,-96.1538461538461,4,1,0,65,0,0
191382,-92.2202678893602,4,1,0,65,0,0
191441,-88.4845576813729,4,1,0,65,0,0
191500,-84.9338715743751,4,1,0,65,0,0
191560,454.545454545455,4,1,0,65,1,0
191560,-84.7673173236472,4,1,0,65,0,0
192014,431.654676258993,4,1,0,65,1,8
192014,-85.3821009084052,4,1,0,65,0,0
192445,413.793103448276,4,1,0,65,1,8
192445,-85.5104049058524,4,1,0,65,0,0
192858,400,4,1,0,65,1,8
192858,-85.1747644257538,4,1,0,65,0,0
193258,389.61038961039,4,1,0,65,1,0
193258,-84.3894817431349,4,1,0,65,0,0
193647,379.746835443038,4,1,0,65,1,8
193647,-83.7156317205582,4,1,0,65,0,0
194026,355.029585798817,4,1,0,65,1,8
194026,-86.7279084823576,4,1,0,65,0,0
194381,340.909090909091,4,1,0,65,1,8
194381,-87.719298245614,4,1,0,65,0,0
194550,-107.52688172043,4,1,0,65,0,0
194593,-104.797519306447,4,1,0,65,0,0
194636,-102.156437493608,4,1,0,65,0,0
194678,-99.6583684231345,4,1,0,65,0,0
194721,331.491712707182,4,1,0,65,1,0
194721,-99.9999968047825,4,1,0,65,0,0
195051,-107.542233886461,4,1,0,65,0,0
195383,314.13612565445,4,1,0,66,1,8
195383,-121.852629300738,4,1,0,66,0,0
195696,-130.164202927172,4,1,0,66,0,0
196011,297.029702970297,4,1,0,67,1,0
196011,-146.824145887673,4,1,0,67,0,0
196159,-151.299150421297,4,1,0,68,0,0
196307,-155.822445558327,4,1,0,69,0,0
196456,-160.453133535899,4,1,0,69,0,0
196605,283.018867924528,4,1,0,70,1,8
196605,-173.301442028848,4,1,0,70,0,0
196746,-178.078194004735,4,1,0,71,0,0
196887,-182.887232389778,4,1,0,71,0,0
197029,-187.794201255101,4,1,0,72,0,0
197171,272.727272727273,4,1,0,73,1,0
197171,-200,4,1,0,73,0,0
197238,-197.727471161523,4,1,0,73,0,0
197306,-191.229658589489,4,1,0,74,0,0
197375,-181.195118978077,4,1,0,74,0,0
197443,-169.058870420233,4,1,0,75,0,0
197511,-155.825038333687,4,1,0,75,0,0
197579,-142.426506783742,4,1,0,76,0,0
197647,-129.526123519754,4,1,0,76,0,0
197715,-117.527977126689,4,1,0,76,0,0
197784,-106.4797737148,4,1,0,77,0,0
197852,-96.7590272807058,4,1,0,77,0,0
197920,-88.1656418051741,4,1,0,78,0,0
197988,-80.6203993286053,4,1,0,78,0,0
198056,-74.0227997547269,4,1,0,79,0,0
198125,-68.1883070140481,4,1,0,79,0,0
198193,-63.1830951190654,4,1,0,80,0,0
198261,-58.8235294117647,4,1,0,80,0,0
198534,-76.9230769230769,4,1,0,80,0,0
198579,-78.1824971070673,4,1,0,80,0,0
198625,-79.4912192085689,4,1,0,80,0,0
198670,-80.7926862055455,4,1,0,80,0,0
198806,-84.8569558760007,4,1,0,80,0,0
199042,-93.6429268294426,4,1,0,80,0,0
199214,-100,4,1,0,80,0,0
199285,-100,4,1,0,90,0,0
199352,-66.6666666666667,4,1,0,90,0,1
199487,-87.719298245614,4,1,0,80,0,1
199779,-93.4579439252336,4,1,0,80,0,1
199876,-83.3333333333333,4,1,0,80,0,1
200077,-86.2068965517241,4,1,0,80,0,1
200168,-89.4656884184282,4,1,0,80,0,1
200202,-90.7146249304227,4,1,0,80,0,1
200259,-92.8476690885259,4,1,0,80,0,1
200350,-96.3574953433961,4,1,0,80,0,1
200441,-100,4,1,0,80,0,1
200509,-94.1996024097827,4,1,0,80,0,1
200577,-88.7356509416114,4,1,0,80,0,1
200645,-83.5886303827305,4,1,0,80,0,1
200713,-78.740157480315,4,1,0,80,0,1
200879,-80.6451612903226,4,1,0,80,0,1
200986,-82.9374336513176,4,1,0,80,0,1
201032,-84.1208422578269,4,1,0,80,0,1
201077,-85.2948619682672,4,1,0,80,0,1
201123,-86.5119079907982,4,1,0,80,0,1
201168,-87.719298245614,4,1,0,80,0,1
201259,-85.7632933104631,4,1,0,80,0,1
201327,-87.4125874125874,4,1,0,80,0,1
201395,-89.126559714795,4,1,0,80,0,1
201532,-95.2380952380952,4,1,0,80,0,1
201577,-93.1572039480576,4,1,0,80,0,1
201623,-91.0770558868045,4,1,0,80,0,1
201668,-89.0870806374748,4,1,0,80,0,1
201713,-87.1405850708641,4,1,0,80,0,1
201759,-85.1947847311213,4,1,0,80,0,1
201804,-83.3333333333333,4,1,0,80,0,1
201975,-85.4700854700855,4,1,0,80,0,1
202052,-87.719298245614,4,1,0,80,0,1
202335,-93.4579439252336,4,1,0,80,0,1
202503,-85.4700854700855,4,1,0,80,0,1
202623,-90.9090909090909,4,1,0,80,0,1
202691,-89.5603172056064,4,1,0,80,0,1
202759,-88.2315545976572,4,1,0,80,0,1
202827,-86.9225061904096,4,1,0,80,0,1
202895,-85.6328794939131,4,1,0,80,0,1
202941,-84.7713519323323,4,1,0,80,0,1
202986,-83.9369408323674,4,1,0,80,0,1
203032,-83.0924756177298,4,1,0,80,0,1
203100,-81.859673210953,4,1,0,80,0,1
203168,-80.6451612903226,4,1,0,80,0,1
203350,-87.719298245614,4,1,0,80,0,1
203441,-90.6484854172755,4,1,0,80,0,1
203532,-93.6754861562845,4,1,0,80,0,1
203623,-96.8035667250533,4,1,0,80,0,1
203713,-87.719298245614,4,1,0,80,0,1
203759,-86.964422429178,4,1,0,80,0,1
203804,-86.2322432010139,4,1,0,80,0,1
203850,-85.4901643621339,4,1,0,80,0,1
203895,-84.7703973492584,4,1,0,80,0,1
203941,-84.0408985481001,4,1,0,80,0,1
203986,-83.3333333333334,4,1,0,80,0,1
204159,-90.9090909090909,4,1,0,80,0,1
204237,-79.3650793650794,4,1,0,80,0,1
204423,-85.4700854700855,4,1,0,80,0,1
204495,-87.719298245614,4,1,0,80,0,1
204698,-90.9090909090909,4,1,0,80,0,1
204804,-81.9672131147541,4,1,0,80,0,1
204850,-83.3519771519253,4,1,0,80,0,1
204895,-84.7292719032762,4,1,0,80,0,1
204941,-86.16069849653,4,1,0,80,0,1
205009,-88.3211363034231,4,1,0,80,0,1
205077,-90.5357460425185,4,1,0,80,0,1
205123,-92.0652679139359,4,1,0,80,0,1
205168,-93.5865396895107,4,1,0,80,0,1
205213,-95.1329487168158,4,1,0,80,0,1
205282,-97.5538835919512,4,1,0,80,0,1
205344,-100,4,1,0,80,0,1
205412,-94.1996024097827,4,1,0,80,0,1
205480,-88.7356509416114,4,1,0,80,0,1
205548,-83.5886303827305,4,1,0,80,0,1
205616,-78.740157480315,4,1,0,80,0,1
205706,-81.9672131147541,4,1,0,80,0,1
205889,-76.9230769230769,4,1,0,80,0,1
205935,-77.9675700126615,4,1,0,80,0,1
205980,-79.0030788172954,4,1,0,80,0,1
206026,-80.0758150257428,4,1,0,80,0,1
206071,-81.6883381241078,4,1,0,80,0,1
206162,-83.3333333333333,4,1,0,80,0,1
206213,-83.9199988388945,4,1,0,80,0,1
206230,-84.5239703852514,4,1,0,80,0,1
206298,-85.1190179590686,4,1,0,80,0,1
206373,-86.03957062831,4,1,0,80,0,1
206435,-86.9565217391304,4,1,0,80,0,1
206480,-86.5850055946704,4,1,0,80,0,1
206550,-86.2150767290347,4,1,0,80,0,1
206626,-85.7224964468844,4,1,0,80,0,1
206707,-85.2327304675634,4,1,0,80,0,1
206833,-84.7457627118644,4,1,0,80,0,1
206875,-86.737394317459,4,1,0,80,0,1
206928,-88.821670366715,4,1,0,80,0,1
206974,-90.9090909090909,4,1,0,80,0,1
207124,-71.4285714285714,4,1,0,80,0,1
207398,-87.719298245614,4,1,0,80,0,1
207489,-74.0740740740741,4,1,0,80,0,1
207688,-71.4285714285714,4,1,0,80,0,1
207734,-68.0272108843537,4,1,0,80,0,1
207791,-64.1025641025641,4,1,0,80,0,1
207980,-71.4285714285714,4,1,0,80,0,1
208214,-87.719298245614,4,1,0,80,0,1
208506,-93.4579439252336,4,1,0,80,0,1
208603,-83.3333333333333,4,1,0,80,0,1
208804,-86.2068965517241,4,1,0,80,0,1
208895,-89.4656884184282,4,1,0,80,0,1
208929,-90.7146249304227,4,1,0,80,0,1
208986,-92.8476690885259,4,1,0,80,0,1
209077,-96.3574953433961,4,1,0,80,0,1
209168,-100,4,1,0,80,0,1
209236,-94.1996024097827,4,1,0,80,0,1
209304,-88.7356509416114,4,1,0,80,0,1
209372,-83.5886303827305,4,1,0,80,0,1
209440,-77.5193798449612,4,1,0,80,0,1
209486,-78.740157480315,4,1,0,80,0,1
209532,-80,4,1,0,80,0,1
209606,-78.740157480315,4,1,0,80,0,1
209713,-76.9230769230769,4,1,0,80,0,1
209986,-85.7632933104631,4,1,0,80,0,1
210122,-89.126559714795,4,1,0,80,0,1
210259,-87.719298245614,4,1,0,80,0,1
210304,-85.4700854700855,4,1,0,80,0,1
210395,-83.3333333333333,4,1,0,80,0,1
210577,-85.4700854700855,4,1,0,80,0,1
210762,-87.719298245614,4,1,0,80,0,1
210957,-89.2857142857143,4,1,0,80,0,1
211037,-90.9976239508978,4,1,0,80,0,1
211080,-92.713486578128,4,1,0,80,0,1
211142,-94.4911182523068,4,1,0,80,0,1
211205,-96.3028331487402,4,1,0,80,0,1
211248,-98.1187314669806,4,1,0,80,0,1
211350,-100,4,1,0,80,0,1
211418,-97.8359476557874,4,1,0,80,0,1
211486,-95.7187265370598,4,1,0,80,0,1
211554,-94.6887419152774,4,1,0,80,0,1
211622,-93.6473231915841,4,1,0,80,0,1
211713,-91.642776099462,4,1,0,80,0,1
211759,-89.6595784549801,4,1,0,80,0,1
211895,-82.6446280991736,4,1,0,80,0,1
211963,-84.0996595514625,4,1,0,80,0,1
212032,-85.5430167411581,4,1,0,80,0,1
212077,-86.8439544867779,4,1,0,80,0,1
212168,-87.9361711744069,4,1,0,80,0,1
212259,-88.9359329511915,4,1,0,80,0,1
212350,-89.2857142857143,4,1,0,80,0,1
212440,-76.9230769230769,4,1,0,80,0,1
212713,-87.719298245614,4,1,0,80,0,1
212782,-85.5281964302251,4,1,0,80,0,1
212850,-83.4224027388809,4,1,0,80,0,1
212886,-81.3684558916838,4,1,0,80,0,1
212964,-79.3650793650794,4,1,0,80,0,1
213150,-85.7208173218485,4,1,0,80,0,1
213213,-87.3692486514607,4,1,0,80,0,1
213222,-89.0870806374748,4,1,0,80,0,1
213425,-96.2213787997782,4,1,0,80,0,1
213486,-98.0717383780881,4,1,0,80,0,1
213531,-100,4,1,0,80,0,1
213668,-83.3333333333333,4,1,0,80,0,1
213736,-90.9090909090909,4,1,0,80,0,1
214071,-66.6666666666667,4,1,0,80,0,1
214229,-76.9230769230769,4,1,0,80,0,1
214337,-81.9672131147541,4,1,0,80,0,1
214511,-87.719298245614,4,1,0,80,0,1
214616,-76.9230769230769,4,1,0,80,0,1
214662,-77.9675700126615,4,1,0,80,0,1
214707,-79.0030788172954,4,1,0,80,0,1
214753,-80.0758150257428,4,1,0,80,0,1
214798,-81.6883381241078,4,1,0,80,0,1
214889,-83.3333333333333,4,1,0,80,0,1
214940,-83.9199988388945,4,1,0,80,0,1
214957,-84.5239703852514,4,1,0,80,0,1
215025,-85.1190179590686,4,1,0,80,0,1
215100,-86.03957062831,4,1,0,80,0,1
215162,-86.9565217391304,4,1,0,80,0,1
215207,-86.5850055946704,4,1,0,80,0,1
215253,-91.0770558868045,4,1,0,80,0,1
215298,-86.2150767290347,4,1,0,80,0,1
215343,-87.1405850708641,4,1,0,80,0,1
215389,-85.7224964468844,4,1,0,80,0,1
215434,-85.2327304675634,4,1,0,80,0,1
215560,-84.7457627118644,4,1,0,80,0,1
215602,-86.737394317459,4,1,0,80,0,1
215655,-88.821670366715,4,1,0,80,0,1
215701,-90.9090909090909,4,1,0,80,0,1
215841,-76.9230769230769,4,1,0,80,0,1
215869,-75.187969924812,4,1,0,80,0,1
216216,-90.9090909090909,4,1,0,80,0,1
216278,-92.5925925925926,4,1,0,80,0,1
216415,-97.0873786407767,4,1,0,80,0,1
216518,-84.7457627118644,4,1,0,80,0,1
216807,265.486725663717,4,1,0,80,1,1
216807,-71.4285714285714,4,1,0,80,0,1
216900,-83.3333333333333,4,1,0,80,0,1
217069,-82.3904370625635,4,1,0,80,0,1
217158,-81.4476767762566,4,1,0,80,0,1
217246,-80.5261162479143,4,1,0,80,0,1
217291,-80.0589005387832,4,1,0,80,0,1
217335,-79.6046886269949,4,1,0,80,0,1
217423,-78.7039810584887,4,1,0,80,0,1
217512,-77.8034033899924,4,1,0,80,0,1
217600,-76.9230769230769,4,1,0,80,0,1
217765,-81.9672131147541,4,1,0,80,0,1
217856,-78.740157480315,4,1,0,80,0,1
218043,-84.7457627118644,4,1,0,80,0,1
218087,-86.2197125625809,4,1,0,80,0,1
218131,-87.719298245614,4,1,0,80,0,1
218397,-93.4579439252336,4,1,0,80,0,1
218441,-91.4051164971916,4,1,0,80,0,1
218485,-89.3973799439574,4,1,0,80,0,1
218574,-87.719298245614,4,1,0,80,0,1
218662,-88.495575221239,4,1,0,80,0,1
218707,-87.1535839114188,4,1,0,80,0,1
218751,-85.8610941498291,4,1,0,80,0,1
218839,-83.3333333333333,4,1,0,80,0,1
218928,-86.9565217391304,4,1,0,80,0,1
218994,-84.6677476425639,4,1,0,80,0,1
219061,-82.4059055695671,4,1,0,80,0,1
219127,-80.2369077957422,4,1,0,80,0,1
219193,-78.125,4,1,0,80,0,1
219370,-83.3333333333333,4,1,0,80,0,1
219459,-87.2420583109576,4,1,0,80,0,1
219547,-91.2870929175277,4,1,0,80,0,1
219636,-95.5688866001851,4,1,0,80,0,1
219724,-100,4,1,0,80,0,1
219901,-103.092783505155,4,1,0,80,0,1
219946,-100.998061669529,4,1,0,80,0,1
219990,-98.9910494402837,4,1,0,80,0,1
220056,-96.0550632909819,4,1,0,80,0,1
220123,-93.1636468479551,4,1,0,80,0,1
220189,-90.4004962569611,4,1,0,80,0,1
220255,-83.3333333333333,4,1,0,80,0,1
220268,-80.6451612903226,4,1,0,80,0,1
220375,-83.3333333333333,4,1,0,80,0,1
220523,-86.125946452134,4,1,0,80,0,1
220565,-87.227082093814,4,1,0,80,0,1
220609,-88.5548807652176,4,1,0,80,0,1
220698,-91.3027662072116,4,1,0,80,0,1
220786,-94.1036028881028,4,1,0,80,0,1
220831,-95.5688866001851,4,1,0,80,0,1
220875,-97.0236669001699,4,1,0,80,0,1
220963,-100,4,1,0,80,0,1
221022,-87.719298245614,4,1,0,80,0,1
221277,-96.1538461538461,4,1,0,80,0,1
221469,-91.743119266055,4,1,0,80,0,1
221577,-81.9672131147541,4,1,0,80,0,1
221627,-83.1394430853326,4,1,0,80,0,1
221671,-84.328437357779,4,1,0,80,0,1
221716,-85.5620442529624,4,1,0,80,0,1
221782,-87.4040516044402,4,1,0,80,0,1
221848,-89.2857142857143,4,1,0,80,0,1
221937,-87.719298245614,4,1,0,80,0,1
222025,-86.2068965517241,4,1,0,80,0,1
222114,-84.7457627118644,4,1,0,80,0,1
222180,-85.8544099373356,4,1,0,80,0,1
222246,-86.9775605271192,4,1,0,80,0,1
222313,-88.1327582583032,4,1,0,80,0,1
222379,-89.2857142857143,4,1,0,80,0,1
222423,-89.8195367420353,4,1,0,80,0,1
222468,-90.3687929297061,4,1,0,80,0,1
222512,-90.9090909090909,4,1,0,80,0,1
222645,-98.0392156862745,4,1,0,80,0,1
222711,-98.3295421074615,4,1,0,80,0,1
222777,-98.6207282808431,4,1,0,80,0,1
222844,-98.917208373993,4,1,0,80,0,1
222910,-99.2101348208235,4,1,0,80,0,1
222999,-99.6065157331682,4,1,0,80,0,1
223087,-100,4,1,0,80,0,1
223151,-71.4285714285714,4,1,0,100,0,1
223418,-72.992700729927,4,1,0,100,0,1
223654,-111.111111111111,4,1,0,100,0,1
223884,-104.884279975822,4,1,0,100,0,1
223972,-101.919576624169,4,1,0,100,0,1
224131,-96.2078526869988,4,1,0,80,0,1
224175,-94.8383798948545,4,1,0,80,0,1
224220,-93.4579439252336,4,1,0,80,0,1
224371,-71.4285714285714,4,1,0,100,0,1
224637,-87.719298245614,4,1,0,100,0,1
224736,-76.9230769230769,4,1,0,100,0,1
225022,-64.1025641025641,4,1,0,100,0,1
225227,-76.9230769230769,4,1,0,90,0,1
225500,-90.9090909090909,4,1,0,80,0,1
225654,-88.3006242329378,4,1,0,80,0,1
225742,-85.795062510234,4,1,0,80,0,1
225831,-83.3333333333333,4,1,0,80,0,1
225864,-84.2829294953521,4,1,0,80,0,1
226008,-88.5548807652176,4,1,0,80,0,1
226096,-91.2714223183648,4,1,0,80,0,1
226129,-92.311474226391,4,1,0,80,0,1
226185,-94.1036028881028,4,1,0,80,0,1
226273,-96.9903590480953,4,1,0,80,0,1
226363,-100,4,1,0,80,0,1
226409,-94.1996024097827,4,1,0,80,0,1
226464,-88.7356509416114,4,1,0,80,0,1
226525,-83.5886303827305,4,1,0,80,0,1
226613,-77.5193798449612,4,1,0,80,0,1
226652,-78.740157480315,4,1,0,80,0,1
226695,-80,4,1,0,80,0,1
226763,-78.740157480315,4,1,0,80,0,1
226869,-76.9230769230769,4,1,0,80,0,1
227117,-85.7632933104631,4,1,0,80,0,1
227317,-89.126559714795,4,1,0,80,0,1
227397,-87.719298245614,4,1,0,80,0,1
227465,-85.4700854700855,4,1,0,80,0,1
227565,-83.3333333333333,4,1,0,80,0,1
227747,-85.4700854700855,4,1,0,80,0,1
227932,-87.719298245614,4,1,0,80,0,1
228096,-89.2857142857143,4,1,0,80,0,1
228151,-90.9976239508978,4,1,0,80,0,1
228228,-92.713486578128,4,1,0,80,0,1
228277,-94.4911182523068,4,1,0,80,0,1
228341,-96.3028331487402,4,1,0,80,0,1
228400,-98.1187314669806,4,1,0,80,0,1
228469,-100,4,1,0,80,0,1
228529,-97.8359476557874,4,1,0,80,0,1
228630,-95.7187265370598,4,1,0,80,0,1
228681,-94.6887419152774,4,1,0,80,0,1
228732,-93.6473231915841,4,1,0,80,0,1
228795,-91.642776099462,4,1,0,80,0,1
228888,-89.6595784549801,4,1,0,80,0,1
229001,-82.6446280991736,4,1,0,80,0,1
229056,-84.0996595514625,4,1,0,80,0,1
229112,-85.5430167411581,4,1,0,80,0,1
229180,-86.8439544867779,4,1,0,80,0,1
229258,-87.9361711744069,4,1,0,80,0,1
229342,-88.9359329511915,4,1,0,80,0,1
229417,-89.2857142857143,4,1,0,80,0,1
229515,-76.9230769230769,4,1,0,80,0,1
229813,-87.719298245614,4,1,0,80,0,1
229879,-89.3233669165523,4,1,0,80,0,1
229946,-90.9817450478511,4,1,0,80,0,1
230012,-92.6454720700386,4,1,0,80,0,1
230078,-94.3396226415094,4,1,0,80,0,1
230255,-87.719298245614,4,1,0,80,0,1
230300,-85.4735620052563,4,1,0,80,0,1
230344,-83.3333333333334,4,1,0,80,0,1
230521,-98.0392156862745,4,1,0,80,0,1
230609,-94.157355071076,4,1,0,80,0,1
230676,-91.3052364615378,4,1,0,80,0,1
230742,-88.5801685250316,4,1,0,80,0,1
230808,-85.9364321259745,4,1,0,80,0,1
230875,-83.3333333333333,4,1,0,80,0,1
230963,-84.8011840549062,4,1,0,80,0,1
231052,-86.3120140542738,4,1,0,80,0,1
231140,-87.8323318795935,4,1,0,80,0,1
231185,-88.6200858715581,4,1,0,80,0,1
231229,-89.397165241262,4,1,0,80,0,1
231317,-90.9718255633334,4,1,0,80,0,1
231406,-92.5925925925926,4,1,0,80,0,1
231569,-87.719298245614,4,1,0,80,0,1
231671,-76.9230769230769,4,1,0,80,0,1
231716,-77.971781148929,4,1,0,80,0,1
231760,-79.0110035510001,4,1,0,80,0,1
231804,-80.0640769025436,4,1,0,80,0,1
231870,-81.6700619620837,4,1,0,80,0,1
231937,-83.3333333333333,4,1,0,80,0,1
231981,-83.9242940548017,4,1,0,80,0,1
232025,-84.5194455911619,4,1,0,80,0,1
232069,-85.1188176616978,4,1,0,80,0,1
232136,-86.0396718602709,4,1,0,80,0,1
232202,-86.9565217391304,4,1,0,80,0,1
232269,-86.4030372420675,4,1,0,80,0,1
232335,-85.861258305389,4,1,0,80,0,1
232401,-85.3228765226253,4,1,0,80,0,1
232468,-84.7816871555744,4,1,0,80,0,1
232556,-85.7632933104631,4,1,0,80,0,1
232645,-87.7919478372147,4,1,0,80,0,1
232689,-88.5567032195251,4,1,0,80,0,1
232733,-89.3281203835727,4,1,0,80,0,1
232822,-90.9090909090909,4,1,0,80,0,1
232910,-71.4285714285714,4,1,0,80,0,1
233154,-87.719298245614,4,1,0,80,0,1
233257,-76.9230769230769,4,1,0,80,0,1
233424,-83.3333333333333,4,1,0,80,0,1
233497,-60.0024000960038,4,1,0,80,0,1
233699,-76.9230769230769,4,1,0,70,0,1
233798,272.727272727273,4,1,0,70,1,0
233798,-87.719298245614,4,1,0,70,0,0
234342,-93.9160344848523,4,1,0,70,0,0
234722,-101.010319285756,4,1,0,50,0,0
235230,-96.4204044484792,4,1,0,70,0,0
235434,292.682926829268,4,1,0,70,1,8
235434,-101.732441671149,4,1,0,70,0,0
235873,-94.3487455125301,4,1,0,50,0,0
236019,300,4,1,0,50,1,0
236019,-108.474269588469,4,1,0,50,0,0
236357,-119.571029306222,4,1,0,70,0,0
236807,-105.84483094325,4,1,0,50,0,0
237069,-105.84483094325,4,1,0,50,0,0
237219,315.789473684211,4,1,0,50,1,0
237219,-126.0443879609,4,1,0,50,0,0
237416,-141.660763527794,4,1,0,70,0,0
238324,-110.374665483267,4,1,0,50,0,0
238482,333.333333333333,4,1,0,50,1,0
238482,-152.041973771443,4,1,0,50,0,0
238814,-115.763774170744,4,1,0,50,0,0
238982,-115.763774170744,4,1,0,70,0,0
239148,342.857142857143,4,1,0,70,1,8
239148,-170.024898313757,4,1,0,70,0,0
239362,-121.322435488136,4,1,0,50,0,0
239662,-121.322435488136,4,1,0,50,0,0
239833,352.941176470588,4,1,0,50,1,0
239833,-192.396711128913,4,1,0,50,0,0
240186,-122.579035029951,4,1,0,70,0,0
240538,368.098159509202,4,1,0,70,1,8
240538,-217.562439487264,4,1,0,70,0,0
240952,-127.842166925494,4,1,0,50,0,0
241274,389.61038961039,4,1,0,50,1,0
241274,-245.560732432277,4,1,0,50,0,0
241664,-132.525775634174,4,1,0,48,0,0
242053,434.782608695652,4,1,0,48,1,8
242053,-265.585206518277,4,1,0,48,0,0
242705,-131.861732711977,4,1,0,45,0,0
242922,487.80487804878,4,1,0,45,1,0
242922,-287.734011116246,4,1,0,45,0,0
243165,-66.6666666666667,4,1,0,50,0,0
243246,-67.6189618281518,4,1,0,50,0,0
243328,-68.606453517992,4,1,0,50,0,0
243409,-69.6058986390531,4,1,0,50,0,0
243490,-70.6300704873246,4,1,0,50,0,0
243571,-71.679886788537,4,1,0,50,0,0
243653,-72.7697709039012,4,1,0,50,0,0
243734,-74.0124765099308,4,1,0,50,0,0
243836,-75.5920898520702,4,1,0,50,0,0
243897,571.428571428571,4,1,0,50,1,8
243897,-291.152566539461,4,1,0,50,0,0
243967,-65.9152120991462,4,1,0,50,0,0
244040,-67.3125008090769,4,1,0,50,0,0
244159,-68.747490283418,4,1,0,50,0,0
244254,-70.0660290402257,4,1,0,50,0,0
244349,-71.4285703486267,4,1,0,50,0,0
244587,-69.4444444444444,4,1,0,50,0,0
244683,-67.5089468175552,4,1,0,50,0,0
244766,-65.8790846612707,4,1,0,50,0,0
244837,-64.516129032258,4,1,0,50,0,0
245039,600,4,1,0,50,1,0
245039,-300.300284841821,4,1,0,50,0,0
245052,-500,4,1,0,48,0,0
245065,-500,4,1,0,47,0,0
245079,-500,4,1,0,45,0,0
245092,-500,4,1,0,44,0,0
245105,-500,4,1,0,42,0,0
245119,-500,4,1,0,41,0,0
245132,-500,4,1,0,39,0,0
245145,-500,4,1,0,38,0,0
245159,-500,4,1,0,36,0,0
245172,-500,4,1,0,35,0,0
245185,-500,4,1,0,33,0,0
245199,-500,4,1,0,32,0,0
245212,-500,4,1,0,30,0,0
245225,-500,4,1,0,29,0,0
245239,-500,4,1,0,27,0,0
245252,-500,4,1,0,26,0,0
245265,-500,4,1,0,25,0,0
245279,-500,4,1,0,24,0,0
245292,-500,4,1,0,22,0,0
245305,-500,4,1,0,21,0,0
245319,-500,4,1,0,20,0,0
245332,-500,4,1,0,19,0,0
245345,-500,4,1,0,18,0,0
245359,-500,4,1,0,17,0,0
245372,-500,4,1,0,16,0,0
245385,-500,4,1,0,15,0,0
245399,-500,4,1,0,14,0,0
245412,-500,4,1,0,13,0,0
245425,-500,4,1,0,12,0,0
245439,-500,4,1,0,11,0,0
245452,-500,4,1,0,10,0,0
245473,-500,4,1,0,9,0,0
245492,-500,4,1,0,8,0,0
245519,-500,4,1,0,7,0,0
245545,-500,4,1,0,6,0,0
245599,-338.919940280001,4,1,0,5,0,0
249838,-386.743085414429,4,1,0,5,0,0
252238,-444.548105712522,4,1,0,5,0,0
254638,-511.555552281707,4,1,0,5,0,0
257038,-583.747064234363,4,1,0,5,0,0
259438,-652.093772572901,4,1,0,5,0,0
261838,-702.700083679776,4,1,0,5,0,0
264039,-10,4,1,0,20,0,0
264229,1428.57142857143,4,1,0,20,1,0
264229,-303.03031538128,4,1,0,20,0,0
265657,1333.33333333333,4,1,0,22,1,8
265657,-315.181857419634,4,1,0,22,0,0
266990,1250,4,1,0,22,1,8
266990,-311.302205504676,4,1,0,22,0,0
268240,1176.47058823529,4,1,0,22,1,8
268240,-297.454859595911,4,1,0,22,0,0
269416,1090.90909090909,4,1,0,22,1,0
269416,-284.32700762976,4,1,0,22,0,0
270506,1016.94915254237,4,1,0,22,1,8
270506,-269.737382084724,4,1,0,22,0,0
271522,983.606557377049,4,1,0,22,1,8
271522,-247.457584424908,4,1,0,22,0,0
272505,937.5,4,1,0,22,1,8
272505,-230.897221328244,4,1,0,22,0,0
273442,869.565217391304,4,1,0,22,1,0
273442,-222.697636980218,4,1,0,22,0,0
274311,845.070422535211,4,1,0,22,1,8
274311,-206.964190829574,4,1,0,22,0,0
275156,800,4,1,0,22,1,8
275156,-198.409294126907,4,1,0,22,0,0
275956,769.230769230769,4,1,0,22,1,8
275956,-188.652567711284,4,1,0,22,0,0
276725,740.740740740741,4,1,0,23,1,0
276725,-180.137706187844,4,1,0,23,0,0
277465,714.285714285714,4,1,0,23,1,8
277465,-172.694850580441,4,1,0,23,0,0
278179,681.818181818182,4,1,0,23,1,8
278179,-168.063986863483,4,1,0,23,0,0
278860,666.666666666667,4,1,0,23,1,8
278860,-160.527544698605,4,1,0,23,0,0
279526,631.578947368421,4,1,0,24,1,0
279526,-158.779927693304,4,1,0,24,0,0
280157,612.244897959184,4,1,0,24,1,8
280157,-154.264774098549,4,1,0,24,0,0
280769,594.059405940594,4,1,0,24,1,8
280769,-150.236220320745,4,1,0,24,0,0
281363,576.923076923077,4,1,0,24,1,8
281363,-146.633551267921,4,1,0,24,0,0
281939,550.45871559633,4,1,0,25,1,0
281939,-146.09709196743,4,1,0,25,0,0
282489,540.540540540541,4,1,0,25,1,8
282489,-141.923003142917,4,1,0,25,0,0
283029,530.973451327434,4,1,0,25,1,8
283029,-138.091578113307,4,1,0,25,0,0
283559,517.241379310345,4,1,0,25,1,8
283559,-135.741871731885,4,1,0,25,0,0
284076,491.803278688525,4,1,0,26,1,0
284076,-136.980666800867,4,1,0,26,0,0
284567,476.190476190476,4,1,0,26,1,8
284567,-136.140453423894,4,1,0,26,0,0
285043,465.116279069767,4,1,0,26,1,8
285043,-134.39099980692,4,1,0,26,0,0
285508,458.015267175573,4,1,0,26,1,8
285508,-131.793782756535,4,1,0,26,0,0
285966,451.127819548872,4,1,0,27,1,0
285966,-129.372735534893,4,1,0,27,0,0
286417,441.176470588235,4,1,0,27,1,8
286417,-128.05669344515,4,1,0,27,0,0
286858,428.571428571429,4,1,0,27,1,8
286858,-127.773558852833,4,1,0,27,0,0
287286,413.793103448276,4,1,0,27,1,8
287286,-128.46196212175,4,1,0,27,0,0
287699,405.405405405405,4,1,0,30,1,0
287699,-127.478797554273,4,1,0,30,0,0
287978,-127.478797554273,4,1,0,31,0,0
288104,397.350993377483,4,1,0,31,1,8
288104,-126.581166998317,4,1,0,31,0,0
288257,-126.581166998317,4,1,0,32,0,0
288501,392.156862745098,4,1,0,33,1,8
288501,-124.948075120025,4,1,0,33,0,0
288536,-124.948075120025,4,1,0,33,0,0
288815,-124.948075120025,4,1,0,34,0,0
288893,387.096774193548,4,1,0,34,1,8
288893,-123.409040103163,4,1,0,34,0,0
289095,-123.409040103163,4,1,0,35,0,0
289280,379.746835443038,4,1,0,36,1,0
289280,-122.735478958572,4,1,0,36,0,0
289374,-122.735478958572,4,1,0,36,0,0
289653,-122.735478958572,4,1,0,37,0,0
289659,370.37037037037,4,1,0,37,1,8
289659,-122.890229363777,4,1,0,37,0,0
289932,-122.890229363777,4,1,0,38,0,0
290029,363.636363636364,4,1,0,38,1,8
290029,-122.343278134163,4,1,0,38,0,0
290211,-122.343278134163,4,1,0,39,0,0
290392,352.941176470588,4,1,0,40,1,8
290392,-123.303972193828,4,1,0,40,0,0
290491,-123.303972193828,4,1,0,40,0,0
290744,346.820809248555,4,1,0,41,1,0
290744,-122.867330301523,4,1,0,41,0,0
290770,-122.867330301523,4,1,0,41,0,0
291049,-122.867330301523,4,1,0,42,0,0
291090,340.909090909091,4,1,0,42,1,8
291090,-122.47665733733,4,1,0,42,0,0
291328,-122.47665733733,4,1,0,43,0,0
291430,333.333333333333,4,1,0,43,1,8
291430,-122.812580380355,4,1,0,43,0,0
291607,-122.812580380355,4,1,0,44,0,0
291763,326.086956521739,4,1,0,45,1,8
291763,-123.172415139122,4,1,0,45,0,0
291887,-123.172415139122,4,1,0,45,0,0
292089,319.148936170213,4,1,0,46,1,0
292089,-123.5564004667,4,1,0,46,0,0
292166,-123.5564004667,4,1,0,46,0,0
292408,312.5,4,1,0,47,1,8
292408,-123.964732895754,4,1,0,47,0,0
292445,-123.964732895754,4,1,0,47,0,0
292720,307.692307692308,4,1,0,48,1,8
292720,-123.762897332513,4,1,0,48,0,0
292724,-123.762897332513,4,1,0,48,0,0
293003,-123.762897332513,4,1,0,49,0,0
293027,300,4,1,0,49,1,8
293027,-124.841649018742,4,1,0,49,0,0
293283,-124.841649018742,4,1,0,50,0,0
293327,297.029702970297,4,1,0,50,1,0
293327,-124.082207475516,4,1,0,50,0,0
293562,-124.082207475516,4,1,0,51,0,0
293623,-122.1503241036,4,1,0,51,0,0
293841,-122.1503241036,4,1,0,52,0,0
293921,291.26213592233,4,1,0,52,1,8
293921,-122.653741519423,4,1,0,52,0,0
294120,-122.653741519423,4,1,0,53,0,0
294211,-120.828318556137,4,1,0,53,0,0
294399,-120.828318556137,4,1,0,54,0,0
294503,272.727272727273,4,1,0,54,1,0
294503,-127.142855348539,4,1,0,54,0,0
294679,-127.142855348539,4,1,0,55,0,0
294775,-125.409171632378,4,1,0,55,0,0
294958,-125.409171632378,4,1,0,56,0,0
295047,-123.724793299536,4,1,0,56,0,0
295237,-123.724793299536,4,1,0,57,0,0
295320,-122.076012414066,4,1,0,57,0,0
295516,-122.076012414066,4,1,0,58,0,0
295593,-120.467822912517,4,1,0,58,0,0
295795,-120.467822912517,4,1,0,59,0,0
295866,-118.898995742203,4,1,0,59,0,0
296075,-118.898995742203,4,1,0,60,0,0
296138,-117.373886147108,4,1,0,60,0,0
296354,-117.373886147108,4,1,0,61,0,0
296411,-115.880144067482,4,1,0,61,0,0
296633,-115.880144067482,4,1,0,62,0,0
296684,-114.422348146767,4,1,0,62,0,0
296912,-114.422348146767,4,1,0,63,0,0
296957,-112.999440982167,4,1,0,63,0,0
297191,-112.999440982167,4,1,0,64,0,0
297229,-111.61543111873,4,1,0,64,0,0
297471,-111.61543111873,4,1,0,65,0,0
297502,-110.259162928617,4,1,0,65,0,0
297750,-110.259162928617,4,1,0,66,0,0
297775,-108.934839317184,4,1,0,66,0,0
298029,-108.934839317184,4,1,0,67,0,0
298047,-107.646229165407,4,1,0,67,0,0
298306,-106.38297961278,4,1,0,68,0,0
298308,-106.38297961278,4,1,0,68,0,0
298587,-106.38297961278,4,1,0,69,0,0
298593,-111.111111111111,4,1,0,69,0,0
298661,-109.339221404059,4,1,0,69,0,0
298729,-107.595588035212,4,1,0,70,0,0
298797,-105.879760400537,4,1,0,70,0,0
298856,-104.166666666667,4,1,0,70,0,0
299138,-104.640687786567,4,1,0,70,0,0
299411,-105.116865988279,4,1,0,70,0,0
299684,-105.593454941874,4,1,0,70,0,0
299957,-106.073968808424,4,1,0,71,0,0
300229,-106.556669302698,4,1,0,71,0,0
300502,-107.041566375169,4,1,0,71,0,0
300775,-107.52688172043,4,1,0,71,0,0
300843,-103.822586509916,4,1,0,71,0,0
300911,-100.245904067364,4,1,0,71,0,0
300979,-96.7924381398778,4,1,0,71,0,0
301047,-93.4579439252336,4,1,0,72,0,0
301320,-97.1714861826912,4,1,0,72,0,0
301593,-100.088355905701,4,1,0,72,0,0
301866,-103.092783505155,4,1,0,72,0,0
302138,-92.5925925925926,4,1,0,75,0,0
302411,-96.1538461538461,4,1,0,75,0,0
302684,-100,4,1,0,75,0,0
302957,-100,4,1,0,75,0,0
303025,-99.9080111551491,4,1,0,75,0,0
303093,-99.6336182919806,4,1,0,75,0,0
303161,-99.1814806953252,4,1,0,75,0,0
303229,-98.559162592079,4,1,0,75,0,0
303297,-97.7768465628837,4,1,0,73,0,0
303366,-96.8322547341257,4,1,0,71,0,0
303434,-95.767193589124,4,1,0,69,0,0
303502,-94.5846267736026,4,1,0,67,0,0
303570,-93.3010202758108,4,1,0,66,0,0
303638,-91.9332469585752,4,1,0,64,0,0
303707,-90.4766441026465,4,1,0,62,0,0
303775,-88.9901105641914,4,1,0,60,0,0
303843,-87.4687715491109,4,1,0,58,0,0
303911,-85.9274807084008,4,1,0,56,0,0
303979,-84.3799883105134,4,1,0,54,0,0
304047,-82.8388279475388,4,1,0,53,0,0
304116,-81.293035117379,4,1,0,51,0,0
304184,-79.7974990183137,4,1,0,49,0,0
304252,-78.3383513022897,4,1,0,47,0,0
304295,-76.9230769230769,4,1,0,45,0,0
304569,-100,4,1,0,60,0,0
304834,-58.8235294117647,4,1,0,100,0,0
305276,-58.8235294117647,4,1,0,100,0,0
305412,-66.6666666666667,4,1,0,100,0,1
305548,-87.719298245614,4,1,0,100,0,1
305840,-93.4579439252336,4,1,0,100,0,1
305937,-83.3333333333333,4,1,0,100,0,1
306138,-86.2068965517241,4,1,0,100,0,1
306229,-89.4656884184282,4,1,0,100,0,1
306263,-90.7146249304227,4,1,0,100,0,1
306320,-92.8476690885259,4,1,0,100,0,1
306411,-96.3574953433961,4,1,0,100,0,1
306502,-100,4,1,0,100,0,1
306570,-94.1996024097827,4,1,0,100,0,1
306638,-88.7356509416114,4,1,0,100,0,1
306706,-83.5886303827305,4,1,0,100,0,1
306774,-78.740157480315,4,1,0,100,0,1
306940,-80.6451612903226,4,1,0,100,0,1
307047,-82.9374336513176,4,1,0,100,0,1
307093,-84.1208422578269,4,1,0,100,0,1
307138,-85.2948619682672,4,1,0,100,0,1
307184,-86.5119079907982,4,1,0,100,0,1
307229,-87.719298245614,4,1,0,100,0,1
307320,-85.7632933104631,4,1,0,100,0,1
307388,-87.4125874125874,4,1,0,100,0,1
307456,-89.126559714795,4,1,0,100,0,1
307593,-95.2380952380952,4,1,0,100,0,1
307638,-93.1572039480576,4,1,0,100,0,1
307684,-91.0770558868045,4,1,0,100,0,1
307729,-89.0870806374748,4,1,0,100,0,1
307774,-87.1405850708641,4,1,0,100,0,1
307820,-85.1947847311213,4,1,0,100,0,1
307865,-83.3333333333333,4,1,0,100,0,1
308036,-85.4700854700855,4,1,0,100,0,1
308113,-88.495575221239,4,1,0,100,0,1
308184,-87.3311659997022,4,1,0,100,0,1
308229,-86.2068965517241,4,1,0,100,0,1
308302,-90.0900900900901,4,1,0,100,0,1
308396,-93.4579439252336,4,1,0,100,0,1
308564,-85.4700854700855,4,1,0,100,0,1
308684,-90.9090909090909,4,1,0,100,0,1
308752,-89.5603172056064,4,1,0,100,0,1
308820,-88.2315545976572,4,1,0,100,0,1
308888,-86.9225061904096,4,1,0,100,0,1
308956,-85.6328794939131,4,1,0,100,0,1
309002,-84.7713519323323,4,1,0,100,0,1
309047,-83.9369408323674,4,1,0,100,0,1
309093,-83.0924756177298,4,1,0,100,0,1
309161,-81.859673210953,4,1,0,100,0,1
309229,-80.6451612903226,4,1,0,100,0,1
309411,-87.719298245614,4,1,0,100,0,1
309502,-90.6484854172755,4,1,0,100,0,1
309593,-93.6754861562845,4,1,0,100,0,1
309684,-96.8035667250533,4,1,0,100,0,1
309774,-87.719298245614,4,1,0,100,0,1
309820,-86.964422429178,4,1,0,100,0,1
309865,-86.2322432010139,4,1,0,100,0,1
309911,-85.4901643621339,4,1,0,100,0,1
309956,-84.7703973492584,4,1,0,100,0,1
310002,-84.0408985481001,4,1,0,100,0,1
310047,-83.3333333333334,4,1,0,100,0,1
310220,-90.9090909090909,4,1,0,100,0,1
310298,-79.3650793650794,4,1,0,100,0,1
310484,-85.4700854700855,4,1,0,100,0,1
310556,-87.719298245614,4,1,0,100,0,1
310759,-90.9090909090909,4,1,0,100,0,1
310865,-81.9672131147541,4,1,0,100,0,1
310911,-83.3519771519253,4,1,0,100,0,1
310956,-84.7292719032762,4,1,0,100,0,1
311002,-86.16069849653,4,1,0,100,0,1
311070,-88.3211363034231,4,1,0,100,0,1
311138,-90.5357460425185,4,1,0,100,0,1
311184,-92.0652679139359,4,1,0,100,0,1
311229,-93.5865396895107,4,1,0,100,0,1
311274,-95.1329487168158,4,1,0,100,0,1
311343,-97.5538835919512,4,1,0,100,0,1
311405,-100,4,1,0,100,0,1
311473,-94.1996024097827,4,1,0,100,0,1
311541,-88.7356509416114,4,1,0,100,0,1
311609,-83.5886303827305,4,1,0,100,0,1
311677,-78.740157480315,4,1,0,100,0,1
311767,-81.9672131147541,4,1,0,100,0,1
311950,-76.9230769230769,4,1,0,100,0,1
311996,-77.9675700126615,4,1,0,100,0,1
312041,-79.0030788172954,4,1,0,100,0,1
312087,-80.0758150257428,4,1,0,100,0,1
312132,-81.6883381241078,4,1,0,100,0,1
312223,-83.3333333333333,4,1,0,100,0,1
312274,-83.9199988388945,4,1,0,100,0,1
312291,-84.5239703852514,4,1,0,100,0,1
312359,-85.1190179590686,4,1,0,100,0,1
312434,-86.03957062831,4,1,0,100,0,1
312496,-86.9565217391304,4,1,0,100,0,1
312541,-86.5850055946704,4,1,0,100,0,1
312611,-86.2150767290347,4,1,0,100,0,1
312687,-85.7224964468844,4,1,0,100,0,1
312768,-85.2327304675634,4,1,0,100,0,1
312894,-84.7457627118644,4,1,0,100,0,1
312936,-86.737394317459,4,1,0,100,0,1
312989,-88.821670366715,4,1,0,100,0,1
313035,-90.9090909090909,4,1,0,100,0,1
313185,-71.4285714285714,4,1,0,100,0,1
313459,-87.719298245614,4,1,0,100,0,1
313550,-74.0740740740741,4,1,0,100,0,1
313749,-71.4285714285714,4,1,0,100,0,1
313795,-68.0272108843537,4,1,0,100,0,1
313852,-64.1025641025641,4,1,0,100,0,1
314041,-71.4285714285714,4,1,0,100,0,1
314275,-87.719298245614,4,1,0,100,0,1
314567,-93.4579439252336,4,1,0,100,0,1
314664,-83.3333333333333,4,1,0,100,0,1
314865,-86.2068965517241,4,1,0,100,0,1
314956,-89.4656884184282,4,1,0,100,0,1
314990,-90.7146249304227,4,1,0,100,0,1
315047,-92.8476690885259,4,1,0,100,0,1
315138,-96.3574953433961,4,1,0,100,0,1
315229,-100,4,1,0,100,0,1
315297,-94.1996024097827,4,1,0,100,0,1
315365,-88.7356509416114,4,1,0,100,0,1
315433,-83.5886303827305,4,1,0,100,0,1
315501,-77.5193798449612,4,1,0,100,0,1
315547,-78.6650441163898,4,1,0,100,0,1
315593,-79.8536699300073,4,1,0,100,0,1
315667,-82.2582509566482,4,1,0,100,0,1
315774,-84.7352395497635,4,1,0,100,0,1
315866,-87.2868160707652,4,1,0,100,0,1
315957,-89.9152265368543,4,1,0,100,0,1
316047,-92.5925925925926,4,1,0,100,0,1
316116,-90.227018000488,4,1,0,100,0,1
316183,-88.1318682594165,4,1,0,100,0,1
316252,-86.3548543357235,4,1,0,100,0,1
316320,-84.955845607283,4,1,0,100,0,1
316365,-83.7432017362905,4,1,0,100,0,1
316456,-83.3333333333333,4,1,0,100,0,1
316638,-85.4700854700855,4,1,0,100,0,1
316823,-87.719298245614,4,1,0,100,0,1
317018,-89.2857142857143,4,1,0,100,0,1
317088,-90.9976239508978,4,1,0,100,0,1
317158,-92.713486578128,4,1,0,100,0,1
317203,-94.4911182523068,4,1,0,100,0,1
317280,-96.3028331487402,4,1,0,100,0,1
317333,-98.1187314669806,4,1,0,100,0,1
317411,-100,4,1,0,100,0,1
317479,-97.8359476557874,4,1,0,100,0,1
317547,-95.7187265370598,4,1,0,100,0,1
317615,-94.6887419152774,4,1,0,100,0,1
317683,-93.6473231915841,4,1,0,100,0,1
317774,-91.642776099462,4,1,0,100,0,1
317820,-89.6595784549801,4,1,0,100,0,1
317956,-82.6446280991736,4,1,0,100,0,1
318024,-84.0996595514625,4,1,0,100,0,1
318093,-85.5430167411581,4,1,0,100,0,1
318138,-86.8439544867779,4,1,0,100,0,1
318229,-87.9361711744069,4,1,0,100,0,1
318320,-88.9359329511915,4,1,0,100,0,1
318411,-89.2857142857143,4,1,0,100,0,1
318501,-76.9230769230769,4,1,0,100,0,1
318774,-87.719298245614,4,1,0,100,0,1
318843,-85.5281964302251,4,1,0,100,0,1
318911,-83.4224027388809,4,1,0,100,0,1
318947,-81.3684558916838,4,1,0,100,0,1
319025,-79.3650793650794,4,1,0,100,0,1
319211,-85.7208173218485,4,1,0,100,0,1
319274,-87.3692486514607,4,1,0,100,0,1
319283,-89.0870806374748,4,1,0,100,0,1
319486,-96.2213787997782,4,1,0,100,0,1
319547,-98.0717383780881,4,1,0,100,0,1
319592,-100,4,1,0,100,0,1
319729,-83.3333333333333,4,1,0,100,0,1
319797,-90.9090909090909,4,1,0,100,0,1
320139,292.682926829268,4,1,0,100,1,1
320139,-66.6666666666667,4,1,0,100,0,1
320290,-76.9230769230769,4,1,0,100,0,1
320398,-81.9672131147541,4,1,0,100,0,1
320572,-87.719298245614,4,1,0,100,0,1
320724,300,4,1,0,100,1,1
320724,-76.9230769230769,4,1,0,100,0,1
320758,-77.6941460978338,4,1,0,100,0,1
320814,-78.4752635338624,4,1,0,100,0,1
320849,-79.2666072531912,4,1,0,100,0,1
320906,-80.4731968532882,4,1,0,100,0,1
320997,-81.7038397751353,4,1,0,100,0,1
321039,-82.5379543254317,4,1,0,100,0,1
321091,-83.3832505056802,4,1,0,100,0,1
321141,-84.2399333615279,4,1,0,100,0,1
321208,-85.5467685199625,4,1,0,100,0,1
321282,-86.8804282306559,4,1,0,100,0,1
321398,-88.2416705018518,4,1,0,100,0,1
321473,-89.6312818913913,4,1,0,100,0,1
321548,-91.0500788651276,4,1,0,100,0,1
321573,-92.4989092336757,4,1,0,100,0,1
321673,-93.4819148665708,4,1,0,100,0,1
321723,-94.4789287615392,4,1,0,100,0,1
321809,-96.5160942580808,4,1,0,100,0,1
321924,333.333333333333,4,1,0,100,1,1
321924,-88.7514308355556,4,1,0,100,0,1
322004,-90.3597903705344,4,1,0,100,0,1
322085,-92.0279203390684,4,1,0,100,0,1
322139,-93.1428365242178,4,1,0,100,0,1
322193,-94.2969718808354,4,1,0,100,0,1
322247,-95.4495404184073,4,1,0,100,0,1
322409,-99.0694131300623,4,1,0,100,0,1
322491,-100.938798485867,4,1,0,100,0,1
322590,342.857142857143,4,1,0,100,1,9
322590,-99.9999955296518,4,1,0,100,0,1
322787,-78.125,4,1,0,100,0,1
322909,-83.3333333333333,4,1,0,100,0,1
323275,352.941176470588,4,1,0,100,1,1
323275,-50.0625779622886,4,1,0,100,0,1
323539,-87.719298245614,4,1,0,100,0,1
323627,-84.1959062417038,4,1,0,100,0,1
323686,-81.9132367634764,4,1,0,100,0,1
323745,-79.6924536664214,4,1,0,100,0,1
323803,-77.5318791236737,4,1,0,100,0,1
323862,-74.4176818100154,4,1,0,100,0,1
323980,-71.4285714285714,4,1,0,100,0,1
324156,-80,4,1,0,100,0,1
324244,-83.7368919916356,4,1,0,100,0,1
324303,-86.3395616555905,4,1,0,100,0,1
324362,-89.0231262419452,4,1,0,100,0,1
324421,-91.7901000876365,4,1,0,100,0,1
324509,-96.077721211748,4,1,0,100,0,1
324597,-100.565622048883,4,1,0,100,0,1
324683,-105.263157894737,4,1,0,100,0,1
324862,-100,4,1,0,100,0,1
324950,-92.8431960852442,4,1,0,100,0,1
325039,-87.1552187845716,4,1,0,100,0,1
325098,-84.2984006553001,4,1,0,100,0,1
325156,-82.2026123597524,4,1,0,100,0,1
325215,-80.7872489222365,4,1,0,100,0,1
325303,-80,4,1,0,100,0,1
325392,-76.9230769230769,4,1,0,100,0,1
325440,-79.3650793650794,4,1,0,100,0,1
325568,-74.0740740740741,4,1,0,100,0,1
325611,-76.3358778625954,4,1,0,100,0,1
325745,-71.4285714285714,4,1,0,100,0,1
325789,-72.992700729927,4,1,0,100,0,1
325833,-74.6268656716418,4,1,0,100,0,1
325921,-77.5193798449612,4,1,0,100,0,1
326009,-80,4,1,0,100,0,1
326095,-82.6446280991736,4,1,0,100,0,1
326450,-92.1512899391568,4,1,0,100,0,1
326538,-94.6868408585564,4,1,0,100,0,1
326626,-97.2921576864866,4,1,0,100,0,1
326715,-100,4,1,0,100,0,1
326797,-82.6446280991736,4,1,0,100,0,1
326847,-80.2746367108393,4,1,0,100,0,1
326891,-78.4301345468256,4,1,0,100,0,1
326935,-76.62801424055,4,1,0,100,0,1
326979,-74.8673019672587,4,1,0,100,0,1
327068,-71.4285714285714,4,1,0,100,0,1
327156,-66.6666666666667,4,1,0,100,0,1
327215,-68.7294708375645,4,1,0,100,0,1
327274,-70.8561024241744,4,1,0,100,0,1
327332,-73.010817160073,4,1,0,100,0,1
327421,-76.4452935782899,4,1,0,100,0,1
327508,-80,4,1,0,100,0,1
327568,-81.5058346522054,4,1,0,100,0,1
327626,-83.0137714394798,4,1,0,100,0,1
327685,-84.5763341100276,4,1,0,100,0,1
327774,-86.9892443851368,4,1,0,100,0,1
327862,-89.4427190999916,4,1,0,100,0,1
327921,-91.1262934225945,4,1,0,100,0,1
327979,-92.8122180036537,4,1,0,100,0,1
328038,-94.5592161788779,4,1,0,100,0,1
328126,-97.2261969946235,4,1,0,100,0,1
328215,-100,4,1,0,100,0,1
328274,-99.3804986480544,4,1,0,100,0,1
328332,-97.5363875358523,4,1,0,100,0,1
328391,-94.6298702842085,4,1,0,100,0,1
328450,-89.2857142857143,4,1,0,100,0,1
328558,-84.0336134453782,4,1,0,100,0,1
328716,-76.9230769230769,4,1,0,100,0,1
328895,-57.1428571428571,4,1,0,100,0,1
329240,-100,4,1,0,100,0,1
329299,-96.3899761597535,4,1,0,100,0,1
329358,-92.8513950445103,4,1,0,100,0,1
329416,-89.4427190999916,4,1,0,100,0,1
329509,-84.5897010752451,4,1,0,100,0,1
329627,-80,4,1,0,100,0,1
329803,-80,4,1,0,100,0,1
329891,-83.0254280547921,4,1,0,100,0,1
329950,-85.1176476064334,4,1,0,100,0,1
330009,-87.2625905556509,4,1,0,100,0,1
330068,-89.4615855185785,4,1,0,100,0,1
330156,-92.8448304017547,4,1,0,100,0,1
330244,-96.3560223347533,4,1,0,100,0,1
330332,-99.9100809271656,4,1,0,100,0,1
330450,-94.3396226415094,4,1,0,100,0,1
330509,-96.1538461538461,4,1,0,100,0,1
330568,-98.0392156862745,4,1,0,100,0,1
330685,-92.5925925925926,4,1,0,100,0,1
330744,-93.7913206830046,4,1,0,100,0,1
330803,-95.0055678229919,4,1,0,100,0,1
330862,-96.2355349262575,4,1,0,100,0,1
330950,-98.0997119905342,4,1,0,100,0,1
331038,-100,4,1,0,100,0,1
331097,-94.5664817414226,4,1,0,100,0,1
331188,-89.3714389247831,4,1,0,100,0,1
331288,-84.5154254728517,4,1,0,100,0,1
331376,-79.9232643984699,4,1,0,100,0,1
331435,-76.9850029507554,4,1,0,100,0,1
331494,-74.1547623703078,4,1,0,100,0,1
331553,-71.4285714285714,4,1,0,100,0,1
331737,-50,4,1,0,100,0,1
331777,-25.0156345481684,4,1,0,100,0,1
332275,-99.502488440008,4,1,0,100,0,1
332482,-102.040816326531,4,1,0,100,0,1
332611,-97.0873786407767,4,1,0,100,0,1
332655,-95.2380952380952,4,1,0,100,0,1
332803,-100,4,1,0,100,0,1
332862,-102.462600766579,4,1,0,100,0,1
332921,-104.985845558514,4,1,0,100,0,1
332980,-107.52688172043,4,1,0,100,0,1
333024,-102.616400106293,4,1,0,100,0,1
333068,-97.9301678082053,4,1,0,100,0,1
333112,-95.2380952380952,4,1,0,100,0,1
333156,-93.4579439252336,4,1,0,100,0,1
333333,-87.719298245614,4,1,0,100,0,1
333421,-84.7457627118644,4,1,0,100,0,1
333509,-81.3008130081301,4,1,0,100,0,1
333568,-83.3333333333333,4,1,0,100,0,1
333686,-64.1025641025641,4,1,0,100,0,1
333745,-66.6666666666667,4,1,0,100,0,1
333863,-40,4,1,0,100,0,1
333897,-24.9999997671694,4,1,0,100,0,1
334565,-55.5555555555556,4,1,0,100,0,1
334569,-71.4285714285714,4,1,0,100,0,1
334745,-80,4,1,0,100,0,1
334789,-81.6288755205923,4,1,0,100,0,1
334833,-83.3254605573925,4,1,0,100,0,1
334921,-86.9393790044357,4,1,0,100,0,1
334980,-89.5431472081218,4,1,0,100,0,1
335039,-92.3076923076923,4,1,0,100,0,1
335098,-95.2483801295896,4,1,0,100,0,1
335186,-100,4,1,0,100,0,1
335274,-71.4285714285714,4,1,0,100,0,1
335318,-73.2866486866003,4,1,0,100,0,1
335362,-75.1930602599844,4,1,0,100,0,1
335406,-78.1083953241233,4,1,0,100,0,1
335450,-79.155948357663,4,1,0,100,0,1
335539,-83.3276919271154,4,1,0,100,0,1
335627,-87.719298245614,4,1,0,100,0,1
335685,-83.9619110584449,4,1,0,100,0,1
335744,-80.3654685978829,4,1,0,100,0,1
335803,-76.9230769230769,4,1,0,100,0,1
335966,-71.4285714285714,4,1,0,100,0,1
335980,-83.3333333333333,4,1,0,100,0,1
336004,-73.5294117647059,4,1,0,100,0,1
336048,-75.7575757575758,4,1,0,100,0,1
336156,-77.7544514423451,4,1,0,100,0,1
336244,-81.7580739262773,4,1,0,100,0,1
336332,-85.9678452891034,4,1,0,100,0,1
336391,-88.9110142455725,4,1,0,100,0,1
336450,-91.9549446376365,4,1,0,100,0,1
336509,-95.1030861031018,4,1,0,100,0,1
336598,-100,4,1,0,100,0,1
336686,-71.4285714285714,4,1,0,100,0,1
336745,-73.0102075405711,4,1,0,100,0,1
336803,-74.6268656716418,4,1,0,100,0,1
336921,-64.5161290322581,4,1,0,100,0,1
336980,-66.7168322941793,4,1,0,100,0,1
337039,-69.0325142307073,4,1,0,100,0,1
337098,-71.4285714285714,4,1,0,100,0,1
337215,-58.8235294117647,4,1,0,100,0,1
337274,-61.9025133410603,4,1,0,100,0,1
337332,-65.0863534671223,4,1,0,100,0,1
337366,-50,4,1,0,100,0,1
337392,-33.3333333333333,4,1,0,100,0,1
337745,-76.9230769230769,4,1,0,100,0,1
337803,-78.6616356700308,4,1,0,100,0,1
337862,-80.4394880417007,4,1,0,100,0,1
337921,-82.2575221236608,4,1,0,100,0,1
338009,-85.9852105654747,4,1,0,100,0,1
338098,-87.9285849846594,4,1,0,100,0,1
338156,-88.495575221239,4,1,0,100,0,1
338274,-71.4285714285714,4,1,0,100,0,1
338318,-72.764263042724,4,1,0,100,0,1
338362,-74.1249316661101,4,1,0,100,0,1
338406,-75.5110443608748,4,1,0,100,0,1
338450,-76.9230769230769,4,1,0,100,0,1
338509,-77.6380056291989,4,1,0,100,0,1
338568,-78.3595789350337,4,1,0,100,0,1
338627,-79.0754586602396,4,1,0,100,0,1
338715,-80.1867021576832,4,1,0,100,0,1
338768,-81.2880661102544,4,1,0,100,0,1
338804,-100,4,1,0,100,0,1
338871,-82.3045267489712,4,1,0,100,0,1
338979,-84.6188163484015,4,1,0,100,0,1
339038,-86.2067714254088,4,1,0,100,0,1
339097,-87.8245260367917,4,1,0,100,0,1
339156,-89.4726394000379,4,1,0,100,0,1
339244,-91.9884864254226,4,1,0,100,0,1
339332,-94.5750755938532,4,1,0,100,0,1
339391,-96.3498696400056,4,1,0,100,0,1
339450,-98.1579694370282,4,1,0,100,0,1
339509,-100,4,1,0,100,0,1
339597,-97.6520002676248,4,1,0,100,0,1
339685,-95.359131562682,4,1,0,100,0,1
339774,-93.0949603284579,4,1,0,100,0,1
339862,-90.9090909090909,4,1,0,100,0,1
339921,-93.8605882653054,4,1,0,100,0,1
339979,-96.8554454955345,4,1,0,100,0,1
340039,-100,4,1,0,100,0,1
340177,-57.1562755051152,4,1,0,100,0,1
340216,-129.87012987013,4,1,0,100,0,1
340392,-100,4,1,0,100,0,1
340480,-93.3333333333333,4,1,0,100,0,1
340568,-87.719298245614,4,1,0,100,0,1
340612,-85.2244020543602,4,1,0,100,0,1
340656,-82.7592835099062,4,1,0,100,0,1
340700,-80.3654685978829,4,1,0,100,0,1
340833,-76.9230769230769,4,1,0,100,0,1
340921,-66.6666666666667,4,1,0,100,0,1
340965,-67.8476780459578,4,1,0,100,0,1
340980,-69.0496112434191,4,1,0,100,0,1
341039,-70.2728368926307,4,1,0,100,0,1
341098,-71.5177321930096,4,1,0,100,0,1
341185,-74.0740740740741,4,1,0,100,0,1
341256,-75.7575757575758,4,1,0,100,0,1
341314,-74.0740740740741,4,1,0,100,0,1
341441,-80,4,1,0,100,0,1
341494,-81.9672131147541,4,1,0,100,0,1
341598,-62.4632474666056,4,1,0,100,0,1
341627,-55.5555555555556,4,1,0,100,0,1
341685,-64.707114260587,4,1,0,100,0,1
341744,-66.9921701749225,4,1,0,100,0,1
341803,-69.3579201611744,4,1,0,100,0,1
341891,-73.0406836607991,4,1,0,100,0,1
341979,-73.989800278932,4,1,0,100,0,1
342068,-74.9622471081075,4,1,0,100,0,1
342156,-75.9363332050189,4,1,0,100,0,1
342244,-76.9230769230769,4,1,0,100,0,1
342333,-66.6666666666667,4,1,0,100,0,1
342392,-69.0065559342354,4,1,0,100,0,1
342450,-71.4285714285714,4,1,0,100,0,1
342568,-60.9756097560976,4,1,0,100,0,1
342626,-63.5007527991262,4,1,0,100,0,1
342685,-66.1767501620373,4,1,0,100,0,1
342744,-68.9655172413793,4,1,0,100,0,1
342862,-56.1797752808989,4,1,0,100,0,1
342921,-59.497267363952,4,1,0,100,0,1
342979,-62.9494179816589,4,1,0,100,0,1
343007,-33.3333333333333,4,1,0,100,0,1
343039,-100,4,1,0,100,0,1
343064,-25,4,1,0,100,0,1
343392,-61.6258949407077,4,1,0,100,0,1
343745,-66.8722330364679,4,1,0,100,0,1
343803,-67.8208913503031,4,1,0,100,0,1
343980,-70.8898668760614,4,1,0,100,0,1
344098,-73.0949556572332,4,1,0,100,0,1
344422,-84.7457627118644,4,1,0,100,0,1
344451,-81.9672131147541,4,1,0,100,0,1
344627,-76.9230769230769,4,1,0,100,0,1
344803,-83.3333333333333,4,1,0,100,0,1
344980,-87.719298245614,4,1,0,100,0,1
345156,-100,4,1,0,100,0,1
345215,-102.658089327068,4,1,0,100,0,1
345332,-108.140015137539,4,1,0,100,0,1
345391,-111.014473338199,4,1,0,100,0,1
345509,-116.994637670318,4,1,0,100,0,1
345568,-120.104459647474,4,1,0,100,0,1
345685,-126.518018886791,4,1,0,100,0,1
345744,-129.880980843638,4,1,0,100,0,1
345863,413.793103448276,4,1,0,100,1,0
345981,-97.629500805466,4,1,0,90,0,0
346086,-95.3151942752447,4,1,0,80,0,0
346483,-89.7666068222621,4,1,0,80,0,0
346650,-25,4,1,0,90,0,0
347449,-25,4,1,0,100,0,0
347518,582.52427184466,4,1,0,100,1,0
347518,-90.9090909090909,4,1,0,100,0,0
347542,-16.6666666666667,4,1,0,90,0,0
349787,-16.6666666666667,4,1,0,100,0,0
349848,500,4,1,0,100,1,0
349848,-55.5555555555556,4,1,0,100,0,0
349867,-25,4,1,0,90,0,0
351781,-25,4,1,0,100,0,0
351848,363.636363636364,4,1,0,100,1,0
351848,-200,4,1,0,100,0,0
352454,-87.719298245614,4,1,0,80,0,0
352575,352.941176470588,4,1,0,80,1,0
352575,-87.719298245614,4,1,0,80,0,0
352599,-85.4700854700855,4,1,0,80,0,0
352652,-83.3333333333333,4,1,0,80,0,0
352681,381.558028616852,4,1,0,80,1,8
352681,-82.4841487046639,4,1,0,80,0,0
352871,-84.9689863199932,4,1,0,80,0,0
352903,-82.7163524977056,4,1,0,80,0,0
352934,-80.6451612903226,4,1,0,80,0,0
353125,-88.4095128635841,4,1,0,80,0,0
353157,-84.3490363122601,4,1,0,80,0,0
353189,-80.6451612903226,4,1,0,80,0,0
353380,-92.0132499079867,4,1,0,80,0,0
353411,-86.0448853827495,4,1,0,80,0,0
353443,-80.6451612903226,4,1,0,80,0,0
353634,-95.7854406130268,4,1,0,80,0,0
353666,-87.4465604352895,4,1,0,80,0,0
353697,-80.6451612903226,4,1,0,80,0,0
353888,-99.7207818109294,4,1,0,80,0,0
353920,-89.1742464776173,4,1,0,80,0,0
353952,-80.6451612903226,4,1,0,80,0,0
354143,-103.874519580347,4,1,0,80,0,0
354174,-90.9794588599552,4,1,0,80,0,0
354206,-80.6451612903226,4,1,0,80,0,0
354397,-108.201687946332,4,1,0,80,0,0
354429,-92.4129008409574,4,1,0,80,0,0
354461,-80.6451612903226,4,1,0,80,0,0
354651,-112.739571589628,4,1,0,80,0,0
354683,-94.0291490362012,4,1,0,80,0,0
354715,-80.6451612903226,4,1,0,80,0,0
354906,-117.522623104948,4,1,0,80,0,0
354938,-95.370879183262,4,1,0,80,0,0
354969,-80.6451612903226,4,1,0,80,0,0
355160,-122.534003185884,4,1,0,80,0,0
355192,-97.2715334857254,4,1,0,80,0,0
355224,-80.6451612903226,4,1,0,80,0,0
355414,-127.779197546639,4,1,0,80,0,0
355446,-98.8826263225551,4,1,0,80,0,0
355478,-80.6451612903226,4,1,0,80,0,0
355669,-133.333333333333,4,1,0,80,0,0
355701,-100.111234705228,4,1,0,80,0,0
355733,381.558028616852,4,1,0,80,1,8
355733,-80.6451612903226,4,1,0,80,0,0
355769,-50,4,1,0,100,0,0
355810,331.491712707182,4,1,0,100,1,0
355810,-50,4,1,0,100,0,0
355877,-12.5,4,1,0,100,0,0
358387,-25,4,1,0,100,0,0
359787,276.497695852535,4,1,0,100,1,0
359787,-50,4,1,0,100,0,0
360892,317.460317460317,4,1,0,100,1,0
360892,-33.3333333333333,4,1,0,100,0,0
362161,346.820809248555,4,1,0,100,1,0
362161,-20,4,1,0,100,0,0
363741,-10,4,1,0,100,0,0
364935,272.727272727273,4,1,0,100,1,0
364935,-500,4,1,0,100,0,0

[HitObjects]
411,132,4394,5,8,0:0:0:0:
411,132,5099,5,8,0:0:0:0:
119,277,5452,1,0,0:0:0:0:
411,132,5805,5,8,0:0:0:0:
119,277,6158,1,0,0:0:0:0:
119,277,6335,1,0,0:0:0:0:
411,132,6511,1,8,0:0:0:0:
119,277,6864,1,0,0:0:0:0:
411,132,7217,5,8,0:0:0:0:
411,132,7394,1,8,0:0:0:0:
119,277,7570,1,0,0:0:0:0:
119,277,7746,1,0,0:0:0:0:
411,132,7923,1,8,0:0:0:0:
119,277,8099,1,0,0:0:0:0:
411,132,8276,1,8,0:0:0:0:
411,132,8452,1,8,0:0:0:0:
119,277,8629,5,0,0:0:0:0:
119,277,8805,1,0,0:0:0:0:
411,132,8982,1,8,0:0:0:0:
119,277,9158,1,0,0:0:0:0:
411,132,9335,1,8,0:0:0:0:
119,277,9511,1,0,0:0:0:0:
411,132,9688,1,8,0:0:0:0:
411,132,9864,1,8,0:0:0:0:
119,277,10041,5,0,0:0:0:0:
119,277,10217,1,0,0:0:0:0:
411,132,10394,5,8,0:0:0:0:
411,132,10570,5,8,0:0:0:0:
119,277,10746,5,0,0:0:0:0:
411,132,10923,5,8,0:0:0:0:
119,277,11099,5,0,0:0:0:0:
119,277,11276,5,0,0:0:0:0:
411,132,11452,5,8,0:0:0:0:
411,132,11629,5,8,0:0:0:0:
411,132,11805,5,8,0:0:0:0:
119,277,11982,5,0,0:0:0:0:
411,132,12158,5,8,0:0:0:0:
119,277,12335,1,0,0:0:0:0:
119,277,12423,1,0,0:0:0:0:
411,132,12511,5,8,0:0:0:0:
119,277,12599,5,0,0:0:0:0:
411,132,12688,1,8,0:0:0:0:
119,277,12864,5,0,0:0:0:0:
119,277,13041,5,0,0:0:0:0:
411,132,13217,5,8,0:0:0:0:
119,277,13394,5,0,0:0:0:0:
411,132,13570,5,8,0:0:0:0:
411,132,13746,5,8,0:0:0:0:
119,277,13923,5,0,0:0:0:0:
411,132,14099,5,8,0:0:0:0:
119,277,14276,5,0,0:0:0:0:
411,132,14452,5,8,0:0:0:0:
411,132,14629,5,8,0:0:0:0:
411,132,14805,5,8,0:0:0:0:
119,277,14982,5,0,0:0:0:0:
119,277,15158,5,0,0:0:0:0:
119,277,15246,1,0,0:0:0:0:
411,132,15335,1,8,0:0:0:0:
119,277,15511,1,0,0:0:0:0:
411,132,15688,5,12,0:0:0:0:
119,277,15952,1,0,0:0:0:0:
411,132,16041,1,8,0:0:0:0:
119,277,16217,5,0,0:0:0:0:
119,277,16570,1,0,0:0:0:0:
411,132,16746,1,8,0:0:0:0:
119,277,16923,5,0,0:0:0:0:
119,277,17011,1,0,0:0:0:0:
411,132,17099,1,8,0:0:0:0:
119,277,17364,1,0,0:0:0:0:
411,132,17452,1,8,0:0:0:0:
119,277,17629,5,0,0:0:0:0:
119,277,17982,1,0,0:0:0:0:
411,132,18158,1,8,0:0:0:0:
128,324,18246,1,8,0:0:0:0:
411,132,18335,1,8,0:0:0:0:
119,277,18511,5,0,0:0:0:0:
119,277,18776,1,0,0:0:0:0:
411,132,18864,1,8,0:0:0:0:
119,277,19041,1,0,0:0:0:0:
411,132,19217,5,8,0:0:0:0:
411,132,19394,1,8,0:0:0:0:
119,277,19570,1,0,0:0:0:0:
119,277,19658,1,0,0:0:0:0:
411,132,19746,1,8,0:0:0:0:
119,277,19923,5,0,0:0:0:0:
119,277,20099,1,0,0:0:0:0:
411,132,20276,5,8,0:0:0:0:
119,277,20452,1,0,0:0:0:0:
411,132,20629,5,8,0:0:0:0:
411,132,20717,1,8,0:0:0:0:
119,277,20805,1,0,0:0:0:0:
411,132,20982,1,8,0:0:0:0:
411,132,21158,1,8,0:0:0:0:
119,277,21335,5,4,0:0:0:0:
119,277,21599,1,0,0:0:0:0:
411,132,21688,1,8,0:0:0:0:
119,277,21864,5,0,0:0:0:0:
119,277,22217,1,0,0:0:0:0:
128,324,22305,1,0,0:0:0:0:
128,324,22394,1,8,0:0:0:0:
128,324,22570,1,0,0:0:0:0:
128,324,22746,5,8,0:0:0:0:
119,277,23011,1,0,0:0:0:0:
411,132,23099,1,8,0:0:0:0:
119,277,23276,5,0,0:0:0:0:
119,277,23364,1,0,0:0:0:0:
119,277,23452,1,0,0:0:0:0:
119,277,23629,1,0,0:0:0:0:
411,132,23805,1,8,0:0:0:0:
119,277,23982,1,0,0:0:0:0:
411,132,24158,5,8,0:0:0:0:
119,277,24423,1,0,0:0:0:0:
411,132,24511,1,8,0:0:0:0:
119,277,24688,1,0,0:0:0:0:
411,132,24864,5,8,0:0:0:0:
411,132,25041,1,8,0:0:0:0:
119,277,25217,1,0,0:0:0:0:
119,277,25394,1,0,0:0:0:0:
411,132,25570,5,8,0:0:0:0:
119,277,25746,1,0,0:0:0:0:
119,277,25835,1,0,0:0:0:0:
411,132,25923,1,8,0:0:0:0:
119,277,26011,1,0,0:0:0:0:
411,132,26099,1,8,0:0:0:0:
119,277,26276,5,0,0:0:0:0:
119,277,26452,5,0,0:0:0:0:
119,277,26541,5,0,0:0:0:0:
411,132,26629,5,8,0:0:0:0:
119,277,26805,5,0,0:0:0:0:
411,132,26981,5,12,0:0:0:0:
119,277,28394,5,0,0:0:0:0:
411,132,29099,5,8,0:0:0:0:
119,277,29805,5,0,0:0:0:0:
411,132,30511,5,8,0:0:0:0:
119,277,30776,1,0,0:0:0:0:
119,277,30864,1,0,0:0:0:0:
119,277,31041,1,0,0:0:0:0:
411,132,31217,5,8,0:0:0:0:
119,277,31394,5,0,0:0:0:0:
119,277,31570,1,0,0:0:0:0:
119,277,31746,1,0,0:0:0:0:
119,277,31835,1,0,0:0:0:0:
411,132,31923,5,8,0:0:0:0:
119,277,32099,5,0,0:0:0:0:
119,277,32188,1,0,0:0:0:0:
119,277,32276,1,0,0:0:0:0:
119,277,32452,1,0,0:0:0:0:
119,277,32541,1,0,0:0:0:0:
411,132,32629,5,8,0:0:0:0:
119,277,32805,5,0,0:0:0:0:
119,277,32894,1,0,0:0:0:0:
411,132,32982,5,8,0:0:0:0:
119,277,33158,5,0,0:0:0:0:
119,277,33246,1,0,0:0:0:0:
411,132,33335,5,8,0:0:0:0:
119,277,33511,5,0,0:0:0:0:
119,277,33599,1,0,0:0:0:0:
411,132,33688,5,8,0:0:0:0:
119,277,33864,5,0,0:0:0:0:
119,277,33952,1,0,0:0:0:0:
411,132,34041,5,8,0:0:0:0:
119,277,34217,5,0,0:0:0:0:
119,277,34305,1,0,0:0:0:0:
411,132,34394,5,8,0:0:0:0:
119,277,34570,5,0,0:0:0:0:
119,277,34658,1,0,0:0:0:0:
411,132,34746,5,8,0:0:0:0:
119,277,34923,5,0,0:0:0:0:
119,277,35011,1,0,0:0:0:0:
411,132,35099,5,8,0:0:0:0:
119,277,35276,5,0,0:0:0:0:
119,277,35364,1,0,0:0:0:0:
411,132,35452,5,12,0:0:0:0:
256,192,36864,5,0,0:0:0:0:
256,192,36923,1,0,0:0:0:0:
128,324,36982,5,8,0:0:0:0:
256,192,37041,1,8,0:0:0:0:
128,324,37099,5,0,0:0:0:0:
128,324,37158,1,0,0:0:0:0:
256,192,37217,5,8,0:0:0:0:
256,192,37305,1,8,0:0:0:0:
128,324,37394,5,0,0:0:0:0:
128,324,37482,1,0,0:0:0:0:
256,192,37570,5,8,0:0:0:0:
256,192,37658,1,8,0:0:0:0:
256,192,37746,5,0,0:0:0:0:
256,192,37864,1,0,0:0:0:0:
256,192,38011,5,8,0:0:0:0:
256,192,38158,1,8,0:0:0:0:
256,192,38276,5,4,0:0:0:0:
128,324,38541,5,0,0:0:0:0:
256,192,38629,1,8,0:0:0:0:
256,192,38688,1,8,0:0:0:0:
256,192,38746,1,8,0:0:0:0:
256,192,38805,1,0,0:0:0:0:
256,192,38982,5,8,0:0:0:0:
256,192,39335,5,0,0:0:0:0:
256,192,39511,1,8,0:0:0:0:
256,192,39570,1,0,0:0:0:0:
256,192,39688,5,8,0:0:0:0:
256,192,39732,1,8,0:0:0:0:
256,192,39776,1,0,0:0:0:0:
256,192,40041,5,8,0:0:0:0:
256,192,40217,1,0,0:0:0:0:
128,324,40305,1,0,0:0:0:0:
128,324,40394,5,8,0:0:0:0:
256,192,40452,1,0,0:0:0:0:
128,324,40570,1,8,0:0:0:0:
128,324,40629,1,0,0:0:0:0:
128,324,40746,1,8,0:0:0:0:
256,192,41099,5,4,0:0:0:0:
256,192,41452,5,0,0:0:0:0:
256,192,41629,1,8,0:0:0:0:
256,192,41717,1,0,0:0:0:0:
256,192,41805,1,8,0:0:0:0:
256,192,41849,1,8,0:0:0:0:
256,192,41894,1,0,0:0:0:0:
256,192,41938,1,0,0:0:0:0:
256,192,41982,1,8,0:0:0:0:
256,192,42070,1,8,0:0:0:0:
256,192,42158,5,0,0:0:0:0:
256,192,42217,1,0,0:0:0:0:
256,192,42276,1,0,0:0:0:0:
256,192,42335,1,8,0:0:0:0:
256,192,42423,1,8,0:0:0:0:
256,192,42511,1,0,0:0:0:0:
256,192,42688,5,0,0:0:0:0:
256,192,42776,1,0,0:0:0:0:
256,192,42864,1,8,0:0:0:0:
256,192,42923,1,8,0:0:0:0:
256,192,43041,5,8,0:0:0:0:
256,192,43099,1,8,0:0:0:0:
256,192,43217,5,0,0:0:0:0:
256,192,43276,5,0,0:0:0:0:
256,192,43394,5,0,0:0:0:0:
256,192,43452,5,0,0:0:0:0:
256,192,43570,5,8,0:0:0:0:
256,192,43629,1,8,0:0:0:0:
256,192,43688,1,8,0:0:0:0:
256,192,43746,1,0,0:0:0:0:
256,192,43923,5,4,0:0:0:0:
256,192,44276,5,8,0:0:0:0:
256,192,44335,1,8,0:0:0:0:
256,192,44394,1,8,0:0:0:0:
256,192,44452,1,0,0:0:0:0:
256,192,44541,1,0,0:0:0:0:
256,192,44629,5,8,0:0:0:0:
256,192,44982,5,0,0:0:0:0:
256,192,45158,1,8,0:0:0:0:
256,192,45217,1,8,0:0:0:0:
256,192,45335,5,0,0:0:0:0:
256,192,45379,1,0,0:0:0:0:
256,192,45423,1,8,0:0:0:0:
256,192,45688,5,8,0:0:0:0:
256,192,45864,1,0,0:0:0:0:
256,192,45952,1,0,0:0:0:0:
256,192,46041,5,8,0:0:0:0:
256,192,46099,1,8,0:0:0:0:
256,192,46217,1,8,0:0:0:0:
256,192,46276,1,0,0:0:0:0:
256,192,46394,1,8,0:0:0:0:
256,192,46746,5,12,0:0:0:0:
256,192,46791,12,0,47364,0:0:0:0:
256,192,47452,5,0,0:0:0:0:
256,192,47511,1,0,0:0:0:0:
256,192,47629,5,8,0:0:0:0:
256,192,47688,1,8,0:0:0:0:
256,192,47805,5,0,0:0:0:0:
256,192,47864,1,0,0:0:0:0:
256,192,47923,1,0,0:0:0:0:
256,192,47982,1,8,0:0:0:0:
256,192,48158,5,0,0:0:0:0:
128,324,48217,5,0,0:0:0:0:
256,192,48335,5,0,0:0:0:0:
256,192,48423,1,0,0:0:0:0:
256,192,48511,5,8,0:0:0:0:
256,192,48570,1,8,0:0:0:0:
256,192,48688,1,0,0:0:0:0:
256,192,48746,1,0,0:0:0:0:
256,192,48864,5,12,0:0:0:0:
256,192,48908,12,0,49482,0:0:0:0:
256,192,49570,5,4,0:0:0:0:
128,324,49835,5,0,0:0:0:0:
256,192,49923,1,8,0:0:0:0:
256,192,49982,1,8,0:0:0:0:
256,192,50041,1,8,0:0:0:0:
256,192,50099,1,0,0:0:0:0:
256,192,50276,5,8,0:0:0:0:
256,192,50629,5,0,0:0:0:0:
256,192,50805,1,8,0:0:0:0:
256,192,50864,1,0,0:0:0:0:
256,192,50982,5,8,0:0:0:0:
256,192,51026,1,8,0:0:0:0:
256,192,51070,1,0,0:0:0:0:
128,324,51335,5,8,0:0:0:0:
128,324,51511,1,0,0:0:0:0:
128,324,51599,1,0,0:0:0:0:
256,192,51688,5,8,0:0:0:0:
128,324,51746,1,8,0:0:0:0:
256,192,51805,1,0,0:0:0:0:
256,192,51923,1,0,0:0:0:0:
256,192,52041,1,8,0:0:0:0:
128,324,52099,1,8,0:0:0:0:
256,192,52158,1,0,0:0:0:0:
128,324,52276,1,8,0:0:0:0:
128,324,52394,5,0,0:0:0:0:
128,324,52438,1,8,0:0:0:0:
256,192,52746,5,8,0:0:0:0:
256,192,52805,1,8,0:0:0:0:
256,192,52864,1,8,0:0:0:0:
256,192,52923,1,0,0:0:0:0:
256,192,53041,1,8,0:0:0:0:
256,192,53099,1,0,0:0:0:0:
256,192,53276,5,8,0:0:0:0:
256,192,53335,1,0,0:0:0:0:
256,192,53394,1,0,0:0:0:0:
256,192,53452,1,8,0:0:0:0:
256,192,53570,1,0,0:0:0:0:
256,192,53629,1,8,0:0:0:0:
128,324,53717,1,8,0:0:0:0:
128,324,53805,5,0,0:0:0:0:
256,192,53864,1,0,0:0:0:0:
256,192,53982,1,0,0:0:0:0:
256,192,54070,1,0,0:0:0:0:
256,192,54158,5,8,0:0:0:0:
256,192,54217,1,8,0:0:0:0:
256,192,54335,1,8,0:0:0:0:
256,192,54394,1,8,0:0:0:0:
256,192,54511,5,0,0:0:0:0:
256,192,54599,1,0,0:0:0:0:
256,192,54688,1,8,0:0:0:0:
128,324,54746,1,8,0:0:0:0:
256,192,54805,1,0,0:0:0:0:
256,192,54864,1,0,0:0:0:0:
256,192,54952,5,8,0:0:0:0:
256,192,55041,5,8,0:0:0:0:
256,192,55129,5,8,0:0:0:0:
256,192,55217,5,4,0:0:0:0:
256,192,55570,5,8,0:0:0:0:
256,192,55629,1,8,0:0:0:0:
256,192,55688,1,8,0:0:0:0:
256,192,55746,1,0,0:0:0:0:
128,324,55835,1,0,0:0:0:0:
128,324,55923,5,8,0:0:0:0:
256,192,56276,5,0,0:0:0:0:
128,324,56452,1,8,0:0:0:0:
256,192,56511,1,0,0:0:0:0:
128,324,56629,5,8,0:0:0:0:
128,324,56688,1,8,0:0:0:0:
128,324,56746,1,0,0:0:0:0:
128,324,56805,1,0,0:0:0:0:
128,324,56864,5,8,0:0:0:0:
256,192,56923,1,8,0:0:0:0:
128,324,56982,1,0,0:0:0:0:
256,192,57070,1,0,0:0:0:0:
128,324,57158,5,8,0:0:0:0:
256,192,57246,1,0,0:0:0:0:
256,192,57335,1,8,0:0:0:0:
256,192,57394,1,0,0:0:0:0:
128,324,57452,1,0,0:0:0:0:
128,324,57570,1,0,0:0:0:0:
128,324,57688,5,8,0:0:0:0:
128,324,57746,1,0,0:0:0:0:
256,192,57805,1,0,0:0:0:0:
256,192,57923,5,8,0:0:0:0:
256,192,58041,5,4,0:0:0:0:
256,192,58085,12,0,58658,0:0:0:0:
128,324,58746,5,0,0:0:0:0:
128,324,58805,1,0,0:0:0:0:
128,324,58864,1,8,0:0:0:0:
128,324,58923,1,8,0:0:0:0:
128,324,59011,1,0,0:0:0:0:
128,324,59099,5,8,0:0:0:0:
256,192,59158,1,8,0:0:0:0:
128,324,59217,1,0,0:0:0:0:
256,192,59276,1,8,0:0:0:0:
256,192,59364,1,8,0:0:0:0:
256,192,59452,5,0,0:0:0:0:
256,192,59629,1,0,0:0:0:0:
256,192,59717,1,0,0:0:0:0:
256,192,59805,1,8,0:0:0:0:
256,192,59864,1,0,0:0:0:0:
256,192,59982,1,8,0:0:0:0:
256,192,60041,1,0,0:0:0:0:
256,192,60158,5,8,0:0:0:0:
256,192,60217,1,0,0:0:0:0:
256,192,60276,1,0,0:0:0:0:
256,192,60335,1,8,0:0:0:0:
256,192,60394,5,8,0:0:0:0:
256,192,60452,1,0,0:0:0:0:
256,192,60511,1,8,0:0:0:0:
256,192,60582,1,8,0:0:0:0:
256,192,60652,5,8,0:0:0:0:
256,192,60723,1,0,0:0:0:0:
256,192,60794,1,0,0:0:0:0:
256,192,60864,5,12,0:0:0:0:
256,192,61217,1,0,0:0:0:0:
256,192,61394,1,8,0:0:0:0:
256,192,61438,1,8,0:0:0:0:
256,192,61570,1,0,0:0:0:0:
128,324,61629,1,0,0:0:0:0:
128,324,61688,1,0,0:0:0:0:
128,324,61746,1,8,0:0:0:0:
128,324,61835,1,8,0:0:0:0:
256,192,61923,1,0,0:0:0:0:
256,192,62099,1,8,0:0:0:0:
256,192,62158,1,0,0:0:0:0:
256,192,62276,1,8,0:0:0:0:
256,192,62320,1,8,0:0:0:0:
256,192,62364,1,0,0:0:0:0:
128,324,62452,1,8,0:0:0:0:
128,324,62541,1,8,0:0:0:0:
128,324,62629,1,0,0:0:0:0:
256,192,62805,1,0,0:0:0:0:
256,192,62894,1,0,0:0:0:0:
256,192,62982,1,8,0:0:0:0:
256,192,63041,1,0,0:0:0:0:
256,192,63158,1,8,0:0:0:0:
256,192,63217,1,0,0:0:0:0:
256,192,63335,1,8,0:0:0:0:
256,192,63394,1,8,0:0:0:0:
256,192,63452,1,8,0:0:0:0:
256,192,63511,1,0,0:0:0:0:
256,192,63688,1,0,0:0:0:0:
128,324,63746,1,0,0:0:0:0:
128,324,63805,1,0,0:0:0:0:
128,324,63864,1,8,0:0:0:0:
128,324,63923,1,8,0:0:0:0:
128,324,63982,1,8,0:0:0:0:
256,192,64041,1,0,0:0:0:0:
256,192,64217,1,8,0:0:0:0:
256,192,64305,1,0,0:0:0:0:
256,192,64394,1,8,0:0:0:0:
256,192,64452,1,8,0:0:0:0:
256,192,64511,1,0,0:0:0:0:
256,192,64570,1,8,0:0:0:0:
256,192,64658,1,8,0:0:0:0:
256,192,64746,1,0,0:0:0:0:
256,192,64805,1,0,0:0:0:0:
256,192,64864,1,0,0:0:0:0:
256,192,64923,1,8,0:0:0:0:
256,192,65011,1,8,0:0:0:0:
256,192,65099,1,0,0:0:0:0:
256,192,65276,1,0,0:0:0:0:
256,192,65364,1,0,0:0:0:0:
256,192,65452,1,8,0:0:0:0:
256,192,65511,1,8,0:0:0:0:
256,192,65629,1,8,0:0:0:0:
256,192,65688,1,8,0:0:0:0:
128,324,65805,1,0,0:0:0:0:
256,192,65864,1,0,0:0:0:0:
128,324,65982,1,8,0:0:0:0:
256,192,66041,1,8,0:0:0:0:
256,192,66099,1,0,0:0:0:0:
256,192,66158,1,8,0:0:0:0:
128,324,66246,1,8,0:0:0:0:
128,324,66335,1,0,0:0:0:0:
128,324,66511,1,12,0:0:0:0:
256,192,66864,1,0,0:0:0:0:
256,192,67041,1,8,0:0:0:0:
256,192,67085,1,8,0:0:0:0:
256,192,67217,1,0,0:0:0:0:
128,324,67276,1,0,0:0:0:0:
128,324,67335,1,0,0:0:0:0:
128,324,67394,1,8,0:0:0:0:
128,324,67482,1,8,0:0:0:0:
256,192,67570,1,0,0:0:0:0:
256,192,67688,1,8,0:0:0:0:
256,192,67805,1,8,0:0:0:0:
256,192,67923,1,0,0:0:0:0:
128,324,67982,1,0,0:0:0:0:
128,324,68041,1,0,0:0:0:0:
128,324,68099,1,8,0:0:0:0:
128,324,68188,1,8,0:0:0:0:
256,192,68276,1,0,0:0:0:0:
128,324,68394,1,8,0:0:0:0:
256,192,68511,1,8,0:0:0:0:
128,324,68629,1,0,0:0:0:0:
128,324,68688,1,0,0:0:0:0:
256,192,68805,1,0,0:0:0:0:
256,192,68864,1,0,0:0:0:0:
256,192,68982,1,8,0:0:0:0:
256,192,69041,1,8,0:0:0:0:
128,324,69099,1,8,0:0:0:0:
128,324,69158,1,0,0:0:0:0:
256,192,69335,1,12,0:0:0:0:
256,192,69379,12,0,69952,0:0:0:0:
128,324,70041,5,0,0:0:0:0:
128,324,70099,1,0,0:0:0:0:
128,324,70158,1,8,0:0:0:0:
128,324,70217,1,8,0:0:0:0:
256,192,70305,1,8,0:0:0:0:
256,192,70394,1,0,0:0:0:0:
256,192,70452,1,0,0:0:0:0:
128,324,70511,1,0,0:0:0:0:
256,192,70570,1,8,0:0:0:0:
256,192,70658,1,8,0:0:0:0:
256,192,70746,1,0,0:0:0:0:
256,192,70920,1,0,0:0:0:0:
256,192,71007,1,0,0:0:0:0:
256,192,71094,1,8,0:0:0:0:
256,192,71152,1,0,0:0:0:0:
256,192,71268,1,8,0:0:0:0:
256,192,71326,1,0,0:0:0:0:
256,192,71442,1,12,0:0:0:0:
256,192,71486,12,0,72052,0:0:0:0:
256,192,72139,5,4,0:0:0:0:
411,132,72491,1,8,0:0:0:0:
119,277,72668,1,0,0:0:0:0:
119,277,73021,1,0,0:0:0:0:
411,132,73197,1,8,0:0:0:0:
119,277,73727,1,0,0:0:0:0:
411,132,73903,1,8,0:0:0:0:
119,277,74080,1,0,0:0:0:0:
119,277,74168,1,0,0:0:0:0:
119,277,74433,1,0,0:0:0:0:
119,277,74521,1,0,0:0:0:0:
411,132,74609,1,8,0:0:0:0:
411,132,74786,1,8,0:0:0:0:
119,277,74962,1,0,0:0:0:0:
411,132,75312,1,8,0:0:0:0:
119,277,75488,1,0,0:0:0:0:
119,277,75839,1,0,0:0:0:0:
411,132,76014,1,8,0:0:0:0:
119,277,76535,1,0,0:0:0:0:
411,132,76705,1,8,0:0:0:0:
411,132,76876,1,8,0:0:0:0:
411,132,76961,1,8,0:0:0:0:
119,277,77046,1,0,0:0:0:0:
119,277,77217,1,0,0:0:0:0:
411,132,77387,1,8,0:0:0:0:
411,132,77558,1,8,0:0:0:0:
119,277,77728,1,0,0:0:0:0:
411,132,78059,1,8,0:0:0:0:
119,277,78225,1,0,0:0:0:0:
119,277,78556,1,0,0:0:0:0:
411,132,78722,1,8,0:0:0:0:
411,132,78888,1,8,0:0:0:0:
119,277,79053,1,0,0:0:0:0:
119,277,79212,1,0,0:0:0:0:
119,277,79292,1,0,0:0:0:0:
411,132,79372,1,8,0:0:0:0:
119,277,79531,1,0,0:0:0:0:
119,277,79611,1,0,0:0:0:0:
119,277,79850,1,0,0:0:0:0:
119,277,79930,1,0,0:0:0:0:
411,132,80010,1,8,0:0:0:0:
411,132,80170,1,8,0:0:0:0:
119,277,80329,1,0,0:0:0:0:
411,132,80639,1,8,0:0:0:0:
119,277,80795,1,0,0:0:0:0:
119,277,81106,1,0,0:0:0:0:
411,132,81261,1,8,0:0:0:0:
119,277,81572,1,0,0:0:0:0:
119,277,81722,1,0,0:0:0:0:
411,132,81873,1,8,0:0:0:0:
119,277,82024,1,0,0:0:0:0:
119,277,82099,1,0,0:0:0:0:
411,132,82175,1,8,0:0:0:0:
119,277,82325,1,0,0:0:0:0:
119,277,82401,1,0,0:0:0:0:
411,132,82476,1,8,0:0:0:0:
119,277,82551,1,0,0:0:0:0:
411,132,82627,1,8,0:0:0:0:
411,132,82702,1,8,0:0:0:0:
119,277,82778,1,4,0:0:0:0:
411,132,83075,1,8,0:0:0:0:
411,132,83372,1,8,0:0:0:0:
411,132,83669,1,8,0:0:0:0:
119,277,83966,1,0,0:0:0:0:
411,132,84251,1,8,0:0:0:0:
411,132,84537,1,8,0:0:0:0:
411,132,84823,1,8,0:0:0:0:
411,132,84894,1,8,0:0:0:0:
411,132,84966,1,8,0:0:0:0:
411,132,85037,1,8,0:0:0:0:
119,277,85108,1,0,0:0:0:0:
411,132,85385,1,8,0:0:0:0:
411,132,85663,1,8,0:0:0:0:
411,132,85941,1,8,0:0:0:0:
119,277,86219,1,0,0:0:0:0:
411,132,86493,1,8,0:0:0:0:
411,132,86768,1,8,0:0:0:0:
411,132,87042,1,8,0:0:0:0:
411,132,87111,1,8,0:0:0:0:
411,132,87180,1,8,0:0:0:0:
411,132,87248,1,8,0:0:0:0:
119,277,87317,1,4,0:0:0:0:
411,132,87589,1,8,0:0:0:0:
119,277,87862,1,0,0:0:0:0:
411,132,88135,1,8,0:0:0:0:
119,277,88407,1,0,0:0:0:0:
119,277,88544,1,0,0:0:0:0:
411,132,88680,1,8,0:0:0:0:
411,132,88817,1,8,0:0:0:0:
119,277,88953,1,0,0:0:0:0:
119,277,89089,1,0,0:0:0:0:
411,132,89226,1,8,0:0:0:0:
411,132,89294,1,8,0:0:0:0:
411,132,89362,1,8,0:0:0:0:
411,132,89430,1,8,0:0:0:0:
119,277,89498,1,0,0:0:0:0:
411,132,89567,1,8,0:0:0:0:
411,132,89635,1,8,0:0:0:0:
411,132,89703,1,8,0:0:0:0:
119,277,89771,1,0,0:0:0:0:
411,132,89839,1,8,0:0:0:0:
411,132,89907,1,8,0:0:0:0:
411,132,89976,1,8,0:0:0:0:
119,277,90044,1,0,0:0:0:0:
411,132,90112,1,8,0:0:0:0:
411,132,90180,1,8,0:0:0:0:
411,132,90248,1,8,0:0:0:0:
119,277,90317,1,0,0:0:0:0:
411,132,90385,1,8,0:0:0:0:
411,132,90453,1,8,0:0:0:0:
411,132,90521,1,8,0:0:0:0:
119,277,90589,1,4,0:0:0:0:
411,132,90862,1,8,0:0:0:0:
411,132,90907,1,8,0:0:0:0:
119,277,90953,1,0,0:0:0:0:
411,132,90998,1,8,0:0:0:0:
411,132,91135,1,8,0:0:0:0:
119,277,91544,1,0,0:0:0:0:
411,132,91680,1,12,0:0:0:0:
119,277,91953,1,0,0:0:0:0:
119,277,92021,1,0,0:0:0:0:
119,277,92089,1,0,0:0:0:0:
119,277,92157,1,0,0:0:0:0:
411,132,92226,1,8,0:0:0:0:
119,277,92407,1,0,0:0:0:0:
119,277,92453,1,0,0:0:0:0:
411,132,92498,1,8,0:0:0:0:
411,132,92680,1,8,0:0:0:0:
411,132,92726,1,8,0:0:0:0:
119,277,92771,1,0,0:0:0:0:
411,132,93317,1,8,0:0:0:0:
411,132,93362,1,8,0:0:0:0:
119,277,93407,1,0,0:0:0:0:
119,277,93453,1,0,0:0:0:0:
119,277,93498,1,0,0:0:0:0:
119,277,93544,1,0,0:0:0:0:
411,132,93862,1,8,0:0:0:0:
411,132,93896,1,8,0:0:0:0:
119,277,94044,1,0,0:0:0:0:
119,277,94135,1,0,0:0:0:0:
411,132,94317,1,8,0:0:0:0:
119,277,94407,1,0,0:0:0:0:
411,132,94589,1,8,0:0:0:0:
411,132,94635,1,8,0:0:0:0:
119,277,94680,1,0,0:0:0:0:
119,277,94862,1,0,0:0:0:0:
119,277,94907,1,0,0:0:0:0:
411,132,94953,1,8,0:0:0:0:
119,277,95135,1,0,0:0:0:0:
119,277,95226,1,0,0:0:0:0:
411,132,95498,1,8,0:0:0:0:
411,132,95544,1,8,0:0:0:0:
119,277,95589,1,0,0:0:0:0:
411,132,95680,1,8,0:0:0:0:
119,277,95771,1,0,0:0:0:0:
119,277,96044,1,0,0:0:0:0:
119,277,96078,1,0,0:0:0:0:
411,132,96317,1,8,0:0:0:0:
119,277,96521,1,0,0:0:0:0:
411,132,96589,1,8,0:0:0:0:
411,132,96635,1,8,0:0:0:0:
411,132,96680,1,8,0:0:0:0:
119,277,96726,1,0,0:0:0:0:
119,277,96794,1,0,0:0:0:0:
411,132,96862,1,8,0:0:0:0:
119,277,97044,1,0,0:0:0:0:
119,277,97089,1,0,0:0:0:0:
411,132,97135,1,8,0:0:0:0:
119,277,97680,1,0,0:0:0:0:
119,277,97726,1,0,0:0:0:0:
119,277,97771,1,0,0:0:0:0:
119,277,97817,1,0,0:0:0:0:
411,132,97862,1,8,0:0:0:0:
411,132,97907,1,8,0:0:0:0:
119,277,98226,1,0,0:0:0:0:
119,277,98271,1,0,0:0:0:0:
411,132,98317,1,8,0:0:0:0:
411,132,98362,1,8,0:0:0:0:
119,277,98430,1,0,0:0:0:0:
411,132,98498,1,8,0:0:0:0:
411,132,98544,1,8,0:0:0:0:
119,277,98589,1,0,0:0:0:0:
411,132,98635,1,8,0:0:0:0:
411,132,98703,1,8,0:0:0:0:
119,277,98771,1,0,0:0:0:0:
119,277,98953,1,0,0:0:0:0:
411,132,99044,1,8,0:0:0:0:
411,132,99226,1,8,0:0:0:0:
119,277,99317,1,0,0:0:0:0:
411,132,99498,1,12,0:0:0:0:
411,132,99771,1,8,0:0:0:0:
119,277,99862,1,4,0:0:0:0:
119,277,100044,1,0,0:0:0:0:
119,277,100089,1,0,0:0:0:0:
411,132,100135,1,12,0:0:0:0:
119,277,100407,1,4,0:0:0:0:
119,277,100680,1,0,0:0:0:0:
119,277,100748,1,0,0:0:0:0:
119,277,100817,1,0,0:0:0:0:
119,277,100885,1,0,0:0:0:0:
411,132,100953,1,8,0:0:0:0:
119,277,101135,1,0,0:0:0:0:
119,277,101180,1,0,0:0:0:0:
411,132,101226,1,8,0:0:0:0:
411,132,101407,1,8,0:0:0:0:
411,132,101453,1,8,0:0:0:0:
119,277,101498,1,0,0:0:0:0:
119,277,102044,1,0,0:0:0:0:
119,277,102089,1,0,0:0:0:0:
411,132,102135,1,8,0:0:0:0:
411,132,102180,1,8,0:0:0:0:
119,277,102226,1,0,0:0:0:0:
119,277,102271,1,0,0:0:0:0:
411,132,102317,1,8,0:0:0:0:
411,132,102385,1,8,0:0:0:0:
411,132,102470,1,8,0:0:0:0:
119,277,102589,1,0,0:0:0:0:
119,277,102657,1,0,0:0:0:0:
119,277,102726,1,0,0:0:0:0:
119,277,102794,1,0,0:0:0:0:
411,132,102862,1,8,0:0:0:0:
411,132,102907,1,8,0:0:0:0:
119,277,102953,1,0,0:0:0:0:
411,132,103067,1,8,0:0:0:0:
411,132,103112,1,8,0:0:0:0:
119,277,103157,1,0,0:0:0:0:
411,132,103271,1,8,0:0:0:0:
411,132,103327,1,8,0:0:0:0:
119,277,103385,1,0,0:0:0:0:
411,132,103476,1,8,0:0:0:0:
411,132,103532,1,8,0:0:0:0:
119,277,103589,1,0,0:0:0:0:
411,132,103680,1,8,0:0:0:0:
411,132,103748,1,8,0:0:0:0:
119,277,103817,1,0,0:0:0:0:
411,132,103885,1,8,0:0:0:0:
128,324,103953,1,8,0:0:0:0:
128,324,104021,1,0,0:0:0:0:
411,132,104089,1,8,0:0:0:0:
128,324,104157,1,8,0:0:0:0:
119,277,104226,1,0,0:0:0:0:
411,132,104294,1,8,0:0:0:0:
411,132,104362,1,8,0:0:0:0:
119,277,104430,1,0,0:0:0:0:
411,132,104498,1,8,0:0:0:0:
411,132,104567,1,8,0:0:0:0:
119,277,104635,1,0,0:0:0:0:
411,132,104703,1,8,0:0:0:0:
119,277,104771,1,4,0:0:0:0:
119,277,105044,1,0,0:0:0:0:
119,277,105112,1,0,0:0:0:0:
119,277,105180,1,0,0:0:0:0:
119,277,105248,1,0,0:0:0:0:
411,132,105317,1,8,0:0:0:0:
119,277,105498,1,0,0:0:0:0:
119,277,105544,1,0,0:0:0:0:
411,132,105589,1,8,0:0:0:0:
411,132,105771,1,8,0:0:0:0:
411,132,105817,1,8,0:0:0:0:
119,277,105862,1,0,0:0:0:0:
411,132,106044,1,8,0:0:0:0:
119,277,106135,1,0,0:0:0:0:
411,132,106407,1,12,0:0:0:0:
119,277,106953,1,0,0:0:0:0:
119,277,106998,1,0,0:0:0:0:
411,132,107044,1,8,0:0:0:0:
411,132,107089,1,8,0:0:0:0:
119,277,107157,1,0,0:0:0:0:
411,132,107226,1,8,0:0:0:0:
411,132,107271,1,8,0:0:0:0:
119,277,107317,1,0,0:0:0:0:
411,132,107362,1,8,0:0:0:0:
411,132,107430,1,8,0:0:0:0:
119,277,107498,1,0,0:0:0:0:
119,277,107567,1,0,0:0:0:0:
411,132,107635,1,8,0:0:0:0:
411,132,107726,1,8,0:0:0:0:
411,132,107817,1,8,0:0:0:0:
119,277,107907,1,0,0:0:0:0:
119,277,107953,1,0,0:0:0:0:
119,277,107998,1,0,0:0:0:0:
119,277,108180,1,0,0:0:0:0:
119,277,108203,1,0,0:0:0:0:
119,277,108589,1,0,0:0:0:0:
119,277,108623,1,0,0:0:0:0:
119,277,108771,1,0,0:0:0:0:
411,132,108862,1,12,0:0:0:0:
119,277,109135,1,4,0:0:0:0:
411,132,109317,1,8,0:0:0:0:
119,277,109407,1,0,0:0:0:0:
119,277,109498,1,0,0:0:0:0:
411,132,109589,1,8,0:0:0:0:
119,277,109635,1,0,0:0:0:0:
411,132,109680,1,8,0:0:0:0:
411,132,109771,1,8,0:0:0:0:
119,277,109862,1,0,0:0:0:0:
411,132,109953,1,8,0:0:0:0:
119,277,110135,1,0,0:0:0:0:
119,277,110180,1,0,0:0:0:0:
411,132,110226,1,8,0:0:0:0:
119,277,110498,1,0,0:0:0:0:
119,277,110521,1,0,0:0:0:0:
411,132,110771,1,8,0:0:0:0:
411,132,110794,1,8,0:0:0:0:
119,277,110817,1,0,0:0:0:0:
119,277,110839,1,0,0:0:0:0:
411,132,111317,1,8,0:0:0:0:
411,132,111351,1,8,0:0:0:0:
119,277,111498,1,0,0:0:0:0:
119,277,111589,1,0,0:0:0:0:
411,132,111771,1,8,0:0:0:0:
119,277,111862,1,0,0:0:0:0:
411,132,112044,1,8,0:0:0:0:
411,132,112089,1,8,0:0:0:0:
119,277,112135,1,0,0:0:0:0:
119,277,112317,1,0,0:0:0:0:
119,277,112362,1,0,0:0:0:0:
411,132,112407,1,8,0:0:0:0:
119,277,112589,1,0,0:0:0:0:
119,277,112680,1,0,0:0:0:0:
411,132,112953,1,8,0:0:0:0:
411,132,112998,1,8,0:0:0:0:
119,277,113044,1,0,0:0:0:0:
411,132,113135,1,8,0:0:0:0:
119,277,113226,1,0,0:0:0:0:
119,277,113498,1,0,0:0:0:0:
119,277,113532,1,0,0:0:0:0:
411,132,113771,1,8,0:0:0:0:
119,277,113976,1,0,0:0:0:0:
411,132,114044,1,8,0:0:0:0:
411,132,114089,1,8,0:0:0:0:
411,132,114135,1,8,0:0:0:0:
119,277,114180,1,0,0:0:0:0:
119,277,114248,1,0,0:0:0:0:
411,132,114317,1,8,0:0:0:0:
119,277,114498,1,0,0:0:0:0:
119,277,114544,1,0,0:0:0:0:
411,132,114589,1,8,0:0:0:0:
119,277,114862,1,0,0:0:0:0:
119,277,114907,1,0,0:0:0:0:
411,132,114953,1,8,0:0:0:0:
411,132,114998,1,8,0:0:0:0:
119,277,115135,1,0,0:0:0:0:
128,324,115203,1,0,0:0:0:0:
119,277,115271,1,0,0:0:0:0:
119,277,115339,1,0,0:0:0:0:
128,324,115407,1,0,0:0:0:0:
119,277,115476,1,0,0:0:0:0:
119,277,115544,1,0,0:0:0:0:
119,277,115612,1,0,0:0:0:0:
411,132,115680,1,12,0:0:0:0:
411,132,115953,1,12,0:0:0:0:
119,277,116226,1,4,0:0:0:0:
411,132,116407,1,8,0:0:0:0:
119,277,116498,1,4,0:0:0:0:
411,132,116680,1,8,0:0:0:0:
119,277,116726,1,0,0:0:0:0:
119,277,116771,1,0,0:0:0:0:
411,132,116953,1,12,0:0:0:0:
411,132,117226,1,8,0:0:0:0:
119,277,117317,1,4,0:0:0:0:
119,277,117498,1,0,0:0:0:0:
119,277,117544,1,0,0:0:0:0:
411,132,117589,1,12,0:0:0:0:
119,277,117862,1,4,0:0:0:0:
119,277,118135,1,0,0:0:0:0:
119,277,118203,1,0,0:0:0:0:
119,277,118271,1,0,0:0:0:0:
119,277,118339,1,0,0:0:0:0:
411,132,118407,1,8,0:0:0:0:
119,277,118589,1,0,0:0:0:0:
119,277,118635,1,0,0:0:0:0:
411,132,118680,1,8,0:0:0:0:
411,132,118862,1,8,0:0:0:0:
411,132,118907,1,8,0:0:0:0:
119,277,118953,1,0,0:0:0:0:
411,132,119498,1,8,0:0:0:0:
411,132,119544,1,8,0:0:0:0:
411,132,119589,1,8,0:0:0:0:
119,277,119635,1,0,0:0:0:0:
119,277,119680,1,0,0:0:0:0:
119,277,119726,1,0,0:0:0:0:
411,132,119771,1,8,0:0:0:0:
411,132,119839,1,8,0:0:0:0:
411,132,119924,1,8,0:0:0:0:
119,277,120044,1,0,0:0:0:0:
119,277,120112,1,0,0:0:0:0:
119,277,120180,1,0,0:0:0:0:
119,277,120248,1,0,0:0:0:0:
411,132,120317,1,8,0:0:0:0:
411,132,120362,1,8,0:0:0:0:
119,277,120407,1,0,0:0:0:0:
411,132,120521,1,8,0:0:0:0:
411,132,120567,1,8,0:0:0:0:
119,277,120612,1,0,0:0:0:0:
411,132,120726,1,8,0:0:0:0:
411,132,120782,1,8,0:0:0:0:
119,277,120839,1,0,0:0:0:0:
411,132,120930,1,8,0:0:0:0:
411,132,120987,1,8,0:0:0:0:
119,277,121044,1,0,0:0:0:0:
411,132,121135,1,8,0:0:0:0:
411,132,121203,1,8,0:0:0:0:
119,277,121271,1,0,0:0:0:0:
411,132,121339,1,8,0:0:0:0:
128,324,121407,1,8,0:0:0:0:
128,324,121476,1,0,0:0:0:0:
411,132,121544,1,8,0:0:0:0:
128,324,121612,1,8,0:0:0:0:
119,277,121680,1,0,0:0:0:0:
411,132,121748,1,8,0:0:0:0:
411,132,121817,1,8,0:0:0:0:
119,277,121885,1,0,0:0:0:0:
411,132,121953,1,8,0:0:0:0:
411,132,122021,1,8,0:0:0:0:
119,277,122089,1,0,0:0:0:0:
411,132,122157,1,8,0:0:0:0:
119,277,122226,1,4,0:0:0:0:
119,277,122498,1,0,0:0:0:0:
119,277,122567,1,0,0:0:0:0:
119,277,122635,1,0,0:0:0:0:
119,277,122703,1,0,0:0:0:0:
411,132,122771,1,8,0:0:0:0:
119,277,122953,1,0,0:0:0:0:
119,277,122998,1,0,0:0:0:0:
411,132,123044,1,8,0:0:0:0:
411,132,123226,1,8,0:0:0:0:
411,132,123271,1,8,0:0:0:0:
119,277,123317,1,0,0:0:0:0:
411,132,123498,1,8,0:0:0:0:
119,277,123589,1,0,0:0:0:0:
411,132,123862,1,12,0:0:0:0:
119,277,124407,1,0,0:0:0:0:
119,277,124453,1,0,0:0:0:0:
411,132,124498,1,8,0:0:0:0:
411,132,124544,1,8,0:0:0:0:
119,277,124612,1,0,0:0:0:0:
411,132,124680,1,8,0:0:0:0:
411,132,124726,1,8,0:0:0:0:
119,277,124771,1,0,0:0:0:0:
411,132,124817,1,8,0:0:0:0:
411,132,124885,1,8,0:0:0:0:
119,277,124953,1,0,0:0:0:0:
119,277,125021,1,0,0:0:0:0:
411,132,125089,1,8,0:0:0:0:
411,132,125180,1,8,0:0:0:0:
411,132,125271,1,8,0:0:0:0:
119,277,125362,1,0,0:0:0:0:
119,277,125407,1,0,0:0:0:0:
119,277,125453,1,0,0:0:0:0:
119,277,125589,1,0,0:0:0:0:
119,277,125635,1,0,0:0:0:0:
411,132,125680,1,8,0:0:0:0:
256,192,126044,1,0,0:0:0:0:
119,277,126078,1,0,0:0:0:0:
119,277,126226,1,0,0:0:0:0:
411,132,126317,1,12,0:0:0:0:
128,324,126589,5,12,0:0:0:0:
256,192,130773,5,0,0:0:0:0:
256,192,131017,1,8,0:0:0:0:
256,192,131262,1,0,0:0:0:0:
256,192,131507,1,0,0:0:0:0:
256,192,131752,1,8,0:0:0:0:
256,192,131997,1,0,0:0:0:0:
256,192,132242,1,8,0:0:0:0:
256,192,132487,1,8,0:0:0:0:
256,192,132732,1,0,0:0:0:0:
256,192,132966,1,8,0:0:0:0:
256,192,133200,1,0,0:0:0:0:
256,192,133435,1,0,0:0:0:0:
256,192,133669,1,8,0:0:0:0:
256,192,133903,1,8,0:0:0:0:
256,192,134138,1,0,0:0:0:0:
256,192,134372,1,8,0:0:0:0:
256,192,134607,1,4,0:0:0:0:
256,192,134947,1,0,0:0:0:0:
256,192,135061,1,8,0:0:0:0:
256,192,135288,1,0,0:0:0:0:
256,192,135516,1,0,0:0:0:0:
256,192,135743,1,0,0:0:0:0:
256,192,135970,1,8,0:0:0:0:
256,192,136197,1,0,0:0:0:0:
256,192,136425,1,8,0:0:0:0:
128,324,136643,1,8,0:0:0:0:
128,324,136861,1,0,0:0:0:0:
256,192,137079,1,0,0:0:0:0:
256,192,137297,1,8,0:0:0:0:
256,192,137515,1,0,0:0:0:0:
128,324,137734,1,8,0:0:0:0:
256,192,137952,1,8,0:0:0:0:
256,192,138170,1,0,0:0:0:0:
256,192,138380,1,0,0:0:0:0:
256,192,138591,1,8,0:0:0:0:
256,192,138801,1,0,0:0:0:0:
256,192,139012,1,8,0:0:0:0:
256,192,139222,1,8,0:0:0:0:
256,192,139433,1,0,0:0:0:0:
256,192,139643,1,8,0:0:0:0:
256,192,139854,1,0,0:0:0:0:
256,192,140057,1,0,0:0:0:0:
256,192,140260,1,8,0:0:0:0:
128,324,140464,1,0,0:0:0:0:
256,192,140667,1,0,0:0:0:0:
256,192,140870,1,0,0:0:0:0:
256,192,141074,1,8,0:0:0:0:
256,192,141277,1,8,0:0:0:0:
256,192,141481,1,4,0:0:0:0:
256,192,142262,1,0,0:0:0:0:
256,192,143044,1,0,0:0:0:0:
256,192,143805,1,0,0:0:0:0:
256,192,144567,1,0,0:0:0:0:
256,192,144936,1,8,0:0:0:0:
256,192,145305,1,0,0:0:0:0:
256,192,145674,1,8,0:0:0:0:
256,192,146043,1,8,0:0:0:0:
256,192,146401,1,0,0:0:0:0:
256,192,146759,1,8,0:0:0:0:
256,192,147117,1,8,0:0:0:0:
256,192,147475,1,4,0:0:0:0:
256,192,147741,1,0,0:0:0:0:
256,192,147830,1,8,0:0:0:0:
128,324,147918,1,8,0:0:0:0:
128,324,148007,1,0,0:0:0:0:
256,192,148185,1,0,0:0:0:0:
256,192,148362,1,0,0:0:0:0:
256,192,148451,1,0,0:0:0:0:
256,192,148540,1,8,0:0:0:0:
256,192,148628,1,8,0:0:0:0:
128,324,148806,1,8,0:0:0:0:
256,192,148895,1,0,0:0:0:0:
256,192,149072,1,0,0:0:0:0:
256,192,149161,1,0,0:0:0:0:
128,324,149250,1,8,0:0:0:0:
256,192,149427,1,0,0:0:0:0:
256,192,149605,1,8,0:0:0:0:
256,192,149693,1,8,0:0:0:0:
256,192,149871,1,8,0:0:0:0:
256,192,149960,1,0,0:0:0:0:
256,192,150048,1,0,0:0:0:0:
256,192,150137,1,8,0:0:0:0:
256,192,150226,1,8,0:0:0:0:
256,192,150315,1,4,0:0:0:0:
256,192,150667,1,8,0:0:0:0:
256,192,151020,1,0,0:0:0:0:
256,192,151373,1,8,0:0:0:0:
128,324,151726,1,0,0:0:0:0:
256,192,151903,1,0,0:0:0:0:
256,192,152079,1,8,0:0:0:0:
256,192,152256,1,0,0:0:0:0:
256,192,152432,1,8,0:0:0:0:
128,324,152520,1,0,0:0:0:0:
128,324,152609,1,8,0:0:0:0:
128,324,152697,1,0,0:0:0:0:
128,324,152785,1,8,0:0:0:0:
256,192,152873,1,8,0:0:0:0:
128,324,152962,1,8,0:0:0:0:
256,192,153050,1,8,0:0:0:0:
256,192,153138,1,4,0:0:0:0:
256,192,153403,1,0,0:0:0:0:
256,192,153491,1,8,0:0:0:0:
256,192,153550,1,8,0:0:0:0:
256,192,153609,1,8,0:0:0:0:
256,192,153667,1,0,0:0:0:0:
256,192,153756,1,0,0:0:0:0:
256,192,153844,1,8,0:0:0:0:
256,192,154020,1,0,0:0:0:0:
256,192,154109,1,8,0:0:0:0:
256,192,154167,1,8,0:0:0:0:
128,324,154226,1,0,0:0:0:0:
128,324,154285,1,0,0:0:0:0:
128,324,154373,1,8,0:0:0:0:
256,192,154550,1,8,0:0:0:0:
256,192,154594,1,8,0:0:0:0:
256,192,154638,1,0,0:0:0:0:
256,192,154726,1,8,0:0:0:0:
256,192,154815,1,8,0:0:0:0:
256,192,154903,1,0,0:0:0:0:
256,192,155079,1,0,0:0:0:0:
256,192,155167,1,0,0:0:0:0:
256,192,155256,1,8,0:0:0:0:
256,192,155315,1,0,0:0:0:0:
256,192,155432,1,8,0:0:0:0:
256,192,155491,1,0,0:0:0:0:
256,192,155609,1,8,0:0:0:0:
256,192,155667,1,8,0:0:0:0:
256,192,155726,1,8,0:0:0:0:
256,192,155785,1,0,0:0:0:0:
256,192,155962,1,12,0:0:0:0:
256,192,156315,1,8,0:0:0:0:
256,192,156403,1,0,0:0:0:0:
256,192,156491,1,8,0:0:0:0:
256,192,156579,1,0,0:0:0:0:
256,192,156667,1,8,0:0:0:0:
256,192,156712,1,8,0:0:0:0:
256,192,156756,1,0,0:0:0:0:
256,192,156800,1,0,0:0:0:0:
256,192,156844,1,8,0:0:0:0:
256,192,156932,1,8,0:0:0:0:
256,192,157020,1,0,0:0:0:0:
256,192,157079,1,0,0:0:0:0:
256,192,157138,1,0,0:0:0:0:
128,324,157197,1,8,0:0:0:0:
128,324,157285,1,8,0:0:0:0:
128,324,157373,1,0,0:0:0:0:
256,192,157550,1,0,0:0:0:0:
256,192,157638,1,0,0:0:0:0:
256,192,157726,1,8,0:0:0:0:
256,192,157785,1,8,0:0:0:0:
128,324,157903,1,8,0:0:0:0:
128,324,157962,1,8,0:0:0:0:
128,324,158079,1,0,0:0:0:0:
128,324,158138,1,0,0:0:0:0:
128,324,158197,1,0,0:0:0:0:
128,324,158256,1,8,0:0:0:0:
128,324,158344,1,0,0:0:0:0:
128,324,158432,1,8,0:0:0:0:
256,192,158609,1,8,0:0:0:0:
256,192,158785,1,4,0:0:0:0:
256,192,159138,1,8,0:0:0:0:
256,192,159197,1,8,0:0:0:0:
128,324,159256,1,8,0:0:0:0:
256,192,159315,1,0,0:0:0:0:
128,324,159403,1,0,0:0:0:0:
256,192,159491,1,8,0:0:0:0:
256,192,159667,1,0,0:0:0:0:
128,324,159756,1,8,0:0:0:0:
128,324,159815,1,8,0:0:0:0:
128,324,159873,1,0,0:0:0:0:
128,324,159932,1,8,0:0:0:0:
256,192,160020,1,0,0:0:0:0:
128,324,160197,1,8,0:0:0:0:
128,324,160256,1,8,0:0:0:0:
128,324,160315,1,8,0:0:0:0:
128,324,160373,1,0,0:0:0:0:
128,324,160462,1,0,0:0:0:0:
128,324,160550,1,8,0:0:0:0:
128,324,160726,1,0,0:0:0:0:
128,324,160815,1,0,0:0:0:0:
256,192,160903,1,8,0:0:0:0:
128,324,160962,1,8,0:0:0:0:
256,192,161079,1,8,0:0:0:0:
256,192,161138,1,0,0:0:0:0:
256,192,161256,1,8,0:0:0:0:
128,324,161315,1,8,0:0:0:0:
128,324,161373,1,8,0:0:0:0:
256,192,161432,1,0,0:0:0:0:
128,324,161609,1,12,0:0:0:0:
256,192,161653,12,0,162226,0:0:0:0:
256,192,162315,5,0,0:0:0:0:
256,192,162373,1,0,0:0:0:0:
256,192,162491,1,8,0:0:0:0:
256,192,162550,1,8,0:0:0:0:
256,192,162667,1,0,0:0:0:0:
256,192,162726,1,0,0:0:0:0:
256,192,162785,1,0,0:0:0:0:
256,192,162844,1,8,0:0:0:0:
256,192,162932,1,8,0:0:0:0:
256,192,163020,1,0,0:0:0:0:
128,324,163079,1,0,0:0:0:0:
128,324,163197,1,0,0:0:0:0:
128,324,163285,1,0,0:0:0:0:
128,324,163373,1,8,0:0:0:0:
256,192,163432,1,8,0:0:0:0:
256,192,163550,1,0,0:0:0:0:
128,324,163609,1,0,0:0:0:0:
256,192,163726,1,12,0:0:0:0:
256,192,163770,12,0,164344,0:0:0:0:
256,192,164432,5,4,0:0:0:0:
256,192,164697,1,0,0:0:0:0:
256,192,164785,1,8,0:0:0:0:
256,192,164844,1,8,0:0:0:0:
256,192,164903,1,8,0:0:0:0:
256,192,164962,1,0,0:0:0:0:
256,192,165050,1,0,0:0:0:0:
256,192,165138,1,8,0:0:0:0:
256,192,165315,1,0,0:0:0:0:
256,192,165403,1,8,0:0:0:0:
256,192,165462,1,8,0:0:0:0:
128,324,165520,1,0,0:0:0:0:
128,324,165579,1,0,0:0:0:0:
128,324,165667,1,8,0:0:0:0:
256,192,165844,1,8,0:0:0:0:
256,192,165888,1,8,0:0:0:0:
256,192,165932,1,0,0:0:0:0:
256,192,166020,1,8,0:0:0:0:
256,192,166109,1,8,0:0:0:0:
256,192,166197,1,0,0:0:0:0:
256,192,166373,1,0,0:0:0:0:
256,192,166462,1,0,0:0:0:0:
256,192,166550,1,8,0:0:0:0:
256,192,166609,1,8,0:0:0:0:
256,192,166667,1,0,0:0:0:0:
256,192,166785,1,8,0:0:0:0:
256,192,166844,1,8,0:0:0:0:
256,192,166903,1,0,0:0:0:0:
256,192,166962,1,0,0:0:0:0:
128,324,167079,1,8,0:0:0:0:
256,192,167138,1,8,0:0:0:0:
256,192,167197,1,8,0:0:0:0:
256,192,167256,1,0,0:0:0:0:
256,192,167609,1,8,0:0:0:0:
256,192,167667,1,8,0:0:0:0:
256,192,167726,1,8,0:0:0:0:
256,192,167785,1,0,0:0:0:0:
256,192,167903,1,8,0:0:0:0:
128,324,167962,1,0,0:0:0:0:
256,192,168138,1,8,0:0:0:0:
256,192,168197,1,0,0:0:0:0:
256,192,168256,1,0,0:0:0:0:
256,192,168315,1,8,0:0:0:0:
256,192,168432,1,0,0:0:0:0:
256,192,168491,1,8,0:0:0:0:
256,192,168579,1,8,0:0:0:0:
256,192,168667,1,0,0:0:0:0:
256,192,168726,1,0,0:0:0:0:
256,192,168844,1,0,0:0:0:0:
256,192,168932,1,0,0:0:0:0:
256,192,169020,1,8,0:0:0:0:
256,192,169079,1,8,0:0:0:0:
256,192,169197,1,8,0:0:0:0:
256,192,169256,1,8,0:0:0:0:
256,192,169373,1,0,0:0:0:0:
256,192,169462,1,0,0:0:0:0:
256,192,169550,1,8,0:0:0:0:
256,192,169609,1,8,0:0:0:0:
256,192,169667,1,0,0:0:0:0:
256,192,169726,1,0,0:0:0:0:
256,192,169815,1,8,0:0:0:0:
256,192,169903,1,8,0:0:0:0:
256,192,169991,1,8,0:0:0:0:
256,192,170079,1,4,0:0:0:0:
256,192,170432,1,8,0:0:0:0:
256,192,170491,1,0,0:0:0:0:
256,192,170550,1,0,0:0:0:0:
256,192,170609,1,8,0:0:0:0:
256,192,170697,1,8,0:0:0:0:
256,192,170785,1,0,0:0:0:0:
256,192,170962,1,8,0:0:0:0:
128,324,171050,1,0,0:0:0:0:
128,324,171109,1,0,0:0:0:0:
128,324,171167,1,8,0:0:0:0:
256,192,171226,1,8,0:0:0:0:
256,192,171315,1,0,0:0:0:0:
128,324,171491,1,8,0:0:0:0:
128,324,171550,1,8,0:0:0:0:
256,192,171609,1,0,0:0:0:0:
256,192,171667,1,0,0:0:0:0:
256,192,171726,1,8,0:0:0:0:
256,192,171785,1,8,0:0:0:0:
256,192,171844,1,0,0:0:0:0:
256,192,171932,1,0,0:0:0:0:
256,192,172020,1,8,0:0:0:0:
256,192,172109,1,0,0:0:0:0:
256,192,172197,1,8,0:0:0:0:
256,192,172256,1,8,0:0:0:0:
256,192,172314,1,0,0:0:0:0:
256,192,172432,1,8,0:0:0:0:
256,192,172491,1,8,0:0:0:0:
256,192,172550,1,0,0:0:0:0:
256,192,172609,1,0,0:0:0:0:
256,192,172726,1,8,0:0:0:0:
256,192,172785,1,8,0:0:0:0:
128,324,172844,1,8,0:0:0:0:
256,192,172903,1,4,0:0:0:0:
256,192,172947,12,0,173520,0:0:0:0:
256,192,173609,5,0,0:0:0:0:
256,192,173667,1,0,0:0:0:0:
256,192,173726,1,8,0:0:0:0:
256,192,173785,1,8,0:0:0:0:
256,192,173873,1,0,0:0:0:0:
256,192,173962,1,8,0:0:0:0:
256,192,174020,1,8,0:0:0:0:
256,192,174079,1,0,0:0:0:0:
256,192,174138,1,8,0:0:0:0:
256,192,174226,1,8,0:0:0:0:
256,192,174315,1,0,0:0:0:0:
128,324,174491,1,0,0:0:0:0:
128,324,174579,1,0,0:0:0:0:
128,324,174667,1,8,0:0:0:0:
256,192,174726,1,0,0:0:0:0:
256,192,174844,1,8,0:0:0:0:
256,192,174903,1,0,0:0:0:0:
256,192,175020,1,8,0:0:0:0:
256,192,175079,1,8,0:0:0:0:
256,192,175138,1,0,0:0:0:0:
256,192,175197,1,0,0:0:0:0:
256,192,175256,1,8,0:0:0:0:
256,192,175315,1,0,0:0:0:0:
256,192,175373,1,0,0:0:0:0:
256,192,175444,1,8,0:0:0:0:
256,192,175514,1,0,0:0:0:0:
256,192,175585,1,8,0:0:0:0:
256,192,175656,1,8,0:0:0:0:
256,192,175726,1,4,0:0:0:0:
256,192,176079,1,0,0:0:0:0:
256,192,176138,1,0,0:0:0:0:
256,192,176197,1,0,0:0:0:0:
256,192,176256,1,8,0:0:0:0:
256,192,176344,1,0,0:0:0:0:
256,192,176432,1,8,0:0:0:0:
256,192,176609,1,0,0:0:0:0:
256,192,176697,1,8,0:0:0:0:
256,192,176756,1,8,0:0:0:0:
128,324,176814,1,0,0:0:0:0:
128,324,176873,1,0,0:0:0:0:
128,324,176962,1,8,0:0:0:0:
256,192,177138,1,8,0:0:0:0:
256,192,177182,1,8,0:0:0:0:
256,192,177226,1,0,0:0:0:0:
256,192,177314,1,8,0:0:0:0:
256,192,177403,1,8,0:0:0:0:
256,192,177491,1,0,0:0:0:0:
256,192,177667,1,0,0:0:0:0:
256,192,177756,1,0,0:0:0:0:
256,192,177844,1,8,0:0:0:0:
256,192,177903,1,0,0:0:0:0:
256,192,178020,1,8,0:0:0:0:
256,192,178079,1,0,0:0:0:0:
256,192,178197,1,8,0:0:0:0:
128,324,178256,1,8,0:0:0:0:
256,192,178314,1,8,0:0:0:0:
256,192,178373,1,0,0:0:0:0:
256,192,178550,1,0,0:0:0:0:
256,192,178609,1,0,0:0:0:0:
256,192,178667,1,0,0:0:0:0:
256,192,178726,1,8,0:0:0:0:
256,192,178785,1,8,0:0:0:0:
256,192,178844,1,8,0:0:0:0:
256,192,178903,1,0,0:0:0:0:
256,192,179079,1,8,0:0:0:0:
128,324,179167,1,0,0:0:0:0:
256,192,179256,1,8,0:0:0:0:
128,324,179314,1,8,0:0:0:0:
128,324,179373,1,0,0:0:0:0:
256,192,179432,1,8,0:0:0:0:
256,192,179520,1,8,0:0:0:0:
256,192,179609,1,0,0:0:0:0:
256,192,179667,1,0,0:0:0:0:
256,192,179726,1,0,0:0:0:0:
256,192,179785,1,8,0:0:0:0:
256,192,179873,1,8,0:0:0:0:
256,192,179962,1,0,0:0:0:0:
256,192,180138,1,0,0:0:0:0:
256,192,180226,1,0,0:0:0:0:
256,192,180314,1,8,0:0:0:0:
256,192,180373,1,8,0:0:0:0:
256,192,180491,1,8,0:0:0:0:
256,192,180550,1,8,0:0:0:0:
256,192,180667,1,0,0:0:0:0:
256,192,180726,1,0,0:0:0:0:
256,192,180785,1,8,0:0:0:0:
256,192,180844,1,0,0:0:0:0:
256,192,180903,1,8,0:0:0:0:
256,192,180962,1,8,0:0:0:0:
256,192,181020,1,0,0:0:0:0:
256,192,181109,1,0,0:0:0:0:
256,192,181197,1,8,0:0:0:0:
256,192,181373,1,4,0:0:0:0:
256,192,181550,1,8,0:0:0:0:
256,192,181609,1,8,0:0:0:0:
256,192,181667,1,8,0:0:0:0:
256,192,181726,1,0,0:0:0:0:
256,192,181814,1,0,0:0:0:0:
256,192,181903,1,8,0:0:0:0:
256,192,182079,1,0,0:0:0:0:
256,192,182138,1,0,0:0:0:0:
256,192,182197,1,0,0:0:0:0:
256,192,182256,1,8,0:0:0:0:
128,324,182344,1,8,0:0:0:0:
128,324,182432,1,0,0:0:0:0:
256,192,182550,1,8,0:0:0:0:
256,192,182667,1,8,0:0:0:0:
256,192,182785,1,0,0:0:0:0:
128,324,182844,1,0,0:0:0:0:
128,324,182903,1,0,0:0:0:0:
256,192,182962,1,8,0:0:0:0:
256,192,183050,1,8,0:0:0:0:
128,324,183138,1,0,0:0:0:0:
128,324,183256,1,8,0:0:0:0:
128,324,183373,1,8,0:0:0:0:
128,324,183491,1,0,0:0:0:0:
256,192,183550,1,0,0:0:0:0:
256,192,183667,1,0,0:0:0:0:
256,192,183726,1,0,0:0:0:0:
256,192,183844,1,8,0:0:0:0:
256,192,183903,1,8,0:0:0:0:
256,192,183962,1,8,0:0:0:0:
256,192,184020,1,0,0:0:0:0:
256,192,184197,1,12,0:0:0:0:
256,192,184241,12,0,184814,0:0:0:0:
128,324,184903,5,0,0:0:0:0:
128,324,184962,1,0,0:0:0:0:
128,324,185020,1,8,0:0:0:0:
128,324,185079,1,8,0:0:0:0:
128,324,185167,1,0,0:0:0:0:
128,324,185256,1,8,0:0:0:0:
256,192,185314,1,8,0:0:0:0:
128,324,185373,1,0,0:0:0:0:
256,192,185432,1,8,0:0:0:0:
256,192,185520,1,8,0:0:0:0:
256,192,185609,1,0,0:0:0:0:
128,324,185785,1,0,0:0:0:0:
128,324,185873,1,0,0:0:0:0:
128,324,185962,1,8,0:0:0:0:
256,192,186020,1,0,0:0:0:0:
256,192,186138,1,8,0:0:0:0:
256,192,186197,1,0,0:0:0:0:
256,192,186314,1,12,0:0:0:0:
256,192,186359,12,0,186844,0:0:0:0:
119,277,187020,5,4,0:0:0:0:
119,277,187701,1,0,0:0:0:0:
119,277,188346,1,0,0:0:0:0:
119,277,188946,1,0,0:0:0:0:
119,277,189522,1,4,0:0:0:0:
119,277,190067,1,0,0:0:0:0:
119,277,190588,1,0,0:0:0:0:
119,277,191088,1,0,0:0:0:0:
411,132,191324,1,8,0:0:0:0:
411,132,191383,1,8,0:0:0:0:
411,132,191442,1,8,0:0:0:0:
411,132,191501,1,8,0:0:0:0:
119,277,191560,1,4,0:0:0:0:
119,277,192014,1,0,0:0:0:0:
119,277,192445,1,0,0:0:0:0:
119,277,192858,1,0,0:0:0:0:
119,277,193258,1,4,0:0:0:0:
119,277,193647,1,0,0:0:0:0:
119,277,194026,1,0,0:0:0:0:
119,277,194381,1,0,0:0:0:0:
411,132,194551,1,8,0:0:0:0:
411,132,194594,1,8,0:0:0:0:
411,132,194636,1,8,0:0:0:0:
411,132,194679,1,8,0:0:0:0:
119,277,194721,1,0,0:0:0:0:
119,277,195052,1,0,0:0:0:0:
411,132,195383,1,8,0:0:0:0:
411,132,195697,1,8,0:0:0:0:
119,277,196011,1,0,0:0:0:0:
411,132,196159,1,8,0:0:0:0:
119,277,196308,1,0,0:0:0:0:
119,277,196456,1,0,0:0:0:0:
411,132,196605,1,8,0:0:0:0:
119,277,196746,1,0,0:0:0:0:
411,132,196888,1,8,0:0:0:0:
411,132,197029,1,8,0:0:0:0:
119,277,197171,1,0,0:0:0:0:
411,132,197239,1,8,0:0:0:0:
119,277,197307,1,0,0:0:0:0:
119,277,197375,1,0,0:0:0:0:
411,132,197443,1,8,0:0:0:0:
119,277,197511,1,0,0:0:0:0:
411,132,197580,1,8,0:0:0:0:
411,132,197648,1,8,0:0:0:0:
119,277,197716,1,0,0:0:0:0:
119,277,197784,1,0,0:0:0:0:
119,277,197852,1,0,0:0:0:0:
119,277,197921,1,0,0:0:0:0:
411,132,197989,1,8,0:0:0:0:
411,132,198057,1,8,0:0:0:0:
411,132,198125,1,8,0:0:0:0:
411,132,198193,1,8,0:0:0:0:
119,277,198261,1,4,0:0:0:0:
411,132,198534,1,8,0:0:0:0:
411,132,198580,1,8,0:0:0:0:
119,277,198625,1,0,0:0:0:0:
411,132,198671,1,8,0:0:0:0:
411,132,198807,1,8,0:0:0:0:
119,277,199080,1,0,0:0:0:0:
119,277,199261,1,0,0:0:0:0:
411,132,199352,1,12,0:0:0:0:
119,277,199625,1,0,0:0:0:0:
119,277,199807,1,0,0:0:0:0:
411,132,199898,1,8,0:0:0:0:
411,132,199932,1,8,0:0:0:0:
411,132,200080,1,8,0:0:0:0:
119,277,200171,1,0,0:0:0:0:
119,277,200205,1,0,0:0:0:0:
411,132,200261,1,8,0:0:0:0:
411,132,200352,1,8,0:0:0:0:
119,277,200443,1,0,0:0:0:0:
119,277,200511,1,0,0:0:0:0:
119,277,200580,1,0,0:0:0:0:
119,277,200648,1,0,0:0:0:0:
411,132,200716,1,8,0:0:0:0:
411,132,200898,1,8,0:0:0:0:
119,277,200989,1,0,0:0:0:0:
119,277,201034,1,0,0:0:0:0:
411,132,201080,1,8,0:0:0:0:
411,132,201125,1,8,0:0:0:0:
119,277,201171,1,0,0:0:0:0:
411,132,201261,1,8,0:0:0:0:
411,132,201330,1,8,0:0:0:0:
119,277,201398,1,0,0:0:0:0:
411,132,201534,1,8,0:0:0:0:
411,132,201580,1,8,0:0:0:0:
411,132,201625,1,8,0:0:0:0:
119,277,201671,1,0,0:0:0:0:
119,277,201716,1,0,0:0:0:0:
119,277,201761,1,0,0:0:0:0:
411,132,201807,1,8,0:0:0:0:
411,132,201989,1,8,0:0:0:0:
119,277,202080,1,0,0:0:0:0:
119,277,202125,1,0,0:0:0:0:
119,277,202352,1,0,0:0:0:0:
411,132,202386,1,8,0:0:0:0:
411,132,202534,1,8,0:0:0:0:
119,277,202625,1,0,0:0:0:0:
119,277,202693,1,0,0:0:0:0:
119,277,202761,1,0,0:0:0:0:
119,277,202830,1,0,0:0:0:0:
411,132,202898,1,8,0:0:0:0:
411,132,202943,1,8,0:0:0:0:
119,277,202989,1,0,0:0:0:0:
411,132,203034,1,8,0:0:0:0:
411,132,203102,1,8,0:0:0:0:
119,277,203171,1,0,0:0:0:0:
119,277,203205,1,0,0:0:0:0:
119,277,203352,1,0,0:0:0:0:
411,132,203443,1,8,0:0:0:0:
411,132,203534,1,8,0:0:0:0:
411,132,203625,1,8,0:0:0:0:
119,277,203716,1,0,0:0:0:0:
119,277,203761,1,0,0:0:0:0:
119,277,203807,1,0,0:0:0:0:
119,277,203852,1,0,0:0:0:0:
411,132,203898,1,8,0:0:0:0:
411,132,203943,1,8,0:0:0:0:
119,277,203989,1,0,0:0:0:0:
119,277,204171,1,0,0:0:0:0:
411,132,204261,1,8,0:0:0:0:
411,132,204307,1,8,0:0:0:0:
411,132,204443,1,8,0:0:0:0:
119,277,204534,1,0,0:0:0:0:
119,277,204568,1,0,0:0:0:0:
119,277,204716,1,0,0:0:0:0:
411,132,204807,1,8,0:0:0:0:
411,132,204852,1,8,0:0:0:0:
411,132,204898,1,8,0:0:0:0:
119,277,204943,1,0,0:0:0:0:
119,277,205011,1,0,0:0:0:0:
411,132,205080,1,8,0:0:0:0:
411,132,205125,1,8,0:0:0:0:
119,277,205171,1,0,0:0:0:0:
411,132,205216,1,8,0:0:0:0:
411,132,205284,1,8,0:0:0:0:
119,277,205352,1,0,0:0:0:0:
119,277,205421,1,0,0:0:0:0:
119,277,205489,1,0,0:0:0:0:
119,277,205557,1,0,0:0:0:0:
411,132,205625,1,8,0:0:0:0:
119,277,205727,1,0,0:0:0:0:
411,132,205898,1,8,0:0:0:0:
411,132,205943,1,8,0:0:0:0:
119,277,205989,1,0,0:0:0:0:
411,132,206034,1,8,0:0:0:0:
411,132,206102,1,8,0:0:0:0:
119,277,206171,1,0,0:0:0:0:
119,277,206216,1,0,0:0:0:0:
119,277,206261,1,0,0:0:0:0:
411,132,206307,1,8,0:0:0:0:
411,132,206375,1,8,0:0:0:0:
119,277,206443,1,0,0:0:0:0:
119,277,206511,1,0,0:0:0:0:
411,132,206580,1,8,0:0:0:0:
411,132,206671,1,8,0:0:0:0:
411,132,206761,1,8,0:0:0:0:
119,277,206852,1,0,0:0:0:0:
119,277,206898,1,0,0:0:0:0:
411,132,206943,1,8,0:0:0:0:
119,277,206989,1,0,0:0:0:0:
411,132,207171,1,12,0:0:0:0:
411,132,207443,1,8,0:0:0:0:
119,277,207534,1,4,0:0:0:0:
119,277,207716,1,0,0:0:0:0:
119,277,207761,1,0,0:0:0:0:
411,132,207807,1,12,0:0:0:0:
119,277,208080,1,4,0:0:0:0:
119,277,208352,1,0,0:0:0:0:
119,277,208534,1,0,0:0:0:0:
411,132,208625,1,8,0:0:0:0:
411,132,208659,1,8,0:0:0:0:
411,132,208807,1,8,0:0:0:0:
119,277,208898,1,0,0:0:0:0:
119,277,208932,1,0,0:0:0:0:
411,132,208989,1,8,0:0:0:0:
411,132,209080,1,8,0:0:0:0:
119,277,209171,1,0,0:0:0:0:
119,277,209239,1,0,0:0:0:0:
119,277,209307,1,0,0:0:0:0:
119,277,209375,1,0,0:0:0:0:
411,132,209443,1,8,0:0:0:0:
411,132,209489,1,8,0:0:0:0:
119,277,209534,1,0,0:0:0:0:
119,277,209625,1,0,0:0:0:0:
411,132,209716,1,8,0:0:0:0:
119,277,209989,1,0,0:0:0:0:
119,277,210171,1,0,0:0:0:0:
411,132,210261,1,8,0:0:0:0:
119,277,210352,1,0,0:0:0:0:
411,132,210443,1,8,0:0:0:0:
411,132,210489,1,8,0:0:0:0:
119,277,210534,1,0,0:0:0:0:
411,132,210625,1,8,0:0:0:0:
411,132,210671,1,8,0:0:0:0:
119,277,210716,1,0,0:0:0:0:
411,132,210807,1,8,0:0:0:0:
411,132,210861,1,8,0:0:0:0:
119,277,210916,1,0,0:0:0:0:
411,132,210989,1,8,0:0:0:0:
411,132,211046,1,8,0:0:0:0:
119,277,211102,1,0,0:0:0:0:
411,132,211171,1,8,0:0:0:0:
128,324,211216,1,8,0:0:0:0:
119,277,211261,1,0,0:0:0:0:
411,132,211352,1,8,0:0:0:0:
411,132,211443,1,8,0:0:0:0:
119,277,211534,1,0,0:0:0:0:
119,277,211580,1,0,0:0:0:0:
119,277,211625,1,0,0:0:0:0:
411,132,211716,1,8,0:0:0:0:
411,132,211807,1,8,0:0:0:0:
119,277,211898,1,0,0:0:0:0:
119,277,211966,1,0,0:0:0:0:
411,132,212034,1,8,0:0:0:0:
411,132,212102,1,8,0:0:0:0:
119,277,212171,1,0,0:0:0:0:
411,132,212261,1,8,0:0:0:0:
411,132,212352,1,8,0:0:0:0:
119,277,212443,1,4,0:0:0:0:
119,277,212716,1,0,0:0:0:0:
119,277,212784,1,0,0:0:0:0:
119,277,212852,1,0,0:0:0:0:
119,277,212921,1,0,0:0:0:0:
411,132,212989,1,8,0:0:0:0:
119,277,213171,1,0,0:0:0:0:
119,277,213216,1,0,0:0:0:0:
411,132,213261,1,8,0:0:0:0:
411,132,213443,1,8,0:0:0:0:
411,132,213489,1,8,0:0:0:0:
119,277,213534,1,0,0:0:0:0:
411,132,213716,1,8,0:0:0:0:
119,277,213807,1,0,0:0:0:0:
411,132,214080,1,12,0:0:0:0:
411,132,214261,1,8,0:0:0:0:
119,277,214352,1,0,0:0:0:0:
411,132,214534,1,8,0:0:0:0:
119,277,214625,1,0,0:0:0:0:
119,277,214671,1,0,0:0:0:0:
411,132,214716,1,8,0:0:0:0:
411,132,214761,1,8,0:0:0:0:
119,277,214830,1,0,0:0:0:0:
411,132,214898,1,8,0:0:0:0:
411,132,214943,1,8,0:0:0:0:
119,277,214989,1,0,0:0:0:0:
411,132,215034,1,8,0:0:0:0:
411,132,215102,1,8,0:0:0:0:
119,277,215171,1,0,0:0:0:0:
119,277,215239,1,0,0:0:0:0:
411,132,215307,1,8,0:0:0:0:
411,132,215398,1,8,0:0:0:0:
411,132,215489,1,8,0:0:0:0:
119,277,215580,1,0,0:0:0:0:
119,277,215625,1,0,0:0:0:0:
411,132,215671,1,8,0:0:0:0:
411,132,215716,1,8,0:0:0:0:
119,277,215852,1,0,0:0:0:0:
119,277,215875,1,0,0:0:0:0:
119,277,216261,1,0,0:0:0:0:
119,277,216296,1,0,0:0:0:0:
119,277,216443,1,0,0:0:0:0:
411,132,216534,1,12,0:0:0:0:
119,277,216807,1,4,0:0:0:0:
411,132,216983,1,8,0:0:0:0:
119,277,217072,1,0,0:0:0:0:
119,277,217160,1,0,0:0:0:0:
411,132,217249,1,8,0:0:0:0:
119,277,217293,1,0,0:0:0:0:
411,132,217337,1,8,0:0:0:0:
411,132,217426,1,8,0:0:0:0:
119,277,217514,1,0,0:0:0:0:
411,132,217603,1,8,0:0:0:0:
119,277,217780,1,0,0:0:0:0:
411,132,217868,1,8,0:0:0:0:
411,132,218045,1,8,0:0:0:0:
411,132,218090,1,8,0:0:0:0:
119,277,218134,1,0,0:0:0:0:
411,132,218399,1,8,0:0:0:0:
411,132,218444,1,8,0:0:0:0:
119,277,218488,1,0,0:0:0:0:
411,132,218576,1,8,0:0:0:0:
411,132,218665,1,8,0:0:0:0:
119,277,218709,1,0,0:0:0:0:
119,277,218753,1,0,0:0:0:0:
411,132,218842,1,8,0:0:0:0:
119,277,218930,1,0,0:0:0:0:
119,277,218997,1,0,0:0:0:0:
119,277,219063,1,0,0:0:0:0:
119,277,219130,1,0,0:0:0:0:
411,132,219196,1,8,0:0:0:0:
411,132,219373,1,8,0:0:0:0:
119,277,219461,1,0,0:0:0:0:
119,277,219550,1,0,0:0:0:0:
411,132,219638,1,8,0:0:0:0:
119,277,219727,1,0,0:0:0:0:
119,277,219904,1,0,0:0:0:0:
119,277,219948,1,0,0:0:0:0:
411,132,219992,1,8,0:0:0:0:
119,277,220059,1,0,0:0:0:0:
119,277,220125,1,0,0:0:0:0:
119,277,220191,1,0,0:0:0:0:
411,132,220258,1,8,0:0:0:0:
411,132,220291,1,8,0:0:0:0:
119,277,220435,1,0,0:0:0:0:
411,132,220523,1,8,0:0:0:0:
411,132,220568,1,8,0:0:0:0:
119,277,220612,1,0,0:0:0:0:
411,132,220700,1,8,0:0:0:0:
119,277,220789,1,0,0:0:0:0:
119,277,220833,1,0,0:0:0:0:
119,277,220877,1,0,0:0:0:0:
411,132,220966,1,8,0:0:0:0:
119,277,221054,1,0,0:0:0:0:
119,277,221087,1,0,0:0:0:0:
411,132,221320,1,8,0:0:0:0:
119,277,221497,1,0,0:0:0:0:
411,132,221585,1,8,0:0:0:0:
411,132,221630,1,8,0:0:0:0:
411,132,221674,1,8,0:0:0:0:
119,277,221718,1,0,0:0:0:0:
119,277,221784,1,0,0:0:0:0:
411,132,221851,1,8,0:0:0:0:
411,132,221939,1,8,0:0:0:0:
119,277,222028,1,0,0:0:0:0:
411,132,222116,1,8,0:0:0:0:
411,132,222183,1,8,0:0:0:0:
411,132,222249,1,8,0:0:0:0:
411,132,222315,1,8,0:0:0:0:
119,277,222382,1,0,0:0:0:0:
119,277,222426,1,0,0:0:0:0:
411,132,222470,1,8,0:0:0:0:
411,132,222514,1,8,0:0:0:0:
119,277,222647,1,0,0:0:0:0:
119,277,222714,1,0,0:0:0:0:
119,277,222780,1,0,0:0:0:0:
119,277,222846,1,0,0:0:0:0:
119,277,222913,1,0,0:0:0:0:
119,277,223001,1,0,0:0:0:0:
119,277,223090,1,0,0:0:0:0:
411,132,223178,1,12,0:0:0:0:
411,132,223444,1,12,0:0:0:0:
119,277,223709,1,4,0:0:0:0:
411,132,223886,1,8,0:0:0:0:
119,277,223975,1,4,0:0:0:0:
411,132,224152,1,8,0:0:0:0:
119,277,224196,1,0,0:0:0:0:
119,277,224240,1,0,0:0:0:0:
119,277,224417,1,4,0:0:0:0:
119,277,224683,1,0,0:0:0:0:
411,132,224771,1,12,0:0:0:0:
411,132,225037,1,12,0:0:0:0:
119,277,225302,1,4,0:0:0:0:
119,277,225568,1,0,0:0:0:0:
119,277,225656,1,0,0:0:0:0:
119,277,225745,1,0,0:0:0:0:
411,132,225833,1,8,0:0:0:0:
411,132,225866,1,8,0:0:0:0:
411,132,226010,1,8,0:0:0:0:
119,277,226099,1,0,0:0:0:0:
119,277,226132,1,0,0:0:0:0:
411,132,226187,1,8,0:0:0:0:
411,132,226276,1,8,0:0:0:0:
119,277,226364,1,0,0:0:0:0:
119,277,226430,1,0,0:0:0:0:
119,277,226497,1,0,0:0:0:0:
119,277,226563,1,0,0:0:0:0:
411,132,226630,1,8,0:0:0:0:
411,132,226674,1,8,0:0:0:0:
119,277,226718,1,0,0:0:0:0:
119,277,226807,1,0,0:0:0:0:
411,132,226895,1,8,0:0:0:0:
119,277,227160,1,0,0:0:0:0:
119,277,227337,1,0,0:0:0:0:
411,132,227426,1,8,0:0:0:0:
119,277,227514,1,0,0:0:0:0:
411,132,227603,1,8,0:0:0:0:
411,132,227647,1,8,0:0:0:0:
119,277,227691,1,0,0:0:0:0:
411,132,227780,1,8,0:0:0:0:
411,132,227824,1,8,0:0:0:0:
119,277,227868,1,0,0:0:0:0:
411,132,227957,1,8,0:0:0:0:
411,132,228010,1,8,0:0:0:0:
119,277,228063,1,0,0:0:0:0:
411,132,228134,1,8,0:0:0:0:
411,132,228189,1,8,0:0:0:0:
119,277,228256,1,0,0:0:0:0:
411,132,228311,1,8,0:0:0:0:
411,132,228372,1,8,0:0:0:0:
119,277,228435,1,0,0:0:0:0:
411,132,228488,1,8,0:0:0:0:
411,132,228576,1,8,0:0:0:0:
119,277,228665,1,0,0:0:0:0:
119,277,228709,1,0,0:0:0:0:
119,277,228753,1,0,0:0:0:0:
411,132,228842,1,8,0:0:0:0:
411,132,228930,1,8,0:0:0:0:
119,277,229019,1,0,0:0:0:0:
119,277,229085,1,0,0:0:0:0:
411,132,229152,1,8,0:0:0:0:
411,132,229218,1,8,0:0:0:0:
119,277,229284,1,0,0:0:0:0:
411,132,229373,1,8,0:0:0:0:
411,132,229461,1,8,0:0:0:0:
119,277,229550,1,4,0:0:0:0:
119,277,229815,1,0,0:0:0:0:
119,277,229882,1,0,0:0:0:0:
119,277,229948,1,0,0:0:0:0:
119,277,230014,1,0,0:0:0:0:
411,132,230081,1,8,0:0:0:0:
119,277,230258,1,0,0:0:0:0:
119,277,230302,1,0,0:0:0:0:
411,132,230346,1,8,0:0:0:0:
411,132,230523,1,8,0:0:0:0:
119,277,230612,1,0,0:0:0:0:
119,277,230678,1,0,0:0:0:0:
119,277,230745,1,0,0:0:0:0:
119,277,230811,1,0,0:0:0:0:
411,132,230877,1,8,0:0:0:0:
411,132,230966,1,8,0:0:0:0:
119,277,231054,1,0,0:0:0:0:
411,132,231143,1,8,0:0:0:0:
411,132,231187,1,8,0:0:0:0:
119,277,231231,1,0,0:0:0:0:
119,277,231320,1,0,0:0:0:0:
411,132,231408,1,8,0:0:0:0:
411,132,231585,1,8,0:0:0:0:
119,277,231674,1,0,0:0:0:0:
119,277,231718,1,0,0:0:0:0:
411,132,231762,1,8,0:0:0:0:
411,132,231807,1,8,0:0:0:0:
119,277,231873,1,0,0:0:0:0:
411,132,231939,1,8,0:0:0:0:
411,132,231983,1,8,0:0:0:0:
119,277,232028,1,0,0:0:0:0:
411,132,232072,1,8,0:0:0:0:
411,132,232138,1,8,0:0:0:0:
119,277,232205,1,0,0:0:0:0:
119,277,232271,1,0,0:0:0:0:
119,277,232337,1,0,0:0:0:0:
119,277,232404,1,0,0:0:0:0:
411,132,232470,1,8,0:0:0:0:
411,132,232559,1,8,0:0:0:0:
119,277,232647,1,0,0:0:0:0:
119,277,232691,1,0,0:0:0:0:
411,132,232736,1,8,0:0:0:0:
119,277,232824,1,0,0:0:0:0:
411,132,232913,1,12,0:0:0:0:
411,132,233178,1,8,0:0:0:0:
119,277,233267,1,0,0:0:0:0:
119,277,233300,1,0,0:0:0:0:
119,277,233444,1,0,0:0:0:0:
411,132,233532,1,12,0:0:0:0:
411,132,233798,1,8,0:0:0:0:
119,277,234343,1,0,0:0:0:0:
411,132,234888,1,8,0:0:0:0:
119,277,235434,1,0,0:0:0:0:
411,132,236019,1,8,0:0:0:0:
119,277,236619,1,0,0:0:0:0:
411,132,237219,1,8,0:0:0:0:
119,277,237850,1,0,0:0:0:0:
411,132,238482,1,8,0:0:0:0:
119,277,239148,1,0,0:0:0:0:
411,132,239833,1,8,0:0:0:0:
119,277,240538,1,0,0:0:0:0:
411,132,241274,1,8,0:0:0:0:
256,192,242053,1,8,0:0:0:0:
256,192,242922,1,0,0:0:0:0:
256,192,243897,1,0,0:0:0:0:
119,277,264229,5,0,0:0:0:0:
119,277,265657,1,0,0:0:0:0:
119,277,266990,1,0,0:0:0:0:
119,277,268240,1,0,0:0:0:0:
119,277,269416,1,0,0:0:0:0:
119,277,270506,1,0,0:0:0:0:
119,277,271522,1,0,0:0:0:0:
119,277,272505,1,0,0:0:0:0:
119,277,273442,1,0,0:0:0:0:
119,277,274311,1,0,0:0:0:0:
119,277,275156,1,0,0:0:0:0:
119,277,275956,1,0,0:0:0:0:
119,277,276725,1,0,0:0:0:0:
119,277,277465,1,0,0:0:0:0:
119,277,278179,1,0,0:0:0:0:
119,277,278860,1,0,0:0:0:0:
119,277,279526,1,0,0:0:0:0:
119,277,280157,1,0,0:0:0:0:
119,277,280769,1,0,0:0:0:0:
119,277,281363,1,0,0:0:0:0:
119,277,281939,1,0,0:0:0:0:
119,277,282489,1,0,0:0:0:0:
119,277,283029,1,0,0:0:0:0:
119,277,283559,1,0,0:0:0:0:
119,277,284076,1,0,0:0:0:0:
119,277,284567,1,0,0:0:0:0:
119,277,285043,1,0,0:0:0:0:
119,277,285508,1,0,0:0:0:0:
119,277,285966,1,0,0:0:0:0:
119,277,286417,1,0,0:0:0:0:
119,277,286858,1,0,0:0:0:0:
119,277,287286,1,0,0:0:0:0:
119,277,287699,1,0,0:0:0:0:
119,277,288104,1,0,0:0:0:0:
119,277,288501,1,0,0:0:0:0:
119,277,288893,1,0,0:0:0:0:
119,277,289280,1,0,0:0:0:0:
119,277,289659,1,0,0:0:0:0:
119,277,290029,1,0,0:0:0:0:
119,277,290392,1,0,0:0:0:0:
119,277,290744,1,0,0:0:0:0:
119,277,291090,1,0,0:0:0:0:
119,277,291430,1,0,0:0:0:0:
119,277,291763,1,0,0:0:0:0:
119,277,292089,1,0,0:0:0:0:
119,277,292408,1,0,0:0:0:0:
119,277,292720,1,0,0:0:0:0:
119,277,293027,1,0,0:0:0:0:
119,277,293327,1,0,0:0:0:0:
119,277,293624,1,0,0:0:0:0:
119,277,293921,1,0,0:0:0:0:
119,277,294212,1,0,0:0:0:0:
119,277,294503,1,0,0:0:0:0:
119,277,294775,1,0,0:0:0:0:
119,277,295048,1,0,0:0:0:0:
119,277,295321,1,0,0:0:0:0:
119,277,295593,1,0,0:0:0:0:
119,277,295866,1,0,0:0:0:0:
119,277,296139,1,0,0:0:0:0:
119,277,296412,1,0,0:0:0:0:
119,277,296684,1,0,0:0:0:0:
119,277,296957,1,0,0:0:0:0:
119,277,297230,1,0,0:0:0:0:
119,277,297503,1,0,0:0:0:0:
119,277,297775,1,0,0:0:0:0:
119,277,298048,1,0,0:0:0:0:
119,277,298321,1,0,0:0:0:0:
119,277,298593,1,0,0:0:0:0:
119,277,298662,1,0,0:0:0:0:
119,277,298730,1,0,0:0:0:0:
119,277,298798,1,0,0:0:0:0:
256,192,298866,1,0,0:0:0:0:
119,277,299139,1,0,0:0:0:0:
119,277,299412,1,0,0:0:0:0:
119,277,299684,1,0,0:0:0:0:
256,192,299957,1,0,0:0:0:0:
119,277,300230,1,0,0:0:0:0:
119,277,300503,1,0,0:0:0:0:
119,277,300775,1,0,0:0:0:0:
119,277,300843,1,0,0:0:0:0:
119,277,300912,1,0,0:0:0:0:
119,277,300980,1,0,0:0:0:0:
411,132,301048,1,12,0:0:0:0:
119,277,301321,1,0,0:0:0:0:
119,277,301593,1,0,0:0:0:0:
119,277,301866,1,0,0:0:0:0:
411,132,302139,1,12,0:0:0:0:
119,277,302412,1,0,0:0:0:0:
119,277,302684,1,0,0:0:0:0:
119,277,302957,1,0,0:0:0:0:
119,277,303025,1,0,0:0:0:0:
119,277,303093,1,0,0:0:0:0:
119,277,303162,1,0,0:0:0:0:
411,132,303230,1,8,0:0:0:0:
119,277,303298,1,0,0:0:0:0:
119,277,303366,1,0,0:0:0:0:
119,277,303434,1,0,0:0:0:0:
411,132,303503,1,8,0:0:0:0:
119,277,303571,1,0,0:0:0:0:
119,277,303639,1,0,0:0:0:0:
119,277,303707,1,0,0:0:0:0:
411,132,303775,1,8,0:0:0:0:
119,277,303843,1,0,0:0:0:0:
119,277,303912,1,0,0:0:0:0:
119,277,303980,1,0,0:0:0:0:
119,277,304048,1,0,0:0:0:0:
119,277,304116,1,0,0:0:0:0:
119,277,304184,1,0,0:0:0:0:
119,277,304253,1,0,0:0:0:0:
411,132,304321,1,8,0:0:0:0:
411,132,304593,1,8,0:0:0:0:
411,132,304866,1,12,0:0:0:0:
119,277,305412,1,4,0:0:0:0:
119,277,305684,1,0,0:0:0:0:
119,277,305866,1,0,0:0:0:0:
411,132,305957,1,8,0:0:0:0:
411,132,305991,1,8,0:0:0:0:
411,132,306139,1,8,0:0:0:0:
119,277,306230,1,0,0:0:0:0:
119,277,306264,1,0,0:0:0:0:
411,132,306321,1,8,0:0:0:0:
411,132,306412,1,8,0:0:0:0:
119,277,306503,1,0,0:0:0:0:
119,277,306571,1,0,0:0:0:0:
119,277,306639,1,0,0:0:0:0:
119,277,306707,1,0,0:0:0:0:
411,132,306775,1,8,0:0:0:0:
411,132,306957,1,8,0:0:0:0:
119,277,307048,1,0,0:0:0:0:
119,277,307093,1,0,0:0:0:0:
411,132,307139,1,8,0:0:0:0:
411,132,307184,1,8,0:0:0:0:
119,277,307230,1,0,0:0:0:0:
411,132,307321,1,8,0:0:0:0:
119,277,307389,1,0,0:0:0:0:
411,132,307457,1,8,0:0:0:0:
119,277,307593,1,0,0:0:0:0:
119,277,307639,1,0,0:0:0:0:
119,277,307684,1,0,0:0:0:0:
411,132,307730,1,8,0:0:0:0:
411,132,307775,1,8,0:0:0:0:
411,132,307821,1,8,0:0:0:0:
119,277,307866,1,0,0:0:0:0:
411,132,308048,1,8,0:0:0:0:
119,277,308139,1,0,0:0:0:0:
119,277,308184,1,0,0:0:0:0:
119,277,308230,1,0,0:0:0:0:
411,132,308321,1,8,0:0:0:0:
119,277,308412,1,0,0:0:0:0:
411,132,308593,1,8,0:0:0:0:
119,277,308684,1,0,0:0:0:0:
119,277,308753,1,0,0:0:0:0:
119,277,308821,1,0,0:0:0:0:
119,277,308889,1,0,0:0:0:0:
411,132,308957,1,8,0:0:0:0:
411,132,309003,1,8,0:0:0:0:
119,277,309048,1,0,0:0:0:0:
411,132,309093,1,8,0:0:0:0:
411,132,309162,1,8,0:0:0:0:
119,277,309230,1,0,0:0:0:0:
119,277,309264,1,0,0:0:0:0:
119,277,309412,1,0,0:0:0:0:
411,132,309503,1,8,0:0:0:0:
411,132,309593,1,8,0:0:0:0:
411,132,309684,1,8,0:0:0:0:
119,277,309775,1,0,0:0:0:0:
119,277,309821,1,0,0:0:0:0:
119,277,309866,1,0,0:0:0:0:
119,277,309912,1,0,0:0:0:0:
411,132,309957,1,8,0:0:0:0:
411,132,310003,1,8,0:0:0:0:
119,277,310048,1,0,0:0:0:0:
119,277,310230,1,0,0:0:0:0:
411,132,310321,1,8,0:0:0:0:
411,132,310366,1,8,0:0:0:0:
411,132,310503,1,8,0:0:0:0:
119,277,310593,1,0,0:0:0:0:
119,277,310628,1,0,0:0:0:0:
411,132,310775,1,8,0:0:0:0:
119,277,310866,1,0,0:0:0:0:
119,277,310912,1,0,0:0:0:0:
119,277,310957,1,0,0:0:0:0:
411,132,311003,1,8,0:0:0:0:
119,277,311071,1,0,0:0:0:0:
411,132,311139,1,8,0:0:0:0:
411,132,311184,1,8,0:0:0:0:
119,277,311230,1,0,0:0:0:0:
411,132,311275,1,8,0:0:0:0:
411,132,311343,1,8,0:0:0:0:
119,277,311412,1,0,0:0:0:0:
119,277,311480,1,0,0:0:0:0:
119,277,311548,1,0,0:0:0:0:
119,277,311616,1,0,0:0:0:0:
411,132,311684,1,8,0:0:0:0:
119,277,311787,1,0,0:0:0:0:
411,132,311957,1,8,0:0:0:0:
411,132,312003,1,8,0:0:0:0:
119,277,312048,1,0,0:0:0:0:
411,132,312093,1,8,0:0:0:0:
411,132,312162,1,8,0:0:0:0:
119,277,312230,1,0,0:0:0:0:
119,277,312275,1,0,0:0:0:0:
119,277,312321,1,0,0:0:0:0:
411,132,312366,1,8,0:0:0:0:
411,132,312434,1,8,0:0:0:0:
119,277,312503,1,0,0:0:0:0:
119,277,312571,1,0,0:0:0:0:
411,132,312639,1,8,0:0:0:0:
411,132,312730,1,8,0:0:0:0:
411,132,312821,1,8,0:0:0:0:
119,277,312912,1,0,0:0:0:0:
119,277,312957,1,0,0:0:0:0:
411,132,313003,1,8,0:0:0:0:
119,277,313048,1,0,0:0:0:0:
411,132,313230,1,12,0:0:0:0:
411,132,313503,1,8,0:0:0:0:
119,277,313593,1,4,0:0:0:0:
119,277,313775,1,0,0:0:0:0:
119,277,313821,1,0,0:0:0:0:
411,132,313866,1,12,0:0:0:0:
119,277,314139,1,4,0:0:0:0:
119,277,314412,1,0,0:0:0:0:
119,277,314593,1,0,0:0:0:0:
411,132,314684,1,8,0:0:0:0:
411,132,314718,1,8,0:0:0:0:
411,132,314866,1,8,0:0:0:0:
119,277,314957,1,0,0:0:0:0:
119,277,314991,1,0,0:0:0:0:
411,132,315048,1,8,0:0:0:0:
411,132,315139,1,8,0:0:0:0:
119,277,315230,1,0,0:0:0:0:
119,277,315298,1,0,0:0:0:0:
119,277,315366,1,0,0:0:0:0:
119,277,315434,1,0,0:0:0:0:
411,132,315503,1,8,0:0:0:0:
411,132,315548,1,8,0:0:0:0:
119,277,315593,1,0,0:0:0:0:
119,277,315684,1,0,0:0:0:0:
411,132,315775,1,8,0:0:0:0:
411,132,315866,1,8,0:0:0:0:
411,132,315957,1,8,0:0:0:0:
119,277,316048,1,0,0:0:0:0:
119,277,316116,1,0,0:0:0:0:
411,132,316184,1,8,0:0:0:0:
411,132,316253,1,8,0:0:0:0:
119,277,316321,1,0,0:0:0:0:
119,277,316412,1,0,0:0:0:0:
411,132,316503,1,8,0:0:0:0:
411,132,316548,1,8,0:0:0:0:
119,277,316593,1,0,0:0:0:0:
411,132,316684,1,8,0:0:0:0:
411,132,316730,1,8,0:0:0:0:
119,277,316775,1,0,0:0:0:0:
411,132,316866,1,8,0:0:0:0:
411,132,316921,1,8,0:0:0:0:
119,277,316975,1,0,0:0:0:0:
411,132,317048,1,8,0:0:0:0:
411,132,317105,1,8,0:0:0:0:
119,277,317173,1,0,0:0:0:0:
411,132,317230,1,8,0:0:0:0:
411,132,317292,1,8,0:0:0:0:
119,277,317357,1,0,0:0:0:0:
411,132,317412,1,8,0:0:0:0:
411,132,317503,1,8,0:0:0:0:
119,277,317593,1,0,0:0:0:0:
119,277,317639,1,0,0:0:0:0:
119,277,317684,1,0,0:0:0:0:
411,132,317775,1,8,0:0:0:0:
411,132,317866,1,8,0:0:0:0:
119,277,317957,1,0,0:0:0:0:
119,277,318025,1,0,0:0:0:0:
411,132,318093,1,8,0:0:0:0:
411,132,318162,1,8,0:0:0:0:
119,277,318230,1,0,0:0:0:0:
411,132,318321,1,8,0:0:0:0:
411,132,318412,1,8,0:0:0:0:
119,277,318503,1,4,0:0:0:0:
119,277,318775,1,0,0:0:0:0:
119,277,318843,1,0,0:0:0:0:
119,277,318912,1,0,0:0:0:0:
119,277,318980,1,0,0:0:0:0:
411,132,319048,1,8,0:0:0:0:
119,277,319230,1,0,0:0:0:0:
119,277,319275,1,0,0:0:0:0:
411,132,319321,1,8,0:0:0:0:
411,132,319503,1,8,0:0:0:0:
411,132,319548,1,8,0:0:0:0:
119,277,319593,1,0,0:0:0:0:
411,132,319775,1,8,0:0:0:0:
119,277,319866,1,0,0:0:0:0:
411,132,320139,1,12,0:0:0:0:
411,132,320334,1,8,0:0:0:0:
119,277,320431,1,0,0:0:0:0:
411,132,320626,1,8,0:0:0:0:
119,277,320724,1,0,0:0:0:0:
119,277,320774,1,0,0:0:0:0:
411,132,320824,1,8,0:0:0:0:
411,132,320874,1,8,0:0:0:0:
119,277,320949,1,0,0:0:0:0:
411,132,321024,1,8,0:0:0:0:
411,132,321074,1,8,0:0:0:0:
119,277,321124,1,0,0:0:0:0:
411,132,321174,1,8,0:0:0:0:
411,132,321249,1,8,0:0:0:0:
119,277,321324,1,0,0:0:0:0:
119,277,321399,1,0,0:0:0:0:
119,277,321474,1,0,0:0:0:0:
119,277,321549,1,0,0:0:0:0:
411,132,321624,1,8,0:0:0:0:
411,132,321674,1,8,0:0:0:0:
119,277,321724,1,0,0:0:0:0:
119,277,321824,1,0,0:0:0:0:
411,132,321924,1,8,0:0:0:0:
411,132,322007,1,8,0:0:0:0:
119,277,322090,1,0,0:0:0:0:
119,277,322146,1,0,0:0:0:0:
119,277,322201,1,0,0:0:0:0:
411,132,322257,1,8,0:0:0:0:
119,277,322424,1,0,0:0:0:0:
119,277,322507,1,0,0:0:0:0:
411,132,322590,1,8,0:0:0:0:
411,132,322818,1,8,0:0:0:0:
119,277,322932,1,0,0:0:0:0:
256,192,323275,5,12,0:0:0:0:
256,192,323539,1,0,0:0:0:0:
256,192,323627,1,8,0:0:0:0:
256,192,323686,1,8,0:0:0:0:
256,192,323745,1,8,0:0:0:0:
256,192,323804,1,0,0:0:0:0:
256,192,323892,1,0,0:0:0:0:
256,192,323980,1,8,0:0:0:0:
256,192,324157,1,0,0:0:0:0:
256,192,324245,1,8,0:0:0:0:
256,192,324304,1,8,0:0:0:0:
256,192,324363,1,0,0:0:0:0:
256,192,324422,1,0,0:0:0:0:
256,192,324510,1,8,0:0:0:0:
256,192,324598,1,8,0:0:0:0:
256,192,324686,1,0,0:0:0:0:
256,192,324863,1,0,0:0:0:0:
256,192,324951,1,0,0:0:0:0:
256,192,325039,1,8,0:0:0:0:
256,192,325098,1,8,0:0:0:0:
256,192,325157,1,0,0:0:0:0:
256,192,325216,1,8,0:0:0:0:
256,192,325304,1,0,0:0:0:0:
256,192,325392,1,8,0:0:0:0:
256,192,325451,1,0,0:0:0:0:
256,192,325569,1,8,0:0:0:0:
256,192,325627,1,0,0:0:0:0:
256,192,325745,1,8,0:0:0:0:
256,192,325789,1,8,0:0:0:0:
256,192,325833,1,0,0:0:0:0:
256,192,325922,1,8,0:0:0:0:
256,192,326010,1,8,0:0:0:0:
256,192,326098,1,0,0:0:0:0:
256,192,326451,1,8,0:0:0:0:
256,192,326539,1,0,0:0:0:0:
256,192,326627,1,0,0:0:0:0:
256,192,326716,1,0,0:0:0:0:
256,192,326804,1,8,0:0:0:0:
256,192,326848,1,8,0:0:0:0:
256,192,326892,1,0,0:0:0:0:
256,192,326936,1,0,0:0:0:0:
256,192,326980,1,8,0:0:0:0:
256,192,327069,1,8,0:0:0:0:
256,192,327157,1,0,0:0:0:0:
256,192,327216,1,0,0:0:0:0:
256,192,327275,1,0,0:0:0:0:
128,324,327333,1,8,0:0:0:0:
128,324,327422,1,8,0:0:0:0:
256,192,327510,1,0,0:0:0:0:
256,192,327569,1,8,0:0:0:0:
256,192,327627,1,8,0:0:0:0:
256,192,327686,1,0,0:0:0:0:
256,192,327775,1,8,0:0:0:0:
256,192,327863,1,0,0:0:0:0:
256,192,327922,1,8,0:0:0:0:
256,192,327980,1,8,0:0:0:0:
256,192,328039,1,0,0:0:0:0:
256,192,328127,1,8,0:0:0:0:
256,192,328216,1,0,0:0:0:0:
256,192,328275,1,0,0:0:0:0:
256,192,328333,1,0,0:0:0:0:
256,192,328392,1,8,0:0:0:0:
256,192,328480,1,0,0:0:0:0:
256,192,328569,1,8,0:0:0:0:
256,192,328745,1,8,0:0:0:0:
256,192,328922,1,4,0:0:0:0:
256,192,329275,1,8,0:0:0:0:
256,192,329333,1,0,0:0:0:0:
256,192,329392,1,0,0:0:0:0:
256,192,329451,1,8,0:0:0:0:
256,192,329539,1,8,0:0:0:0:
256,192,329627,1,0,0:0:0:0:
256,192,329804,1,8,0:0:0:0:
256,192,329892,1,0,0:0:0:0:
256,192,329951,1,0,0:0:0:0:
256,192,330010,1,8,0:0:0:0:
256,192,330069,1,8,0:0:0:0:
256,192,330157,1,0,0:0:0:0:
256,192,330245,1,0,0:0:0:0:
256,192,330333,1,8,0:0:0:0:
256,192,330451,1,0,0:0:0:0:
256,192,330510,1,0,0:0:0:0:
256,192,330569,1,0,0:0:0:0:
256,192,330686,1,8,0:0:0:0:
256,192,330745,1,8,0:0:0:0:
256,192,330804,1,0,0:0:0:0:
256,192,330863,1,8,0:0:0:0:
256,192,330951,1,8,0:0:0:0:
256,192,331039,1,0,0:0:0:0:
256,192,331127,1,0,0:0:0:0:
256,192,331216,1,8,0:0:0:0:
256,192,331304,1,0,0:0:0:0:
256,192,331392,1,8,0:0:0:0:
256,192,331451,1,8,0:0:0:0:
256,192,331510,1,8,0:0:0:0:
256,192,331569,1,0,0:0:0:0:
256,192,331745,1,12,0:0:0:0:
256,192,331789,12,0,332363,0:0:0:0:
256,192,332451,5,0,0:0:0:0:
256,192,332510,1,0,0:0:0:0:
256,192,332627,1,8,0:0:0:0:
256,192,332686,1,8,0:0:0:0:
256,192,332804,1,0,0:0:0:0:
256,192,332863,1,0,0:0:0:0:
256,192,332922,1,0,0:0:0:0:
256,192,332980,1,8,0:0:0:0:
256,192,333039,1,8,0:0:0:0:
256,192,333098,1,8,0:0:0:0:
256,192,333157,1,0,0:0:0:0:
256,192,333333,1,0,0:0:0:0:
256,192,333422,1,0,0:0:0:0:
256,192,333510,1,8,0:0:0:0:
256,192,333569,1,0,0:0:0:0:
256,192,333686,1,8,0:0:0:0:
256,192,333745,1,0,0:0:0:0:
256,192,333863,1,12,0:0:0:0:
256,192,333907,12,0,334480,0:0:0:0:
256,192,334568,5,12,0:0:0:0:
256,192,334833,1,0,0:0:0:0:
256,192,334922,1,8,0:0:0:0:
256,192,334980,1,8,0:0:0:0:
256,192,335039,1,8,0:0:0:0:
256,192,335098,1,0,0:0:0:0:
256,192,335186,1,0,0:0:0:0:
256,192,335275,1,8,0:0:0:0:
256,192,335319,1,8,0:0:0:0:
256,192,335363,1,0,0:0:0:0:
256,192,335451,1,8,0:0:0:0:
256,192,335539,1,8,0:0:0:0:
256,192,335627,1,0,0:0:0:0:
256,192,335686,1,0,0:0:0:0:
256,192,335745,1,0,0:0:0:0:
256,192,335804,1,8,0:0:0:0:
256,192,335979,1,8,0:0:0:0:
256,192,336025,1,8,0:0:0:0:
256,192,336069,1,0,0:0:0:0:
256,192,336157,1,8,0:0:0:0:
256,192,336245,1,8,0:0:0:0:
256,192,336333,1,0,0:0:0:0:
256,192,336392,1,0,0:0:0:0:
256,192,336451,1,0,0:0:0:0:
256,192,336510,1,8,0:0:0:0:
256,192,336598,1,8,0:0:0:0:
256,192,336686,1,0,0:0:0:0:
256,192,336745,1,8,0:0:0:0:
256,192,336804,1,8,0:0:0:0:
256,192,336922,1,0,0:0:0:0:
256,192,336980,1,0,0:0:0:0:
256,192,337039,1,8,0:0:0:0:
256,192,337098,1,8,0:0:0:0:
256,192,337216,1,0,0:0:0:0:
256,192,337275,1,0,0:0:0:0:
256,192,337333,1,0,0:0:0:0:
256,192,337391,1,12,0:0:0:0:
256,192,337745,1,8,0:0:0:0:
256,192,337804,1,8,0:0:0:0:
256,192,337863,1,0,0:0:0:0:
256,192,337922,1,0,0:0:0:0:
256,192,338039,1,8,0:0:0:0:
256,192,338098,1,0,0:0:0:0:
256,192,338186,1,0,0:0:0:0:
256,192,338275,1,8,0:0:0:0:
256,192,338319,1,8,0:0:0:0:
256,192,338363,1,0,0:0:0:0:
256,192,338407,1,0,0:0:0:0:
256,192,338451,1,8,0:0:0:0:
256,192,338510,1,8,0:0:0:0:
256,192,338569,1,0,0:0:0:0:
256,192,338627,1,8,0:0:0:0:
256,192,338716,1,8,0:0:0:0:
256,192,338803,1,0,0:0:0:0:
256,192,338892,1,8,0:0:0:0:
256,192,338980,1,0,0:0:0:0:
256,192,339039,1,8,0:0:0:0:
256,192,339098,1,8,0:0:0:0:
256,192,339157,1,0,0:0:0:0:
256,192,339245,1,8,0:0:0:0:
256,192,339333,1,0,0:0:0:0:
256,192,339392,1,8,0:0:0:0:
256,192,339451,1,8,0:0:0:0:
256,192,339510,1,0,0:0:0:0:
256,192,339598,1,8,0:0:0:0:
256,192,339686,1,8,0:0:0:0:
256,192,339775,1,8,0:0:0:0:
256,192,339863,1,0,0:0:0:0:
256,192,339922,1,0,0:0:0:0:
256,192,339980,1,0,0:0:0:0:
256,192,340039,1,8,0:0:0:0:
256,192,340215,1,4,0:0:0:0:
256,192,340569,1,8,0:0:0:0:
256,192,340627,1,8,0:0:0:0:
256,192,340686,1,8,0:0:0:0:
256,192,340745,1,0,0:0:0:0:
256,192,340833,1,0,0:0:0:0:
256,192,340922,1,8,0:0:0:0:
256,192,340966,1,8,0:0:0:0:
256,192,341010,1,0,0:0:0:0:
256,192,341098,1,8,0:0:0:0:
256,192,341186,1,8,0:0:0:0:
256,192,341275,1,0,0:0:0:0:
256,192,341333,1,8,0:0:0:0:
256,192,341451,1,0,0:0:0:0:
256,192,341510,1,0,0:0:0:0:
256,192,341626,1,8,0:0:0:0:
256,192,341686,1,8,0:0:0:0:
256,192,341745,1,0,0:0:0:0:
256,192,341804,1,8,0:0:0:0:
256,192,341892,1,8,0:0:0:0:
256,192,341980,1,0,0:0:0:0:
256,192,342069,1,0,0:0:0:0:
256,192,342157,1,8,0:0:0:0:
256,192,342245,1,0,0:0:0:0:
256,192,342333,1,8,0:0:0:0:
256,192,342392,1,8,0:0:0:0:
256,192,342451,1,0,0:0:0:0:
256,192,342569,1,8,0:0:0:0:
256,192,342627,1,8,0:0:0:0:
256,192,342686,1,0,0:0:0:0:
256,192,342745,1,0,0:0:0:0:
256,192,342863,1,8,0:0:0:0:
256,192,342922,1,8,0:0:0:0:
256,192,342980,1,8,0:0:0:0:
256,192,343038,1,4,0:0:0:0:
256,192,343083,12,0,343304,0:0:0:0:
256,192,343392,5,0,0:0:0:0:
256,192,343745,1,0,0:0:0:0:
256,192,343804,1,8,0:0:0:0:
256,192,343980,1,8,0:0:0:0:
256,192,344098,1,0,0:0:0:0:
256,192,344450,1,0,0:0:0:0:
256,192,344627,1,12,0:0:0:0:
256,192,344804,1,8,0:0:0:0:
256,192,344980,1,4,0:0:0:0:
256,192,345157,1,0,0:0:0:0:
256,192,345245,1,8,0:0:0:0:
256,192,345333,1,0,0:0:0:0:
256,192,345422,1,0,0:0:0:0:
256,192,345510,1,8,0:0:0:0:
256,192,345598,1,0,0:0:0:0:
256,192,345686,1,8,0:0:0:0:
256,192,345775,1,8,0:0:0:0:
256,192,345863,1,4,0:0:0:0:
411,132,346018,1,8,0:0:0:0:
119,277,346173,1,0,0:0:0:0:
411,132,346483,1,8,0:0:0:0:
411,132,347518,5,12,0:0:0:0:
256,192,347554,12,0,349556,0:0:0:0:
119,277,349848,5,4,0:0:0:0:
256,192,349879,12,0,351598,0:0:0:0:
119,277,351848,5,4,0:0:0:0:
411,132,352575,1,8,0:0:0:0:
119,277,352619,1,0,0:0:0:0:
119,277,352663,1,0,0:0:0:0:
411,132,352871,1,8,0:0:0:0:
119,277,352903,1,0,0:0:0:0:
119,277,352935,1,0,0:0:0:0:
411,132,353126,1,8,0:0:0:0:
119,277,353157,1,0,0:0:0:0:
119,277,353189,1,0,0:0:0:0:
411,132,353380,1,8,0:0:0:0:
119,277,353412,1,0,0:0:0:0:
119,277,353444,1,0,0:0:0:0:
411,132,353634,1,8,0:0:0:0:
119,277,353666,1,0,0:0:0:0:
119,277,353698,1,0,0:0:0:0:
411,132,353889,1,8,0:0:0:0:
119,277,353921,1,0,0:0:0:0:
119,277,353952,1,0,0:0:0:0:
411,132,354143,1,8,0:0:0:0:
119,277,354175,1,0,0:0:0:0:
119,277,354207,1,0,0:0:0:0:
411,132,354398,1,8,0:0:0:0:
119,277,354429,1,0,0:0:0:0:
119,277,354461,1,0,0:0:0:0:
411,132,354652,1,8,0:0:0:0:
119,277,354684,1,0,0:0:0:0:
119,277,354715,1,0,0:0:0:0:
411,132,354906,1,8,0:0:0:0:
119,277,354938,1,0,0:0:0:0:
119,277,354970,1,0,0:0:0:0:
411,132,355161,1,8,0:0:0:0:
119,277,355192,1,0,0:0:0:0:
119,277,355224,1,0,0:0:0:0:
411,132,355415,1,8,0:0:0:0:
119,277,355447,1,0,0:0:0:0:
119,277,355479,1,0,0:0:0:0:
411,132,355669,1,8,0:0:0:0:
119,277,355701,1,0,0:0:0:0:
119,277,355733,1,0,0:0:0:0:
411,132,355810,1,12,0:0:0:0:
0,384,355975,6,4,B|256:263|256:263|509:383,22,560,4|4|0|0|0|0|0|0|0|0|0|0|0|0|0|0|0|0|0|0|0|0|0,0:0|0:0|0:0|0:0|0:0|0:0|0:0|0:0|0:0|0:0|0:0|0:0|0:0|0:0|0:0|0:0|0:0|0:0|0:0|0:0|0:0|0:0|0:0,0:0:0:0:
256,192,359787,12,0,360754,0:0:0:0:
256,192,360892,12,0,362003,0:0:0:0:
256,192,362161,12,0,364762,0:0:0:0:
119,277,364935,5,0,0:0:0:0:
