osu file format v14

[General]
AudioFilename: audio.mp3
AudioLeadIn: 0
PreviewTime: 149606
Countdown: 0
SampleSet: None
StackLeniency: 0.3
Mode: 0
LetterboxInBreaks: 0
WidescreenStoryboard: 0

[Editor]
Bookmarks: 82778,111317
DistanceSpacing: 1
BeatDivisor: 4
GridSize: 4
TimelineZoom: 1.98

[Metadata]
Title:Ten Sho Sho Ten Sho
TitleUnicode:てんしょう しょうてんしょう
Artist:Kikuo
ArtistUnicode:Kikuo
Creator:Amos
Version:Curse
Source:
Tags:vocaloid hatsune miku dubstep wub wub ugly sliders
BeatmapID:1490445
BeatmapSetID:704561

[Difficulty]
HPDrainRate:6
CircleSize:3.8
OverallDifficulty:8
ApproachRate:9.2
SliderMultiplier:2.2
SliderTickRate:1

[Events]
//Background and Video events
0,0,"Kikuo.png",0,0
//Break Periods
//Storyboard Layer 0 (Background)
//Storyboard Layer 1 (Fail)
//Storyboard Layer 2 (Pass)
//Storyboard Layer 3 (Foreground)
//Storyboard Sound Samples

[TimingPoints]
158,352.941176470588,4,2,0,40,1,0
10040,-166.666666666667,4,2,0,40,0,0
12863,-125,4,2,0,40,0,0
15687,-100,4,2,0,40,0,0
20452,-50,4,2,0,40,0,0
20628,-100,4,2,0,40,0,0
26981,-133.333333333333,4,2,0,40,0,0
36863,-25,4,2,0,40,0,0
36952,-25.6410256410256,4,2,0,40,0,0
37040,-26.3157894736842,4,2,0,40,0,0
37128,-27.027027027027,4,2,0,40,0,0
37216,-27.7777777777778,4,2,0,40,0,0
37305,-28.5714285714286,4,2,0,40,0,0
37393,-29.4117647058824,4,2,0,40,0,0
37481,-30.3030303030303,4,2,0,40,0,0
37569,-31.25,4,2,0,40,0,0
37922,-34.4827586206897,4,2,0,40,0,0
38275,-50,4,2,0,40,0,1
40216,-50,4,2,0,40,0,1
52393,-200,4,2,0,40,0,1
52746,-50,4,2,0,40,0,1
60157,-25,4,2,0,40,0,0
60246,-25.6410256410256,4,2,0,40,0,0
60334,-26.3157894736842,4,2,0,40,0,0
60422,-27.027027027027,4,2,0,40,0,0
60510,-27.7777777777778,4,2,0,40,0,0
60599,-28.5714285714286,4,2,0,40,0,0
60687,-29.4117647058824,4,2,0,40,0,0
60775,-30.3030303030303,4,2,0,40,0,0
60863,-50,4,2,0,40,0,1
70746,348.33091436865,4,2,0,40,1,1
70746,-50,4,2,0,40,0,1
72139,352.941176470588,4,2,0,50,1,0
74962,350.877192982456,4,2,0,50,1,0
76365,340.909090909091,4,2,0,50,1,0
76876,-50,4,2,0,50,0,0
77046,-100,4,2,0,50,0,0
77728,331.491712707182,4,2,0,50,1,0
79053,319.148936170213,4,2,0,50,1,0
80329,310.880829015544,4,2,0,50,1,0
81572,301.507537688442,4,2,0,50,1,0
82778,297.029702970297,4,2,0,50,1,0
83966,285.714285714286,4,2,0,50,1,0
85108,277.777777777778,4,2,0,50,1,0
86219,274.599542334096,4,2,0,50,1,0
87317,272.727272727273,4,2,0,50,1,0
90589,-1000,4,2,0,50,0,0
91680,-100,4,2,0,50,0,1
93317,-200,4,2,0,50,0,1
93862,-100,4,2,0,50,0,1
102589,-25,4,2,0,50,0,1
102657,-25.6410256410256,4,2,0,50,0,1
102726,-26.3157894736842,4,2,0,50,0,1
102794,-27.027027027027,4,2,0,50,0,1
102862,-27.7777777777778,4,2,0,50,0,1
102930,-28.5714285714286,4,2,0,50,0,1
102998,-29.4117647058824,4,2,0,50,0,1
103067,-30.3030303030303,4,2,0,50,0,1
103135,-31.25,4,2,0,50,0,1
103203,-32.258064516129,4,2,0,50,0,1
103271,-33.3333333333333,4,2,0,50,0,1
103339,-34.4827586206897,4,2,0,50,0,1
103407,-35.7142857142857,4,2,0,50,0,1
103476,-37.037037037037,4,2,0,50,0,1
103544,-38.4615384615385,4,2,0,50,0,1
103612,-40,4,2,0,50,0,1
103680,-41.6666666666667,4,2,0,50,0,1
104226,-100,4,2,0,50,0,1
110226,-200,4,2,0,50,0,1
111317,-100,4,2,0,50,0,1
120044,-25,4,2,0,50,0,1
120112,-25.6410256410256,4,2,0,50,0,1
120180,-26.3157894736842,4,2,0,50,0,1
120248,-27.027027027027,4,2,0,50,0,1
120317,-27.7777777777778,4,2,0,50,0,1
120385,-28.5714285714286,4,2,0,50,0,1
120453,-29.4117647058824,4,2,0,50,0,1
120521,-30.3030303030303,4,2,0,50,0,1
120589,-31.25,4,2,0,50,0,1
120657,-32.258064516129,4,2,0,50,0,1
120726,-33.3333333333333,4,2,0,50,0,1
120794,-34.4827586206897,4,2,0,50,0,1
120862,-35.7142857142857,4,2,0,50,0,1
121271,-50,4,2,0,50,0,1
122226,-100,4,2,0,50,0,1
126589,533.333333333333,4,2,0,50,1,0
128722,510.63829787234,4,2,0,50,1,0
130764,489.795918367347,4,2,0,50,1,0
132723,470.588235294118,4,2,0,50,1,0
134605,452.830188679245,4,2,0,50,1,0
136416,436.363636363636,4,2,0,50,1,0
138161,421.052631578947,4,2,0,50,1,0
139845,406.779661016949,4,2,0,50,1,0
141472,393.44262295082,4,2,0,20,1,0
143045,380.952380952381,4,2,0,20,1,0
144568,369.230769230769,4,2,0,25,1,0
146044,358.208955223881,4,2,0,25,1,0
147476,355.029585798817,4,2,0,30,1,0
150316,352.941176470588,4,2,0,35,1,0
153139,352.941176470588,4,2,0,40,1,0
153139,-50,4,2,0,40,0,1
187021,681.818181818182,4,2,0,30,1,0
187702,645.161290322581,4,2,0,30,1,0
188347,600,4,2,0,30,1,0
188947,576.923076923077,4,2,0,30,1,0
189523,545.454545454546,4,2,0,30,1,0
190068,521.739130434783,4,2,0,30,1,0
190589,500,4,2,0,30,1,0
191089,472.44094488189,4,2,0,30,1,0
191561,454.545454545455,4,2,0,30,1,0
192015,431.654676258993,4,2,0,30,1,0
192446,413.793103448276,4,2,0,30,1,0
192859,400,4,2,0,30,1,0
193259,389.61038961039,4,2,0,30,1,0
193648,379.746835443038,4,2,0,30,1,0
194027,355.029585798817,4,2,0,30,1,0
194382,340.909090909091,4,2,0,30,1,0
194722,331.491712707182,4,2,0,30,1,0
195384,314.13612565445,4,2,0,30,1,0
196012,298.507462686567,4,2,0,30,1,0
196609,280.373831775701,4,2,0,30,1,0
197169,273.972602739726,4,2,0,30,1,0
198264,272.727272727273,4,2,0,35,1,0
199354,272.727272727273,4,2,0,40,1,0
216808,265.486725663717,4,2,0,50,1,0
234861,284.36018957346,4,2,0,35,1,0
235998,303.030303030303,4,2,0,30,1,0
237210,320.855614973262,4,2,0,30,1,0
238493,335.195530726257,4,2,0,25,1,0
239833,361.44578313253,4,2,0,25,1,0
241278,389.61038961039,4,2,0,25,1,0
242057,434.782608695652,4,2,0,25,1,0
242926,483.870967741935,4,2,0,25,1,0
243893,568.720379146919,4,2,0,25,1,0
245030,600,4,2,0,25,1,0
264230,1428.57142857143,4,2,0,20,1,0
265658,1333.33333333333,4,2,0,20,1,0
266991,1250,4,2,0,20,1,0
268241,1176.47058823529,4,2,0,20,1,0
269417,1090.90909090909,4,2,0,20,1,0
270507,1016.94915254237,4,2,0,20,1,0
271523,983.606557377049,4,2,0,20,1,0
272506,937.5,4,2,0,20,1,0
273443,869.565217391304,4,2,0,20,1,0
274312,845.070422535211,4,2,0,20,1,0
275157,800,4,2,0,20,1,0
275957,769.230769230769,4,2,0,20,1,0
276726,740.740740740741,4,2,0,20,1,0
277466,705.882352941176,4,2,0,20,1,0
278180,681.818181818182,4,2,0,20,1,0
278861,666.666666666667,4,2,0,20,1,0
279527,631.578947368421,4,2,0,20,1,0
280158,606.060606060606,4,2,0,20,1,0
280770,594.059405940594,4,2,0,20,1,0
281364,576.923076923077,4,2,0,20,1,0
281940,550.45871559633,4,2,0,20,1,0
282490,535.714285714286,4,2,0,20,1,0
283030,530.973451327434,4,2,0,20,1,0
283560,512.820512820513,4,2,0,20,1,0
284077,491.803278688525,4,2,0,20,1,0
284568,476.190476190476,4,2,0,20,1,0
285044,465.116279069767,4,2,0,20,1,0
285509,458.015267175573,4,2,0,20,1,0
285967,451.127819548872,4,2,0,20,1,0
286418,441.176470588235,4,2,0,20,1,0
286859,428.571428571429,4,2,0,20,1,0
287287,413.793103448276,4,2,0,20,1,0
287700,405.405405405405,4,2,0,25,1,0
288105,397.350993377483,4,2,0,25,1,0
288502,392.156862745098,4,2,0,25,1,0
288894,387.096774193548,4,2,0,25,1,0
289281,379.746835443038,4,2,0,30,1,0
289660,370.37037037037,4,2,0,30,1,0
290030,361.44578313253,4,2,0,30,1,0
290393,352.941176470588,4,2,0,30,1,0
290745,346.820809248555,4,2,0,30,1,0
291091,340.909090909091,4,2,0,35,1,0
291431,333.333333333333,4,2,0,35,1,0
291764,326.086956521739,4,2,0,35,1,0
292090,319.148936170213,4,2,0,35,1,0
292409,312.5,4,2,0,35,1,0
292721,307.692307692308,4,2,0,40,1,0
293028,300,4,2,0,50,1,0
293328,289.855072463768,4,2,0,50,1,0
293907,283.018867924528,4,2,0,50,1,0
294473,280.373831775701,4,2,0,50,1,0
295033,275.229357798165,4,2,0,50,1,0
296133,273.972602739726,4,2,0,50,1,0
297228,272.727272727273,4,2,0,50,1,0
305409,272.727272727273,4,2,0,50,1,0
320681,315.789473684211,4,2,0,50,1,0
321944,333.333333333333,4,2,0,50,1,0
323277,352.941176470588,4,2,0,50,1,0
345865,413.793103448276,4,2,0,50,1,0
347520,582.52427184466,4,2,0,50,1,0
349850,500,4,2,0,50,1,0
351850,363.636363636364,4,2,0,50,1,0
352577,400,4,2,0,50,1,0
363777,382.165605095541,4,2,0,5,1,0

[HitObjects]
256,192,158,12,0,4216,0:0:0:0:
108,256,4393,6,0,P|172:312|276:232,1,220
196,168,5099,1,0,0:0:0:0:
292,120,5452,1,0,0:0:0:0:
396,152,5805,1,0,0:0:0:0:
436,256,6157,1,0,0:0:0:0:
364,344,6510,1,0,0:0:0:0:
260,312,6863,1,0,0:0:0:0:
156,272,7216,6,0,L|236:180,1,110
248,48,7569,2,0,L|175:131,1,110
32,288,7922,2,0,L|112:196,1,110
120,64,8275,2,0,L|47:147,1,110
300,240,8628,6,0,L|428:240,1,110
148,332,8981,2,0,L|20:332,1,110
340,240,9334,2,0,L|468:240,1,110
188,332,9687,2,0,L|60:332,1,110
252,72,10040,6,0,P|180:72|172:80,1,65.9999979858399
356,208,10393,2,0,P|428:208|436:200,1,65.9999979858399
332,48,10746,5,0,0:0:0:0:
252,168,10922,1,0,0:0:0:0:
148,64,11099,1,0,0:0:0:0:
68,184,11275,1,0,0:0:0:0:
220,336,11452,2,0,L|308:336,1,65.9999979858399
84,336,11805,2,0,L|12:336,1,65.9999979858399
324,232,12157,2,0,L|412:232,1,65.9999979858399
188,232,12510,2,0,L|116:232,1,65.9999979858399
324,128,12863,6,0,P|380:104|396:64,1,88
220,40,13216,2,0,P|172:72|164:112,1,88
236,248,13569,2,0,L|276:328,1,88
363,206,13922,2,0,L|323:127,1,88
236,248,14275,2,0,L|300:309,1,88
363,206,14628,2,0,L|299:145,1,88
236,248,14981,1,0,0:0:0:0:
328,90,15157,2,0,L|364:64,1,44
36,264,15334,1,0,0:0:0:0:
164,80,15510,1,0,0:0:0:0:
320,200,15687,6,0,P|332:308|228:292,1,220
220,128,16216,2,0,L|284:96,1,55
408,48,16393,2,0,P|428:108|384:132,1,110
148,40,16746,2,0,P|76:36|28:80,1,110
176,156,17099,5,0,0:0:0:0:
232,72,17275,1,0,0:0:0:0:
80,132,17452,2,0,P|28:212|56:248,1,110
236,224,17805,1,0,0:0:0:0:
280,140,17981,1,0,0:0:0:0:
128,200,18157,2,0,P|76:280|104:316,1,110
364,244,18510,6,0,P|380:184|348:148,1,110
156,48,18863,1,0,0:0:0:0:
200,212,19040,2,0,L|288:124,1,110
372,32,19393,1,0,0:0:0:0:
372,196,19569,2,0,P|332:248|284:256,1,110
132,216,19922,1,0,0:0:0:0:
248,96,20099,1,0,0:0:0:0:
212,256,20275,1,0,0:0:0:0:
104,336,20452,6,0,L|340:336,1,220
364,176,20805,5,0,0:0:0:0:
260,48,20981,1,0,0:0:0:0:
424,52,21157,1,0,0:0:0:0:
284,140,21334,2,0,P|212:176|152:168,1,110
68,60,21687,1,0,0:0:0:0:
76,224,21863,2,0,P|116:288|172:288,1,110
268,184,22216,1,0,0:0:0:0:
272,348,22393,2,0,P|344:368|380:348,1,110
444,280,22746,5,0,0:0:0:0:
280,252,22922,1,0,0:0:0:0:
408,72,23099,1,0,0:0:0:0:
216,180,23275,1,0,0:0:0:0:
216,180,23363,1,0,0:0:0:0:
216,180,23452,1,0,0:0:0:0:
20,240,23628,1,0,0:0:0:0:
148,60,23805,1,0,0:0:0:0:
20,240,23981,5,0,0:0:0:0:
148,60,24157,2,0,B|220:40|252:104,1,110
384,72,24510,1,0,0:0:0:0:
260,252,24687,2,0,P|184:284|152:248,1,110
248,128,25040,1,0,0:0:0:0:
400,284,25216,1,0,0:0:0:0:
400,284,25393,1,0,0:0:0:0:
264,112,25569,6,0,P|184:68|156:168,1,220
153,164,26099,1,0,0:0:0:0:
359,227,26275,1,0,0:0:0:0:
141,200,26452,1,0,0:0:0:0:
357,189,26628,1,0,0:0:0:0:
143,238,26805,1,0,0:0:0:0:
288,316,26981,6,0,P|348:316|388:224,1,165.000006294251
276,156,27687,2,0,P|300:81|377:70,1,165.000006294251
416,144,28393,2,0,B|376:212|376:212|304:232|240:188|240:188|280:292|188:188|124:200|76:248|84:304|100:348|167:342|167:342|236:340,1,577.500022029878
244,336,29805,2,0,B|224:240|312:300|412:200|372:116|372:116|284:136|320:67|320:67|248:16|160:40|176:120,1,577.500022029878
164,136,31216,2,0,B|132:220|132:220|244:208|244:208|164:296|164:340|164:340|24:352|-8:280|48:228,1,577.500022029878
68,208,32628,2,0,B|20:92|212:64|212:64|212:120|308:76|308:76|468:100|468:232|394:219|394:219|316:200|264:228|252:276|280:344|280:344|332:360|404:344|328:168|328:168|284:136|184:216,1,1237.50004720688
164,228,35452,2,0,P|168:300|208:168,1,577.500022029878
24,152,36863,6,0,P|64:88|104:76,1,110
24,156,36952,2,0,P|64:92|104:80,1,107.250000409126
24,160,37040,2,0,P|64:96|104:84,1,104.499997209549
24,164,37128,2,0,P|64:100|104:88,1,101.749999611855
24,168,37216,2,0,P|64:104|104:92,1,98.9999969787599
24,172,37305,2,0,P|64:108|104:96,1,96.2500009179115
24,176,37393,2,0,P|64:112|104:100,1,93.500001783371
24,180,37481,2,0,P|64:116|104:104,1,90.7500008654595
24,184,37569,6,0,P|64:120|104:108,1,117.333333333333
21,135,37657,2,0,P|80:89|122:91,1,117.333333333333
35,89,37790,2,0,P|107:65|145:82,1,117.333333333333
64,50,37922,6,0,P|139:52|196:112,1,159.500004867554
104,23,38099,2,0,P|174:51|207:126,1,159.500004867554
156,220,38275,6,0,B|192:272|192:272|268:280|268:280|208:92|360:32|360:32|476:160|324:92|308:276,1,660
116,304,38981,2,0,B|28:307|28:307|40:247|36:195|36:195|104:112|124:232|124:232|212:184,1,440
408,112,39510,2,0,L|484:8,1,110
290,277,39687,2,0,P|76:260|160:156,1,440
252,100,40216,6,0,P|300:60|372:76,1,110
192,272,40393,2,0,P|245:269|285:232,1,110
232,100,40569,2,0,P|280:60|352:76,1,110
172,272,40746,2,0,B|188:340|280:320|280:320|248:272|236:152,1,220
356,64,41099,2,0,P|428:152|300:140,1,220
144,40,41452,2,0,P|52:48|52:256,1,330
40,272,41805,2,0,L|8:328,12,55
256,100,42510,6,0,P|308:68|392:60,1,110
400,192,42687,2,0,P|432:212|456:244,1,55
400,196,42775,2,0,P|423:225|434:264,1,55
400,200,42863,2,0,P|411:235|409:275,1,55
256,100,43040,6,0,P|202:112|216:156,1,110
256,284,43216,2,0,P|202:271|216:228,1,110
296,100,43393,2,0,P|242:112|256:156,1,110
296,284,43569,2,0,P|212:312|256:228,1,220
368,176,43922,2,0,P|444:272|236:292,1,440
196,96,44452,1,0,0:0:0:0:
336,72,44628,2,0,B|432:40|460:44|460:44|444:124|380:124|444:164|444:164|308:144|308:144|208:228,1,440
112,244,45157,6,0,L|32:344,1,110
196,148,45334,2,0,B|276:48|276:48|452:320|196:336,1,440
84,240,45863,6,0,P|28:192|32:132,1,110
196,120,46040,2,0,P|181:68|135:39,1,110
64,220,46216,2,0,P|8:172|12:112,1,110
172,100,46393,2,0,P|128:52|124:152,1,220
208,212,46746,2,0,B|276:288|276:288|164:240|84:248|84:248|112:288|69:326|69:326|132:376|364:356,1,660
444,348,47452,2,0,B|276:360|276:360|336:289|336:289|296:224|200:320|124:212|124:212|92:300|188:360,1,660
276,360,48157,6,0,P|340:344|380:308,1,110
276,192,48334,2,0,P|312:184|336:156,1,55
274,181,48422,2,0,P|305:161|318:126,1,55
268,171,48510,2,0,P|290:142|268:68,1,110
144,120,48687,2,0,P|125:69|151:23,1,110
348,68,48863,2,0,P|436:292|228:144,1,660
348,68,49569,6,0,B|476:112|444:344|444:344|308:56|252:296,1,660
48,336,50275,2,0,B|108:360|180:328|180:328|144:236|144:236|204:200|204:200|120:136|120:136|140:96,1,440
312,32,50805,2,0,L|400:108,1,110
312,320,50981,2,0,B|148:372|156:260|156:260|68:216|68:216|212:144,1,440
395,103,51510,2,0,L|324:188,1,110
144,324,51687,2,0,P|64:228|92:176,1,146.666666666667
104,281,51922,2,0,P|62:164|106:124,1,146.666666666667
82,228,52157,2,0,P|82:103|137:82,1,146.666666666667
308,64,52393,6,0,P|344:72|332:88,1,55
388,296,52746,6,0,P|288:216|324:156,1,146.666666666667
100,296,52981,2,0,P|169:283|200:219,1,146.666666666667
414,240,53216,2,0,P|293:199|306:130,1,146.666666666667,0|0,2:0|2:0,2:0:0:0:
73,240,53452,2,0,P|140:296|193:203,1,220
128,56,53805,6,0,P|60:56|28:108,1,110
184,208,53981,2,0,P|232:180|232:172,1,55
204,228,54069,2,0,P|258:218|261:210,1,55
224,248,54157,2,0,P|278:257|283:251,1,55
328,360,54334,2,0,P|388:320|384:232,1,110
304,212,54510,2,0,P|326:162|374:138,1,110
398,286,54687,2,0,P|458:246|454:158,1,110
374,138,54863,2,0,P|364:40|448:68,1,220
352,248,55216,6,0,L|240:312,1,110
256,302,55393,2,0,L|164:354,8,55
364,208,55922,2,0,B|384:96|384:96|378:89|378:89|264:136|200:64|200:64|84:108|220:200,1,440
244,272,56452,2,0,L|304:160,1,110
356,56,56628,2,0,L|380:16,16,27.5
295,175,57157,2,0,L|244:272,1,110
124,340,57334,6,0,P|44:288|32:224,1,146.666666666667
80,290,57569,2,0,P|23:213|33:149,1,146.666666666667
56,228,57805,2,0,P|29:136|61:80,1,146.666666666667
244,44,58040,2,0,B|384:44|384:44|384:156|384:156|268:156|268:156|268:268|268:268|380:268|380:268|380:352,1,660
283,336,58746,2,0,P|43:264|256:48,1,660
436,68,59452,6,0,L|360:160,1,110
236,240,59628,2,0,P|192:196|204:184,1,55
216,240,59716,2,0,P|189:183|205:176,1,55
196,239,59805,2,0,P|190:178|207:176,1,55
196,52,59981,2,0,P|260:48|320:80,1,110
356,240,60157,6,0,P|280:228|252:168,1,110
332,275,60246,2,0,P|265:238|259:172,1,107.250000409126
298,300,60334,2,0,P|248:242|265:178,1,104.499997209549
258,312,60422,2,0,P|230:241|268:186,1,101.749999611855
216,310,60510,2,0,P|214:233|269:195,1,98.9999969787599
177,293,60599,2,0,P|202:221|266:204,1,96.2500009179115
146,264,60687,2,0,P|194:205|260:210,1,93.500001783371
127,227,60775,2,0,P|193:187|253:215,1,90.7500008654595
122,185,60863,6,0,P|380:80|264:332,1,660
188,336,61569,2,0,B|44:336|44:336|224:240|124:188|124:188|304:108|304:108,1,550
432,48,62099,2,0,L|384:176,1,110
296,292,62275,2,0,B|204:144|292:56|292:56|196:4|120:88,1,440
172,332,62805,2,0,P|208:364|284:364,1,110
316,216,62981,2,0,P|370:219|411:253,1,110
132,292,63157,2,0,P|168:324|244:324,1,110
276,176,63333,2,0,P|356:192|272:264,1,220
132,208,63687,6,0,P|32:128|204:152,1,440
240,252,64216,1,0,0:0:0:0:
392,92,64393,1,0,0:0:0:0:
188,168,64569,1,0,0:0:0:0:
380,276,64746,1,0,0:0:0:0:
272,84,64922,1,0,0:0:0:0:
140,260,65099,6,0,P|180:304|260:296,1,110
296,140,65275,2,0,P|260:136|236:152,1,55
276,120,65363,2,0,P|240:116|216:132,1,55
256,100,65452,2,0,P|220:96|196:112,1,55
396,196,65628,2,0,P|464:200|516:156,1,110
492,320,65805,2,0,P|443:344|389:336,1,110
396,196,65981,2,0,P|464:200|516:156,1,110
492,320,66158,2,0,P|443:344|344:224,1,220
268,60,66510,6,0,B|192:20|60:52|60:52|104:152|104:152|4:220|72:356|192:213|192:213|244:304,1,660
352,336,67216,2,0,B|472:244|472:244|472:84|472:84|324:336|212:108,1,660
108,48,67922,2,0,P|36:160|116:224,1,220
284,320,68275,2,0,P|328:226|254:155,1,220
108,48,68628,2,0,P|28:120|60:184,1,110
148,220,68805,2,0,P|120:266|69:281,1,110
108,48,68981,2,0,P|28:120|140:204,1,220
260,236,69334,2,0,B|380:240|380:240|384:112|384:112|488:112|488:112|512:292|336:344,1,660
188,340,70040,6,0,P|64:292|316:124,1,660
292,248,70746,6,0,P|228:268|168:244,1,110
124,132,70920,2,0,P|160:128|196:140,1,55
124,132,71007,2,0,P|159:140|188:164,1,55
124,132,71094,2,0,P|154:152|174:184,1,55,0|0,2:0|2:0,2:0:0:0:
288,44,71268,2,0,P|356:64|384:120,1,110
348,204,71442,2,0,B|248:284|84:164|84:164|44:220|44:220|100:344|340:332,1,660
448,272,72139,6,0,P|444:196|408:160,1,110
328,116,72491,1,0,0:0:0:0:
244,260,72668,2,0,P|140:284|116:252,1,110
220,112,73021,1,0,0:0:0:0:
220,112,73109,1,0,0:0:0:0:
220,112,73197,1,0,0:0:0:0:
388,60,73374,1,0,0:0:0:0:
328,196,73550,1,0,0:0:0:0:
68,184,73727,5,0,0:0:0:0:
228,32,73903,2,0,P|300:64|308:104,1,110
236,200,74256,1,0,0:0:0:0:
236,200,74344,1,0,0:0:0:0:
236,200,74433,1,0,0:0:0:0:
416,76,74609,2,0,B|460:124|436:180|432:184,1,110
268,324,74962,6,0,P|188:312|160:272,1,110
360,184,75312,2,0,P|392:244|372:296,1,110
188,152,75663,1,0,0:0:0:0:
188,152,75751,1,0,0:0:0:0:
188,152,75839,1,0,0:0:0:0:
380,48,76014,2,0,P|348:116|304:96,1,110
124,40,76365,5,0,0:0:0:0:
124,40,76535,1,0,0:0:0:0:
380,48,76705,1,0,0:0:0:0:
140,160,76876,6,0,L|420:160,1,220
140,160,77217,1,0,0:0:0:0:
360,156,77387,1,0,0:0:0:0:
84,264,77558,1,0,0:0:0:0:
304,260,77728,6,0,L|160:264,1,110
32,112,78059,1,0,0:0:0:0:
244,48,78225,2,0,L|372:48,1,110
354,48,78556,1,0,0:0:0:0:
124,146,78722,2,0,P|71:148|32:112,1,110
192,40,79053,6,0,L|236:160,1,110
348,320,79372,1,0,0:0:0:0:
424,116,79531,1,0,0:0:0:0:
424,116,79611,1,0,0:0:0:0:
424,116,79691,1,0,0:0:0:0:
348,320,79850,5,0,0:0:0:0:
229,143,80010,2,0,P|184:104|132:120,1,110
44,320,80329,6,0,P|112:336|156:304,1,110
360,268,80639,1,0,0:0:0:0:
232,88,80795,2,0,P|168:56|116:72,1,110
132,62,81106,1,0,0:0:0:0:
360,268,81261,2,0,P|436:288|420:220,1,165
431,227,81572,5,0,0:0:0:0:
100,232,81873,1,0,0:0:0:0:
408,72,82175,1,0,0:0:0:0:
104,72,82476,1,0,0:0:0:0:
408,72,82778,5,0,0:0:0:0:
408,72,83075,1,0,0:0:0:0:
408,72,83372,1,0,0:0:0:0:
408,72,83669,1,0,0:0:0:0:
140,272,83966,5,0,0:0:0:0:
140,272,84251,1,0,0:0:0:0:
140,272,84537,1,0,0:0:0:0:
140,272,84823,1,0,0:0:0:0:
189,295,84894,1,0,0:0:0:0:
243,293,84965,1,0,0:0:0:0:
290,266,85037,1,0,0:0:0:0:
324,216,85108,5,0,0:0:0:0:
324,216,85385,1,0,0:0:0:0:
324,216,85663,1,0,0:0:0:0:
324,216,85941,1,0,0:0:0:0:
52,56,86219,5,0,0:0:0:0:
52,56,86493,1,0,0:0:0:0:
52,56,86768,1,0,0:0:0:0:
52,56,87042,1,0,0:0:0:0:
105,65,87110,1,0,0:0:0:0:
141,105,87179,1,0,0:0:0:0:
144,159,87247,1,0,0:0:0:0:
113,204,87317,2,0,P|76:288|196:324,1,220
412,116,87862,5,0,0:0:0:0:
104,40,88135,1,0,0:0:0:0:
328,208,88407,1,0,0:0:0:0:
20,132,88680,1,0,0:0:0:0:
328,208,88953,1,0,0:0:0:0:
64,260,89226,5,0,0:0:0:0:
61,243,89294,1,0,0:0:0:0:
62,227,89362,1,0,0:0:0:0:
66,211,89430,1,0,0:0:0:0:
73,196,89498,1,0,0:0:0:0:
83,183,89566,1,0,0:0:0:0:
96,172,89635,1,0,0:0:0:0:
110,164,89703,5,0,0:0:0:0:
126,159,89771,1,0,0:0:0:0:
142,158,89839,1,0,0:0:0:0:
159,159,89907,1,0,0:0:0:0:
175,164,89976,1,0,0:0:0:0:
189,172,90044,1,0,0:0:0:0:
200,184,90112,1,0,0:0:0:0:
203,200,90180,5,0,0:0:0:0:
211,214,90248,1,0,0:0:0:0:
223,225,90316,1,0,0:0:0:0:
238,232,90384,1,0,0:0:0:0:
254,234,90452,1,0,0:0:0:0:
270,231,90521,1,0,0:0:0:0:
280,228,90589,2,0,L|322:172,1,66
428,36,91680,6,0,P|304:48|260:140,1,220
180,296,92157,5,0,0:0:0:0:
132,268,92226,2,0,P|120:192|152:160,1,110
180,276,92430,1,0,0:0:0:0:
132,248,92499,2,0,P|120:172|152:140,1,110
184,120,92703,1,0,0:0:0:0:
240,124,92771,2,0,P|248:232|368:128,1,330
332,56,93317,6,0,B|284:32|284:32|264:56|264:56|220:28|220:28|196:48,1,165
96,128,93862,6,0,P|56:208|88:256,1,110
59,221,94407,1,0,0:0:0:0:
59,221,94612,1,0,0:0:0:0:
168,220,94680,2,0,P|224:216|247:139,1,110
308,164,94885,1,0,0:0:0:0:
199,163,94953,2,0,P|143:159|119:82,1,110
212,52,95226,6,0,P|292:56|336:100,1,110
276,176,95498,1,0,0:0:0:0:
188,240,95635,1,0,0:0:0:0:
292,272,95771,2,0,P|348:272|392:192,1,110
348,132,96044,6,0,P|264:72|148:136,1,220
276,232,96521,1,0,0:0:0:0:
220,232,96589,2,0,L|304:332,1,110
300,260,96794,1,0,0:0:0:0:
244,260,96862,2,0,L|328:360,1,110
324,288,97067,1,0,0:0:0:0:
268,288,97135,2,0,P|292:348|380:264,1,220
252,72,97680,2,0,L|232:44,12,27.5
288,152,98226,6,0,B|332:204|332:204|284:376|480:380|456:264,1,330
396,236,98771,2,0,P|308:240|276:204,1,110
104,296,99044,2,0,P|192:300|224:264,1,110
452,48,99498,2,0,P|436:168|412:180,1,110
104,296,99862,1,0,0:0:0:0:
404,300,100135,1,0,0:0:0:0:
172,56,100407,6,0,P|88:64|104:184,1,220
264,280,100885,1,0,0:0:0:0:
312,252,100953,2,0,P|300:184|248:208,1,110
228,212,101157,1,0,0:0:0:0:
276,184,101225,2,0,P|264:116|212:140,1,110
188,140,101430,1,0,0:0:0:0:
236,112,101498,2,0,P|196:60|132:208,1,330
248,272,102044,2,0,B|340:352|340:352|180:388|140:288,1,330
116,212,102589,6,0,P|172:188|240:196,1,110
116,208,102657,2,0,P|172:184|240:192,1,107.250000409126
116,204,102726,2,0,P|172:180|240:188,1,104.499997209549
116,200,102794,2,0,P|172:176|240:184,1,101.749999611855
116,196,102862,2,0,P|172:172|240:180,1,98.9999969787599
116,192,102930,2,0,P|172:168|240:176,1,96.2500009179115
116,188,102998,2,0,P|172:164|240:172,1,93.500001783371
116,184,103067,2,0,P|172:160|240:168,1,90.7500008654595
116,180,103135,2,0,P|172:156|240:164,1,88
116,176,103203,2,0,P|172:152|240:160,1,85.2500006504059
116,172,103271,2,0,P|172:148|240:156,1,82.5000031471254
116,168,103339,2,0,P|172:144|240:152,1,79.7500024337769
116,164,103407,2,0,P|172:140|240:148,1,76.9999976501466
116,160,103476,2,0,P|172:136|240:144,1,74.2500002832413
116,156,103544,2,0,P|172:132|240:140,1,71.4999967269899
116,152,103612,2,0,P|172:128|240:136,1,68.75
116,148,103680,6,0,P|264:84|380:220,1,263.99999194336
343,128,103953,2,0,P|195:192|79:56,1,263.99999194336
40,60,104226,5,0,0:0:0:0:
44,64,104703,5,0,0:0:0:0:
44,64,104771,2,0,P|28:168|132:212,1,220
272,108,105248,5,0,0:0:0:0:
320,80,105317,2,0,P|272:28|204:48,1,110
312,108,105521,1,0,0:0:0:0:
360,80,105590,2,0,P|312:28|244:48,1,110
352,108,105794,1,0,0:0:0:0:
400,80,105862,1,0,0:0:0:0:
172,48,105998,2,0,L|28:220,1,220
272,108,106407,2,0,L|128:280,1,220
130,276,106953,6,0,P|252:348|344:216,1,330
344,219,107498,2,0,B|204:188|204:188|320:336,1,330
448,240,108044,2,0,L|448:168,1,55
364,48,108180,2,0,L|364:172,1,110
280,240,108453,2,0,L|280:168,1,55
280,60,108726,1,0,0:0:0:0:
280,60,108794,1,0,0:0:0:0:
280,60,108862,2,0,P|260:128|196:136,1,110
108,164,109135,6,0,P|72:224|196:240,1,220
320,176,109544,2,0,L|412:176,1,55
328,208,109680,2,0,L|273:208,1,55
325,175,109817,2,0,L|412:207,1,55
322,208,109953,2,0,L|270:189,1,55
331,177,110089,2,0,L|401:236,1,55
316,206,110226,6,0,L|274:171,1,55
335,180,110498,2,0,L|381:260,1,55
312,203,110771,2,0,P|288:116|232:156,1,165
68,240,111317,5,0,0:0:0:0:
232,240,111498,1,0,0:0:0:0:
304,240,111589,1,0,0:0:0:0:
452,240,111771,1,0,0:0:0:0:
304,240,112044,1,0,0:0:0:0:
232,240,112135,1,0,0:0:0:0:
232,240,112317,1,0,0:0:0:0:
160,240,112407,2,0,P|92:216|96:164,1,110
204,136,112680,6,0,P|272:144|312:100,1,110
372,36,112953,1,0,0:0:0:0:
264,44,113135,1,0,0:0:0:0:
192,44,113226,2,0,P|120:84|112:116,1,110
196,180,113498,6,0,P|152:272|84:200,1,220
212,108,113976,1,0,0:0:0:0:
252,136,114044,2,0,P|220:196|168:168,1,110
148,164,114248,1,0,0:0:0:0:
188,192,114316,2,0,P|156:252|104:224,1,110
84,219,114521,1,0,0:0:0:0:
124,247,114589,2,0,P|52:360|40:279,1,330
153,153,115135,2,0,P|65:59|68:188,1,330
268,272,115680,6,0,L|432:272,1,146.666666666667
368,224,115953,2,0,L|204:224,1,146.666666666667
314,320,116226,2,0,L|460:320,1,146.666666666667
414,272,116499,2,0,L|267:272,1,146.666666666667
140,304,116953,2,0,P|68:260|80:220,1,73.3333333333333
392,200,117226,1,0,0:0:0:0:
360,260,117317,1,0,0:0:0:0:
332,0,117589,1,0,0:0:0:0:
140,304,117862,6,0,P|76:268|180:256,1,220
312,200,118339,1,0,0:0:0:0:
296,152,118407,2,0,P|244:124|200:152,1,110
252,164,118612,1,0,0:0:0:0:
236,116,118680,2,0,P|184:88|140:116,1,110
192,120,118885,1,0,0:0:0:0:
176,72,118953,2,0,P|36:88|116:196,1,330
220,196,119498,2,0,B|256:224|256:224|256:188|256:188|284:228|284:228|284:188|284:188|308:228|308:228|308:184|308:184|384:248,1,330
376,332,120044,6,0,P|312:336|260:300,1,110
373,334,120112,2,0,P|309:337|258:300,1,107.250000409126
371,336,120180,2,0,P|306:338|256:300,1,104.499997209549
368,338,120248,2,0,P|304:339|254:300,1,101.749999611855
365,340,120317,2,0,P|301:340|252:300,1,98.9999969787599
363,342,120385,2,0,P|299:341|250:300,1,96.2500009179115
360,345,120453,2,0,P|296:342|248:301,1,93.500001783371
357,347,120521,2,0,P|293:343|246:301,1,90.7500008654595
355,349,120589,2,0,P|291:344|244:301,1,88
352,350,120657,2,0,P|288:344|242:301,1,85.2500006504059
349,352,120726,2,0,P|285:345|241:301,1,82.5000031471254
346,354,120794,2,0,P|283:346|239:301,1,79.7500024337769
344,356,120862,6,0,P|244:276|252:248,1,153.999995300293
281,380,120998,2,0,B|215:270|215:270|260:216|260:216|308:280|384:224,1,307.999990600586
355,241,121271,2,0,P|300:116|124:268,1,440
128,276,121680,1,0,0:0:0:0:
128,276,122089,1,0,0:0:0:0:
355,241,122226,6,0,P|388:184|256:176,1,220
120,180,122703,1,0,0:0:0:0:
168,208,122771,2,0,P|180:116|140:104,1,110
136,148,122976,1,0,0:0:0:0:
184,176,123044,2,0,P|196:84|156:72,1,110
156,120,123248,1,0,0:0:0:0:
156,120,123317,1,0,0:0:0:0:
32,40,123453,1,0,0:0:0:0:
124,248,123862,6,0,P|120:320|252:296,1,220
304,116,124407,2,0,B|356:48|356:48|412:100|412:100|416:192|280:196,1,330
132,216,124953,2,0,P|184:304|404:312,1,330
332,160,125498,2,0,L|280:92,1,55
284,228,125635,2,0,P|360:240|388:108,1,220
320,52,126044,2,0,L|124:108,1,165
132,144,126317,2,0,L|290:98,1,165
308,120,126589,6,0,L|92:184,1,220
188,320,127655,2,0,P|288:280|216:216,1,220
52,84,128722,2,0,P|148:68|296:124,1,220
436,240,129743,2,0,P|340:284|252:200,1,220
76,84,130764,5,0,0:0:0:0:
184,92,131008,1,0,0:0:0:0:
44,192,131253,1,0,0:0:0:0:
139,140,131497,1,0,0:0:0:0:
77,301,131743,1,0,0:0:0:0:
128,206,131987,1,0,0:0:0:0:
163,374,132233,1,0,0:0:0:0:
154,266,132477,1,0,0:0:0:0:
333,266,132723,5,0,0:0:0:0:
324,374,132958,1,0,0:0:0:0:
359,206,133223,1,0,0:0:0:0:
410,301,133428,1,0,0:0:0:0:
348,140,133664,1,0,0:0:0:0:
443,192,133899,1,0,0:0:0:0:
304,92,134134,1,0,0:0:0:0:
412,84,134370,1,0,0:0:0:0:
300,56,134605,6,0,P|220:72|212:132,1,110
292,164,135057,2,0,P|356:216|352:252,1,110
260,288,135510,2,0,L|128:252,1,110
108,160,135963,2,0,P|136:68|184:64,1,110
188,220,136416,2,0,P|268:272|307:244,1,110
284,120,136852,2,0,P|356:83|406:116,1,110
480,172,137288,2,0,P|415:220|360:196,1,110
156,288,137725,2,0,L|40:288,1,110
348,248,138161,6,0,P|404:220|428:172,1,110
252,248,138582,2,0,P|196:220|172:172,1,110
426,180,139003,2,0,P|466:140|434:108,1,110
173,180,139424,2,0,P|133:140|165:108,1,110
362,258,139845,6,0,P|435:221|466:159,1,110
237,258,140251,2,0,P|164:221|133:159,1,110
451,200,140658,2,0,P|502:148|461:106,1,110
148,200,141065,2,0,P|96:148|137:106,1,110
248,88,141472,6,0,P|324:120|144:268,1,440
172,299,143045,6,0,P|353:244|248:88,1,440
248,88,144568,6,0,P|224:168|260:208,1,110
316,176,144937,2,0,P|329:228|301:274,1,110
192,296,145306,2,0,P|108:284|108:240,1,110
192,204,145675,2,0,P|276:216|276:260,1,110
324,328,146044,6,0,L|384:212,1,110
392,120,146402,2,0,L|341:217,1,110
264,296,146760,2,0,L|324:180,1,110
332,88,147118,2,0,L|281:185,1,110
232,284,147476,5,0,0:0:0:0:
452,68,148186,1,0,0:0:0:0:
60,124,148896,1,0,0:0:0:0:
424,332,149606,1,0,0:0:0:0:
172,100,150316,5,0,0:0:0:0:
172,100,150668,1,0,0:0:0:0:
172,100,151021,1,0,0:0:0:0:
172,100,151374,1,0,0:0:0:0:
172,100,151727,1,0,0:0:0:0:
336,68,151904,1,0,0:0:0:0:
244,204,152080,1,0,0:0:0:0:
392,128,152257,1,0,0:0:0:0:
300,264,152433,5,0,0:0:0:0:
255,294,152521,1,0,0:0:0:0:
201,292,152609,1,0,0:0:0:0:
160,258,152697,1,0,0:0:0:0:
140,208,152786,1,0,0:0:0:0:
150,128,152874,1,0,0:0:0:0:
214,80,152962,1,0,0:0:0:0:
294,92,153050,1,0,0:0:0:0:
376,118,153139,6,0,P|416:242|340:98,1,660
312,108,153844,2,0,B|240:20|108:160|108:160|128:40|128:40|-20:64|24:120,1,440
52,292,154286,2,0,L|192:312,1,110
320,312,154550,2,0,P|440:248|236:92,1,440
180,192,155080,2,0,P|112:168|184:132,1,110
264,296,155256,2,0,P|315:298|330:249,1,110
180,212,155433,2,0,P|112:188|184:152,1,110
264,316,155609,2,0,P|315:318|252:176,1,220
124,68,155962,6,0,P|104:115|259:104,1,220,2|0,0:1|0:0,0:0:0:0:
404,64,156315,2,0,L|420:184,1,110
336,320,156491,2,0,L|321:210,1,110
296,104,156668,1,0,0:0:0:0:
80,64,156844,1,0,0:0:0:0:
262,91,157021,1,0,0:0:0:0:
46,127,157197,1,0,0:0:0:0:
227,91,157374,2,0,L|380:64,1,110
436,244,157550,6,0,P|406:282|383:270,1,55
439,248,157639,2,0,P|409:286|386:274,1,55
443,252,157727,2,0,P|413:290|390:278,1,55
236,328,157903,2,0,P|176:312|200:212,1,110
312,120,158080,2,0,L|312:252,1,110
218,319,158256,2,0,P|162:293|203:199,1,110
329,128,158433,2,0,P|388:212|306:258,1,220
196,236,158786,6,0,B|64:172|104:84|104:84|72:60|72:60|196:12|196:12|196:144|196:144|360:76,1,660
452,40,159491,2,0,B|492:144|448:240|448:240|396:352|356:232|356:232|340:196|268:276,1,440
208,320,160021,2,0,P|156:356|72:312,1,110
56,208,160197,2,0,B|104:68|320:48|320:48|264:188,1,440
176,276,160727,2,0,P|108:264|72:216,1,110
320,216,160903,2,0,P|278:180|225:176,1,110
196,296,161080,2,0,P|128:284|92:236,1,110
340,236,161256,2,0,P|272:180|300:276,1,220
364,356,161609,6,0,L|408:392,12,55
265,270,162315,2,0,B|197:214|288:172|288:172|285:134|285:134|673:18|376:176|488:176|488:176|505:290|392:288,1,660
112,284,163021,2,0,P|60:244|60:188,1,110
132,32,163197,2,0,P|168:36|188:52,1,55
135,33,163286,2,0,P|170:44|186:62,1,55
139,34,163374,2,0,P|171:51|184:72,1,55
156,244,163550,2,0,L|88:136,1,110
324,36,163727,2,0,P|448:248|156:244,1,660
97,150,164433,5,0,0:0:0:0:
