osu file format v14

[General]
AudioFilename: audio.mp3
AudioLeadIn: 0
PreviewTime: 56871
Countdown: 0
SampleSet: Normal
StackLeniency: 0
Mode: 1
LetterboxInBreaks: 0
WidescreenStoryboard: 0

[Editor]
Bookmarks: 3759,9093,10871,21537,35759,42871,49982,57093,71316,85537,99759,106871,113982,121093,133536,147758,161981,179758,181536,195758,211758
DistanceSpacing: 1
BeatDivisor: 4
GridSize: 32
TimelineZoom: 1

[Metadata]
Title:Shikabane no Odori
TitleUnicode:しかばねの踊り
Artist:Kikuo
ArtistUnicode:きくお
Creator:Alchyr
Version:Oni
Source:
Tags:Dance of the Dead Corpses vocaloid hatsune 初音ミク kikuo miku 3 featured artist fa mappers' mapper's guild mpg mg japanese progressive pop jpop j-pop
BeatmapID:4096739
BeatmapSetID:1885719

[Difficulty]
HPDrainRate:6
CircleSize:4
OverallDifficulty:5.5
ApproachRate:7.7
SliderMultiplier:1.4
SliderTickRate:1

[Events]
//Background and Video events
0,0,"bg.jpg",0,0
//Break Periods
//Storyboard Layer 0 (Background)
//Storyboard Layer 1 (Fail)
//Storyboard Layer 2 (Pass)
//Storyboard Layer 3 (Foreground)
//Storyboard Layer 4 (Overlay)
//Storyboard Sound Samples

[TimingPoints]
205,444.444444444444,4,1,0,55,1,8
1981,-100,4,1,0,55,0,0
2203,-104.762950319107,4,1,0,55,0,0
2426,-109.775763589227,4,1,0,55,0,0
2648,-115.004328671402,4,1,0,55,0,0
2870,-120.481927710843,4,1,0,55,0,0
3212,-87.719298245614,4,1,0,80,0,0
3535,-100,4,1,0,75,0,0
3760,444.444444444444,4,1,0,75,1,0
3982,-100,4,1,0,70,0,0
10817,-100,4,1,0,75,0,0
10908,-100,4,1,0,70,0,0
14363,-100,4,1,0,75,0,0
14541,-98.3772990502386,4,1,0,70,0,0
14780,-96.7737977551779,4,1,0,70,0,0
15043,-95.2034484198845,4,1,0,70,0,0
15282,-93.6585811581694,4,1,0,70,0,0
15502,-92.1387824721828,4,1,0,70,0,0
15701,-90.6436455739081,4,1,0,70,0,0
15951,-89.1661990037134,4,1,0,70,0,0
16184,-87.719298245614,4,1,0,80,0,0
16574,-76.9230769230769,4,1,0,70,0,0
16781,-100,4,1,0,69,0,0
16825,-100,4,1,0,68,0,0
16870,-100,4,1,0,67,0,0
16892,-100,4,1,0,66,0,0
16936,-100,4,1,0,65,0,0
16959,-100,4,1,0,64,0,0
16981,-100,4,1,0,63,0,0
17003,-100,4,1,0,62,0,0
17025,-100,4,1,0,61,0,0
17048,-100,4,1,0,60,0,0
17070,-100,4,1,0,59,0,0
17092,-100,4,1,0,58,0,0
17114,-100,4,1,0,57,0,0
17136,-100,4,1,0,56,0,0
17159,-100,4,1,0,55,0,0
17181,-100,4,1,0,54,0,0
17203,-100,4,1,0,52,0,0
17225,-100,4,1,0,51,0,0
17248,-100,4,1,0,50,0,0
17270,-100,4,1,0,48,0,0
17292,-100,4,1,0,47,0,0
17314,-100,4,1,0,45,0,0
17336,-100,4,1,0,44,0,0
17359,-100,4,1,0,42,0,0
17381,-100,4,1,0,41,0,0
17403,-100,4,1,0,39,0,0
17425,-100,4,1,0,38,0,0
17448,-100,4,1,0,36,0,0
17470,-100,4,1,0,35,0,0
17492,-100,4,1,0,33,0,0
17514,-100,4,1,0,32,0,0
17537,-100,4,1,0,30,0,0
17707,-100,4,1,0,25,0,0
17908,-100,4,1,0,20,0,0
18092,-100.778807870847,4,1,0,20,0,0
18203,-101.563681158691,4,1,0,20,0,0
18425,-103.151813305042,4,1,0,20,0,0
18647,-104.764778774541,4,1,0,20,0,0
18870,-106.410402757626,4,1,0,20,0,0
18981,-107.239135349703,4,1,0,20,0,0
19092,-108.074322176435,4,1,0,20,0,0
19314,-109.76425998969,4,1,0,20,0,0
19685,-113.223824540227,4,1,0,40,0,0
20019,-116.800591138958,4,1,0,50,0,0
20463,-120.481927710843,4,1,0,35,0,0
20908,-87.719298245614,4,1,0,90,0,0
21315,-100,4,1,0,70,0,0
22788,-100,4,1,0,50,0,0
23074,-100,4,1,0,70,0,0
26821,-87.719298245614,4,1,0,75,0,0
27247,-91.6324297681061,4,1,0,75,0,0
27735,-95.7295342572548,4,1,0,75,0,0
28073,-98.9148476665725,4,1,0,70,0,0
28157,-100,4,1,0,80,0,0
28426,-100,4,1,0,75,0,0
29951,-100,4,1,0,50,0,0
30315,-100,4,1,0,75,0,0
31648,-87.719298245614,4,1,0,85,0,0
34170,-87.719298245614,4,1,0,75,0,0
34398,-87.719298245614,4,1,0,85,0,0
34620,-87.719298245614,4,1,0,75,0,0
34827,-87.719298245614,4,1,0,80,0,0
35005,-100,4,1,0,70,0,0
35131,-100,4,1,0,65,0,0
35184,-100,4,1,0,50,0,0
35268,-100,4,1,0,35,0,0
35693,-100,4,1,0,75,0,0
35871,-100,4,1,0,70,0,0
41082,-87.719298245614,4,1,0,70,0,0
41758,-89.6530505338722,4,1,0,70,0,0
41981,-91.6384324342708,4,1,0,70,0,0
42203,-93.6585811581694,4,1,0,70,0,0
42314,-94.6852948106897,4,1,0,70,0,0
42425,-95.7232636083471,4,1,0,70,0,0
42647,-97.833461520828,4,1,0,70,0,0
42870,-100,4,1,0,70,0,0
45871,-100,4,1,0,50,0,0
46285,-87.719298245614,4,1,0,70,0,0
49871,-90.0900900900901,4,1,0,40,0,0
50203,-100,4,1,0,42,0,0
50425,-91.272009569402,4,1,0,44,0,0
50647,-91.8687713933249,4,1,0,46,0,0
50870,-92.472149570181,4,1,0,48,0,0
51092,-100,4,1,0,49,0,0
51314,-93.6853200172474,4,1,0,51,0,0
51536,-94.2978607371467,4,1,0,53,0,0
51759,-94.9171927520423,4,1,0,55,0,0
51981,-95.5377877990406,4,1,0,57,0,0
52203,-96.1624404693335,4,1,0,59,0,0
52425,-100,4,1,0,61,0,0
52647,-97.424024972748,4,1,0,62,0,0
52870,-98.0638890928239,4,1,0,64,0,0
53092,-98.7050581170636,4,1,0,66,0,0
53314,-99.3504192829923,4,1,0,68,0,0
53536,-100,4,1,0,70,0,0
53647,-99.18533109802,4,1,0,70,0,0
53758,-98.3772990502386,4,1,0,70,0,0
53981,-96.7737977551779,4,1,0,70,0,0
54092,-95.9854117196015,4,1,0,70,0,0
54203,-95.2034484198845,4,1,0,70,0,0
54425,-93.6585811581694,4,1,0,70,0,0
54536,-92.8955738234381,4,1,0,70,0,0
54647,-92.1387824721828,4,1,0,70,0,0
54870,-90.636965910376,4,1,0,70,0,0
54981,-89.898574735406,4,1,0,70,0,0
55092,-89.1661990037134,4,1,0,70,0,0
55314,-87.719298245614,4,1,0,70,0,0
55597,-93.4579439252336,4,1,0,70,0,0
56570,-87.719298245614,4,1,0,80,0,0
56982,-100,4,1,0,75,0,0
57093,-100,4,1,0,75,0,1
57250,-100,4,1,0,70,0,1
64167,-100,4,1,0,75,0,1
64426,-100,4,1,0,70,0,1
78382,-100,4,1,0,75,0,1
78728,-100,4,1,0,70,0,1
81871,-100,4,1,0,75,0,1
81982,-100,4,1,0,75,0,0
82123,-102.355113955636,4,1,0,70,0,0
82425,-104.765693528713,4,1,0,67,0,0
82647,-107.233044997727,4,1,0,64,0,0
82870,-109.770014875569,4,1,0,62,0,0
83092,-112.355223815007,4,1,0,60,0,0
83314,-115.001317370961,4,1,0,56,0,0
83536,-117.70972944553,4,1,0,53,0,0
83758,-120.481927710843,4,1,0,50,0,0
84190,-100,4,1,0,60,0,0
84611,-100,4,1,0,70,0,0
85054,-100,4,1,0,50,0,0
85133,-100,4,1,0,54,0,0
85207,-100,4,1,0,58,0,0
85281,-100,4,1,0,62,0,0
85355,-100,4,1,0,64,0,0
85429,-100,4,1,0,66,0,0
85503,-100,4,1,0,70,0,0
85688,-100,4,1,0,70,0,0
92594,-100,4,1,0,75,0,0
92685,-100,4,1,0,70,0,0
99723,-100,4,1,0,75,0,0
99879,-103.163822448342,4,1,0,70,0,0
100203,-106.412878115151,4,1,0,70,0,0
100425,-109.76425998969,4,1,0,70,0,0
100647,-113.221190747672,4,1,0,70,0,0
100870,-116.803308196827,4,1,0,70,0,0
101092,-120.481927710843,4,1,0,70,0,0
101204,-83.3333333333333,4,1,0,80,0,0
101536,-86.8248823534255,4,1,0,80,0,0
101667,-90.4627223482341,4,1,0,70,0,0
101914,-94.2704103381177,4,1,0,70,0,0
102203,-98.2202074441945,4,1,0,70,0,0
102425,-102.335495472855,4,1,0,70,0,0
102647,-106.623208260122,4,1,0,70,0,0
102870,-111.111111111111,4,1,0,70,0,0
103059,-83.3333333333333,4,1,0,85,0,0
103269,-86.8248823534255,4,1,0,85,0,0
103426,-90.4627223482341,4,1,0,70,0,0
103692,-94.2704103381177,4,1,0,70,0,0
103916,-83.3333333333333,4,1,0,85,0,0
104102,-86.8248823534255,4,1,0,85,0,0
104315,-90.4627223482341,4,1,0,70,0,0
104581,-94.2704103381177,4,1,0,70,0,0
104824,-83.3333333333333,4,1,0,90,0,0
104975,-86.8281670573934,4,1,0,85,0,0
105358,-89.9464383083427,4,1,0,57,0,0
105536,-91.0105523410113,4,1,0,57,0,0
105758,-93.1766964400939,4,1,0,57,0,0
105981,-95.4045051084332,4,1,0,57,0,0
106299,-100,4,1,0,80,0,0
106807,-100,4,1,0,75,0,0
106982,-100,4,1,0,70,0,0
112203,-87.719298245614,4,1,0,70,0,0
112425,-89.1661990037134,4,1,0,70,0,0
112870,-92.1387824721828,4,1,0,70,0,0
113092,-93.6585811581694,4,1,0,70,0,0
113314,-95.2034484198845,4,1,0,70,0,0
113425,-95.9854117196015,4,1,0,70,0,0
113536,-96.7737977551779,4,1,0,70,0,0
113758,-98.3700494824097,4,1,0,70,0,0
113981,-100,4,1,0,70,0,0
116982,-100,4,1,0,50,0,0
117379,-87.719298245614,4,1,0,70,0,0
120870,-87.719298245614,4,1,0,70,0,0
120977,-88.3974697477846,4,1,0,40,0,0
121536,-89.7695824342049,4,1,0,41,0,0
121981,-91.1661557637281,4,1,0,43,0,0
122425,-92.5812442187765,4,1,0,44,0,0
122870,-94.0215594456496,4,1,0,46,0,0
123314,-95.4809697079623,4,1,0,47,0,0
123758,-96.9630330545921,4,1,0,49,0,0
123981,-97.7160591227061,4,1,0,49,0,0
124203,-98.4715171339624,4,1,0,50,0,0
124647,-100,4,1,0,70,0,0
124870,-99.4537042043742,4,1,0,70,0,0
125092,-98.9128225365102,4,1,0,70,0,0
125203,-98.643485804354,4,1,0,70,0,0
125314,-98.3748824682675,4,1,0,70,0,0
125536,-97.8398680016769,4,1,0,70,0,0
125758,-97.3077632257744,4,1,0,70,0,0
125981,-96.7761750064545,4,1,0,70,0,0
126203,-96.2498551537577,4,1,0,70,0,0
126425,-95.7263977058556,4,1,0,70,0,0
126647,-95.205787095482,4,1,0,70,0,0
126870,-94.6856818833869,4,1,0,70,0,0
126981,-94.4278555319951,4,1,0,70,0,0
127092,-94.1707312342418,4,1,0,70,0,0
127314,-93.6585811581694,4,1,0,70,0,0
127536,-93.1492164241771,4,1,0,70,0,0
127758,-92.6426218841065,4,1,0,70,0,0
127870,-92.3880892093182,4,1,0,70,0,0
127981,-92.1365191357961,4,1,0,70,0,0
128203,-91.6354321773964,4,1,0,70,0,0
128314,-91.3859115670299,4,1,0,70,0,0
128425,-91.1370703940112,4,1,0,70,0,0
128647,-90.6414189647025,4,1,0,70,0,0
128758,-90.3946050233357,4,1,0,70,0,0
128870,-90.1462487038027,4,1,0,70,0,0
129092,-89.6559858851308,4,1,0,70,0,0
129203,-89.4118552493113,4,1,0,70,0,0
129314,-89.168389374096,4,1,0,70,0,0
129536,-88.6834446699118,4,1,0,70,0,0
129647,-88.4419622354688,4,1,0,70,0,0
129758,-88.2011373506548,4,1,0,70,0,0
129981,-87.719298245614,4,1,0,70,0,0
130261,-93.4579439252336,4,1,0,70,0,0
131237,-83.3333333333333,4,1,0,80,0,0
131341,-76.9230769230769,4,1,0,70,0,0
131734,-87.719298245614,4,1,0,70,0,0
132548,-100,4,1,0,70,0,0
132982,-90.9090909090909,4,1,0,70,0,0
133426,-100,4,1,0,75,0,0
133537,-100,4,1,0,75,0,1
133725,-100,4,1,0,70,0,1
140592,-100,4,1,0,75,0,1
140870,-100,4,1,0,70,0,1
147677,-100,4,1,0,75,0,1
147947,-100,4,1,0,70,0,1
154788,-100,4,1,0,75,0,1
155043,-100,4,1,0,70,0,1
161911,-100,4,1,0,75,0,1
162092,-100,4,1,0,70,0,1
172648,-100,4,1,0,70,0,0
172870,-102.36450086165,4,1,0,70,0,0
173092,-104.773929767489,4,1,0,70,0,0
173314,-107.240071182092,4,1,0,70,0,0
173536,-109.76425998969,4,1,0,70,0,0
173758,-112.34786249467,4,1,0,70,0,0
173981,-115.004328671402,4,1,0,70,0,0
174203,-117.711270545441,4,1,0,70,0,0
174425,-100,4,1,0,70,0,0
174647,-102.353773901653,4,1,0,70,0,0
174870,-104.773929767489,4,1,0,70,0,0
175092,-107.240071182092,4,1,0,70,0,0
175314,-109.76425998969,4,1,0,70,0,0
175536,-112.34786249467,4,1,0,70,0,0
175758,-114.992277161135,4,1,0,70,0,0
175981,-117.711270545441,4,1,0,70,0,0
176093,-100,4,1,0,80,0,0
176376,-102.353773901653,4,1,0,66,0,0
176640,-104.762950319107,4,1,0,62,0,0
176862,-107.240071182092,4,1,0,59,0,0
177085,-109.76425998969,4,1,0,56,0,0
177307,-112.34786249467,4,1,0,53,0,0
177529,-114.992277161135,4,1,0,50,0,0
177758,-117.69893536987,4,1,0,50,0,0
177981,-120.481927710843,4,1,0,50,0,0
178397,-100,4,1,0,60,0,0
178833,-100,4,1,0,65,0,0
179259,-100,4,1,0,50,0,0
179369,-100,4,1,0,54,0,0
179443,-100,4,1,0,58,0,0
179517,-100,4,1,0,62,0,0
179591,-100,4,1,0,64,0,0
179665,-100,4,1,0,66,0,0
179729,-107.52688172043,4,1,0,70,0,0
179930,-107.52688172043,4,1,0,50,0,0
180647,-107.52688172043,4,1,0,50,0,0
180840,-105.587182043943,4,1,0,55,0,0
180981,-104.634764092949,4,1,0,55,0,0
181062,-103.690937146428,4,1,0,80,0,0
181281,-101.828746995349,4,1,0,45,0,0
181501,-100,4,1,0,75,0,0
181759,-100,4,1,0,70,0,0
188595,-100,4,1,0,75,0,0
188686,-100,4,1,0,70,0,0
195648,-100,4,1,0,75,0,0
195870,-100,4,1,0,70,0,0
206425,-100,4,1,0,70,0,0
206647,-102.353773901653,4,1,0,70,0,0
206870,-104.773929767489,4,1,0,70,0,0
207092,-107.240071182092,4,1,0,70,0,0
207314,-109.76425998969,4,1,0,70,0,0
207536,-112.34786249467,4,1,0,70,0,0
207758,-114.992277161135,4,1,0,70,0,0
207981,-117.711270545441,4,1,0,70,0,0
208203,-100,4,1,0,70,0,0
208425,-102.353773901653,4,1,0,70,0,0
208647,-104.762950319107,4,1,0,70,0,0
208870,-107.240071182092,4,1,0,70,0,0
209092,-109.76425998969,4,1,0,70,0,0
209314,-112.34786249467,4,1,0,70,0,0
209536,-114.992277161135,4,1,0,70,0,0
209758,-117.69893536987,4,1,0,70,0,0
209981,-100,4,1,0,70,0,0
210203,-98.3763933350153,4,1,0,70,0,0
210425,-96.7791476560565,4,1,0,70,0,0
210647,-95.2078349643974,4,1,0,70,0,0
210870,-93.6551282333152,4,1,0,70,0,0
210981,-92.8917214195387,4,1,0,70,0,0
211092,-92.1345373292191,4,1,0,70,0,0
211314,-90.6386348403891,4,1,0,70,0,0
211425,-89.899816232868,4,1,0,70,0,0
211536,-89.1670199240695,4,1,0,70,0,0
211647,-88.4401968247022,4,1,0,70,0,0
211758,-87.719298245614,4,1,0,70,0,0
211945,-100,4,1,0,66,0,0
212111,-100,4,1,0,62,0,0
212320,-100,4,1,0,58,0,0
212468,-100,4,1,0,54,0,0
212586,-100,4,1,0,50,0,0

[HitObjects]
256,262,1982,5,0,0:0:0:0:
256,262,2204,1,0,0:0:0:0:
256,262,2427,1,8,0:0:0:0:
256,262,2649,1,8,0:0:0:0:
256,262,2871,1,0,0:0:0:0:
256,262,3316,1,12,0:0:0:0:
128,324,3760,1,4,0:0:0:0:
128,324,4093,1,0,0:0:0:0:
256,262,4204,1,8,0:0:0:0:
128,324,4426,1,0,0:0:0:0:
256,262,4648,1,0,0:0:0:0:
256,262,5093,1,8,0:0:0:0:
256,262,5537,1,0,0:0:0:0:
128,324,5759,1,8,0:0:0:0:
256,262,5982,1,8,0:0:0:0:
256,262,6204,1,8,0:0:0:0:
256,262,6426,1,0,0:0:0:0:
256,262,6871,1,8,0:0:0:0:
128,324,7537,1,0,0:0:0:0:
256,262,7759,1,8,0:0:0:0:
256,262,7982,1,8,0:0:0:0:
256,262,8204,1,0,0:0:0:0:
256,262,8648,1,8,0:0:0:0:
256,262,9093,1,0,0:0:0:0:
256,262,9315,1,8,0:0:0:0:
256,262,9537,1,8,0:0:0:0:
256,262,9759,1,8,0:0:0:0:
256,262,9982,1,0,0:0:0:0:
256,262,10204,1,0,0:0:0:0:
128,324,10315,1,0,0:0:0:0:
128,324,10426,1,8,0:0:0:0:
256,262,10648,1,8,0:0:0:0:
256,262,10871,1,4,0:0:0:0:
256,262,11204,1,0,0:0:0:0:
256,262,11315,1,8,0:0:0:0:
256,262,11537,1,8,0:0:0:0:
256,262,11759,1,0,0:0:0:0:
256,262,12204,1,8,0:0:0:0:
256,262,12648,1,0,0:0:0:0:
256,262,12871,1,8,0:0:0:0:
256,262,13093,1,8,0:0:0:0:
256,262,13315,1,8,0:0:0:0:
256,262,13537,1,0,0:0:0:0:
256,262,13982,1,8,0:0:0:0:
256,262,14426,1,4,0:0:0:0:
256,262,14648,1,8,0:0:0:0:
256,262,14871,1,0,0:0:0:0:
256,262,15093,1,0,0:0:0:0:
256,262,15315,1,8,0:0:0:0:
256,262,15537,1,8,0:0:0:0:
256,262,15759,1,0,0:0:0:0:
256,262,15982,1,0,0:0:0:0:
256,262,16204,1,12,0:0:0:0:
256,192,16648,12,0,17537,0:0:0:0:
256,262,17982,5,8,0:0:0:0:
256,262,18093,1,8,0:0:0:0:
256,262,18204,1,8,0:0:0:0:
256,262,18426,1,8,0:0:0:0:
256,262,18648,1,8,0:0:0:0:
256,262,18871,1,8,0:0:0:0:
256,262,18982,1,8,0:0:0:0:
256,262,19093,1,8,0:0:0:0:
256,262,19315,1,8,0:0:0:0:
256,262,19759,1,0,0:0:0:0:
128,324,20204,1,8,0:0:0:0:
256,262,20648,1,0,0:0:0:0:
256,262,21093,1,12,0:0:0:0:
256,262,21537,1,0,0:0:0:0:
256,262,21648,1,0,0:0:0:0:
256,262,21760,1,8,0:0:0:0:
256,262,21982,1,0,0:0:0:0:
256,262,22204,1,0,0:0:0:0:
256,262,22315,1,0,0:0:0:0:
256,262,22426,1,8,0:0:0:0:
256,262,22648,1,0,0:0:0:0:
256,262,22871,1,8,0:0:0:0:
256,262,23315,1,0,0:0:0:0:
256,262,23426,1,0,0:0:0:0:
256,262,23537,1,8,0:0:0:0:
256,262,23759,1,0,0:0:0:0:
256,262,23982,1,0,0:0:0:0:
256,262,24093,1,0,0:0:0:0:
256,262,24204,1,8,0:0:0:0:
256,262,24426,1,0,0:0:0:0:
256,262,24648,1,8,0:0:0:0:
128,324,24759,1,8,0:0:0:0:
128,324,24871,1,8,0:0:0:0:
128,324,24982,1,8,0:0:0:0:
128,324,25093,1,0,0:0:0:0:
256,262,25760,1,0,0:0:0:0:
128,324,25871,1,0,0:0:0:0:
128,324,25982,1,8,0:0:0:0:
256,262,26204,1,8,0:0:0:0:
256,262,26426,1,0,0:0:0:0:
128,324,26648,1,0,0:0:0:0:
128,324,26871,1,12,0:0:0:0:
128,324,27315,1,12,0:0:0:0:
256,262,27760,1,12,0:0:0:0:
256,262,28093,1,0,0:0:0:0:
256,262,28204,1,12,0:0:0:0:
128,324,28648,1,0,0:0:0:0:
128,324,28759,1,0,0:0:0:0:
256,262,28871,1,8,0:0:0:0:
256,262,29093,1,0,0:0:0:0:
128,324,29315,1,0,0:0:0:0:
128,324,29426,1,0,0:0:0:0:
256,262,29537,1,8,0:0:0:0:
256,262,29760,1,0,0:0:0:0:
256,262,29982,1,8,0:0:0:0:
128,324,30426,1,8,0:0:0:0:
128,324,30537,1,8,0:0:0:0:
256,262,30648,1,8,0:0:0:0:
256,262,30871,1,0,0:0:0:0:
256,262,31093,1,8,0:0:0:0:
256,262,31204,1,8,0:0:0:0:
256,262,31315,1,8,0:0:0:0:
256,262,31537,1,0,0:0:0:0:
256,262,31760,1,12,0:0:0:0:
256,262,31982,1,8,0:0:0:0:
256,262,32204,1,4,0:0:0:0:
256,262,32648,1,12,0:0:0:0:
256,262,32871,1,8,0:0:0:0:
256,262,33093,1,4,0:0:0:0:
256,262,33537,1,12,0:0:0:0:
256,262,33760,1,8,0:0:0:0:
256,262,33982,1,4,0:0:0:0:
256,262,34204,1,0,0:0:0:0:
256,262,34426,1,12,0:0:0:0:
256,262,34648,1,8,0:0:0:0:
256,262,34871,1,4,0:0:0:0:
256,262,35760,1,4,0:0:0:0:
128,324,35982,1,8,0:0:0:0:
256,262,36204,1,8,0:0:0:0:
256,262,36426,1,8,0:0:0:0:
256,262,36648,1,0,0:0:0:0:
128,324,36871,1,0,0:0:0:0:
256,262,37093,1,8,0:0:0:0:
256,262,37315,1,8,0:0:0:0:
256,262,37537,1,0,0:0:0:0:
256,262,37982,1,8,0:0:0:0:
128,324,38426,1,0,0:0:0:0:
256,262,38759,1,8,0:0:0:0:
256,262,38871,1,8,0:0:0:0:
256,262,39315,1,0,0:0:0:0:
256,262,39537,1,8,0:0:0:0:
256,262,39760,1,0,0:0:0:0:
256,262,39982,1,8,0:0:0:0:
256,262,40204,1,0,0:0:0:0:
256,262,40426,1,0,0:0:0:0:
256,262,40648,1,8,0:0:0:0:
256,262,40871,1,8,0:0:0:0:
256,262,41093,1,4,0:0:0:0:
256,262,41315,1,4,0:0:0:0:
256,262,41759,1,8,0:0:0:0:
256,262,41982,1,8,0:0:0:0:
256,262,42204,1,0,0:0:0:0:
128,324,42315,1,0,0:0:0:0:
256,262,42426,1,8,0:0:0:0:
128,324,42648,1,8,0:0:0:0:
256,262,42871,1,4,0:0:0:0:
256,262,43093,1,0,0:0:0:0:
256,262,43315,1,8,0:0:0:0:
256,262,43537,1,8,0:0:0:0:
256,262,43760,1,0,0:0:0:0:
256,262,43982,1,0,0:0:0:0:
256,262,44204,1,8,0:0:0:0:
256,262,44426,1,8,0:0:0:0:
256,262,44648,1,0,0:0:0:0:
256,262,44871,1,0,0:0:0:0:
256,262,45093,1,8,0:0:0:0:
256,262,45315,1,8,0:0:0:0:
256,262,45537,1,0,0:0:0:0:
256,262,45982,1,8,0:0:0:0:
256,262,46426,1,4,0:0:0:0:
256,262,46648,1,4,0:0:0:0:
256,262,46871,1,12,0:0:0:0:
256,262,47093,1,12,0:0:0:0:
256,262,47315,1,4,0:0:0:0:
256,262,47537,1,4,0:0:0:0:
256,262,47760,1,12,0:0:0:0:
256,262,47982,1,12,0:0:0:0:
256,262,48204,1,4,0:0:0:0:
256,262,48426,1,4,0:0:0:0:
256,262,48648,1,12,0:0:0:0:
256,262,48871,1,12,0:0:0:0:
256,262,49315,1,4,0:0:0:0:
256,262,49537,1,4,0:0:0:0:
256,262,49759,1,4,0:0:0:0:
256,262,49982,1,8,0:0:0:0:
256,262,50426,1,0,0:0:0:0:
256,262,50648,1,0,0:0:0:0:
256,262,50871,1,8,0:0:0:0:
256,262,51315,1,0,0:0:0:0:
256,262,51537,1,0,0:0:0:0:
256,262,51760,1,8,0:0:0:0:
256,262,51982,1,8,0:0:0:0:
128,324,52204,1,0,0:0:0:0:
256,262,52648,1,8,0:0:0:0:
256,262,52871,1,8,0:0:0:0:
128,324,53093,1,0,0:0:0:0:
128,324,53315,1,0,0:0:0:0:
128,324,53537,1,8,0:0:0:0:
256,262,53648,1,8,0:0:0:0:
128,324,53759,1,8,0:0:0:0:
256,262,53982,1,0,0:0:0:0:
128,324,54093,1,0,0:0:0:0:
128,324,54204,1,0,0:0:0:0:
128,324,54426,1,8,0:0:0:0:
128,324,54537,1,8,0:0:0:0:
128,324,54648,1,8,0:0:0:0:
256,262,54871,1,0,0:0:0:0:
128,324,54982,1,0,0:0:0:0:
256,262,55093,1,0,0:0:0:0:
256,262,55315,1,8,0:0:0:0:
256,262,55648,1,8,0:0:0:0:
256,262,55760,1,8,0:0:0:0:
256,262,55982,1,0,0:0:0:0:
256,262,56204,1,8,0:0:0:0:
256,262,56648,1,12,0:0:0:0:
256,262,57093,1,4,0:0:0:0:
128,324,57315,1,8,0:0:0:0:
128,324,57537,1,8,0:0:0:0:
128,324,57759,1,8,0:0:0:0:
128,324,57982,1,0,0:0:0:0:
128,324,58204,1,0,0:0:0:0:
256,262,58315,1,0,0:0:0:0:
256,262,58426,1,8,0:0:0:0:
256,262,58648,1,8,0:0:0:0:
256,262,58871,1,0,0:0:0:0:
256,262,59093,1,8,0:0:0:0:
256,262,59315,1,8,0:0:0:0:
256,262,59537,1,8,0:0:0:0:
256,262,59760,1,0,0:0:0:0:
256,262,59982,1,0,0:0:0:0:
128,324,60093,1,0,0:0:0:0:
128,324,60204,1,8,0:0:0:0:
256,262,60426,1,8,0:0:0:0:
256,262,60871,1,0,0:0:0:0:
128,324,61093,1,0,0:0:0:0:
128,324,61315,1,0,0:0:0:0:
128,324,61537,1,8,0:0:0:0:
256,262,61759,1,8,0:0:0:0:
128,324,61871,1,8,0:0:0:0:
128,324,61982,1,0,0:0:0:0:
128,324,62204,1,8,0:0:0:0:
256,262,62426,1,0,0:0:0:0:
256,262,62648,1,8,0:0:0:0:
256,262,62871,1,8,0:0:0:0:
256,262,63093,1,8,0:0:0:0:
256,262,63315,1,0,0:0:0:0:
256,262,63760,1,8,0:0:0:0:
256,262,63982,1,8,0:0:0:0:
256,262,64204,1,4,0:0:0:0:
256,262,64537,1,0,0:0:0:0:
256,262,64648,1,8,0:0:0:0:
256,262,64871,1,8,0:0:0:0:
256,262,65093,1,0,0:0:0:0:
256,262,65315,1,8,0:0:0:0:
256,262,65537,1,0,0:0:0:0:
256,262,65759,1,0,0:0:0:0:
256,262,65982,1,8,0:0:0:0:
128,324,66204,1,8,0:0:0:0:
128,324,66315,1,8,0:0:0:0:
128,324,66426,1,0,0:0:0:0:
128,324,66648,1,0,0:0:0:0:
128,324,66871,1,8,0:0:0:0:
128,324,67093,1,0,0:0:0:0:
128,324,67204,1,0,0:0:0:0:
128,324,67315,1,0,0:0:0:0:
128,324,67537,1,8,0:0:0:0:
128,324,67760,1,0,0:0:0:0:
256,262,67982,1,8,0:0:0:0:
256,262,68204,1,8,0:0:0:0:
256,262,68426,1,8,0:0:0:0:
256,262,68648,1,0,0:0:0:0:
128,324,68871,1,0,0:0:0:0:
128,324,69093,1,8,0:0:0:0:
128,324,69315,1,8,0:0:0:0:
128,324,69537,1,0,0:0:0:0:
256,262,69759,1,0,0:0:0:0:
128,324,69871,1,0,0:0:0:0:
256,262,69982,1,8,0:0:0:0:
256,262,70204,1,8,0:0:0:0:
256,262,70426,1,0,0:0:0:0:
256,262,70871,1,8,0:0:0:0:
256,262,71315,1,4,0:0:0:0:
256,262,71537,1,8,0:0:0:0:
256,262,71759,1,8,0:0:0:0:
256,262,71982,1,0,0:0:0:0:
256,262,72204,1,8,0:0:0:0:
256,262,72315,1,8,0:0:0:0:
256,262,72426,1,0,0:0:0:0:
256,262,72648,1,8,0:0:0:0:
256,262,72871,1,0,0:0:0:0:
256,262,73093,1,8,0:0:0:0:
256,262,73315,1,8,0:0:0:0:
256,262,73537,1,8,0:0:0:0:
256,262,73759,1,8,0:0:0:0:
256,262,73982,1,0,0:0:0:0:
256,262,74204,1,0,0:0:0:0:
256,262,74315,1,0,0:0:0:0:
256,262,74426,1,8,0:0:0:0:
256,262,75093,1,8,0:0:0:0:
256,262,75315,1,8,0:0:0:0:
256,262,75537,1,0,0:0:0:0:
256,262,75759,1,8,0:0:0:0:
128,324,75871,1,8,0:0:0:0:
256,262,75982,1,0,0:0:0:0:
256,262,76204,1,8,0:0:0:0:
256,262,76426,1,0,0:0:0:0:
256,262,76648,1,0,0:0:0:0:
256,262,76871,1,8,0:0:0:0:
128,324,76982,1,8,0:0:0:0:
256,262,77093,1,8,0:0:0:0:
128,324,77315,1,8,0:0:0:0:
256,262,77537,1,0,0:0:0:0:
256,262,77982,1,8,0:0:0:0:
256,262,78204,1,8,0:0:0:0:
256,262,78426,1,4,0:0:0:0:
256,262,78871,1,8,0:0:0:0:
128,324,79093,1,0,0:0:0:0:
128,324,79204,1,0,0:0:0:0:
128,324,79315,1,8,0:0:0:0:
256,262,79537,1,8,0:0:0:0:
256,262,79759,1,0,0:0:0:0:
256,262,79982,1,0,0:0:0:0:
256,262,80204,1,8,0:0:0:0:
128,324,80426,1,0,0:0:0:0:
128,324,80648,1,8,0:0:0:0:
128,324,80871,1,0,0:0:0:0:
128,324,81093,1,8,0:0:0:0:
256,262,81537,1,8,0:0:0:0:
256,262,81759,1,8,0:0:0:0:
256,262,81982,1,4,0:0:0:0:
256,262,82204,1,0,0:0:0:0:
256,262,82426,1,8,0:0:0:0:
256,262,82648,1,0,0:0:0:0:
256,262,82871,1,8,0:0:0:0:
256,262,83093,1,8,0:0:0:0:
256,262,83315,1,0,0:0:0:0:
256,262,83537,1,0,0:0:0:0:
256,262,83759,1,0,0:0:0:0:
256,262,84204,1,8,0:0:0:0:
256,262,84426,1,0,0:0:0:0:
256,262,84648,1,8,0:0:0:0:
128,324,85537,1,4,0:0:0:0:
256,262,85871,1,0,0:0:0:0:
256,262,85982,1,8,0:0:0:0:
128,324,86204,1,0,0:0:0:0:
256,262,86426,1,0,0:0:0:0:
256,262,86871,1,8,0:0:0:0:
256,262,87315,1,0,0:0:0:0:
256,262,87537,1,8,0:0:0:0:
256,262,87759,1,8,0:0:0:0:
256,262,87982,1,8,0:0:0:0:
256,262,88204,1,0,0:0:0:0:
256,262,88648,1,8,0:0:0:0:
128,324,89315,1,0,0:0:0:0:
256,262,89537,1,8,0:0:0:0:
256,262,89759,1,8,0:0:0:0:
256,262,89982,1,0,0:0:0:0:
256,262,90426,1,8,0:0:0:0:
256,262,90871,1,0,0:0:0:0:
256,262,91093,1,8,0:0:0:0:
256,262,91315,1,8,0:0:0:0:
256,262,91537,1,8,0:0:0:0:
256,262,91759,1,0,0:0:0:0:
256,262,91982,1,0,0:0:0:0:
128,324,92093,1,0,0:0:0:0:
128,324,92204,1,8,0:0:0:0:
256,262,92426,1,8,0:0:0:0:
256,262,92648,1,4,0:0:0:0:
256,262,92982,1,0,0:0:0:0:
256,262,93093,1,8,0:0:0:0:
256,262,93315,1,8,0:0:0:0:
256,262,93537,1,0,0:0:0:0:
256,262,93982,1,8,0:0:0:0:
256,262,94426,1,0,0:0:0:0:
256,262,94648,1,8,0:0:0:0:
256,262,94871,1,8,0:0:0:0:
256,262,95093,1,8,0:0:0:0:
256,262,95315,1,0,0:0:0:0:
256,262,95759,1,8,0:0:0:0:
256,262,96204,1,0,0:0:0:0:
256,262,96426,1,8,0:0:0:0:
256,262,96648,1,0,0:0:0:0:
256,262,96871,1,0,0:0:0:0:
256,262,97093,1,8,0:0:0:0:
256,262,97315,1,8,0:0:0:0:
256,262,97537,1,0,0:0:0:0:
128,324,97759,1,8,0:0:0:0:
128,324,97982,1,0,0:0:0:0:
256,262,98426,1,8,0:0:0:0:
128,324,98871,1,0,0:0:0:0:
128,324,99204,1,0,0:0:0:0:
128,324,99315,1,8,0:0:0:0:
256,262,99759,1,4,0:0:0:0:
128,324,99982,1,8,0:0:0:0:
128,324,100204,1,8,0:0:0:0:
128,324,100426,1,8,0:0:0:0:
128,324,100648,1,0,0:0:0:0:
128,324,100871,1,0,0:0:0:0:
128,324,101093,1,0,0:0:0:0:
256,262,101315,1,12,0:0:0:0:
256,262,101537,1,4,0:0:0:0:
128,324,101759,1,8,0:0:0:0:
128,324,101982,1,8,0:0:0:0:
128,324,102204,1,8,0:0:0:0:
128,324,102426,1,0,0:0:0:0:
128,324,102648,1,0,0:0:0:0:
128,324,102871,1,0,0:0:0:0:
256,262,103093,1,12,0:0:0:0:
256,262,103315,1,4,0:0:0:0:
128,324,103537,1,8,0:0:0:0:
128,324,103759,1,8,0:0:0:0:
256,262,103982,1,12,0:0:0:0:
256,262,104204,1,4,0:0:0:0:
128,324,104426,1,8,0:0:0:0:
256,262,104648,1,8,0:0:0:0:
256,262,104871,1,12,0:0:0:0:
256,262,105093,1,4,0:0:0:0:
128,324,105426,1,8,0:0:0:0:
256,262,105537,1,8,0:0:0:0:
128,324,105759,1,8,0:0:0:0:
256,262,105982,1,0,0:0:0:0:
256,262,106426,1,8,0:0:0:0:
256,262,106871,1,4,0:0:0:0:
128,324,107093,1,8,0:0:0:0:
256,262,107315,1,8,0:0:0:0:
256,262,107537,1,8,0:0:0:0:
256,262,107759,1,0,0:0:0:0:
128,324,107982,1,0,0:0:0:0:
256,262,108204,1,8,0:0:0:0:
256,262,108426,1,8,0:0:0:0:
256,262,108648,1,0,0:0:0:0:
256,262,109093,1,8,0:0:0:0:
128,324,109537,1,0,0:0:0:0:
256,262,109871,1,8,0:0:0:0:
256,262,109982,1,8,0:0:0:0:
256,262,110426,1,0,0:0:0:0:
256,262,110648,1,8,0:0:0:0:
256,262,110871,1,0,0:0:0:0:
256,262,111093,1,8,0:0:0:0:
256,262,111315,1,0,0:0:0:0:
256,262,111537,1,0,0:0:0:0:
256,262,111759,1,8,0:0:0:0:
256,262,111982,1,8,0:0:0:0:
256,262,112204,1,4,0:0:0:0:
256,262,112426,1,4,0:0:0:0:
256,262,112871,1,8,0:0:0:0:
256,262,113093,1,8,0:0:0:0:
256,262,113315,1,0,0:0:0:0:
128,324,113426,1,0,0:0:0:0:
128,324,113537,1,0,0:0:0:0:
256,262,113759,1,8,0:0:0:0:
256,262,113982,1,4,0:0:0:0:
256,262,114204,1,0,0:0:0:0:
256,262,114426,1,8,0:0:0:0:
256,262,114648,1,8,0:0:0:0:
256,262,114871,1,0,0:0:0:0:
256,262,115093,1,0,0:0:0:0:
256,262,115315,1,8,0:0:0:0:
256,262,115537,1,8,0:0:0:0:
256,262,115759,1,0,0:0:0:0:
256,262,115982,1,0,0:0:0:0:
256,262,116204,1,8,0:0:0:0:
256,262,116426,1,8,0:0:0:0:
256,262,116648,1,0,0:0:0:0:
128,324,117093,1,8,0:0:0:0:
256,262,117537,1,4,0:0:0:0:
256,262,117759,1,4,0:0:0:0:
256,262,117982,1,12,0:0:0:0:
256,262,118204,1,12,0:0:0:0:
256,262,118426,1,4,0:0:0:0:
256,262,118648,1,4,0:0:0:0:
256,262,118871,1,12,0:0:0:0:
256,262,119093,1,12,0:0:0:0:
256,262,119315,1,4,0:0:0:0:
256,262,119537,1,4,0:0:0:0:
256,262,119759,1,12,0:0:0:0:
256,262,119982,1,12,0:0:0:0:
256,262,120426,1,4,0:0:0:0:
256,262,120648,1,4,0:0:0:0:
256,262,120871,1,4,0:0:0:0:
256,262,121093,1,8,0:0:0:0:
256,262,121537,1,0,0:0:0:0:
256,262,121982,1,8,0:0:0:0:
256,262,122426,1,0,0:0:0:0:
256,262,122871,1,8,0:0:0:0:
256,262,123315,1,8,0:0:0:0:
256,262,123759,1,0,0:0:0:0:
256,262,123982,1,0,0:0:0:0:
128,324,124204,1,0,0:0:0:0:
128,324,124648,1,0,0:0:0:0:
128,324,124871,1,0,0:0:0:0:
256,262,125093,1,8,0:0:0:0:
256,262,125204,1,8,0:0:0:0:
256,262,125315,1,8,0:0:0:0:
128,324,125537,1,0,0:0:0:0:
128,324,125759,1,0,0:0:0:0:
128,324,125982,1,0,0:0:0:0:
256,262,126204,1,0,0:0:0:0:
256,262,126426,1,8,0:0:0:0:
128,324,126648,1,0,0:0:0:0:
256,262,126871,1,8,0:0:0:0:
256,262,126982,1,8,0:0:0:0:
256,262,127093,1,8,0:0:0:0:
256,262,127315,1,0,0:0:0:0:
128,324,127537,1,0,0:0:0:0:
256,262,127759,1,8,0:0:0:0:
256,262,127871,1,8,0:0:0:0:
256,262,127982,1,8,0:0:0:0:
256,262,128204,1,0,0:0:0:0:
128,324,128315,1,0,0:0:0:0:
256,262,128426,1,8,0:0:0:0:
256,262,128648,1,0,0:0:0:0:
128,324,128759,1,0,0:0:0:0:
256,262,128871,1,8,0:0:0:0:
256,262,129093,1,0,0:0:0:0:
128,324,129204,1,0,0:0:0:0:
256,262,129315,1,8,0:0:0:0:
128,324,129537,1,0,0:0:0:0:
128,324,129648,1,0,0:0:0:0:
128,324,129759,1,8,0:0:0:0:
256,262,129982,1,4,0:0:0:0:
256,262,130315,1,8,0:0:0:0:
256,262,130426,1,8,0:0:0:0:
256,262,130648,1,0,0:0:0:0:
128,324,130871,1,8,0:0:0:0:
256,262,131315,1,12,0:0:0:0:
256,192,131426,12,0,132648,0:0:0:0:
256,262,133093,5,8,0:0:0:0:
256,262,133537,1,4,0:0:0:0:
128,324,133759,1,8,0:0:0:0:
128,324,133982,1,8,0:0:0:0:
128,324,134204,1,8,0:0:0:0:
128,324,134426,1,0,0:0:0:0:
128,324,134648,1,0,0:0:0:0:
256,262,134759,1,0,0:0:0:0:
256,262,134871,1,8,0:0:0:0:
256,262,135093,1,8,0:0:0:0:
256,262,135315,1,0,0:0:0:0:
256,262,135537,1,8,0:0:0:0:
256,262,135759,1,8,0:0:0:0:
256,262,135982,1,8,0:0:0:0:
256,262,136204,1,0,0:0:0:0:
256,262,136426,1,0,0:0:0:0:
128,324,136537,1,0,0:0:0:0:
128,324,136648,1,8,0:0:0:0:
256,262,136871,1,8,0:0:0:0:
256,262,137315,1,0,0:0:0:0:
128,324,137537,1,0,0:0:0:0:
128,324,137759,1,0,0:0:0:0:
128,324,137982,1,8,0:0:0:0:
256,262,138204,1,8,0:0:0:0:
128,324,138315,1,8,0:0:0:0:
128,324,138426,1,0,0:0:0:0:
128,324,138648,1,8,0:0:0:0:
256,262,138871,1,0,0:0:0:0:
256,262,139093,1,8,0:0:0:0:
256,262,139315,1,8,0:0:0:0:
256,262,139537,1,8,0:0:0:0:
256,262,139759,1,0,0:0:0:0:
256,262,140204,1,8,0:0:0:0:
256,262,140426,1,8,0:0:0:0:
256,262,140648,1,4,0:0:0:0:
256,262,140982,1,0,0:0:0:0:
256,262,141093,1,8,0:0:0:0:
256,262,141315,1,8,0:0:0:0:
256,262,141537,1,0,0:0:0:0:
256,262,141759,1,8,0:0:0:0:
256,262,141982,1,0,0:0:0:0:
256,262,142204,1,0,0:0:0:0:
256,262,142426,1,8,0:0:0:0:
128,324,142648,1,8,0:0:0:0:
128,324,142759,1,8,0:0:0:0:
128,324,142871,1,0,0:0:0:0:
128,324,143093,1,0,0:0:0:0:
128,324,143315,1,8,0:0:0:0:
128,324,143537,1,0,0:0:0:0:
128,324,143648,1,0,0:0:0:0:
128,324,143759,1,0,0:0:0:0:
128,324,143982,1,8,0:0:0:0:
128,324,144204,1,0,0:0:0:0:
256,262,144426,1,8,0:0:0:0:
256,262,144648,1,8,0:0:0:0:
256,262,144871,1,8,0:0:0:0:
256,262,145093,1,0,0:0:0:0:
128,324,145315,1,0,0:0:0:0:
128,324,145537,1,8,0:0:0:0:
128,324,145759,1,8,0:0:0:0:
128,324,145982,1,0,0:0:0:0:
256,262,146204,1,0,0:0:0:0:
128,324,146315,1,0,0:0:0:0:
256,262,146426,1,8,0:0:0:0:
256,262,146648,1,8,0:0:0:0:
256,262,146871,1,0,0:0:0:0:
256,262,147315,1,8,0:0:0:0:
256,262,147759,1,4,0:0:0:0:
128,324,147982,1,8,0:0:0:0:
128,324,148204,1,8,0:0:0:0:
128,324,148426,1,8,0:0:0:0:
128,324,148648,1,0,0:0:0:0:
128,324,148871,1,0,0:0:0:0:
256,262,148982,1,0,0:0:0:0:
256,262,149093,1,8,0:0:0:0:
256,262,149315,1,8,0:0:0:0:
256,262,149537,1,0,0:0:0:0:
256,262,149759,1,8,0:0:0:0:
256,262,149982,1,8,0:0:0:0:
256,262,150204,1,8,0:0:0:0:
256,262,150426,1,0,0:0:0:0:
256,262,150648,1,0,0:0:0:0:
128,324,150760,1,0,0:0:0:0:
128,324,150871,1,8,0:0:0:0:
256,262,151093,1,8,0:0:0:0:
256,262,151537,1,0,0:0:0:0:
128,324,151759,1,0,0:0:0:0:
128,324,151982,1,0,0:0:0:0:
128,324,152204,1,8,0:0:0:0:
256,262,152426,1,8,0:0:0:0:
128,324,152537,1,8,0:0:0:0:
128,324,152648,1,0,0:0:0:0:
128,324,152871,1,8,0:0:0:0:
256,262,153093,1,0,0:0:0:0:
256,262,153315,1,8,0:0:0:0:
256,262,153537,1,8,0:0:0:0:
256,262,153759,1,8,0:0:0:0:
256,262,153982,1,0,0:0:0:0:
256,262,154426,1,8,0:0:0:0:
256,262,154648,1,8,0:0:0:0:
256,262,154871,1,4,0:0:0:0:
256,262,155204,1,0,0:0:0:0:
256,262,155315,1,8,0:0:0:0:
256,262,155537,1,8,0:0:0:0:
256,262,155759,1,0,0:0:0:0:
256,262,155982,1,8,0:0:0:0:
256,262,156204,1,0,0:0:0:0:
256,262,156426,1,0,0:0:0:0:
256,262,156648,1,8,0:0:0:0:
128,324,156871,1,8,0:0:0:0:
128,324,156982,1,8,0:0:0:0:
128,324,157093,1,0,0:0:0:0:
128,324,157315,1,0,0:0:0:0:
128,324,157537,1,8,0:0:0:0:
128,324,157759,1,0,0:0:0:0:
128,324,157871,1,0,0:0:0:0:
128,324,157982,1,0,0:0:0:0:
128,324,158204,1,8,0:0:0:0:
128,324,158426,1,0,0:0:0:0:
256,262,158648,1,8,0:0:0:0:
256,262,158871,1,8,0:0:0:0:
256,262,159093,1,8,0:0:0:0:
256,262,159315,1,0,0:0:0:0:
128,324,159537,1,0,0:0:0:0:
128,324,159759,1,8,0:0:0:0:
128,324,159982,1,8,0:0:0:0:
128,324,160204,1,0,0:0:0:0:
256,262,160426,1,0,0:0:0:0:
128,324,160537,1,0,0:0:0:0:
256,262,160648,1,8,0:0:0:0:
256,262,160871,1,8,0:0:0:0:
256,262,161093,1,0,0:0:0:0:
256,262,161537,1,8,0:0:0:0:
256,262,161982,1,4,0:0:0:0:
256,262,162204,1,8,0:0:0:0:
256,262,162426,1,8,0:0:0:0:
256,262,162648,1,0,0:0:0:0:
256,262,162871,1,8,0:0:0:0:
256,262,162982,1,8,0:0:0:0:
256,262,163093,1,0,0:0:0:0:
256,262,163315,1,8,0:0:0:0:
256,262,163537,1,0,0:0:0:0:
256,262,163759,1,8,0:0:0:0:
256,262,163982,1,8,0:0:0:0:
256,262,164204,1,8,0:0:0:0:
256,262,164426,1,8,0:0:0:0:
256,262,164648,1,0,0:0:0:0:
256,262,164871,1,0,0:0:0:0:
256,262,164982,1,0,0:0:0:0:
256,262,165093,1,8,0:0:0:0:
256,262,165759,1,8,0:0:0:0:
256,262,165982,1,8,0:0:0:0:
256,262,166204,1,0,0:0:0:0:
256,262,166426,1,8,0:0:0:0:
128,324,166537,1,8,0:0:0:0:
256,262,166648,1,0,0:0:0:0:
256,262,166871,1,8,0:0:0:0:
256,262,167093,1,0,0:0:0:0:
256,262,167315,1,0,0:0:0:0:
256,262,167537,1,8,0:0:0:0:
128,324,167648,1,8,0:0:0:0:
256,262,167759,1,8,0:0:0:0:
128,324,167982,1,8,0:0:0:0:
256,262,168204,1,0,0:0:0:0:
256,262,168648,1,8,0:0:0:0:
256,262,168871,1,8,0:0:0:0:
256,262,169093,1,4,0:0:0:0:
256,262,169537,1,8,0:0:0:0:
128,324,169759,1,0,0:0:0:0:
128,324,169871,1,0,0:0:0:0:
128,324,169982,1,8,0:0:0:0:
256,262,170204,1,8,0:0:0:0:
256,262,170426,1,0,0:0:0:0:
256,262,170648,1,0,0:0:0:0:
256,262,170871,1,8,0:0:0:0:
128,324,171093,1,0,0:0:0:0:
128,324,171315,1,8,0:0:0:0:
128,324,171537,1,0,0:0:0:0:
128,324,171759,1,8,0:0:0:0:
256,262,172204,1,8,0:0:0:0:
256,262,172426,1,8,0:0:0:0:
256,262,172648,1,4,0:0:0:0:
256,262,172871,1,0,0:0:0:0:
256,262,173093,1,8,0:0:0:0:
256,262,173315,1,0,0:0:0:0:
256,262,173537,1,8,0:0:0:0:
256,262,173759,1,8,0:0:0:0:
256,262,173982,1,0,0:0:0:0:
256,262,174204,1,0,0:0:0:0:
256,262,174426,1,8,0:0:0:0:
256,262,174648,1,0,0:0:0:0:
256,262,174871,1,8,0:0:0:0:
256,262,175093,1,0,0:0:0:0:
256,262,175315,1,8,0:0:0:0:
256,262,175537,1,8,0:0:0:0:
256,262,175759,1,0,0:0:0:0:
256,262,175982,1,0,0:0:0:0:
256,262,176204,1,4,0:0:0:0:
256,262,176426,1,0,0:0:0:0:
256,262,176648,1,8,0:0:0:0:
256,262,176871,1,0,0:0:0:0:
256,262,177093,1,8,0:0:0:0:
256,262,177315,1,8,0:0:0:0:
256,262,177537,1,0,0:0:0:0:
256,262,177759,1,0,0:0:0:0:
256,262,177982,1,0,0:0:0:0:
256,262,178426,1,8,0:0:0:0:
256,262,178648,1,0,0:0:0:0:
256,262,178871,1,8,0:0:0:0:
128,324,179759,1,8,0:0:0:0:
256,262,179982,1,0,0:0:0:0:
256,262,180204,1,0,0:0:0:0:
256,262,180648,1,0,0:0:0:0:
256,262,180871,1,8,0:0:0:0:
128,324,180982,1,8,0:0:0:0:
128,324,181093,1,0,0:0:0:0:
256,262,181315,1,8,0:0:0:0:
128,324,181537,1,4,0:0:0:0:
256,262,181871,1,0,0:0:0:0:
256,262,181982,1,8,0:0:0:0:
128,324,182204,1,0,0:0:0:0:
256,262,182426,1,0,0:0:0:0:
256,262,182871,1,8,0:0:0:0:
256,262,183315,1,0,0:0:0:0:
256,262,183537,1,8,0:0:0:0:
256,262,183759,1,8,0:0:0:0:
256,262,183982,1,8,0:0:0:0:
256,262,184204,1,0,0:0:0:0:
256,262,184648,1,8,0:0:0:0:
128,324,185315,1,0,0:0:0:0:
256,262,185537,1,8,0:0:0:0:
256,262,185759,1,8,0:0:0:0:
256,262,185982,1,0,0:0:0:0:
256,262,186426,1,8,0:0:0:0:
256,262,186871,1,0,0:0:0:0:
256,262,187093,1,8,0:0:0:0:
256,262,187315,1,8,0:0:0:0:
256,262,187537,1,8,0:0:0:0:
256,262,187759,1,0,0:0:0:0:
256,262,187982,1,0,0:0:0:0:
128,324,188093,1,0,0:0:0:0:
128,324,188204,1,8,0:0:0:0:
256,262,188426,1,8,0:0:0:0:
256,262,188648,1,4,0:0:0:0:
256,262,188982,1,0,0:0:0:0:
256,262,189093,1,8,0:0:0:0:
256,262,189315,1,8,0:0:0:0:
256,262,189537,1,0,0:0:0:0:
256,262,189982,1,8,0:0:0:0:
256,262,190426,1,0,0:0:0:0:
256,262,190648,1,8,0:0:0:0:
256,262,190871,1,8,0:0:0:0:
256,262,191093,1,8,0:0:0:0:
256,262,191315,1,0,0:0:0:0:
256,262,191759,1,8,0:0:0:0:
256,262,192204,1,0,0:0:0:0:
256,262,192426,1,8,0:0:0:0:
256,262,192648,1,0,0:0:0:0:
256,262,192871,1,0,0:0:0:0:
256,262,193093,1,8,0:0:0:0:
256,262,193315,1,8,0:0:0:0:
256,262,193537,1,0,0:0:0:0:
128,324,193759,1,8,0:0:0:0:
128,324,193982,1,0,0:0:0:0:
128,324,194204,1,8,0:0:0:0:
256,262,194426,1,8,0:0:0:0:
128,324,194648,1,8,0:0:0:0:
128,324,194871,1,0,0:0:0:0:
128,324,195093,1,0,0:0:0:0:
128,324,195204,1,0,0:0:0:0:
128,324,195315,1,8,0:0:0:0:
128,324,195537,1,8,0:0:0:0:
256,262,195759,1,4,0:0:0:0:
256,262,195982,1,8,0:0:0:0:
256,262,196204,1,8,0:0:0:0:
256,262,196426,1,0,0:0:0:0:
256,262,196648,1,8,0:0:0:0:
256,262,196760,1,8,0:0:0:0:
256,262,196871,1,0,0:0:0:0:
256,262,197093,1,8,0:0:0:0:
256,262,197315,1,0,0:0:0:0:
256,262,197537,1,8,0:0:0:0:
256,262,197759,1,8,0:0:0:0:
256,262,197982,1,8,0:0:0:0:
256,262,198204,1,8,0:0:0:0:
256,262,198426,1,0,0:0:0:0:
256,262,198648,1,0,0:0:0:0:
256,262,198760,1,0,0:0:0:0:
256,262,198871,1,8,0:0:0:0:
256,262,199537,1,8,0:0:0:0:
256,262,199759,1,8,0:0:0:0:
256,262,199982,1,0,0:0:0:0:
256,262,200204,1,8,0:0:0:0:
128,324,200315,1,8,0:0:0:0:
256,262,200426,1,0,0:0:0:0:
256,262,200648,1,8,0:0:0:0:
256,262,200871,1,0,0:0:0:0:
256,262,201093,1,0,0:0:0:0:
256,262,201315,1,8,0:0:0:0:
256,262,201537,1,8,0:0:0:0:
128,324,201648,1,8,0:0:0:0:
128,324,201759,1,0,0:0:0:0:
256,262,201982,1,0,0:0:0:0:
256,262,202426,1,8,0:0:0:0:
256,262,202648,1,8,0:0:0:0:
256,262,202871,1,4,0:0:0:0:
256,262,203315,1,8,0:0:0:0:
128,324,203537,1,0,0:0:0:0:
128,324,203648,1,0,0:0:0:0:
128,324,203759,1,8,0:0:0:0:
256,262,203982,1,8,0:0:0:0:
256,262,204204,1,0,0:0:0:0:
256,262,204426,1,0,0:0:0:0:
256,262,204648,1,8,0:0:0:0:
128,324,204871,1,0,0:0:0:0:
128,324,205093,1,8,0:0:0:0:
128,324,205315,1,0,0:0:0:0:
128,324,205537,1,8,0:0:0:0:
256,262,205982,1,8,0:0:0:0:
256,262,206204,1,8,0:0:0:0:
256,262,206426,1,4,0:0:0:0:
256,262,206648,1,0,0:0:0:0:
256,262,206871,1,8,0:0:0:0:
256,262,207093,1,0,0:0:0:0:
256,262,207315,1,8,0:0:0:0:
256,262,207537,1,8,0:0:0:0:
256,262,207759,1,0,0:0:0:0:
256,262,207982,1,0,0:0:0:0:
256,262,208204,1,8,0:0:0:0:
256,262,208426,1,0,0:0:0:0:
256,262,208648,1,8,0:0:0:0:
256,262,208871,1,0,0:0:0:0:
256,262,209093,1,8,0:0:0:0:
256,262,209315,1,8,0:0:0:0:
256,262,209537,1,0,0:0:0:0:
256,262,209759,1,0,0:0:0:0:
256,262,209982,1,4,0:0:0:0:
256,262,210204,1,0,0:0:0:0:
256,262,210426,1,8,0:0:0:0:
256,262,210648,1,0,0:0:0:0:
256,262,210871,1,8,0:0:0:0:
128,324,210982,1,8,0:0:0:0:
128,324,211093,1,8,0:0:0:0:
128,324,211315,1,0,0:0:0:0:
256,262,211426,1,0,0:0:0:0:
128,324,211537,1,8,0:0:0:0:
128,324,211648,1,8,0:0:0:0:
128,324,211759,1,0,0:0:0:0:
256,262,212648,1,8,0:0:0:0:
