osu file format v14

[General]
AudioFilename: audio.mp3
AudioLeadIn: 0
PreviewTime: 62286
Countdown: 1
SampleSet: Soft
StackLeniency: 0.4
Mode: 0
LetterboxInBreaks: 0
WidescreenStoryboard: 1

[Editor]
DistanceSpacing: 1
BeatDivisor: 2
GridSize: 4
TimelineZoom: 1

[Metadata]
Title:Pandora
TitleUnicode:パンドラ
Artist:Kikuo
ArtistUnicode:きくお
Creator:Bariton
Version:Normal
Source:東方Project
Tags: iemitsu aosaki shizuku wriggle nightbug touhou
BeatmapID:1255069
BeatmapSetID:593232

[Difficulty]
HPDrainRate:4
CircleSize:3.5
OverallDifficulty:4
ApproachRate:5.5
SliderMultiplier:1.4
SliderTickRate:1

[Events]
//Background and Video events
0,0,"a59493d34a5691f5fec74c85e6c519b5.jpg",0,0
//Break Periods
2,89914,102229
2,165343,177657
//Storyboard Layer 0 (Background)
//Storyboard Layer 1 (Fail)
//Storyboard Layer 2 (Pass)
//Storyboard Layer 3 (Foreground)
//Storyboard Sound Samples

[TimingPoints]
572,428.571428571429,4,2,0,95,1,0
572,-133.333333333333,4,2,0,95,0,0
4000,-133.333333333333,4,2,0,95,0,0
7429,-133.333333333333,4,2,0,95,0,0
12572,-100,4,2,0,95,0,0
13429,-100,4,2,0,95,0,0
13643,-100,4,2,0,95,0,0
14286,-100,4,2,0,95,0,0
19429,-100,4,2,0,95,0,0
20072,-100,4,2,0,95,0,0
58857,-100,4,2,0,95,0,0
62286,-90.9090909090909,4,2,0,95,0,1
89714,-100,4,2,0,95,0,0
103429,-100,4,2,0,95,0,0
113714,-100,4,2,0,95,0,0
137714,-90.9090909090909,4,2,0,95,0,1
165143,-100,4,2,0,95,0,0
178857,-111.111111111111,4,2,0,95,0,0
192572,-90.9090909090909,4,2,0,95,0,1
220000,-100,4,2,0,95,0,0

[Colours]
Combo1 : 238,214,155
Combo2 : 103,177,107
Combo3 : 114,181,214

[HitObjects]
148,264,572,6,0,P|120:192|160:120,1,157.500006008148,2|0,0:0|0:0,0:0:0:0:
204,104,1429,2,0,B|256:104|256:104|304:72,1,105.000004005432,2|0,0:0|0:0,0:0:0:0:
360,160,2286,6,0,B|292:200|292:200|204:180,1,157.500006008148,2|0,0:0|0:0,0:0:0:0:
164,168,3143,2,0,L|52:144,1,105.000004005432,2|0,0:0|0:0,0:0:0:0:
132,68,4000,6,0,L|116:12,2,52.5000020027161,2|0|0,0:0|0:0|0:0,0:0:0:0:
184,76,4643,2,0,L|200:20,2,52.5000020027161,0|2|0,0:0|0:0|0:0,0:0:0:0:
220,112,5286,2,0,L|264:156,1,52.5000020027161
308,148,5714,6,0,P|308:184|208:236,1,157.500006008148,2|0,0:0|0:0,0:0:0:0:
160,248,6572,2,0,P|132:264|108:344,1,105.000004005432,2|0,0:0|0:0,0:0:0:0:
56,236,7429,6,0,P|72:204|56:120,1,105.000004005432,2|0,0:0|0:0,0:0:0:0:
48,88,8072,1,0,0:0:0:0:
48,88,8286,2,0,P|92:100|156:76,1,105.000004005432,2|0,0:0|0:0,0:0:0:0:
248,48,9143,6,0,B|216:102|240:149|240:149|215:200,1,157.500006008148,2|0,0:0|0:0,0:0:0:0:
192,240,10000,2,0,B|143:220|143:220|83:251,1,105.000004005432,2|0,0:0|0:0,0:0:0:0:
168,324,10857,6,0,L|108:336,2,52.5000020027161,2|0|0,0:0|0:0|0:0,0:0:0:0:
212,292,11500,2,0,L|160:248,2,52.5000020027161,0|2|0,0:0|0:0|0:0,0:0:0:0:
212,292,12143,1,0,0:0:0:0:
304,340,12572,6,0,B|404:360|404:360|516:336,1,210,2|0,0:0|0:0,0:0:0:0:
480,272,13429,1,2,0:0:0:0:
488,204,13643,2,0,L|480:112,2,70,4|4|4,0:0|0:0|0:0,0:0:0:0:
420,196,14286,6,0,P|348:188|316:124,1,140,2|0,0:0|0:0,0:0:0:0:
380,100,14929,1,0,0:0:0:0:
380,100,15143,2,0,B|276:68|276:68|164:108,1,210,2|0,0:0|0:0,0:0:0:0:
128,148,16000,6,0,P|124:192|192:268,1,140,2|0,0:0|0:0,0:0:0:0:
252,264,16643,2,0,P|288:256|344:280,1,70,0|2,0:0|0:0,0:0:0:0:
444,328,17286,1,0,0:0:0:0:
472,192,17714,6,0,P|480:156|472:100,2,70,2|0|0,0:0|0:0|0:0,0:0:0:0:
408,160,18357,2,0,P|404:124|408:84,2,70,0|2|0,0:0|0:0|0:0,0:0:0:0:
360,212,19000,2,0,P|356:252|372:292,1,70
416,328,19429,5,2,0:0:0:0:
416,328,19643,2,0,B|352:300|352:300|296:372|204:344,1,210,0|2,0:0|0:0,0:0:0:0:
116,244,20714,1,0,0:0:0:0:
192,128,21143,6,0,B|252:144|252:144|284:176|292:228,1,140,2|0,0:0|0:0,0:0:0:0:
248,268,21786,2,0,P|256:312|288:352,1,70,0|2,0:0|0:0,0:0:0:0:
384,252,22429,1,0,0:0:0:0:
392,112,22857,6,0,B|288:84|288:84|164:116,1,210,2|0,0:0|0:0,0:0:0:0:
132,148,23714,2,0,P|116:200|152:292,1,140,2|0,0:0|0:0,0:0:0:0:
280,308,24572,6,0,P|320:276|332:244,2,70,2|0|0,0:0|0:0|0:0,0:0:0:0:
232,260,25214,2,0,P|244:216|236:176,2,70,0|2|0,0:0|0:0|0:0,0:0:0:0:
164,252,25857,2,0,P|152:212|132:176,1,70
96,132,26286,5,2,0:0:0:0:
96,132,26500,2,0,B|152:76|152:76|216:52|288:120,1,210,0|2,0:0|0:0,0:0:0:0:
388,188,27572,1,0,0:0:0:0:
304,300,28000,6,0,P|244:324|104:296,1,210,2|0,0:0|0:0,0:0:0:0:
52,252,28857,2,0,L|104:104,1,140,2|0,0:0|0:0,0:0:0:0:
232,76,29714,6,0,B|312:56|312:56|440:100,1,210,2|0,0:0|0:0,0:0:0:0:
488,140,30572,2,0,P|508:184|464:280,1,140,2|0,0:0|0:0,0:0:0:0:
424,312,31214,1,0,0:0:0:0:
364,276,31429,6,0,L|316:200,2,70,2|0|0,0:0|0:0|0:0,0:0:0:0:
412,224,32072,2,0,L|440:144,2,70,0|2|0,0:0|0:0|0:0,0:0:0:0:
312,128,32929,1,0,0:0:0:0:
312,128,33143,6,0,P|248:88|112:128,1,210,2|0,0:0|0:0,0:0:0:0:
80,172,34000,1,2,0:0:0:0:
80,172,34214,2,0,P|44:216|40:236,2,70
136,212,34857,6,0,B|224:268|224:268|348:216,1,210,2|0,0:0|0:0,0:0:0:0:
384,196,35714,2,0,P|424:148|408:48,1,140,2|0,0:0|0:0,0:0:0:0:
284,60,36572,6,0,P|216:68|172:140,1,140,2|0,0:0|0:0,0:0:0:0:
172,192,37214,2,0,P|188:260|212:280,1,70,0|2,0:0|0:0,0:0:0:0:
320,304,37857,2,0,L|392:276,1,70
436,228,38286,5,2,0:0:0:0:
436,228,38500,2,0,P|424:160|456:80,1,140
384,60,39143,2,0,P|352:104|264:148,1,140,2|0,0:0|0:0,0:0:0:0:
212,168,39786,1,0,0:0:0:0:
148,140,40000,6,0,B|128:216|128:216|136:280|216:336,1,210,2|0,0:0|0:0,0:0:0:0:
260,288,40857,2,0,P|324:268|400:292,1,140,2|0,0:0|0:0,0:0:0:0:
472,172,41714,6,0,B|432:132|372:116|372:116|284:156,1,210,4|0,0:0|0:0,0:0:0:0:
156,212,42786,1,0,0:0:0:0:
76,96,43214,1,0,0:0:0:0:
76,96,43429,6,0,P|128:72|216:96,1,140,2|0,0:0|0:0,0:0:0:0:
260,132,44072,1,0,0:0:0:0:
260,132,44286,2,0,L|284:304,1,140,2|0,0:0|0:0,0:0:0:0:
396,196,45143,6,0,L|416:108,2,70,2|0|0,0:0|0:0|0:0,0:0:0:0:
340,236,45786,1,0,0:0:0:0:
388,284,46000,2,0,L|368:372,2,70,2|0|0,0:0|0:0|0:0,0:0:0:0:
252,252,46857,6,0,B|228:184|228:184|252:112,1,140,2|0,0:0|0:0,0:0:0:0:
368,44,47714,2,0,B|392:112|392:112|368:184,1,140,2|0,0:0|0:0,0:0:0:0:
332,236,48357,1,0,0:0:0:0:
332,236,48572,6,0,L|180:252,1,140,4|0,0:0|0:0,0:0:0:0:
140,192,49214,1,0,0:0:0:0:
140,192,49429,2,0,P|114:253|201:332,1,140,2|0,0:0|0:0,0:0:0:0:
216,332,50072,1,0,0:0:0:0:
216,332,50286,6,0,P|264:256|252:200,1,140,2|0,0:0|0:0,0:0:0:0:
216,144,50929,1,0,0:0:0:0:
216,144,51143,2,0,B|288:152|288:152|360:112,1,140,2|0,0:0|0:0,0:0:0:0:
444,20,52000,6,0,L|428:184,1,140,4|0,0:0|0:0,0:0:0:0:
424,228,52643,1,0,0:0:0:0:
424,228,52857,2,0,B|368:244|348:288|348:288|284:280,1,140,2|0,0:0|0:0,0:0:0:0:
292,144,53714,6,0,P|225:168|182:231,1,140,2|0,0:0|0:0,0:0:0:0:
164,288,54357,1,0,0:0:0:0:
164,288,54572,2,0,B|236:312|236:312|312:288,1,140,2|0,0:0|0:0,0:0:0:0:
340,160,55429,6,0,L|356:92,2,70,2|0|0,0:0|0:0|0:0,0:0:0:0:
288,204,56072,2,0,L|280:120,1,70,0|2,0:0|0:0,0:0:0:0:
164,56,56714,1,0,0:0:0:0:
84,172,57143,6,0,L|72:264,2,70,2|0|0,0:0|0:0|0:0,0:0:0:0:
140,212,57786,2,0,L|168:312,1,70,0|2,0:0|0:0,0:0:0:0:
284,340,58429,1,0,0:0:0:0:
256,192,58857,12,0,60572,0:0:0:0:
340,64,62286,6,0,B|384:104|388:152|388:152|368:212,1,154.000004699707,2|8,0:0|0:0,0:0:0:0:
336,268,62929,1,0,0:0:0:0:
284,324,63143,2,0,P|232:276|144:280,1,154.000004699707,2|8,0:0|0:0,0:0:0:0:
68,152,64000,6,0,B|100:80|100:80|176:36,1,154.000004699707,2|8,0:0|0:0,0:0:0:0:
216,100,64643,1,0,0:0:0:0:
292,112,64857,2,0,P|328:88|384:88,1,77.0000023498536,2|0,0:0|0:0,0:0:0:0:
408,144,65286,2,0,P|444:164|468:196,1,77.0000023498536,8|0,0:0|0:0,0:0:0:0:
432,264,65714,6,0,P|368:312|272:280,1,154.000004699707,2|8,0:0|0:0,0:0:0:0:
220,292,66357,1,0,0:0:0:0:
164,240,66572,2,0,P|228:192|324:224,1,154.000004699707,2|8,0:0|0:0,0:0:0:0:
420,108,67429,6,0,B|352:64|276:108|276:108|236:64|188:64|188:64|148:104,1,308.000009399414,2|2,0:0|0:0,0:0:0:0:
64,228,68714,1,8,0:0:0:0:
200,304,69143,6,0,P|248:264|352:284,1,154.000004699707,2|8,0:0|0:0,0:0:0:0:
412,264,69786,1,0,0:0:0:0:
456,200,70000,2,0,L|432:112,2,77.0000023498536,2|0|8,0:0|0:0|0:0,0:0:0:0:
344,88,70857,6,0,B|260:72|260:72|168:100,1,154.000004699707,2|8,0:0|0:0,0:0:0:0:
80,196,71714,2,0,L|52:116,2,77.0000023498536,2|0|8,0:0|0:0|0:0,0:0:0:0:
120,264,72357,1,0,0:0:0:0:
196,248,72572,6,0,B|244:284|300:252|300:252|348:280,1,154.000004699707,2|8,0:0|0:0,0:0:0:0:
396,224,73214,1,0,0:0:0:0:
416,148,73429,2,0,B|360:108|312:140|312:140|272:104,1,154.000004699707,2|8,0:0|0:0,0:0:0:0:
228,56,74072,1,0,0:0:0:0:
176,112,74286,6,0,L|144:300,1,154.000004699707,2|8,0:0|0:0,0:0:0:0:
296,312,75143,1,2,0:0:0:0:
372,176,75572,1,8,0:0:0:0:
264,64,76000,6,0,P|332:48|432:72,1,154.000004699707,2|8,0:0|0:0,0:0:0:0:
364,128,76643,1,0,0:0:0:0:
284,148,76857,2,0,P|216:164|116:140,1,154.000004699707,2|8,0:0|0:0,0:0:0:0:
76,200,77500,1,0,0:0:0:0:
64,276,77714,6,0,B|140:248|140:248|244:284,1,154.000004699707,2|8,0:0|0:0,0:0:0:0:
280,300,78357,1,0,0:0:0:0:
352,272,78572,2,0,L|412:212,1,77.0000023498536,2|0,0:0|0:0,0:0:0:0:
396,140,79000,2,0,L|456:80,1,77.0000023498536,8|0,0:0|0:0,0:0:0:0:
384,48,79429,6,0,B|340:32|340:32|280:48|264:120,1,154.000004699707,2|8,0:0|0:0,0:0:0:0:
216,160,80072,1,0,0:0:0:0:
188,232,80286,2,0,B|232:248|232:248|292:232|308:160,1,154.000004699707,2|8,0:0|0:0,0:0:0:0:
372,216,80929,1,0,0:0:0:0:
432,168,81143,6,0,P|464:248|428:324,1,154.000004699707,2|8,0:0|0:0,0:0:0:0:
292,340,82000,1,2,0:0:0:0:
168,252,82429,1,8,0:0:0:0:
220,108,82857,6,0,P|188:156|76:140,1,154.000004699707,2|8,0:0|0:0,0:0:0:0:
248,224,83714,2,0,P|280:176|392:192,1,154.000004699707,2|8,0:0|0:0,0:0:0:0:
436,216,84357,1,0,0:0:0:0:
484,276,84572,6,0,B|416:320|416:320|328:288,1,154.000004699707,2|8,0:0|0:0,0:0:0:0:
192,296,85429,2,0,L|120:340,2,77.0000023498536,2|0|8,0:0|0:0|0:0,0:0:0:0:
252,248,86072,1,0,0:0:0:0:
252,248,86286,6,0,B|224:192|224:192|168:164|104:168|104:168|112:96|192:72,1,308.000009399414,2|2,0:0|0:0,0:0:0:0:
324,116,87572,1,8,0:0:0:0:
456,36,88000,6,0,P|492:108|440:256,1,231.000007049561,2|0,0:0|0:0,0:0:0:0:
388,288,88857,2,0,L|296:244,1,77.0000023498536,2|0,0:0|0:0,0:0:0:0:
252,216,89286,1,8,0:0:0:0:
256,76,89714,5,4,0:0:0:0:
168,132,103429,6,0,B|240:156|240:156|344:116,1,140,2|0,0:0|0:0,0:0:0:0:
360,100,104072,1,0,0:0:0:0:
360,100,104286,2,0,P|384:200|356:256,1,140,2|0,0:0|0:0,0:0:0:0:
236,268,105143,6,0,B|164:248|164:248|72:276,1,140,2|0,0:0|0:0,0:0:0:0:
56,212,105786,1,0,0:0:0:0:
56,212,106000,2,0,L|92:68,1,140,2|0,0:0|0:0,0:0:0:0:
228,56,106857,6,0,L|320:28,2,70,2|0|0,0:0|0:0|0:0,0:0:0:0:
260,120,107500,2,0,L|340:120,2,70,0|2|0,0:0|0:0|0:0,0:0:0:0:
164,224,108357,1,0,0:0:0:0:
164,224,108572,6,0,P|228:268|304:244,1,140,2|0,0:0|0:0,0:0:0:0:
412,196,109429,2,0,P|348:152|272:176,1,140,2|0,0:0|0:0,0:0:0:0:
192,64,110286,6,0,L|148:196,1,140,2|0,0:0|0:0,0:0:0:0:
128,264,110929,1,0,0:0:0:0:
128,264,111143,2,0,B|192:248|192:248|296:300,1,140,2|0,0:0|0:0,0:0:0:0:
380,188,112000,6,0,P|400:116|360:52,1,140,2|0,0:0|0:0,0:0:0:0:
312,96,112643,1,0,0:0:0:0:
312,96,112857,2,0,P|240:116|164:80,1,140,2|0,0:0|0:0,0:0:0:0:
108,216,113714,6,0,L|120:304,2,70,2|0|0,0:0|0:0|0:0,0:0:0:0:
172,244,114357,2,0,L|196:320,2,70,0|2|0,0:0|0:0|0:0,0:0:0:0:
240,264,115000,2,0,L|284:320,1,70
352,328,115429,6,0,P|400:272|388:192,1,140,2|0,0:0|0:0,0:0:0:0:
332,88,116286,2,0,P|284:144|296:224,1,140,2|0,0:0|0:0,0:0:0:0:
184,300,117143,6,0,B|116:268|144:192|144:192|96:112,1,210,4|0,0:0|0:0,0:0:0:0:
220,44,118214,1,0,0:0:0:0:
220,44,118429,2,0,L|304:72,1,70
352,88,118857,6,0,B|372:156|372:156|352:248,1,140,2|0,0:0|0:0,0:0:0:0:
252,316,119714,2,0,L|232:244,2,70,2|0|0,0:0|0:0|0:0,0:0:0:0:
132,244,120572,6,0,L|156:148,2,70,2|0|0,0:0|0:0|0:0,0:0:0:0:
72,276,121214,2,0,L|64:192,2,70,0|2|0,0:0|0:0|0:0,0:0:0:0:
136,308,121857,2,0,L|216:336,1,70
268,348,122286,6,0,B|304:300|300:260|300:260|276:188,1,140,2|0,0:0|0:0,0:0:0:0:
244,84,123143,2,0,P|176:136|180:200,1,140,2|0,0:0|0:0,0:0:0:0:
192,252,123786,1,0,0:0:0:0:
192,252,124000,6,0,L|36:320,1,140,4|0,0:0|0:0,0:0:0:0:
52,168,124857,2,0,L|208:100,1,140,2|0,0:0|0:0,0:0:0:0:
228,60,125500,1,0,0:0:0:0:
292,92,125714,6,0,P|328:140|308:224,1,140,2|0,0:0|0:0,0:0:0:0:
240,332,126572,2,0,P|288:296|372:316,1,140,2|0,0:0|0:0,0:0:0:0:
424,340,127214,1,0,0:0:0:0:
424,340,127429,6,0,B|448:268|448:268|428:164,1,140,4|0,0:0|0:0,0:0:0:0:
340,100,128286,2,0,B|316:172|316:172|336:276,1,140,2|0,0:0|0:0,0:0:0:0:
348,304,128929,1,0,0:0:0:0:
348,304,129143,6,0,L|200:260,1,140,2|0,0:0|0:0,0:0:0:0:
172,208,129786,1,0,0:0:0:0:
172,208,130000,2,0,P|128:148|60:152,1,140,2|0,0:0|0:0,0:0:0:0:
176,56,130857,6,0,L|260:40,2,70,2|0|0,0:0|0:0|0:0,0:0:0:0:
224,108,131500,2,0,L|324:120,1,70,0|2,0:0|0:0,0:0:0:0:
432,128,132143,1,0,0:0:0:0:
472,264,132572,6,0,L|496:340,2,70,2|0|0,0:0|0:0|0:0,0:0:0:0:
408,236,133214,2,0,L|392:336,1,70,0|2,0:0|0:0,0:0:0:0:
260,336,133857,1,0,0:0:0:0:
256,192,134286,12,0,136000,0:0:0:0:
324,132,137714,6,0,P|352:200|284:288,1,154.000004699707,2|8,0:0|0:0,0:0:0:0:
252,308,138357,1,0,0:0:0:0:
188,264,138572,2,0,P|160:200|228:108,1,154.000004699707,2|8,0:0|0:0,0:0:0:0:
300,52,139429,6,0,B|372:40|372:40|484:80,1,154.000004699707,2|8,0:0|0:0,0:0:0:0:
436,144,140072,1,0,0:0:0:0:
388,208,140286,2,0,L|296:172,1,77.0000023498536,2|0,0:0|0:0,0:0:0:0:
260,232,140714,2,0,L|204:176,1,77.0000023498536,8|0,0:0|0:0,0:0:0:0:
156,120,141143,6,0,P|100:168|108:248,1,154.000004699707,2|8,0:0|0:0,0:0:0:0:
176,276,141786,1,0,0:0:0:0:
244,312,142000,2,0,P|312:296|424:344,1,154.000004699707,2|8,0:0|0:0,0:0:0:0:
456,276,142643,1,0,0:0:0:0:
460,200,142857,6,0,B|492:116|448:44|448:44|352:84,1,231.000007049561,2|0,0:0|0:0,0:0:0:0:
316,104,143714,1,2,0:0:0:0:
176,36,144143,1,8,0:0:0:0:
132,184,144572,6,0,B|204:200|204:200|280:272,1,154.000004699707,2|8,0:0|0:0,0:0:0:0:
340,248,145214,1,0,0:0:0:0:
412,220,145429,2,0,B|340:208|340:208|272:140,1,154.000004699707,2|8,0:0|0:0,0:0:0:0:
240,88,146072,1,0,0:0:0:0:
304,44,146286,6,0,P|384:40|416:112,1,154.000004699707,2|8,0:0|0:0,0:0:0:0:
412,176,146929,1,0,0:0:0:0:
372,244,147143,2,0,L|344:320,1,77.0000023498536,2|0,0:0|0:0,0:0:0:0:
276,280,147572,2,0,L|304:204,1,77.0000023498536,8|0,0:0|0:0,0:0:0:0:
336,140,148000,6,0,B|272:152|248:112|248:112|196:96|160:120|160:120|128:184,1,231.000007049561,2|0,0:0|0:0,0:0:0:0:
112,228,148857,1,2,0:0:0:0:
224,332,149286,1,8,0:0:0:0:
348,240,149714,6,0,P|408:180|364:48,1,231.000007049561,2|0,0:0|0:0,0:0:0:0:
300,24,150572,2,0,P|240:72|144:76,1,154.000004699707,2|8,0:0|0:0,0:0:0:0:
12,52,151429,6,0,L|68:220,1,154.000004699707,2|8,0:0|0:0,0:0:0:0:
120,248,152072,1,0,0:0:0:0:
180,296,152286,2,0,L|124:128,1,154.000004699707,2|8,0:0|0:0,0:0:0:0:
165,80,152929,1,0,0:0:0:0:
236,112,153143,6,0,P|304:136|392:96,1,154.000004699707,2|8,0:0|0:0,0:0:0:0:
436,160,153786,1,0,0:0:0:0:
464,236,154000,2,0,P|416:228|372:244,1,77.0000023498536,2|0,0:0|0:0,0:0:0:0:
360,308,154429,2,0,P|320:316|280:304,1,77.0000023498536,8|0,0:0|0:0,0:0:0:0:
236,248,154857,6,0,B|180:200|180:200|100:224,1,154.000004699707,2|8,0:0|0:0,0:0:0:0:
52,164,155500,1,0,0:0:0:0:
32,88,155714,2,0,B|88:136|88:136|168:112,1,154.000004699707,2|8,0:0|0:0,0:0:0:0:
236,84,156357,1,0,0:0:0:0:
308,52,156572,6,0,P|364:120|344:196,1,154.000004699707,2|8,0:0|0:0,0:0:0:0:
272,312,157429,1,2,0:0:0:0:
140,232,157857,2,0,L|92:152,1,77.0000023498536,8|0,0:0|0:0,0:0:0:0:
60,100,158286,6,0,B|136:80|136:80|248:116,1,154.000004699707,2|8,0:0|0:0,0:0:0:0:
272,148,158929,1,0,0:0:0:0:
336,192,159143,2,0,B|260:212|260:212|148:176,1,154.000004699707,2|8,0:0|0:0,0:0:0:0:
316,104,160000,6,0,B|392:84|392:84|504:120,1,154.000004699707,2|8,0:0|0:0,0:0:0:0:
436,180,160643,1,0,0:0:0:0:
476,248,160857,2,0,L|456:336,1,77.0000023498536,2|0,0:0|0:0,0:0:0:0:
380,320,161286,2,0,L|400:224,1,77.0000023498536,8|0,0:0|0:0,0:0:0:0:
436,180,161714,6,0,B|356:144|280:184|280:184|212:136|280:56,1,308.000009399414,2|2,0:0|0:0,0:0:0:0:
128,32,163000,1,8,0:0:0:0:
64,172,163429,6,0,B|84:256|144:248|144:248|196:208|260:244|260:244|316:196,1,308.000009399414,2|2,0:0|0:0,0:0:0:0:
420,100,164714,2,0,L|352:20,1,77.0000023498536,8|0,0:0|0:0,0:0:0:0:
296,68,165143,5,4,0:0:0:0:
256,192,178857,6,0,P|324:208|396:184,1,125.999996154785
432,160,179500,1,0,0:0:0:0:
432,160,179714,2,0,L|456:308,1,125.999996154785,0|2,0:0|0:0,0:0:0:0:
328,316,180572,6,0,P|260:328|196:312,1,125.999996154785
156,280,181214,1,0,0:0:0:0:
156,280,181429,2,0,B|140:216|140:216|156:120,1,125.999996154785,0|2,0:0|0:0,0:0:0:0:
224,56,182286,6,0,L|300:44,2,62.9999980773926
260,108,182929,2,0,L|340:120,2,62.9999980773926
224,160,183572,1,2,0:0:0:0:
312,252,184000,6,0,P|380:256|432:200,1,125.999996154785
424,160,184643,1,0,0:0:0:0:
424,160,184857,2,0,L|340:40,1,125.999996154785,0|2,0:0|0:0,0:0:0:0:
224,60,185714,6,0,P|172:108|192:184,1,125.999996154785
204,216,186357,1,0,0:0:0:0:
204,216,186572,2,0,L|84:308,1,125.999996154785,0|2,0:0|0:0,0:0:0:0:
228,320,187429,6,0,B|288:296|288:296|376:336,1,125.999996154785
400,348,188072,1,0,0:0:0:0:
400,348,188286,2,0,P|420:280|408:220,1,125.999996154785,0|2,0:0|0:0,0:0:0:0:
356,112,189143,6,0,L|416:64,2,62.9999980773926
292,112,189786,2,0,L|332:52,2,62.9999980773926
252,164,190429,1,2,0:0:0:0:
252,164,190643,1,0,0:0:0:0:
252,164,190857,6,0,P|280:224|260:312,2,125.999996154785
252,164,192572,6,0,B|320:192|320:192|404:164,1,154.000004699707,2|8,0:0|0:0,0:0:0:0:
484,64,193429,2,0,B|416:36|416:36|332:64,1,154.000004699707,2|8,0:0|0:0,0:0:0:0:
272,100,194072,1,0,0:0:0:0:
208,140,194286,6,0,P|140:104|64:160,1,154.000004699707,2|8,0:0|0:0,0:0:0:0:
92,212,194929,1,0,0:0:0:0:
140,276,195143,2,0,P|180:249|205:193,1,77.0000023498536,2|0,0:0|0:0,0:0:0:0:
260,272,195572,2,0,P|277:226|264:166,1,77.0000023498536,8|0,0:0|0:0,0:0:0:0:
256,124,196000,6,0,P|336:152|420:108,1,154.000004699707,2|8,0:0|0:0,0:0:0:0:
344,72,196643,1,0,0:0:0:0:
268,48,196857,2,0,P|188:20|104:64,1,154.000004699707,2|8,0:0|0:0,0:0:0:0:
64,88,197500,1,0,0:0:0:0:
120,140,197714,6,0,B|136:204|92:284|92:284|136:272|216:308,1,231.000007049561,2|0,0:0|0:0,0:0:0:0:
244,312,198572,1,2,0:0:0:0:
344,196,199000,1,8,0:0:0:0:
372,44,199429,6,0,P|296:36|240:108,1,154.000004699707,2|8,0:0|0:0,0:0:0:0:
228,164,200072,1,0,0:0:0:0:
216,239,200286,2,0,P|292:247|348:175,1,154.000004699707,2|8,0:0|0:0,0:0:0:0:
372,124,200929,1,0,0:0:0:0:
448,144,201143,6,0,L|424:340,1,154.000004699707,2|8,0:0|0:0,0:0:0:0:
276,276,202000,2,0,L|208:236,1,77.0000023498536,2|0,0:0|0:0,0:0:0:0:
152,288,202429,2,0,L|84:248,1,77.0000023498536,8|0,0:0|0:0,0:0:0:0:
72,172,202857,6,0,B|92:120|144:108|144:108|232:152,1,154.000004699707,2|8,0:0|0:0,0:0:0:0:
260,168,203500,2,0,P|324:196|400:164,1,154.000004699707
456,112,204143,2,0,L|452:36,1,77.0000023498536,8|0,0:0|0:0,0:0:0:0:
376,52,204572,6,0,B|296:40|296:40|164:72,1,154.000004699707,2|8,0:0|0:0,0:0:0:0:
108,156,205429,1,2,0:0:0:0:
228,256,205857,2,0,P|280:268|328:248,1,77.0000023498536,8|0,0:0|0:0,0:0:0:0:
376,240,206286,6,0,P|428:248|448:348,1,154.000004699707,2|8,0:0|0:0,0:0:0:0:
380,324,206929,1,0,0:0:0:0:
307,351,207143,2,0,P|255:343|235:243,1,154.000004699707,2|8,0:0|0:0,0:0:0:0:
260,184,207786,1,0,0:0:0:0:
296,116,208000,6,0,P|196:140|144:104,1,154.000004699707,2|8,0:0|0:0,0:0:0:0:
100,64,208643,1,0,0:0:0:0:
24,36,208857,2,0,L|44:140,1,77.0000023498536,2|0,0:0|0:0,0:0:0:0:
92,168,209286,2,0,P|104:220|96:260,1,77.0000023498536,8|0,0:0|0:0,0:0:0:0:
52,304,209714,6,0,B|124:288|124:288|236:320,1,154.000004699707,2|8,0:0|0:0,0:0:0:0:
336,240,210572,2,0,P|372:168|384:88,1,154.000004699707,2|8,0:0|0:0,0:0:0:0:
336,36,211214,1,0,0:0:0:0:
268,72,211429,6,0,P|240:152|244:252,1,154.000004699707,2|8,0:0|0:0,0:0:0:0:
340,336,212286,1,2,0:0:0:0:
188,304,212714,2,0,L|132:232,1,77.0000023498536,8|0,0:0|0:0,0:0:0:0:
100,176,213143,6,0,B|120:100|120:100|180:52,1,154.000004699707,2|8,0:0|0:0,0:0:0:0:
256,40,213786,1,0,0:0:0:0:
332,68,214000,2,0,B|312:144|312:144|252:192,1,154.000004699707,2|8,0:0|0:0,0:0:0:0:
192,236,214643,1,0,0:0:0:0:
264,268,214857,6,0,P|324:288|420:268,1,154.000004699707,2|8,0:0|0:0,0:0:0:0:
448,124,215714,2,0,P|432:76|412:52,1,77.0000023498536,2|0,0:0|0:0,0:0:0:0:
352,96,216143,2,0,P|324:64|268:40,1,77.0000023498536,8|0,0:0|0:0,0:0:0:0:
216,56,216572,6,0,P|168:128|224:264,1,231.000007049561,2|0,0:0|0:0,0:0:0:0:
272,304,217429,1,2,0:0:0:0:
376,192,217857,1,8,0:0:0:0:
352,40,218286,6,0,P|440:64|496:184,1,231.000007049561,2|0,0:0|0:0,0:0:0:0:
464,252,219143,1,2,0:0:0:0:
332,328,219572,2,0,L|248:240,1,77.0000023498536,8|0,0:0|0:0,0:0:0:0:
232,212,220000,5,4,0:0:0:0:
