osu file format v14

[General]
AudioFilename: audio.mp3
AudioLeadIn: 0
PreviewTime: 62286
Countdown: 0
SampleSet: Soft
StackLeniency: 0.3
Mode: 0
LetterboxInBreaks: 0
WidescreenStoryboard: 1

[Editor]
DistanceSpacing: 1.2
BeatDivisor: 4
GridSize: 4
TimelineZoom: 1

[Metadata]
Title:Pandora
TitleUnicode:パンドラ
Artist:Kikuo
ArtistUnicode:きくお
Creator:Bariton
Version:Lunatic
Source:東方Project
Tags:iemitsu aosaki shizuku wriggle nightbug touhou
BeatmapID:1255068
BeatmapSetID:593232

[Difficulty]
HPDrainRate:6
CircleSize:4.3
OverallDifficulty:7
ApproachRate:9
SliderMultiplier:1.7
SliderTickRate:2

[Events]
//Background and Video events
0,0,"a59493d34a5691f5fec74c85e6c519b5.jpg",0,0
//Break Periods
2,89914,102829
//Storyboard Layer 0 (Background)
//Storyboard Layer 1 (Fail)
//Storyboard Layer 2 (Pass)
//Storyboard Layer 3 (Foreground)
//Storyboard Sound Samples

[TimingPoints]
572,428.571428571429,4,2,0,80,1,0
572,-133.333333333333,4,2,0,80,0,0
4000,-133.333333333333,4,2,0,80,0,0
7429,-111.111111111111,4,2,0,80,0,0
12572,-100,4,2,0,80,0,0
13429,-66.6666666666667,4,2,0,80,0,0
13643,-100,4,2,0,80,0,0
14286,-83.3333333333333,4,2,0,80,0,0
19429,-133.333333333333,4,2,0,80,0,0
20072,-83.3333333333333,4,2,0,80,0,0
26286,-133.333333333333,4,2,0,80,0,0
27143,-100,4,2,0,80,0,0
28000,-100,4,2,0,80,0,0
34857,-100,4,2,0,80,0,0
36572,-76.9230769230769,4,2,0,80,0,0
37857,-100,4,2,0,80,0,0
41714,-83.3333333333333,4,2,0,80,0,0
43429,-100,4,2,0,80,0,0
45143,-133.333333333333,4,2,0,80,0,0
46857,-133.333333333333,4,2,0,80,0,0
48572,-83.3333333333333,4,2,0,80,0,0
49429,-83.3333333333333,4,2,0,80,0,0
55429,-100,4,2,0,80,0,0
60572,-80,4,2,0,80,0,0
61429,-66.6666666666667,4,2,0,80,0,0
62286,-80,4,2,0,80,0,1
67429,-133.333333333333,4,2,0,80,0,1
67857,-80,4,2,0,80,0,1
69143,-80,4,2,0,80,0,1
74286,-133.333333333333,4,2,0,80,0,1
74929,-80,4,2,0,80,0,1
81143,-133.333333333333,4,2,0,80,0,1
82857,-80,4,2,0,80,0,1
89714,-100,4,2,0,80,0,0
103429,-100,4,2,0,80,0,0
110286,-100,4,2,0,80,0,0
113714,-100,4,2,0,80,0,0
120572,-133.333333333333,4,2,0,80,0,0
123572,-100,4,2,0,80,0,0
124000,-83.3333333333333,4,2,0,80,0,0
130857,-100,4,2,0,80,0,0
137714,-80,4,2,0,80,0,1
142857,-133.333333333333,4,2,0,80,0,1
143286,-80,4,2,0,80,0,1
144572,-80,4,2,0,80,0,1
149714,-133.333333333333,4,2,0,80,0,1
150357,-80,4,2,0,80,0,1
151429,-80,4,2,0,80,0,1
156572,-133.333333333333,4,2,0,80,0,1
157214,-80,4,2,0,80,0,1
158286,-80,4,2,0,80,0,1
165143,-100,4,2,0,80,0,0
178857,-133.333333333333,4,2,0,80,0,0
180143,-83.3333333333333,4,2,0,80,0,0
180357,-133.333333333333,4,2,0,80,0,0
181857,-83.3333333333333,4,2,0,80,0,0
182072,-133.333333333333,4,2,0,80,0,0
185286,-83.3333333333333,4,2,0,80,0,0
185500,-133.333333333333,4,2,0,80,0,0
187000,-83.3333333333333,4,2,0,80,0,0
187214,-133.333333333333,4,2,0,80,0,0
188714,-83.3333333333333,4,2,0,80,0,0
188929,-133.333333333333,4,2,0,80,0,0
189143,-133.333333333333,4,2,0,80,0,0
190857,-100,4,2,0,80,0,0
192572,-80,4,2,0,80,0,1
199429,-80,4,2,0,80,0,1
204572,-133.333333333333,4,2,0,80,0,1
205214,-80,4,2,0,80,0,1
206286,-80,4,2,0,80,0,1
213143,-80,4,2,0,80,0,1
218286,-133.333333333333,4,2,0,80,0,1
218929,-80,4,2,0,80,0,1
220000,-100,4,2,0,80,0,0

[Colours]
Combo1 : 238,214,155
Combo2 : 114,181,214
Combo3 : 134,185,154

[HitObjects]
144,104,572,6,0,P|164:164|144:232,1,127.500004863739
92,296,1214,1,0,0:0:0:0:
148,224,1429,2,0,P|180:216|220:232,1,63.7500024318696
316,284,1857,2,0,P|284:292|244:276,1,63.7500024318696
344,208,2286,6,0,P|392:256|388:312,1,127.500004863739
316,284,2929,1,0,0:0:0:0:
326,148,3143,2,0,P|342:180|342:216,1,63.7500024318696
248,136,3572,2,0,P|261:102|287:78,1,63.7500024318696
272,208,4000,5,0,0:0:0:0:
248,136,4214,1,0,0:0:0:0:
326,148,4429,1,0,0:0:0:0:
208,292,4643,5,0,0:0:0:0:
176,196,4857,1,0,0:0:0:0:
272,208,5072,1,0,0:0:0:0:
192,68,5286,5,0,0:0:0:0:
272,208,5500,1,0,0:0:0:0:
272,288,5714,6,0,P|304:280|340:248,1,63.7500024318696
272,208,6143,2,0,P|240:216|204:248,1,63.7500024318696
328,262,6572,2,0,P|348:202|300:132,1,127.500004863739
252,88,7214,1,0,0:0:0:0:
252,88,7429,6,0,P|208:124|116:108,1,152.999995330811
176,48,8072,1,0,0:0:0:0:
44,96,8286,2,0,P|48:136|84:176,1,76.4999976654053
176,48,8714,1,0,0:0:0:0:
118,109,8929,1,0,0:0:0:0:
90,298,9143,6,0,P|54:254|70:162,1,152.999995330811
118,109,9786,1,0,0:0:0:0:
180,172,10000,2,0,P|152:212|112:228,1,76.4999976654053
118,109,10429,2,0,P|146:69|186:53,1,76.4999976654053
296,160,10857,5,0,0:0:0:0:
356,212,11072,1,0,0:0:0:0:
372,136,11286,1,0,0:0:0:0:
312,84,11500,5,0,0:0:0:0:
284,236,11714,1,0,0:0:0:0:
428,188,11929,1,0,0:0:0:0:
312,84,12143,5,0,0:0:0:0:
312,84,12572,6,0,P|272:112|176:84,1,127.5
172,88,13000,2,0,P|184:136|156:192,1,85
128,276,13429,6,0,P|164:284|212:268,1,63.7500024318696
256,244,13643,21,0,0:0:0:0:
348,116,13857,1,0,0:0:0:0:
174,169,14072,1,0,0:0:0:0:
352,276,14286,6,0,P|388:238|357:125,1,152.999995330811
348,116,14714,2,0,P|292:132|248:116,1,101.999996887207
116,76,15143,2,0,B|132:128|132:128|120:184,1,101.999996887207
96,240,15464,1,0,0:0:0:0:
96,240,15572,1,0,0:0:0:0:
212,136,15786,1,0,0:0:0:0:
12,240,16000,6,0,P|36:296|128:312,1,152.999995330811
156,304,16429,2,0,P|204:296|252:324,1,101.999996887207
372,248,16857,1,0,0:0:0:0:
296,128,17072,1,0,0:0:0:0:
296,128,17179,1,0,0:0:0:0:
296,128,17286,1,0,0:0:0:0:
476,252,17500,1,0,0:0:0:0:
376,56,17714,5,0,0:0:0:0:
296,128,17929,1,0,0:0:0:0:
392,172,18143,1,0,0:0:0:0:
280,40,18357,5,0,0:0:0:0:
312,208,18572,1,0,0:0:0:0:
432,100,18786,1,0,0:0:0:0:
224,92,19000,5,0,0:0:0:0:
468,164,19214,1,0,0:0:0:0:
250,219,19429,6,0,P|282:207|326:211,1,63.7500024318696
196,248,19857,2,0,P|228:260|272:256,1,63.7500024318696
144,180,20286,5,0,0:0:0:0:
356,276,20500,1,0,0:0:0:0:
356,276,20607,1,0,0:0:0:0:
356,276,20714,1,0,0:0:0:0:
268,144,20929,1,0,0:0:0:0:
304,336,21143,6,0,P|368:356|432:276,1,152.999995330811
440,232,21572,2,0,P|420:177|366:151,1,101.999996887207
257,238,22000,2,0,P|278:183|256:129,1,101.999996887207
232,80,22322,1,0,0:0:0:0:
232,80,22429,1,0,0:0:0:0:
384,154,22643,1,0,0:0:0:0:
180,260,22857,6,0,P|208:304|300:304,1,152.999995330811
328,288,23286,1,0,0:0:0:0:
348,176,23500,1,0,0:0:0:0:
396,328,23714,2,0,P|408:272|356:216,1,101.999996887207
348,176,24036,1,0,0:0:0:0:
348,176,24143,1,0,0:0:0:0:
228,68,24357,1,0,0:0:0:0:
136,296,24572,5,0,0:0:0:0:
188,232,24786,1,0,0:0:0:0:
148,164,25000,1,0,0:0:0:0:
212,304,25214,5,0,0:0:0:0:
104,224,25429,1,0,0:0:0:0:
228,164,25643,1,0,0:0:0:0:
188,88,25857,5,0,0:0:0:0:
264,240,26072,1,0,0:0:0:0:
272,119,26286,6,0,P|240:155|202:174,1,63.7500024318696
188,88,26714,2,0,P|199:134|193:177,1,63.7500024318696
152,260,27143,5,0,0:0:0:0:
104,128,27357,1,0,0:0:0:0:
104,128,27464,1,0,0:0:0:0:
104,128,27572,1,0,0:0:0:0:
227,163,27786,1,0,0:0:0:0:
72,292,28000,6,0,P|104:328|224:300,1,170
280,236,28643,1,0,0:0:0:0:
227,163,28857,1,0,0:0:0:0:
336,180,29072,2,0,P|356:216|348:264,1,85
214,312,29500,1,0,0:0:0:0:
227,163,29714,6,0,B|199:147|187:123|187:123|159:119|131:131|131:131|111:111|75:107,1,170
52,36,30357,1,0,0:0:0:0:
66,186,30572,2,0,P|86:150|78:102,1,85
148,216,31000,1,2,0:0:0:0:
184,284,31214,1,2,0:0:0:0:
220,352,31429,6,0,B|260:340|260:340|304:352,1,85,2|0,0:0|0:0,0:0:0:0:
376,272,31857,2,0,B|336:284|336:284|292:272,1,85
220,204,32286,1,0,0:0:0:0:
392,192,32500,2,0,P|452:248|424:336,1,170
316,176,33143,6,0,P|372:116|448:136,1,127.5
452,128,33572,1,0,0:0:0:0:
316,176,33786,1,0,0:0:0:0:
392,192,34000,1,0,0:0:0:0:
164,156,34214,1,2,0:0:0:0:
220,204,34429,1,2,0:0:0:0:
232,132,34643,1,2,0:0:0:0:
152,232,34857,6,0,P|196:216|272:260,1,127.5
296,316,35286,2,0,P|328:290|339:243,1,85
232,224,35714,2,0,P|256:240|275:261,1,42.5
296,316,35929,1,0,0:0:0:0:
224,88,36143,1,0,0:0:0:0:
224,88,36572,6,0,B|260:96|280:120|280:120|304:100|312:68|312:68|328:84|356:88,1,165.749992412568
400,40,37000,2,0,B|428:76|408:116|408:116|432:104|456:104|456:104|452:132|464:144,1,165.749992412568
416,224,37429,2,0,B|428:184|428:184|408:192|372:192|352:164|344:144|344:144|316:160,1,165.749992412568
264,208,37857,1,0,0:0:0:0:
244,304,38072,1,0,0:0:0:0:
264,208,38286,5,0,0:0:0:0:
172,160,38500,1,0,0:0:0:0:
156,260,38714,1,0,0:0:0:0:
112,120,38929,5,0,0:0:0:0:
172,160,39143,1,0,0:0:0:0:
184,92,39357,1,0,0:0:0:0:
68,196,39572,5,0,0:0:0:0:
172,160,39786,1,0,0:0:0:0:
156,260,40000,6,0,P|200:284|272:256,1,127.5
304,224,40429,2,0,P|292:272|308:320,1,85
364,272,40750,1,0,0:0:0:0:
376,260,40857,2,0,P|388:216|368:164,1,85
332,120,41286,1,0,0:0:0:0:
378,178,41500,1,0,0:0:0:0:
288,56,41714,6,0,B|252:88|252:88|192:88,1,101.999996887207
198,88,42357,2,0,B|206:140|206:140|190:192,1,101.999996887207
96,264,42786,2,0,B|148:256|148:256|200:272,1,101.999996887207
308,248,43214,2,0,L|288:296,1,50.9999984436036
368,208,43429,6,0,P|380:248|368:292,1,85
284,188,43857,1,0,0:0:0:0:
340,132,44072,2,0,P|381:127|422:148,1,85
284,188,44500,1,0,0:0:0:0:
212,88,44714,1,0,0:0:0:0:
140,132,44929,1,0,0:0:0:0:
140,132,45036,1,0,0:0:0:0:
140,132,45143,6,0,B|128:96|128:96|112:112|72:136|56:108|56:108|40:100,2,127.500004863739
164,204,46214,1,0,0:0:0:0:
220,144,46429,2,0,B|236:164|236:164|252:152|296:180,1,63.7500024318696
324,260,46857,6,0,B|360:244|364:224|364:224|344:200|356:176|356:176|380:176,2,127.500004863739
256,228,47929,1,0,0:0:0:0:
200,324,48143,2,0,B|212:312|216:288|216:288|240:304|248:300,1,63.7500024318696
188,188,48572,6,0,P|240:152|324:184,1,152.999995330811
368,216,49000,2,0,P|416:232|472:208,1,101.999996887207
361,50,49429,6,0,P|313:98|321:182,1,152.999995330811
368,216,49857,2,0,P|384:264|360:320,1,101.999996887207
190,135,50286,6,0,P|238:183|322:175,1,152.999995330811
364,136,50714,2,0,P|408:120|460:132,1,101.999996887207
360,305,51143,6,0,P|312:257|320:173,1,152.999995330811
364,136,51572,1,0,0:0:0:0:
284,64,51786,1,0,0:0:0:0:
272,76,51893,1,0,0:0:0:0:
232,112,52000,6,0,P|184:132|88:88,1,152.999995330811
94,96,52429,2,0,P|104:152|84:196,1,101.999996887207
206,261,52857,6,0,P|178:216|75:195,1,152.999995330811
85,192,53286,2,0,P|136:188|184:124,1,101.999996887207
242,35,53714,6,0,P|183:81|173:155,1,152.999995330811
172,154,54143,2,0,P|152:100|104:80,1,101.999996887207
252,120,54572,1,0,0:0:0:0:
332,212,54786,1,0,0:0:0:0:
340,64,55000,1,0,0:0:0:0:
192,192,55214,1,0,0:0:0:0:
200,204,55322,1,0,0:0:0:0:
232,252,55429,6,0,P|240:292|224:332,1,85
192,192,55857,1,0,0:0:0:0:
272,156,56072,1,0,0:0:0:0:
336,276,56286,2,0,B|380:280|400:248|400:248|444:268|444:268|432:232|448:200,1,170
488,128,56929,1,0,0:0:0:0:
415,95,57143,6,0,P|447:123|491:127,1,85
372,24,57572,1,0,0:0:0:0:
476,52,57786,1,0,0:0:0:0:
344,208,58000,2,0,P|320:156|336:88,1,127.5
372,24,58429,2,0,P|328:40|272:28,1,85
192,20,58857,5,0,0:0:0:0:
232,112,59072,1,0,0:0:0:0:
144,72,59286,1,0,0:0:0:0:
256,48,59500,1,0,0:0:0:0:
168,140,59714,1,0,0:0:0:0:
256,48,59929,1,0,0:0:0:0:
280,172,60143,1,0,0:0:0:0:
144,72,60357,1,0,0:0:0:0:
72,248,60572,6,0,B|104:228|104:228|104:264|120:296|120:296|140:276|184:272,1,159.375
268,317,61000,2,0,B|224:301|224:301|192:325|160:317|160:317|152:301|168:269,1,159.375
272,255,61429,6,0,P|276:291|264:323,1,63.7500024318696
216,184,61643,1,0,0:0:0:0:
228,168,61857,1,0,0:0:0:0:
240,152,62072,1,0,0:0:0:0:
116,112,62286,6,0,P|176:156|256:132,1,159.375
244,38,62714,2,0,P|230:92|267:145,1,106.25
209,266,63143,6,0,P|253:230|249:130,1,159.375
251,133,63572,2,0,P|296:152|352:128,1,106.25
440,40,64000,6,0,B|472:76|464:116|464:116|428:140|440:196,1,159.375
480,269,64429,2,0,B|468:249|476:217|476:217|464:193|432:181,1,106.25
316,140,64857,5,0,0:0:0:0:
344,264,65072,1,0,0:0:0:0:
251,81,65286,5,0,0:0:0:0:
380,192,65500,1,0,0:0:0:0:
125,140,65714,6,0,P|181:148|252:78,1,159.375
304,165,66143,2,0,P|260:129|256:65,1,106.25
372,116,66572,6,0,P|388:172|328:248,1,159.375
348,320,67000,2,0,P|285:308|256:260,1,106.25
228,208,67429,6,0,P|176:180|144:236,1,127.500004863739
260,276,68072,5,0,0:0:0:0:
228,208,68286,1,0,0:0:0:0:
292,100,68500,1,0,0:0:0:0:
292,100,68607,1,0,0:0:0:0:
292,100,68714,1,0,0:0:0:0:
184,32,68929,1,0,0:0:0:0:
322,183,69143,6,0,P|376:127|364:52,1,159.375
363,51,69572,2,0,P|408:72|464:48,1,106.25
322,183,70000,6,0,P|244:156|168:192,1,159.375
176,183,70429,2,0,P|188:136|168:84,1,106.25
88,184,70857,6,0,P|100:244|192:268,1,159.375
185,270,71286,2,0,B|132:292|132:292|100:340,1,106.25
232,204,71714,5,0,0:0:0:0:
324,292,71928,1,0,0:0:0:0:
185,270,72143,5,0,0:0:0:0:
88,184,72357,1,0,0:0:0:0:
232,204,72572,5,0,0:0:0:0:
264,136,72786,1,0,0:0:0:0:
216,80,73000,1,0,0:0:0:0:
308,200,73214,5,0,0:0:0:0:
184,144,73429,1,0,0:0:0:0:
292,72,73643,1,0,0:0:0:0:
356,132,73857,5,0,0:0:0:0:
96,92,74072,2,0,P|120:76|148:72,1,53.125
140,148,74286,6,0,P|100:164|28:108,1,127.500004863739
143,71,74929,5,0,0:0:0:0:
192,236,75143,1,0,0:0:0:0:
228,156,75357,1,0,0:0:0:0:
208,200,75464,1,0,0:0:0:0:
192,236,75572,1,0,0:0:0:0:
252,108,75786,1,0,0:0:0:0:
192,236,76000,6,0,P|264:252|296:332,1,159.375
216,312,76429,1,0,0:0:0:0:
216,312,76643,1,0,0:0:0:0:
112,260,76857,6,0,P|128:188|208:156,1,159.375
192,236,77286,1,0,0:0:0:0:
192,236,77500,1,0,0:0:0:0:
136,46,77714,6,0,B|192:50|212:90|212:90|194:126|202:166,1,159.375
268,136,78143,2,0,B|288:100|280:72|280:72|272:48|244:16,1,106.25
200,155,78572,5,0,0:0:0:0:
372,251,78786,1,0,0:0:0:0:
200,139,79000,5,0,0:0:0:0:
376,263,79214,1,0,0:0:0:0:
132,112,79429,6,0,P|152:196|236:200,1,159.375
291,173,79857,2,0,P|250:138|178:150,1,106.25
292,252,80286,6,0,P|344:236|352:124,1,159.375
356,68,80714,2,0,P|308:92|290:151,1,106.25
380,250,81143,6,0,B|408:214|396:170|396:170|360:138,1,127.500004863739
364,141,81786,1,0,0:0:0:0:
216,56,82000,5,0,0:0:0:0:
96,180,82214,1,0,0:0:0:0:
96,180,82322,1,0,0:0:0:0:
96,180,82429,1,0,0:0:0:0:
290,139,82643,1,0,0:0:0:0:
88,92,82857,6,0,P|24:132|20:212,1,159.375
96,180,83286,2,0,P|104:236|64:280,1,106.25
223,196,83714,6,0,P|215:132|300:144,1,159.375
291,129,84143,2,0,P|303:165|232:200,1,106.25
288,44,84572,6,0,P|344:68|372:160,1,159.375
408,246,85000,2,0,P|372:206|376:146,1,106.25
448,176,85429,5,0,0:0:0:0:
336,320,85643,1,0,0:0:0:0:
420,328,85857,5,0,0:0:0:0:
264,280,86072,1,0,0:0:0:0:
144,328,86286,5,0,0:0:0:0:
100,264,86500,1,0,0:0:0:0:
176,256,86714,1,0,0:0:0:0:
220,320,86929,5,0,0:0:0:0:
132,196,87143,1,0,0:0:0:0:
72,332,87357,1,0,0:0:0:0:
204,168,87572,5,0,0:0:0:0:
60,160,87786,1,0,0:0:0:0:
136,116,88000,6,0,P|188:128|248:96,1,106.25
288,64,88322,1,0,0:0:0:0:
288,64,88429,2,0,L|320:168,1,106.25
344,232,88750,1,0,0:0:0:0:
344,232,88857,1,0,0:0:0:0:
436,144,89072,1,0,0:0:0:0:
436,144,89179,1,0,0:0:0:0:
436,144,89286,1,0,0:0:0:0:
472,264,89500,1,0,0:0:0:0:
344,232,89714,5,0,0:0:0:0:
132,120,103429,6,0,P|212:132|272:68,1,170
184,40,104072,1,0,0:0:0:0:
139,204,104286,2,0,L|131:112,1,85
256,272,104714,1,0,0:0:0:0:
328,232,105143,6,0,P|408:232|464:304,1,170
256,272,105786,2,0,L|228:184,1,85
372,308,106214,1,0,0:0:0:0:
300,160,106429,1,0,0:0:0:0:
300,160,106536,1,0,0:0:0:0:
300,160,106643,1,0,0:0:0:0:
376,92,106857,5,0,0:0:0:0:
