osu file format v14

[General]
AudioFilename: audio.mp3
AudioLeadIn: 0
PreviewTime: 44459
Countdown: 1
SampleSet: None
StackLeniency: 0.7
Mode: 0
LetterboxInBreaks: 0
WidescreenStoryboard: 1

[Editor]
Bookmarks: 33102,33316,34120,47673,54745,59031,62245,65888,72852,76174,79602,87638
DistanceSpacing: 1
BeatDivisor: 4
GridSize: 8
TimelineZoom: 2.999999

[Metadata]
Title:Mono wo parapara kowasu
TitleUnicode:Mono wo parapara kowasu
Artist:Kikuo
ArtistUnicode:Kikuo
Creator:n99dl
Version:Paraparaparapara
Source:
Tags:
BeatmapID:2033578
BeatmapSetID:967054

[Difficulty]
HPDrainRate:7
CircleSize:4.2
OverallDifficulty:8.5
ApproachRate:9.3
SliderMultiplier:1.4
SliderTickRate:1

[Events]
//Background and Video events
0,0,"1321.jpg",0,0
//Break Periods
2,4373,10216
//Storyboard Layer 0 (Background)
//Storyboard Layer 1 (Fail)
//Storyboard Layer 2 (Pass)
//Storyboard Layer 3 (Foreground)
//Storyboard Sound Samples

[TimingPoints]
745.355525051476,214.285957446809,4,1,0,70,1,0
10816,-200,4,1,0,70,0,0
12531,-100,4,1,0,70,0,0
19602,-66.6666666666667,4,1,0,70,0,0
24745,-100,4,1,0,70,0,0
31602,-200,4,2,0,50,0,0
35459,-100,4,2,0,70,0,0
38414,-66.6666666666667,4,2,0,70,0,0
86138,-100,4,2,0,70,0,0
88174,-100,4,2,0,20,0,0
91602,-100,4,2,0,69,0,0
95031,-100,4,2,0,20,0,0
98459,-100,4,2,0,70,0,0

[HitObjects]
253,191,745,5,0,0:0:0:0:
351,91,959,1,0,0:0:0:0:
445,193,1173,1,0,0:0:0:0:
351,298,1388,1,0,0:0:0:0:
256,194,1602,1,0,0:0:0:0:
158,294,1816,1,0,0:0:0:0:
61,192,2031,1,0,0:0:0:0:
157,91,2245,1,0,0:0:0:0:
254,190,2459,1,0,0:0:0:0:
410,128,2780,5,0,0:0:0:0:
404,198,2888,1,0,0:0:0:0:
336,320,3102,1,0,0:0:0:0:
266,328,3209,1,0,0:0:0:0:
200,304,3316,1,0,0:0:0:0:
165,243,3423,1,0,0:0:0:0:
187,176,3531,1,0,0:0:0:0:
414,29,3745,1,0,0:0:0:0:
401,280,3959,1,0,0:0:0:0:
136,190,4173,1,0,0:0:0:0:
178,187,10816,6,0,P|201:147|235:138,1,70
291,142,11245,6,0,P|331:165|340:199,1,70
338,255,11673,6,0,P|315:295|281:304,1,70
224,302,12102,6,0,P|184:279|175:245,1,70
101,120,12531,6,0,P|131:52|207:42,1,140
325,39,12959,6,0,P|393:69|400:144,1,140
406,268,13388,6,0,P|376:336|298:340,1,140
177,343,13816,6,0,P|109:313|105:235,1,140
137,119,14245,5,0,0:0:0:0:
361,73,14459,5,0,0:0:0:0:
430,194,14673,1,0,0:0:0:0:
430,194,14781,1,0,0:0:0:0:
430,194,14888,2,0,P|417:260|357:292,1,140
216,293,15316,5,0,0:0:0:0:
287,172,15531,1,0,0:0:0:0:
287,172,15638,1,0,0:0:0:0:
287,172,15745,2,0,P|281:91|229:82,1,140
152,193,16173,5,0,0:0:0:0:
285,235,16388,1,0,0:0:0:0:
285,235,16495,1,0,0:0:0:0:
285,235,16602,2,0,P|374:201|368:141,1,140
286,69,17031,5,0,0:0:0:0:
222,193,17245,1,0,0:0:0:0:
222,193,17352,1,0,0:0:0:0:
222,193,17459,2,0,P|166:172|157:81,1,140
61,121,17888,5,0,0:0:0:0:
127,244,18102,1,0,0:0:0:0:
171,120,18316,5,0,0:0:0:0:
237,243,18530,1,0,0:0:0:0:
275,122,18745,5,0,0:0:0:0:
341,245,18959,1,0,0:0:0:0:
384,120,19173,5,0,0:0:0:0:
450,243,19387,1,0,0:0:0:0:
443,80,19602,5,0,0:0:0:0:
381,280,19816,1,0,0:0:0:0:
322,80,20031,5,0,0:0:0:0:
260,280,20245,1,0,0:0:0:0:
198,80,20459,5,0,0:0:0:0:
136,280,20673,1,0,0:0:0:0:
76,80,20888,5,0,0:0:0:0:
14,280,21102,1,0,0:0:0:0:
148,42,21316,5,0,0:0:0:0:
324,27,21531,1,0,0:0:0:0:
397,28,21638,1,0,0:0:0:0:
438,88,21745,2,0,P|445:216|370:248,1,210.000008010865
197,295,22173,5,0,0:0:0:0:
97,109,22388,5,0,0:0:0:0:
156,65,22495,1,0,0:0:0:0:
228,53,22602,2,0,P|326:66|394:171,1,210.000008010865
362,292,23031,5,0,0:0:0:0:
276,100,23245,5,0,0:0:0:0:
203,113,23352,1,0,0:0:0:0:
173,180,23459,2,0,P|206:243|360:286,1,210.000008010865
402,224,23888,5,0,0:0:0:0:
231,101,24102,5,0,0:0:0:0:
206,170,24209,1,0,0:0:0:0:
278,160,24316,2,0,P|291:70|173:58,1,210.000008010865
112,156,24745,6,0,P|112:281|222:234,1,280
246,105,25388,5,0,0:0:0:0:
314,89,25495,1,0,0:0:0:0:
345,151,25602,1,0,0:0:0:0:
280,274,25816,1,0,0:0:0:0:
140,285,26031,1,0,0:0:0:0:
103,150,26245,1,0,0:0:0:0:
202,51,26459,6,0,L|238:81,8,35
340,74,27102,5,0,0:0:0:0:
371,136,27209,1,0,0:0:0:0:
354,204,27316,1,0,0:0:0:0:
311,259,27423,1,0,0:0:0:0:
245,284,27531,1,0,0:0:0:0:
134,198,27745,5,0,0:0:0:0:
270,167,27959,2,0,P|302:113|259:42,1,140
130,58,28388,5,0,0:0:0:0:
85,190,28602,1,0,0:0:0:0:
163,305,28816,5,0,0:0:0:0:
232,314,28923,1,0,0:0:0:0:
291,275,29031,1,0,0:0:0:0:
354,150,29245,1,0,0:0:0:0:
260,45,29459,1,0,0:0:0:0:
125,84,29673,1,0,0:0:0:0:
147,222,29888,2,0,L|186:270,8,35
269,290,30531,5,0,0:0:0:0:
342,171,30745,1,0,0:0:0:0:
281,45,30959,2,0,P|204:47|122:72,1,140
395,80,31602,5,0,0:0:0:0:
387,95,31655,1,0,0:0:0:0:
380,111,31709,1,0,0:0:0:0:
373,127,31762,1,0,0:0:0:0:
365,143,31816,1,0,0:0:0:0:
358,159,31869,1,0,0:0:0:0:
351,175,31923,1,0,0:0:0:0:
343,191,31977,1,0,0:0:0:0:
336,207,32030,1,0,0:0:0:0:
329,223,32084,1,0,0:0:0:0:
321,238,32137,1,0,0:0:0:0:
314,254,32191,1,0,0:0:0:0:
307,270,32244,1,0,0:0:0:0:
299,286,32298,1,0,0:0:0:0:
292,302,32352,1,0,0:0:0:0:
285,318,32405,1,0,0:0:0:0:
281,326,32459,2,0,L|273:344,12,17.5
117,80,33316,5,0,0:0:0:0:
124,95,33369,1,0,0:0:0:0:
131,111,33423,1,0,0:0:0:0:
138,127,33476,1,0,0:0:0:0:
146,143,33530,1,0,0:0:0:0:
153,159,33583,1,0,0:0:0:0:
160,175,33637,1,0,0:0:0:0:
168,191,33691,1,0,0:0:0:0:
175,207,33744,1,0,0:0:0:0:
182,223,33798,1,0,0:0:0:0:
190,238,33851,1,0,0:0:0:0:
197,254,33905,1,0,0:0:0:0:
204,270,33958,1,0,0:0:0:0:
212,286,34012,1,0,0:0:0:0:
219,302,34066,1,0,0:0:0:0:
226,318,34119,1,0,0:0:0:0:
231,325,34173,2,0,L|247:351,16,17.5
96,127,35459,5,0,0:0:0:0:
220,63,35673,1,0,0:0:0:0:
286,186,35888,1,0,0:0:0:0:
285,296,36209,5,0,0:0:0:0:
351,274,36316,6,0,L|381:198,1,70
309,61,36638,5,0,0:0:0:0:
246,91,36745,1,0,0:0:0:0:
179,349,37066,5,0,0:0:0:0:
181,258,37173,6,0,L|196:171,1,70
225,52,37602,1,0,0:0:0:0:
362,234,38031,6,0,P|384:161|338:101,1,140
211,60,38459,5,0,0:0:0:0:
77,221,38673,1,0,0:0:0:0:
276,288,38888,1,0,0:0:0:0:
134,132,39102,1,0,0:0:0:0:
343,122,39316,1,0,0:0:0:0:
304,274,39531,1,0,0:0:0:0:
210,322,39638,2,0,P|124:314|105:284,1,105.000004005432
88,123,39959,5,0,0:0:0:0:
282,43,40173,1,0,0:0:0:0:
259,252,40388,1,0,0:0:0:0:
174,59,40602,1,0,0:0:0:0:
345,179,40816,1,0,0:0:0:0:
154,268,41031,1,0,0:0:0:0:
236,75,41245,1,0,0:0:0:0:
292,276,41459,1,0,0:0:0:0:
137,134,41673,1,0,0:0:0:0:
347,122,41888,1,0,0:0:0:0:
256,192,41995,12,0,44030,0:0:0:0:
220,154,44459,5,0,0:0:0:0:
292,229,44673,1,0,0:0:0:0:
187,193,44888,5,0,0:0:0:0:
333,193,45102,1,0,0:0:0:0:
207,269,45316,5,0,0:0:0:0:
309,109,45531,1,0,0:0:0:0:
298,295,45745,5,0,0:0:0:0:
211,81,45959,1,0,0:0:0:0:
374,252,46174,5,0,0:0:0:0:
131,127,46388,1,0,0:0:0:0:
400,133,46602,5,0,0:0:0:0:
107,252,46817,1,0,0:0:0:0:
353,43,47031,5,0,0:0:0:0:
158,341,47245,1,0,0:0:0:0:
179,15,47459,5,0,0:0:0:0:
337,382,47674,1,0,0:0:0:0:
312,173,47888,5,0,0:0:0:0:
197,119,48102,1,0,0:0:0:0:
115,215,48316,2,0,P|163:304|274:337,1,210.000008010865
280,213,48745,5,0,0:0:0:0:
253,56,49173,2,0,P|336:78|382:199,1,210.000008010865
306,283,49602,5,0,0:0:0:0:
180,286,49816,1,0,0:0:0:0:
63,238,50031,2,0,P|69:159|185:80,1,210.000008010865
291,71,50459,5,0,0:0:0:0:
276,322,50888,2,0,P|138:290|67:212,1,210.000008010865
89,117,51316,5,0,0:0:0:0:
212,88,51531,1,0,0:0:0:0:
337,88,51745,2,0,P|376:169|328:286,1,210.000008010865
183,125,52173,5,0,0:0:0:0:
321,254,52388,1,0,0:0:0:0:
255,90,52602,5,0,0:0:0:0:
255,320,52816,1,0,0:0:0:0:
345,103,53031,5,0,0:0:0:0:
151,295,53245,1,0,0:0:0:0:
403,192,53459,5,0,0:0:0:0:
88,192,53673,1,0,0:0:0:0:
397,301,53888,5,0,0:0:0:0:
115,82,54102,1,0,0:0:0:0:
332,380,54316,5,0,0:0:0:0:
183,8,54531,1,0,0:0:0:0:
130,122,54745,5,0,0:0:0:0:
238,186,54959,1,0,0:0:0:0:
136,261,55173,2,0,P|70:182|112:82,1,210.000008010865
227,71,55602,5,0,0:0:0:0:
404,249,56031,2,0,P|326:293|195:286,1,210.000008010865
121,200,56459,5,0,0:0:0:0:
235,148,56673,1,0,0:0:0:0:
115,105,56888,2,0,P|94:213|184:278,1,210.000008010865
283,247,57316,5,0,0:0:0:0:
329,129,57745,2,0,P|245:67|113:61,1,210.000008010865
163,178,58173,5,0,0:0:0:0:
283,213,58387,1,0,0:0:0:0:
187,295,58602,2,0,P|130:285|93:140,1,210.000008010865
193,91,59031,5,0,0:0:0:0:
142,294,59245,1,0,0:0:0:0:
52,307,59459,5,0,0:0:0:0:
103,104,59673,1,0,0:0:0:0:
319,91,59888,5,0,0:0:0:0:
370,294,60102,1,0,0:0:0:0:
460,307,60316,5,0,0:0:0:0:
409,104,60530,1,0,0:0:0:0:
256,49,60745,5,0,0:0:0:0:
409,192,60959,1,0,0:0:0:0:
255,334,61173,1,0,0:0:0:0:
101,189,61388,1,0,0:0:0:0:
128,58,61602,5,0,0:0:0:0:
124,330,61816,1,0,0:0:0:0:
397,330,62031,1,0,0:0:0:0:
397,57,62245,1,0,0:0:0:0:
430,171,62459,5,0,0:0:0:0:
286,324,62888,2,0,P|204:293|137:179,1,210.000008010865
253,67,63316,5,0,0:0:0:0:
225,168,63531,1,0,0:0:0:0:
281,256,63745,2,0,P|366:185|307:120,1,210.000008010865
215,108,64173,5,0,0:0:0:0:
172,204,64388,1,0,0:0:0:0:
76,161,64602,1,0,0:0:0:0:
120,65,64816,1,0,0:0:0:0:
308,240,65031,5,0,0:0:0:0:
351,336,65245,1,0,0:0:0:0:
447,292,65459,1,0,0:0:0:0:
404,197,65674,1,0,0:0:0:0:
181,194,65888,5,0,0:0:0:0:
256,120,66102,1,0,0:0:0:0:
328,195,66316,1,0,0:0:0:0:
255,270,66531,1,0,0:0:0:0:
162,207,66745,5,0,0:0:0:0:
280,294,66959,1,0,0:0:0:0:
367,175,67174,1,0,0:0:0:0:
247,89,67388,1,0,0:0:0:0:
106,233,67602,5,0,0:0:0:0:
228,37,67816,1,0,0:0:0:0:
434,141,68031,1,0,0:0:0:0:
330,347,68245,1,0,0:0:0:0:
125,301,68459,5,0,0:0:0:0:
398,310,68674,1,0,0:0:0:0:
402,37,68888,1,0,0:0:0:0:
129,34,69102,1,0,0:0:0:0:
315,232,69316,5,0,0:0:0:0:
140,49,69745,2,0,P|59:175|89:261,1,210.000008010865
178,287,70174,5,0,0:0:0:0:
295,243,70388,1,0,0:0:0:0:
345,127,70602,2,0,P|232:112|162:196,1,210.000008010865
105,283,71031,5,0,0:0:0:0:
22,188,71245,1,0,0:0:0:0:
109,97,71459,2,0,P|197:87|275:197,1,210.000008010865
303,293,71888,5,0,0:0:0:0:
124,115,72102,1,0,0:0:0:0:
375,98,72316,1,0,0:0:0:0:
210,290,72531,1,0,0:0:0:0:
266,44,72745,1,0,0:0:0:0:
256,192,72852,12,0,76174,0:0:0:0:
188,65,79602,5,0,0:0:0:0:
402,197,79816,1,0,0:0:0:0:
170,297,80031,1,0,0:0:0:0:
152,190,80459,5,0,0:0:0:0:
337,89,80674,1,0,0:0:0:0:
350,298,80888,1,0,0:0:0:0:
179,243,81316,5,0,0:0:0:0:
257,93,81531,1,0,0:0:0:0:
348,233,81745,1,0,0:0:0:0:
270,261,82174,5,0,0:0:0:0:
210,149,82388,1,0,0:0:0:0:
334,169,82602,1,0,0:0:0:0:
293,217,83031,5,0,0:0:0:0:
212,192,83245,1,0,0:0:0:0:
280,143,83459,1,0,0:0:0:0:
282,187,83888,5,0,0:0:0:0:
252,216,84102,1,0,0:0:0:0:
237,176,84316,1,0,0:0:0:0:
261,185,84745,5,0,0:0:0:0:
274,200,84959,1,0,0:0:0:0:
254,208,85174,1,0,0:0:0:0:
256,192,85602,5,0,0:0:0:0:
256,192,85816,1,0,0:0:0:0:
256,192,86031,1,0,0:0:0:0:
270,331,86138,2,0,P|245:25|174:360,1,980
361,75,88174,6,0,L|310:128,1,70
343,285,89031,2,0,L|299:223,1,70
159,293,89888,2,0,L|209:243,1,70
148,107,90745,2,0,L|211:150,1,70
117,106,91602,5,0,0:0:0:0:
395,76,91816,1,0,0:0:0:0:
392,217,91924,1,0,0:0:0:0:
296,319,92031,2,0,P|212:334|139:321,1,140
71,217,92459,5,0,0:0:0:0:
349,256,92674,1,0,0:0:0:0:
408,129,92781,1,0,0:0:0:0:
311,27,92888,2,0,P|201:34|161:68,1,140
118,147,93316,5,0,0:0:0:0:
394,194,93531,1,0,0:0:0:0:
358,329,93638,1,0,0:0:0:0:
245,245,93745,2,0,P|268:136|300:114,1,140
394,34,94174,5,0,0:0:0:0:
382,313,94388,1,0,0:0:0:0:
257,377,94495,1,0,0:0:0:0:
125,330,94602,2,0,P|85:227|110:200,1,140
332,68,95031,5,0,0:0:0:0:
361,86,95084,1,0,0:0:0:0:
379,116,95138,1,0,0:0:0:0:
356,243,95888,5,0,0:0:0:0:
354,277,95941,1,0,0:0:0:0:
328,301,95995,1,0,0:0:0:0:
169,314,96745,5,0,0:0:0:0:
135,303,96799,1,0,0:0:0:0:
130,268,96852,1,0,0:0:0:0:
108,115,97602,5,0,0:0:0:0:
115,80,97656,1,0,0:0:0:0:
147,67,97709,1,0,0:0:0:0:
312,68,98459,5,0,0:0:0:0:
262,344,98674,1,0,0:0:0:0:
187,225,98781,1,0,0:0:0:0:
317,275,98888,2,0,P|273:333|205:339,1,140
82,91,99316,5,0,0:0:0:0:
342,195,99531,1,0,0:0:0:0:
367,332,99638,1,0,0:0:0:0:
461,228,99745,2,0,P|407:173|335:174,1,140
125,341,100174,5,0,0:0:0:0:
46,72,100388,1,0,0:0:0:0:
43,211,100495,1,0,0:0:0:0:
179,243,100602,1,0,0:0:0:0:
259,128,100816,1,0,0:0:0:0:
398,124,101031,5,0,0:0:0:0:
251,370,101460,2,0,P|172:343|136:289,1,140
