osu file format v14

[General]
AudioFilename: audio.mp3
AudioLeadIn: 0
PreviewTime: 67934
Countdown: 0
SampleSet: Soft
StackLeniency: 0.7
Mode: 3
LetterboxInBreaks: 0
SpecialStyle: 0
WidescreenStoryboard: 1

[Editor]
DistanceSpacing: 0.8
BeatDivisor: 8
GridSize: 4
TimelineZoom: 2.8

[Metadata]
Title:Memories of the Rainy Summer Day (off vocal)
TitleUnicode:夏の雨の日の思い出 (オフボーカル)
Artist:Kikuo
ArtistUnicode:きくお
Creator:LostCool
Version:TeruTeruBozu -RAIN-
Source:
Tags:
BeatmapID:2141846
BeatmapSetID:1023920

[Difficulty]
HPDrainRate:8
CircleSize:4
OverallDifficulty:8
ApproachRate:5
SliderMultiplier:1.4
SliderTickRate:1

[Events]
//Background and Video events
0,0,"tsuguterubg.jpg",0,0
//Break Periods
2,123097,134667
//Storyboard Layer 0 (Background)
//Storyboard Layer 1 (Fail)
//Storyboard Layer 2 (Pass)
//Storyboard Layer 3 (Foreground)
//Storyboard Layer 4 (Overlay)
//Storyboard Sound Samples

[TimingPoints]
40465,361.44578313253,4,2,0,15,1,0

[HitObjects]
320,192,44802,5,0,0:0:0:0:
448,192,44802,1,0,0:0:0:0:
192,192,44983,1,0,0:0:0:0:
64,192,45163,1,0,0:0:0:0:
320,192,45344,1,0,0:0:0:0:
192,192,45525,1,0,0:0:0:0:
448,192,45525,1,0,0:0:0:0:
64,192,45705,1,0,0:0:0:0:
320,192,45886,1,0,0:0:0:0:
448,192,45886,1,0,0:0:0:0:
192,192,46067,1,0,0:0:0:0:
64,192,46248,1,0,0:0:0:0:
320,192,46428,1,0,0:0:0:0:
192,192,46609,1,0,0:0:0:0:
448,192,46790,1,0,0:0:0:0:
320,192,46971,1,0,0:0:0:0:
64,192,46971,1,0,0:0:0:0:
448,192,47151,1,0,0:0:0:0:
320,192,47332,1,0,0:0:0:0:
448,192,47513,1,0,0:0:0:0:
192,192,47693,1,0,0:0:0:0:
64,192,47693,1,0,0:0:0:0:
320,192,47874,1,0,0:0:0:0:
448,192,48055,1,0,0:0:0:0:
192,192,48236,1,0,0:0:0:0:
320,192,48416,1,0,0:0:0:0:
64,192,48416,1,0,0:0:0:0:
448,192,48597,1,0,0:0:0:0:
192,192,48778,1,0,0:0:0:0:
64,192,48778,1,0,0:0:0:0:
320,192,48958,1,0,0:0:0:0:
448,192,49139,1,0,0:0:0:0:
192,192,49320,1,0,0:0:0:0:
320,192,49501,1,0,0:0:0:0:
64,192,49681,1,0,0:0:0:0:
192,192,49862,1,0,0:0:0:0:
448,192,49862,1,0,0:0:0:0:
64,192,50043,1,0,0:0:0:0:
192,192,50224,1,0,0:0:0:0:
64,192,50404,1,0,0:0:0:0:
320,192,50585,1,0,0:0:0:0:
448,192,50585,1,0,0:0:0:0:
192,192,50766,1,0,0:0:0:0:
64,192,50946,1,0,0:0:0:0:
320,192,51127,1,0,0:0:0:0:
192,192,51308,1,0,0:0:0:0:
448,192,51308,1,0,0:0:0:0:
64,192,51489,1,0,0:0:0:0:
320,192,51669,1,0,0:0:0:0:
448,192,51669,1,0,0:0:0:0:
192,192,51850,1,0,0:0:0:0:
64,192,52031,1,0,0:0:0:0:
320,192,52211,1,0,0:0:0:0:
192,192,52392,1,0,0:0:0:0:
448,192,52573,1,0,0:0:0:0:
320,192,52754,1,0,0:0:0:0:
64,192,52754,1,0,0:0:0:0:
448,192,52934,1,0,0:0:0:0:
320,192,53115,1,0,0:0:0:0:
448,192,53296,1,0,0:0:0:0:
192,192,53477,1,0,0:0:0:0:
64,192,53477,1,0,0:0:0:0:
320,192,53657,1,0,0:0:0:0:
448,192,53838,1,0,0:0:0:0:
192,192,54019,1,0,0:0:0:0:
320,192,54199,1,0,0:0:0:0:
64,192,54199,1,0,0:0:0:0:
448,192,54380,1,0,0:0:0:0:
192,192,54561,1,0,0:0:0:0:
64,192,54561,1,0,0:0:0:0:
320,192,54742,1,0,0:0:0:0:
448,192,54922,1,0,0:0:0:0:
192,192,55103,1,0,0:0:0:0:
320,192,55284,1,0,0:0:0:0:
64,192,55465,1,0,0:0:0:0:
192,192,55645,1,0,0:0:0:0:
448,192,55645,1,0,0:0:0:0:
64,192,55826,1,0,0:0:0:0:
192,192,56007,1,0,0:0:0:0:
64,192,56007,1,0,0:0:0:0:
448,192,56052,1,0,0:0:0:0:
320,192,56052,1,0,0:0:0:0:
64,192,56187,1,0,0:0:0:0:
320,192,56368,128,0,56730:0:0:0:0:
192,192,56368,1,0,0:0:0:0:
448,192,56549,1,0,0:0:0:0:
64,192,56730,1,0,0:0:0:0:
192,192,56730,128,0,57046:0:0:0:0:
448,192,56910,1,0,0:0:0:0:
192,192,57091,1,0,0:0:0:0:
320,192,57091,128,0,57272:0:0:0:0:
64,192,57272,1,0,0:0:0:0:
320,192,57452,1,0,0:0:0:0:
448,192,57452,1,0,0:0:0:0:
192,192,57633,1,0,0:0:0:0:
448,192,57814,128,0,58175:0:0:0:0:
320,192,57814,1,0,0:0:0:0:
64,192,57995,1,0,0:0:0:0:
320,192,58175,128,0,58537:0:0:0:0:
192,192,58175,1,0,0:0:0:0:
64,192,58356,1,0,0:0:0:0:
192,192,58537,128,0,58898:0:0:0:0:
64,192,58537,1,0,0:0:0:0:
448,192,58718,1,0,0:0:0:0:
320,192,58898,128,0,59079:0:0:0:0:
64,192,58898,1,0,0:0:0:0:
448,192,59079,1,0,0:0:0:0:
192,192,59199,1,0,0:0:0:0:
320,192,59230,1,0,0:0:0:0:
448,192,59260,1,0,0:0:0:0:
64,192,59260,1,0,0:0:0:0:
192,192,59440,128,0,59621:0:0:0:0:
64,192,59621,128,0,59983:0:0:0:0:
320,192,59802,1,0,0:0:0:0:
192,192,59983,128,0,60344:0:0:0:0:
448,192,60163,1,0,0:0:0:0:
64,192,60344,1,0,0:0:0:0:
320,192,60344,1,0,0:0:0:0:
192,192,60525,1,0,0:0:0:0:
448,192,60660,1,0,0:0:0:0:
64,192,60705,1,0,0:0:0:0:
320,192,60705,128,0,60886:0:0:0:0:
192,192,60886,128,0,61067:0:0:0:0:
448,192,61067,1,0,0:0:0:0:
64,192,61067,128,0,61248:0:0:0:0:
320,192,61248,128,0,61428:0:0:0:0:
448,192,61428,1,0,0:0:0:0:
192,192,61428,128,0,61609:0:0:0:0:
320,192,61609,128,0,61790:0:0:0:0:
64,192,61790,1,0,0:0:0:0:
448,192,61790,128,0,61971:0:0:0:0:
192,192,61971,1,0,0:0:0:0:
192,192,62151,128,0,62513:0:0:0:0:
320,192,62151,1,0,0:0:0:0:
64,192,62332,1,0,0:0:0:0:
448,192,62513,1,0,0:0:0:0:
320,192,62513,128,0,62829:0:0:0:0:
64,192,62693,1,0,0:0:0:0:
320,192,62874,1,0,0:0:0:0:
192,192,62874,128,0,63055:0:0:0:0:
448,192,63055,1,0,0:0:0:0:
192,192,63236,1,0,0:0:0:0:
64,192,63236,1,0,0:0:0:0:
320,192,63416,1,0,0:0:0:0:
64,192,63597,128,0,63958:0:0:0:0:
192,192,63597,1,0,0:0:0:0:
448,192,63778,1,0,0:0:0:0:
192,192,63958,128,0,64320:0:0:0:0:
320,192,63958,1,0,0:0:0:0:
448,192,64139,1,0,0:0:0:0:
320,192,64320,128,0,64681:0:0:0:0:
448,192,64320,1,0,0:0:0:0:
64,192,64501,1,0,0:0:0:0:
192,192,64681,128,0,64862:0:0:0:0:
448,192,64681,1,0,0:0:0:0:
64,192,64862,1,0,0:0:0:0:
448,192,64907,1,0,0:0:0:0:
320,192,64952,1,0,0:0:0:0:
192,192,64998,1,0,0:0:0:0:
64,192,65043,1,0,0:0:0:0:
448,192,65043,1,0,0:0:0:0:
320,192,65224,128,0,65404:0:0:0:0:
448,192,65404,128,0,65766:0:0:0:0:
64,192,65585,1,0,0:0:0:0:
192,192,65675,1,0,0:0:0:0:
320,192,65766,128,0,66127:0:0:0:0:
192,192,65946,1,0,0:0:0:0:
64,192,66037,1,0,0:0:0:0:
448,192,66127,1,0,0:0:0:0:
192,192,66127,1,0,0:0:0:0:
320,192,66308,1,0,0:0:0:0:
64,192,66443,1,0,0:0:0:0:
448,192,66489,1,0,0:0:0:0:
192,192,66489,128,0,66669:0:0:0:0:
320,192,66669,128,0,66850:0:0:0:0:
64,192,66850,1,0,0:0:0:0:
448,192,66850,128,0,67031:0:0:0:0:
192,192,67031,128,0,67211:0:0:0:0:
64,192,67211,1,0,0:0:0:0:
320,192,67211,128,0,67392:0:0:0:0:
192,192,67392,128,0,67573:0:0:0:0:
448,192,67573,1,0,0:0:0:0:
64,192,67573,128,0,67754:0:0:0:0:
320,192,67573,1,0,0:0:0:0:
192,192,67754,1,0,0:0:0:0:
64,192,67934,1,0,0:0:0:0:
448,192,67934,128,0,68612:0:0:0:0:
320,192,68115,1,0,0:0:0:0:
192,192,68205,1,0,0:0:0:0:
320,192,68296,1,0,0:0:0:0:
64,192,68386,1,0,0:0:0:0:
320,192,68477,1,0,0:0:0:0:
192,192,68567,1,0,0:0:0:0:
448,192,68657,128,0,68702:0:0:0:0:
320,192,68657,1,0,0:0:0:0:
64,192,68748,1,0,0:0:0:0:
320,192,68838,1,0,0:0:0:0:
192,192,68928,1,0,0:0:0:0:
448,192,69019,128,0,70058:0:0:0:0:
320,192,69019,1,0,0:0:0:0:
320,192,69199,1,0,0:0:0:0:
64,192,69290,1,0,0:0:0:0:
320,192,69380,1,0,0:0:0:0:
320,192,69561,1,0,0:0:0:0:
192,192,69651,1,0,0:0:0:0:
320,192,69742,1,0,0:0:0:0:
320,192,69922,1,0,0:0:0:0:
64,192,70013,1,0,0:0:0:0:
448,192,70103,128,0,70148:0:0:0:0:
320,192,70103,1,0,0:0:0:0:
192,192,70284,1,0,0:0:0:0:
448,192,70374,1,0,0:0:0:0:
64,192,70465,1,0,0:0:0:0:
320,192,70555,1,0,0:0:0:0:
64,192,70645,1,0,0:0:0:0:
320,192,70736,1,0,0:0:0:0:
448,192,70826,1,0,0:0:0:0:
64,192,70826,128,0,71504:0:0:0:0:
192,192,71007,1,0,0:0:0:0:
320,192,71097,1,0,0:0:0:0:
192,192,71187,1,0,0:0:0:0:
448,192,71278,1,0,0:0:0:0:
192,192,71368,1,0,0:0:0:0:
320,192,71458,1,0,0:0:0:0:
64,192,71549,128,0,71594:0:0:0:0:
192,192,71549,1,0,0:0:0:0:
448,192,71639,1,0,0:0:0:0:
192,192,71730,1,0,0:0:0:0:
320,192,71820,1,0,0:0:0:0:
64,192,71910,128,0,72949:0:0:0:0:
192,192,71910,1,0,0:0:0:0:
192,192,72091,1,0,0:0:0:0:
448,192,72181,1,0,0:0:0:0:
192,192,72272,1,0,0:0:0:0:
192,192,72452,1,0,0:0:0:0:
320,192,72543,1,0,0:0:0:0:
192,192,72633,1,0,0:0:0:0:
192,192,72814,1,0,0:0:0:0:
448,192,72904,1,0,0:0:0:0:
64,192,72995,128,0,73040:0:0:0:0:
192,192,72995,1,0,0:0:0:0:
320,192,73175,1,0,0:0:0:0:
64,192,73266,1,0,0:0:0:0:
448,192,73356,1,0,0:0:0:0:
192,192,73446,1,0,0:0:0:0:
448,192,73537,1,0,0:0:0:0:
192,192,73627,1,0,0:0:0:0:
64,192,73718,128,0,74395:0:0:0:0:
320,192,73718,1,0,0:0:0:0:
448,192,73898,1,0,0:0:0:0:
320,192,73989,1,0,0:0:0:0:
192,192,74079,1,0,0:0:0:0:
320,192,74169,1,0,0:0:0:0:
448,192,74260,1,0,0:0:0:0:
320,192,74350,1,0,0:0:0:0:
64,192,74440,128,0,74486:0:0:0:0:
192,192,74440,1,0,0:0:0:0:
320,192,74531,1,0,0:0:0:0:
448,192,74621,1,0,0:0:0:0:
320,192,74711,1,0,0:0:0:0:
448,192,74802,128,0,75841:0:0:0:0:
192,192,74802,1,0,0:0:0:0:
64,192,74983,1,0,0:0:0:0:
192,192,75073,1,0,0:0:0:0:
320,192,75163,1,0,0:0:0:0:
192,192,75254,1,0,0:0:0:0:
64,192,75344,1,0,0:0:0:0:
192,192,75434,1,0,0:0:0:0:
320,192,75525,1,0,0:0:0:0:
192,192,75615,1,0,0:0:0:0:
64,192,75705,1,0,0:0:0:0:
192,192,75796,1,0,0:0:0:0:
448,192,75886,128,0,75931:0:0:0:0:
320,192,75886,1,0,0:0:0:0:
64,192,75977,1,0,0:0:0:0:
192,192,76067,1,0,0:0:0:0:
448,192,76157,1,0,0:0:0:0:
64,192,76248,1,0,0:0:0:0:
320,192,76338,1,0,0:0:0:0:
448,192,76428,1,0,0:0:0:0:
64,192,76474,1,0,0:0:0:0:
320,192,76519,1,0,0:0:0:0:
192,192,76564,1,0,0:0:0:0:
64,192,76609,1,0,0:0:0:0:
448,192,76609,1,0,0:0:0:0:
192,192,76790,1,0,0:0:0:0:
320,192,76880,1,0,0:0:0:0:
192,192,76971,1,0,0:0:0:0:
448,192,77061,1,0,0:0:0:0:
320,192,77106,1,0,0:0:0:0:
192,192,77151,1,0,0:0:0:0:
320,192,77242,1,0,0:0:0:0:
192,192,77332,1,0,0:0:0:0:
448,192,77332,1,0,0:0:0:0:
64,192,77377,1,0,0:0:0:0:
448,192,77422,1,0,0:0:0:0:
320,192,77468,1,0,0:0:0:0:
192,192,77513,1,0,0:0:0:0:
320,192,77603,1,0,0:0:0:0:
192,192,77693,1,0,0:0:0:0:
64,192,77693,1,0,0:0:0:0:
192,192,77874,1,0,0:0:0:0:
448,192,77965,1,0,0:0:0:0:
64,192,78010,1,0,0:0:0:0:
192,192,78055,1,0,0:0:0:0:
320,192,78145,1,0,0:0:0:0:
448,192,78190,1,0,0:0:0:0:
192,192,78236,1,0,0:0:0:0:
64,192,78281,1,0,0:0:0:0:
320,192,78326,1,0,0:0:0:0:
448,192,78371,1,0,0:0:0:0:
192,192,78416,1,0,0:0:0:0:
320,192,78461,1,0,0:0:0:0:
64,192,78507,1,0,0:0:0:0:
448,192,78552,1,0,0:0:0:0:
192,192,78597,1,0,0:0:0:0:
448,192,78687,1,0,0:0:0:0:
320,192,78687,1,0,0:0:0:0:
192,192,78778,1,0,0:0:0:0:
64,192,78778,1,0,0:0:0:0:
320,192,78868,1,0,0:0:0:0:
64,192,78958,1,0,0:0:0:0:
448,192,79049,1,0,0:0:0:0:
192,192,79139,1,0,0:0:0:0:
320,192,79184,1,0,0:0:0:0:
448,192,79230,1,0,0:0:0:0:
320,192,79320,1,0,0:0:0:0:
192,192,79410,1,0,0:0:0:0:
64,192,79501,1,0,0:0:0:0:
448,192,79501,1,0,0:0:0:0:
320,192,79681,1,0,0:0:0:0:
448,192,79727,1,0,0:0:0:0:
192,192,79772,1,0,0:0:0:0:
320,192,79862,1,0,0:0:0:0:
64,192,79952,1,0,0:0:0:0:
448,192,79998,1,0,0:0:0:0:
320,192,80043,1,0,0:0:0:0:
192,192,80133,1,0,0:0:0:0:
320,192,80224,1,0,0:0:0:0:
448,192,80224,1,0,0:0:0:0:
64,192,80314,1,0,0:0:0:0:
192,192,80359,1,0,0:0:0:0:
320,192,80404,1,0,0:0:0:0:
448,192,80449,1,0,0:0:0:0:
192,192,80495,1,0,0:0:0:0:
64,192,80540,1,0,0:0:0:0:
320,192,80585,1,0,0:0:0:0:
448,192,80585,1,0,0:0:0:0:
320,192,80766,1,0,0:0:0:0:
64,192,80856,1,0,0:0:0:0:
320,192,80946,1,0,0:0:0:0:
192,192,80992,1,0,0:0:0:0:
64,192,81037,1,0,0:0:0:0:
320,192,81127,1,0,0:0:0:0:
448,192,81172,1,0,0:0:0:0:
192,192,81218,1,0,0:0:0:0:
320,192,81308,1,0,0:0:0:0:
192,192,81353,1,0,0:0:0:0:
64,192,81398,1,0,0:0:0:0:
320,192,81489,1,0,0:0:0:0:
448,192,81579,1,0,0:0:0:0:
64,192,81669,1,0,0:0:0:0:
192,192,81669,1,0,0:0:0:0:
320,192,81715,1,0,0:0:0:0:
448,192,81760,1,0,0:0:0:0:
320,192,81805,1,0,0:0:0:0:
192,192,81850,1,0,0:0:0:0:
448,192,81940,1,0,0:0:0:0:
64,192,82031,1,0,0:0:0:0:
192,192,82076,1,0,0:0:0:0:
320,192,82121,1,0,0:0:0:0:
192,192,82211,1,0,0:0:0:0:
320,192,82302,1,0,0:0:0:0:
448,192,82392,1,0,0:0:0:0:
64,192,82392,1,0,0:0:0:0:
320,192,82573,1,0,0:0:0:0:
192,192,82663,1,0,0:0:0:0:
320,192,82754,1,0,0:0:0:0:
64,192,82844,1,0,0:0:0:0:
192,192,82889,1,0,0:0:0:0:
320,192,82934,1,0,0:0:0:0:
192,192,83025,1,0,0:0:0:0:
320,192,83115,1,0,0:0:0:0:
64,192,83115,1,0,0:0:0:0:
448,192,83160,1,0,0:0:0:0:
64,192,83205,1,0,0:0:0:0:
192,192,83251,1,0,0:0:0:0:
320,192,83296,1,0,0:0:0:0:
192,192,83386,1,0,0:0:0:0:
320,192,83477,1,0,0:0:0:0:
448,192,83477,1,0,0:0:0:0:
320,192,83657,1,0,0:0:0:0:
64,192,83748,1,0,0:0:0:0:
448,192,83793,1,0,0:0:0:0:
320,192,83838,1,0,0:0:0:0:
192,192,83928,1,0,0:0:0:0:
64,192,83974,1,0,0:0:0:0:
320,192,84019,1,0,0:0:0:0:
448,192,84064,1,0,0:0:0:0:
192,192,84109,1,0,0:0:0:0:
64,192,84154,1,0,0:0:0:0:
320,192,84199,1,0,0:0:0:0:
192,192,84245,1,0,0:0:0:0:
448,192,84290,1,0,0:0:0:0:
64,192,84335,1,0,0:0:0:0:
320,192,84380,1,0,0:0:0:0:
64,192,84471,1,0,0:0:0:0:
192,192,84471,1,0,0:0:0:0:
320,192,84561,1,0,0:0:0:0:
448,192,84561,1,0,0:0:0:0:
192,192,84651,1,0,0:0:0:0:
448,192,84742,1,0,0:0:0:0:
64,192,84832,1,0,0:0:0:0:
320,192,84922,1,0,0:0:0:0:
192,192,84968,1,0,0:0:0:0:
64,192,85013,1,0,0:0:0:0:
192,192,85103,1,0,0:0:0:0:
320,192,85193,1,0,0:0:0:0:
448,192,85284,1,0,0:0:0:0:
64,192,85284,1,0,0:0:0:0:
192,192,85464,1,0,0:0:0:0:
64,192,85510,1,0,0:0:0:0:
320,192,85555,1,0,0:0:0:0:
192,192,85645,1,0,0:0:0:0:
448,192,85736,1,0,0:0:0:0:
64,192,85781,1,0,0:0:0:0:
192,192,85826,1,0,0:0:0:0:
320,192,85916,1,0,0:0:0:0:
192,192,86007,1,0,0:0:0:0:
64,192,86007,1,0,0:0:0:0:
448,192,86097,1,0,0:0:0:0:
320,192,86142,1,0,0:0:0:0:
192,192,86187,1,0,0:0:0:0:
64,192,86233,1,0,0:0:0:0:
320,192,86278,1,0,0:0:0:0:
448,192,86323,1,0,0:0:0:0:
192,192,86368,1,0,0:0:0:0:
64,192,86368,1,0,0:0:0:0:
192,192,86549,1,0,0:0:0:0:
320,192,86594,1,0,0:0:0:0:
448,192,86639,1,0,0:0:0:0:
64,192,86730,1,0,0:0:0:0:
320,192,86775,1,0,0:0:0:0:
448,192,86820,1,0,0:0:0:0:
192,192,86910,1,0,0:0:0:0:
64,192,86955,1,0,0:0:0:0:
320,192,87001,1,0,0:0:0:0:
192,192,87091,1,0,0:0:0:0:
448,192,87136,1,0,0:0:0:0:
320,192,87181,1,0,0:0:0:0:
192,192,87272,1,0,0:0:0:0:
448,192,87317,1,0,0:0:0:0:
64,192,87362,1,0,0:0:0:0:
192,192,87407,1,0,0:0:0:0:
448,192,87452,1,0,0:0:0:0:
320,192,87452,1,0,0:0:0:0:
64,192,87498,1,0,0:0:0:0:
192,192,87543,1,0,0:0:0:0:
320,192,87588,1,0,0:0:0:0:
448,192,87633,1,0,0:0:0:0:
320,192,87678,1,0,0:0:0:0:
64,192,87724,1,0,0:0:0:0:
448,192,87814,1,0,0:0:0:0:
320,192,87859,1,0,0:0:0:0:
192,192,87904,1,0,0:0:0:0:
64,192,87949,1,0,0:0:0:0:
320,192,87995,1,0,0:0:0:0:
448,192,88040,1,0,0:0:0:0:
64,192,88085,1,0,0:0:0:0:
192,192,88130,1,0,0:0:0:0:
320,192,88175,1,0,0:0:0:0:
448,192,88175,1,0,0:0:0:0:
64,192,88356,1,0,0:0:0:0:
192,192,88401,1,0,0:0:0:0:
320,192,88446,1,0,0:0:0:0:
64,192,88492,1,0,0:0:0:0:
192,192,88537,1,0,0:0:0:0:
448,192,88582,1,0,0:0:0:0:
64,192,88627,1,0,0:0:0:0:
320,192,88672,1,0,0:0:0:0:
448,192,88718,1,0,0:0:0:0:
192,192,88763,1,0,0:0:0:0:
64,192,88808,1,0,0:0:0:0:
448,192,88853,1,0,0:0:0:0:
320,192,88898,1,0,0:0:0:0:
192,192,88943,1,0,0:0:0:0:
64,192,88989,1,0,0:0:0:0:
448,192,89034,1,0,0:0:0:0:
320,192,89079,1,0,0:0:0:0:
64,192,89124,1,0,0:0:0:0:
448,192,89169,1,0,0:0:0:0:
320,192,89215,1,0,0:0:0:0:
192,192,89260,1,0,0:0:0:0:
64,192,89260,1,0,0:0:0:0:
448,192,89440,1,0,0:0:0:0:
320,192,89486,1,0,0:0:0:0:
192,192,89531,1,0,0:0:0:0:
448,192,89576,1,0,0:0:0:0:
320,192,89621,1,0,0:0:0:0:
64,192,89666,1,0,0:0:0:0:
448,192,89711,1,0,0:0:0:0:
192,192,89757,1,0,0:0:0:0:
64,192,89802,1,0,0:0:0:0:
320,192,89847,1,0,0:0:0:0:
448,192,89892,1,0,0:0:0:0:
64,192,89937,1,0,0:0:0:0:
192,192,89983,1,0,0:0:0:0:
320,192,90028,1,0,0:0:0:0:
448,192,90073,1,0,0:0:0:0:
64,192,90118,1,0,0:0:0:0:
192,192,90163,1,0,0:0:0:0:
448,192,90208,1,0,0:0:0:0:
64,192,90254,1,0,0:0:0:0:
192,192,90299,1,0,0:0:0:0:
320,192,90344,1,0,0:0:0:0:
448,192,90344,1,0,0:0:0:0:
64,192,90389,1,0,0:0:0:0:
192,192,90434,1,0,0:0:0:0:
320,192,90480,1,0,0:0:0:0:
448,192,90525,1,0,0:0:0:0:
192,192,90615,1,0,0:0:0:0:
320,192,90705,1,0,0:0:0:0:
64,192,90796,1,0,0:0:0:0:
448,192,90796,1,0,0:0:0:0:
192,192,90886,1,0,0:0:0:0:
320,192,90977,1,0,0:0:0:0:
64,192,91067,1,0,0:0:0:0:
448,192,91067,1,0,0:0:0:0:
64,192,91248,1,0,0:0:0:0:
192,192,91293,1,0,0:0:0:0:
320,192,91338,1,0,0:0:0:0:
448,192,91383,1,0,0:0:0:0:
64,192,91428,1,0,0:0:0:0:
192,192,91474,1,0,0:0:0:0:
448,192,91519,1,0,0:0:0:0:
320,192,91564,1,0,0:0:0:0:
64,192,91609,1,0,0:0:0:0:
192,192,91654,1,0,0:0:0:0:
320,192,91699,1,0,0:0:0:0:
448,192,91745,1,0,0:0:0:0:
64,192,91790,1,0,0:0:0:0:
320,192,91835,1,0,0:0:0:0:
192,192,91880,1,0,0:0:0:0:
448,192,91925,1,0,0:0:0:0:
64,192,91971,1,0,0:0:0:0:
448,192,92016,1,0,0:0:0:0:
192,192,92061,1,0,0:0:0:0:
320,192,92106,1,0,0:0:0:0:
64,192,92151,1,0,0:0:0:0:
320,192,92332,1,0,0:0:0:0:
448,192,92377,1,0,0:0:0:0:
64,192,92422,1,0,0:0:0:0:
192,192,92468,1,0,0:0:0:0:
320,192,92513,1,0,0:0:0:0:
448,192,92558,1,0,0:0:0:0:
192,192,92603,1,0,0:0:0:0:
64,192,92648,1,0,0:0:0:0:
320,192,92693,1,0,0:0:0:0:
448,192,92739,1,0,0:0:0:0:
64,192,92784,1,0,0:0:0:0:
192,192,92829,1,0,0:0:0:0:
320,192,92874,1,0,0:0:0:0:
448,192,92919,1,0,0:0:0:0:
192,192,92964,1,0,0:0:0:0:
64,192,93010,1,0,0:0:0:0:
320,192,93055,1,0,0:0:0:0:
448,192,93100,1,0,0:0:0:0:
64,192,93145,1,0,0:0:0:0:
448,192,93190,1,0,0:0:0:0:
320,192,93236,1,0,0:0:0:0:
192,192,93326,1,0,0:0:0:0:
448,192,93416,1,0,0:0:0:0:
320,192,93507,1,0,0:0:0:0:
192,192,93597,1,0,0:0:0:0:
64,192,93687,1,0,0:0:0:0:
192,192,93733,1,0,0:0:0:0:
320,192,93778,1,0,0:0:0:0:
448,192,93823,1,0,0:0:0:0:
320,192,93868,1,0,0:0:0:0:
192,192,93913,1,0,0:0:0:0:
448,192,93958,1,0,0:0:0:0:
64,192,93958,1,0,0:0:0:0:
448,192,94139,1,0,0:0:0:0:
192,192,94184,1,0,0:0:0:0:
64,192,94230,1,0,0:0:0:0:
320,192,94275,1,0,0:0:0:0:
448,192,94320,1,0,0:0:0:0:
192,192,94365,1,0,0:0:0:0:
320,192,94410,1,0,0:0:0:0:
64,192,94455,1,0,0:0:0:0:
448,192,94501,1,0,0:0:0:0:
320,192,94546,1,0,0:0:0:0:
192,192,94591,1,0,0:0:0:0:
64,192,94636,1,0,0:0:0:0:
448,192,94681,1,0,0:0:0:0:
192,192,94727,1,0,0:0:0:0:
320,192,94772,1,0,0:0:0:0:
64,192,94817,1,0,0:0:0:0:
448,192,94862,1,0,0:0:0:0:
192,192,94907,1,0,0:0:0:0:
320,192,94952,1,0,0:0:0:0:
448,192,94998,1,0,0:0:0:0:
192,192,95043,1,0,0:0:0:0:
192,192,95224,1,0,0:0:0:0:
320,192,95269,1,0,0:0:0:0:
64,192,95314,1,0,0:0:0:0:
448,192,95359,1,0,0:0:0:0:
192,192,95404,1,0,0:0:0:0:
320,192,95449,1,0,0:0:0:0:
448,192,95495,1,0,0:0:0:0:
64,192,95540,1,0,0:0:0:0:
192,192,95585,1,0,0:0:0:0:
320,192,95630,1,0,0:0:0:0:
64,192,95675,1,0,0:0:0:0:
448,192,95721,1,0,0:0:0:0:
192,192,95766,1,0,0:0:0:0:
320,192,95811,1,0,0:0:0:0:
64,192,95856,1,0,0:0:0:0:
192,192,95901,1,0,0:0:0:0:
448,192,95946,1,0,0:0:0:0:
320,192,95992,1,0,0:0:0:0:
192,192,96037,1,0,0:0:0:0:
448,192,96082,1,0,0:0:0:0:
64,192,96127,1,0,0:0:0:0:
192,192,96218,1,0,0:0:0:0:
64,192,96308,1,0,0:0:0:0:
320,192,96398,1,0,0:0:0:0:
64,192,96489,1,0,0:0:0:0:
448,192,96579,1,0,0:0:0:0:
64,192,96669,1,0,0:0:0:0:
448,192,96850,1,0,0:0:0:0:
64,192,96850,1,0,0:0:0:0:
320,192,96850,1,0,0:0:0:0:
64,192,97031,1,0,0:0:0:0:
192,192,97076,1,0,0:0:0:0:
320,192,97121,1,0,0:0:0:0:
448,192,97166,1,0,0:0:0:0:
64,192,97211,1,0,0:0:0:0:
320,192,97257,1,0,0:0:0:0:
192,192,97302,1,0,0:0:0:0:
448,192,97347,1,0,0:0:0:0:
64,192,97392,1,0,0:0:0:0:
448,192,97437,1,0,0:0:0:0:
192,192,97483,1,0,0:0:0:0:
320,192,97528,1,0,0:0:0:0:
64,192,97573,1,0,0:0:0:0:
448,192,97618,1,0,0:0:0:0:
320,192,97663,1,0,0:0:0:0:
192,192,97708,1,0,0:0:0:0:
64,192,97754,1,0,0:0:0:0:
320,192,97799,1,0,0:0:0:0:
192,192,97844,1,0,0:0:0:0:
64,192,97889,1,0,0:0:0:0:
448,192,97934,1,0,0:0:0:0:
320,192,97934,1,0,0:0:0:0:
448,192,98115,1,0,0:0:0:0:
320,192,98160,1,0,0:0:0:0:
192,192,98205,1,0,0:0:0:0:
64,192,98251,1,0,0:0:0:0:
448,192,98296,1,0,0:0:0:0:
320,192,98341,1,0,0:0:0:0:
64,192,98386,1,0,0:0:0:0:
192,192,98431,1,0,0:0:0:0:
448,192,98477,1,0,0:0:0:0:
192,192,98522,1,0,0:0:0:0:
64,192,98567,1,0,0:0:0:0:
320,192,98612,1,0,0:0:0:0:
448,192,98657,1,0,0:0:0:0:
64,192,98702,1,0,0:0:0:0:
192,192,98748,1,0,0:0:0:0:
320,192,98793,1,0,0:0:0:0:
448,192,98838,1,0,0:0:0:0:
192,192,98928,1,0,0:0:0:0:
448,192,99019,1,0,0:0:0:0:
64,192,99019,1,0,0:0:0:0:
64,192,99199,1,0,0:0:0:0:
448,192,99380,1,0,0:0:0:0:
64,192,99561,1,0,0:0:0:0:
448,192,99606,1,0,0:0:0:0:
320,192,99651,1,0,0:0:0:0:
192,192,99696,1,0,0:0:0:0:
448,192,99742,1,0,0:0:0:0:
64,192,99742,1,0,0:0:0:0:
448,192,99922,1,0,0:0:0:0:
64,192,99922,128,0,100645:0:0:0:0:
448,192,100103,1,0,0:0:0:0:
448,192,100284,1,0,0:0:0:0:
448,192,100464,1,0,0:0:0:0:
448,192,100645,1,0,0:0:0:0:
64,192,100826,1,0,0:0:0:0:
448,192,100826,128,0,101910:0:0:0:0:
64,192,101007,1,0,0:0:0:0:
64,192,101187,1,0,0:0:0:0:
64,192,101368,1,0,0:0:0:0:
64,192,101549,1,0,0:0:0:0:
64,192,101730,1,0,0:0:0:0:
64,192,101820,1,0,0:0:0:0:
64,192,101910,1,0,0:0:0:0:
64,192,102091,1,0,0:0:0:0:
192,192,102272,1,0,0:0:0:0:
320,192,102272,1,0,0:0:0:0:
448,192,102272,1,0,0:0:0:0:
64,192,102452,1,0,0:0:0:0:
64,192,102633,1,0,0:0:0:0:
320,192,102633,1,0,0:0:0:0:
448,192,102633,1,0,0:0:0:0:
192,192,102633,128,0,103718:0:0:0:0:
448,192,102814,1,0,0:0:0:0:
448,192,102995,128,0,103040:0:0:0:0:
448,192,103175,1,0,0:0:0:0:
448,192,103356,1,0,0:0:0:0:
448,192,103537,1,0,0:0:0:0:
64,192,103718,1,0,0:0:0:0:
448,192,103718,1,0,0:0:0:0:
320,192,103718,128,0,104621:0:0:0:0:
64,192,103898,1,0,0:0:0:0:
64,192,104079,1,0,0:0:0:0:
64,192,104260,1,0,0:0:0:0:
64,192,104440,1,0,0:0:0:0:
64,192,104621,128,0,104666:0:0:0:0:
64,192,104802,1,0,0:0:0:0:
192,192,104802,1,0,0:0:0:0:
320,192,104802,1,0,0:0:0:0:
448,192,104802,1,0,0:0:0:0:
320,192,104983,1,0,0:0:0:0:
320,192,105163,1,0,0:0:0:0:
320,192,105480,1,0,0:0:0:0:
192,192,105525,1,0,0:0:0:0:
64,192,105525,1,0,0:0:0:0:
448,192,105525,128,0,106428:0:0:0:0:
64,192,105705,1,0,0:0:0:0:
64,192,105886,1,0,0:0:0:0:
64,192,106067,1,0,0:0:0:0:
64,192,106248,1,0,0:0:0:0:
64,192,106428,1,0,0:0:0:0:
448,192,106609,1,0,0:0:0:0:
64,192,106609,128,0,107693:0:0:0:0:
448,192,106790,1,0,0:0:0:0:
448,192,106971,1,0,0:0:0:0:
448,192,107151,1,0,0:0:0:0:
448,192,107332,128,0,107377:0:0:0:0:
320,192,107513,128,0,107558:0:0:0:0:
192,192,107693,128,0,107739:0:0:0:0:
192,192,107874,1,0,0:0:0:0:
192,192,108055,1,0,0:0:0:0:
192,192,108236,128,0,108281:0:0:0:0:
64,192,108416,1,0,0:0:0:0:
64,192,108597,1,0,0:0:0:0:
64,192,108778,128,0,108823:0:0:0:0:
64,192,108958,1,0,0:0:0:0:
192,192,109139,1,0,0:0:0:0:
192,192,109320,1,0,0:0:0:0:
192,192,109501,1,0,0:0:0:0:
64,192,109501,1,0,0:0:0:0:
192,192,109681,1,0,0:0:0:0:
192,192,109862,1,0,0:0:0:0:
192,192,110043,1,0,0:0:0:0:
192,192,110224,1,0,0:0:0:0:
192,192,110404,1,0,0:0:0:0:
64,192,110585,1,0,0:0:0:0:
192,192,110585,1,0,0:0:0:0:
320,192,110585,1,0,0:0:0:0:
448,192,110585,1,0,0:0:0:0:
320,192,110766,1,0,0:0:0:0:
448,192,110946,1,0,0:0:0:0:
448,192,111127,128,0,111172:0:0:0:0:
320,192,111172,128,0,111218:0:0:0:0:
192,192,111218,128,0,111263:0:0:0:0:
192,192,111489,128,0,112392:0:0:0:0:
64,192,112573,128,0,114222:0:0:0:0:
320,192,114222,1,0,0:0:0:0:
64,192,114922,1,0,0:0:0:0:
192,192,114945,1,0,0:0:0:0:
320,192,115645,1,0,0:0:0:0:
448,192,116368,1,0,0:0:0:0:
320,192,116391,1,0,0:0:0:0:
448,192,117091,1,0,0:0:0:0:
320,192,117114,1,0,0:0:0:0:
320,192,118537,1,0,0:0:0:0:
192,192,118559,1,0,0:0:0:0:
64,192,119983,1,0,0:0:0:0:
192,192,120005,1,0,0:0:0:0:
64,192,121428,1,0,0:0:0:0:
320,192,122874,1,0,0:0:0:0:
448,192,122897,1,0,0:0:0:0:
64,192,135886,5,0,0:0:0:0:
192,192,136067,1,0,0:0:0:0:
64,192,136248,1,0,0:0:0:0:
320,192,136428,1,0,0:0:0:0:
192,192,136609,1,0,0:0:0:0:
64,192,136790,1,0,0:0:0:0:
192,192,136971,1,0,0:0:0:0:
320,192,137151,1,0,0:0:0:0:
448,192,137332,1,0,0:0:0:0:
320,192,137513,1,0,0:0:0:0:
448,192,137693,1,0,0:0:0:0:
192,192,137874,1,0,0:0:0:0:
320,192,138055,1,0,0:0:0:0:
448,192,138236,1,0,0:0:0:0:
320,192,138416,1,0,0:0:0:0:
192,192,138597,1,0,0:0:0:0:
64,192,138778,1,0,0:0:0:0:
192,192,138958,1,0,0:0:0:0:
64,192,139139,1,0,0:0:0:0:
320,192,139320,1,0,0:0:0:0:
192,192,139501,1,0,0:0:0:0:
64,192,139681,1,0,0:0:0:0:
192,192,139862,1,0,0:0:0:0:
320,192,140043,1,0,0:0:0:0:
448,192,140224,1,0,0:0:0:0:
320,192,140404,1,0,0:0:0:0:
448,192,140585,1,0,0:0:0:0:
192,192,140766,1,0,0:0:0:0:
320,192,140946,1,0,0:0:0:0:
448,192,141127,1,0,0:0:0:0:
320,192,141308,1,0,0:0:0:0:
192,192,141489,1,0,0:0:0:0:
64,192,141669,1,0,0:0:0:0:
448,192,141669,1,0,0:0:0:0:
448,192,141850,1,0,0:0:0:0:
320,192,142031,1,0,0:0:0:0:
320,192,142211,1,0,0:0:0:0:
192,192,142392,1,0,0:0:0:0:
192,192,142573,1,0,0:0:0:0:
64,192,142754,1,0,0:0:0:0:
64,192,142934,1,0,0:0:0:0:
448,192,143115,1,0,0:0:0:0:
320,192,143296,1,0,0:0:0:0:
192,192,143477,1,0,0:0:0:0:
64,192,143657,1,0,0:0:0:0:
320,192,143838,1,0,0:0:0:0:
192,192,144019,1,0,0:0:0:0:
64,192,144199,1,0,0:0:0:0:
192,192,144380,1,0,0:0:0:0:
448,192,144561,1,0,0:0:0:0:
192,192,144742,1,0,0:0:0:0:
320,192,144922,1,0,0:0:0:0:
448,192,145103,1,0,0:0:0:0:
192,192,145193,1,0,0:0:0:0:
320,192,145284,1,0,0:0:0:0:
64,192,145374,1,0,0:0:0:0:
192,192,145464,1,0,0:0:0:0:
448,192,145555,1,0,0:0:0:0:
192,192,145645,1,0,0:0:0:0:
320,192,145736,1,0,0:0:0:0:
64,192,145826,1,0,0:0:0:0:
192,192,145916,1,0,0:0:0:0:
448,192,146007,1,0,0:0:0:0:
192,192,146097,1,0,0:0:0:0:
320,192,146187,1,0,0:0:0:0:
64,192,146278,1,0,0:0:0:0:
192,192,146368,1,0,0:0:0:0:
448,192,146458,1,0,0:0:0:0:
192,192,146549,1,0,0:0:0:0:
320,192,146639,1,0,0:0:0:0:
64,192,146730,1,0,0:0:0:0:
192,192,146820,1,0,0:0:0:0:
448,192,146910,1,0,0:0:0:0:
192,192,147001,1,0,0:0:0:0:
320,192,147091,1,0,0:0:0:0:
64,192,147181,1,0,0:0:0:0:
192,192,147272,1,0,0:0:0:0:
448,192,147362,1,0,0:0:0:0:
64,192,147452,1,0,0:0:0:0:
320,192,147543,1,0,0:0:0:0:
192,192,147633,1,0,0:0:0:0:
448,192,147724,1,0,0:0:0:0:
320,192,147814,1,0,0:0:0:0:
64,192,147904,1,0,0:0:0:0:
320,192,147995,1,0,0:0:0:0:
192,192,148085,1,0,0:0:0:0:
448,192,148175,1,0,0:0:0:0:
320,192,148266,1,0,0:0:0:0:
64,192,148356,1,0,0:0:0:0:
320,192,148446,1,0,0:0:0:0:
192,192,148537,1,0,0:0:0:0:
448,192,148627,1,0,0:0:0:0:
320,192,148718,1,0,0:0:0:0:
64,192,148808,1,0,0:0:0:0:
192,192,148898,1,0,0:0:0:0:
448,192,148989,1,0,0:0:0:0:
320,192,149079,1,0,0:0:0:0:
64,192,149169,1,0,0:0:0:0:
192,192,149260,1,0,0:0:0:0:
448,192,149350,1,0,0:0:0:0:
320,192,149440,1,0,0:0:0:0:
64,192,149531,1,0,0:0:0:0:
192,192,149621,1,0,0:0:0:0:
448,192,149711,1,0,0:0:0:0:
320,192,149802,1,0,0:0:0:0:
64,192,149892,1,0,0:0:0:0:
192,192,149983,1,0,0:0:0:0:
448,192,150073,1,0,0:0:0:0:
320,192,150163,1,0,0:0:0:0:
64,192,150254,1,0,0:0:0:0:
192,192,150344,1,0,0:0:0:0:
448,192,150434,1,0,0:0:0:0:
320,192,150525,1,0,0:0:0:0:
64,192,150615,1,0,0:0:0:0:
192,192,150705,1,0,0:0:0:0:
448,192,150796,1,0,0:0:0:0:
320,192,150886,1,0,0:0:0:0:
64,192,150977,1,0,0:0:0:0:
320,192,151067,1,0,0:0:0:0:
192,192,151157,1,0,0:0:0:0:
448,192,151248,1,0,0:0:0:0:
320,192,153236,5,0,0:0:0:0:
448,192,153236,1,0,0:0:0:0:
192,192,153416,1,0,0:0:0:0:
64,192,153597,1,0,0:0:0:0:
320,192,153778,1,0,0:0:0:0:
192,192,153958,1,0,0:0:0:0:
448,192,153958,1,0,0:0:0:0:
64,192,154139,1,0,0:0:0:0:
320,192,154320,1,0,0:0:0:0:
192,192,154501,1,0,0:0:0:0:
448,192,154681,1,0,0:0:0:0:
64,192,154681,1,0,0:0:0:0:
320,192,154862,1,0,0:0:0:0:
192,192,155043,1,0,0:0:0:0:
448,192,155224,1,0,0:0:0:0:
320,192,155404,1,0,0:0:0:0:
64,192,155404,1,0,0:0:0:0:
448,192,155585,1,0,0:0:0:0:
320,192,155766,1,0,0:0:0:0:
448,192,155946,1,0,0:0:0:0:
320,192,156067,1,0,0:0:0:0:
64,192,156127,1,0,0:0:0:0:
192,192,156127,1,0,0:0:0:0:
320,192,156308,1,0,0:0:0:0:
448,192,156489,1,0,0:0:0:0:
192,192,156669,1,0,0:0:0:0:
64,192,156850,1,0,0:0:0:0:
320,192,156850,1,0,0:0:0:0:
448,192,157031,1,0,0:0:0:0:
64,192,157211,1,0,0:0:0:0:
192,192,157392,1,0,0:0:0:0:
64,192,157573,1,0,0:0:0:0:
320,192,157573,1,0,0:0:0:0:
448,192,157754,1,0,0:0:0:0:
192,192,157934,1,0,0:0:0:0:
320,192,158115,1,0,0:0:0:0:
64,192,158296,1,0,0:0:0:0:
448,192,158296,1,0,0:0:0:0:
192,192,158477,1,0,0:0:0:0:
320,192,158612,1,0,0:0:0:0:
192,192,158657,1,0,0:0:0:0:
320,192,158838,1,0,0:0:0:0:
320,192,159019,5,0,0:0:0:0:
448,192,159019,1,0,0:0:0:0:
192,192,159199,1,0,0:0:0:0:
64,192,159380,1,0,0:0:0:0:
448,192,159380,1,0,0:0:0:0:
320,192,159561,1,0,0:0:0:0:
192,192,159742,1,0,0:0:0:0:
448,192,159742,1,0,0:0:0:0:
64,192,159922,1,0,0:0:0:0:
320,192,160103,1,0,0:0:0:0:
448,192,160103,1,0,0:0:0:0:
192,192,160284,1,0,0:0:0:0:
320,192,160464,1,0,0:0:0:0:
64,192,160464,1,0,0:0:0:0:
320,192,160645,1,0,0:0:0:0:
192,192,160826,1,0,0:0:0:0:
320,192,160826,1,0,0:0:0:0:
448,192,161007,1,0,0:0:0:0:
192,192,161187,1,0,0:0:0:0:
64,192,161187,1,0,0:0:0:0:
448,192,161368,1,0,0:0:0:0:
192,192,161549,1,0,0:0:0:0:
320,192,161549,1,0,0:0:0:0:
448,192,161730,1,0,0:0:0:0:
320,192,161850,1,0,0:0:0:0:
64,192,161910,1,0,0:0:0:0:
192,192,161910,1,0,0:0:0:0:
320,192,162091,1,0,0:0:0:0:
448,192,162272,1,0,0:0:0:0:
64,192,162272,1,0,0:0:0:0:
192,192,162452,1,0,0:0:0:0:
64,192,162633,1,0,0:0:0:0:
320,192,162633,1,0,0:0:0:0:
448,192,162814,1,0,0:0:0:0:
64,192,162995,1,0,0:0:0:0:
192,192,162995,1,0,0:0:0:0:
320,192,163175,1,0,0:0:0:0:
192,192,163296,1,0,0:0:0:0:
64,192,163356,1,0,0:0:0:0:
448,192,163356,1,0,0:0:0:0:
448,192,163537,1,0,0:0:0:0:
192,192,163718,1,0,0:0:0:0:
64,192,163718,1,0,0:0:0:0:
320,192,163898,1,0,0:0:0:0:
64,192,164079,1,0,0:0:0:0:
448,192,164079,1,0,0:0:0:0:
192,192,164260,1,0,0:0:0:0:
320,192,164395,1,0,0:0:0:0:
192,192,164440,1,0,0:0:0:0:
320,192,164621,1,0,0:0:0:0:
320,192,164802,1,0,0:0:0:0:
192,192,164802,128,0,165118:0:0:0:0:
448,192,164983,1,0,0:0:0:0:
192,192,165163,1,0,0:0:0:0:
448,192,165163,128,0,165480:0:0:0:0:
192,192,165344,1,0,0:0:0:0:
448,192,165525,1,0,0:0:0:0:
320,192,165525,128,0,165841:0:0:0:0:
64,192,165705,1,0,0:0:0:0:
320,192,165886,1,0,0:0:0:0:
64,192,165886,128,0,166202:0:0:0:0:
320,192,166067,1,0,0:0:0:0:
192,192,166248,128,0,166564:0:0:0:0:
64,192,166248,1,0,0:0:0:0:
448,192,166428,1,0,0:0:0:0:
192,192,166609,1,0,0:0:0:0:
448,192,166609,128,0,166925:0:0:0:0:
192,192,166790,1,0,0:0:0:0:
448,192,166971,1,0,0:0:0:0:
320,192,166971,128,0,167287:0:0:0:0:
64,192,167151,1,0,0:0:0:0:
320,192,167332,1,0,0:0:0:0:
64,192,167332,128,0,167648:0:0:0:0:
448,192,167513,1,0,0:0:0:0:
320,192,167648,1,0,0:0:0:0:
192,192,167693,128,0,167874:0:0:0:0:
64,192,167693,1,0,0:0:0:0:
448,192,167874,128,0,168055:0:0:0:0:
320,192,167874,1,0,0:0:0:0:
320,192,168055,128,0,168236:0:0:0:0:
64,192,168055,1,0,0:0:0:0:
64,192,168236,128,0,168416:0:0:0:0:
192,192,168236,1,0,0:0:0:0:
320,192,168326,1,0,0:0:0:0:
192,192,168416,128,0,168597:0:0:0:0:
448,192,168416,1,0,0:0:0:0:
448,192,168597,128,0,168778:0:0:0:0:
320,192,168597,1,0,0:0:0:0:
320,192,168778,128,0,168958:0:0:0:0:
64,192,168778,1,0,0:0:0:0:
64,192,168958,128,0,169139:0:0:0:0:
192,192,168958,1,0,0:0:0:0:
320,192,169094,1,0,0:0:0:0:
192,192,169139,128,0,169320:0:0:0:0:
448,192,169139,1,0,0:0:0:0:
448,192,169320,128,0,169501:0:0:0:0:
320,192,169320,1,0,0:0:0:0:
64,192,169501,128,0,169681:0:0:0:0:
192,192,169501,1,0,0:0:0:0:
320,192,169681,128,0,169862:0:0:0:0:
448,192,169681,1,0,0:0:0:0:
192,192,169862,128,0,170043:0:0:0:0:
64,192,169862,1,0,0:0:0:0:
448,192,170043,128,0,170224:0:0:0:0:
320,192,170043,1,0,0:0:0:0:
64,192,170224,128,0,170404:0:0:0:0:
192,192,170224,1,0,0:0:0:0:
320,192,170404,128,0,170585:0:0:0:0:
448,192,170404,1,0,0:0:0:0:
192,192,170585,128,0,170766:0:0:0:0:
64,192,170585,1,0,0:0:0:0:
448,192,170675,1,0,0:0:0:0:
64,192,170766,128,0,170946:0:0:0:0:
320,192,170766,1,0,0:0:0:0:
192,192,170856,1,0,0:0:0:0:
320,192,170946,128,0,171127:0:0:0:0:
448,192,170946,1,0,0:0:0:0:
64,192,171037,1,0,0:0:0:0:
448,192,171127,128,0,171308:0:0:0:0:
192,192,171127,1,0,0:0:0:0:
320,192,171218,1,0,0:0:0:0:
192,192,171308,128,0,171489:0:0:0:0:
64,192,171308,1,0,0:0:0:0:
448,192,171398,1,0,0:0:0:0:
64,192,171489,128,0,171669:0:0:0:0:
320,192,171489,1,0,0:0:0:0:
192,192,171579,1,0,0:0:0:0:
320,192,171669,128,0,171850:0:0:0:0:
448,192,171669,1,0,0:0:0:0:
64,192,171760,1,0,0:0:0:0:
448,192,171850,128,0,172031:0:0:0:0:
192,192,171850,1,0,0:0:0:0:
320,192,171940,1,0,0:0:0:0:
64,192,172031,128,0,172347:0:0:0:0:
192,192,172031,1,0,0:0:0:0:
192,192,172211,128,0,172528:0:0:0:0:
320,192,172211,1,0,0:0:0:0:
320,192,172392,128,0,172708:0:0:0:0:
64,192,172392,128,0,172708:0:0:0:0:
448,192,172392,1,0,0:0:0:0:
448,192,172573,128,0,172889:0:0:0:0:
192,192,172573,128,0,172889:0:0:0:0:
320,192,172754,128,0,173070:0:0:0:0:
64,192,172754,128,0,173070:0:0:0:0:
448,192,172934,128,0,173251:0:0:0:0:
192,192,172934,128,0,173251:0:0:0:0:
320,192,173115,128,0,173431:0:0:0:0:
64,192,173115,128,0,173431:0:0:0:0:
192,192,173296,128,0,173612:0:0:0:0:
448,192,173296,128,0,173612:0:0:0:0:
320,192,173477,128,0,173793:0:0:0:0:
64,192,173477,128,0,173793:0:0:0:0:
192,192,173657,128,0,173974:0:0:0:0:
448,192,173657,128,0,173974:0:0:0:0:
320,192,173838,128,0,174154:0:0:0:0:
64,192,173838,128,0,174154:0:0:0:0:
192,192,174019,128,0,174335:0:0:0:0:
448,192,174019,128,0,174335:0:0:0:0:
320,192,174199,128,0,174516:0:0:0:0:
64,192,174199,128,0,174516:0:0:0:0:
192,192,174380,128,0,174696:0:0:0:0:
448,192,174380,128,0,174696:0:0:0:0:
320,192,174561,128,0,174922:0:0:0:0:
64,192,174561,128,0,174922:0:0:0:0:
192,192,174742,128,0,174922:0:0:0:0:
448,192,174742,128,0,174922:0:0:0:0:
448,192,175645,128,0,175781:0:0:0:0:
320,192,175668,128,0,175781:0:0:0:0:
192,192,175690,128,0,175803:0:0:0:0:
64,192,175713,128,0,175826:0:0:0:0:
320,192,175826,1,0,0:0:0:0:
448,192,175826,1,0,0:0:0:0:
192,192,175849,1,0,0:0:0:0:
64,192,175871,1,0,0:0:0:0:
448,192,176007,1,0,0:0:0:0:
192,192,176007,1,0,0:0:0:0:
64,192,176007,1,0,0:0:0:0:
320,192,176187,1,0,0:0:0:0:
448,192,176187,1,0,0:0:0:0:
64,192,176210,1,0,0:0:0:0:
448,192,176368,1,0,0:0:0:0:
320,192,176368,1,0,0:0:0:0:
192,192,176391,1,0,0:0:0:0:
64,192,176391,1,0,0:0:0:0:
448,192,176549,1,0,0:0:0:0:
320,192,176639,1,0,0:0:0:0:
448,192,176730,1,0,0:0:0:0:
192,192,176820,1,0,0:0:0:0:
448,192,176910,1,0,0:0:0:0:
64,192,177001,1,0,0:0:0:0:
448,192,177091,1,0,0:0:0:0:
320,192,177091,1,0,0:0:0:0:
192,192,177181,1,0,0:0:0:0:
320,192,177272,1,0,0:0:0:0:
448,192,177272,1,0,0:0:0:0:
64,192,177362,1,0,0:0:0:0:
320,192,177452,1,0,0:0:0:0:
448,192,177452,1,0,0:0:0:0:
192,192,177543,1,0,0:0:0:0:
64,192,177633,1,0,0:0:0:0:
320,192,177633,1,0,0:0:0:0:
448,192,177633,1,0,0:0:0:0:
192,192,177724,1,0,0:0:0:0:
64,192,177814,1,0,0:0:0:0:
192,192,177904,1,0,0:0:0:0:
64,192,177995,1,0,0:0:0:0:
320,192,178085,1,0,0:0:0:0:
64,192,178175,1,0,0:0:0:0:
448,192,178266,1,0,0:0:0:0:
64,192,178356,1,0,0:0:0:0:
320,192,178446,1,0,0:0:0:0:
192,192,178537,1,0,0:0:0:0:
64,192,178537,1,0,0:0:0:0:
448,192,178627,1,0,0:0:0:0:
192,192,178718,1,0,0:0:0:0:
64,192,178718,1,0,0:0:0:0:
320,192,178808,1,0,0:0:0:0:
192,192,178898,1,0,0:0:0:0:
64,192,178898,1,0,0:0:0:0:
448,192,178989,1,0,0:0:0:0:
192,192,179079,1,0,0:0:0:0:
64,192,179079,1,0,0:0:0:0:
320,192,179169,1,0,0:0:0:0:
448,192,179214,1,0,0:0:0:0:
64,192,179260,1,0,0:0:0:0:
192,192,179260,1,0,0:0:0:0:
192,192,179440,1,0,0:0:0:0:
320,192,179531,1,0,0:0:0:0:
192,192,179621,1,0,0:0:0:0:
448,192,179621,1,0,0:0:0:0:
64,192,179711,1,0,0:0:0:0:
192,192,179802,1,0,0:0:0:0:
448,192,179802,1,0,0:0:0:0:
320,192,179892,1,0,0:0:0:0:
192,192,179983,1,0,0:0:0:0:
448,192,179983,1,0,0:0:0:0:
64,192,180073,1,0,0:0:0:0:
192,192,180163,1,0,0:0:0:0:
448,192,180163,1,0,0:0:0:0:
320,192,180254,1,0,0:0:0:0:
448,192,180344,1,0,0:0:0:0:
64,192,180344,1,0,0:0:0:0:
192,192,180434,1,0,0:0:0:0:
448,192,180525,1,0,0:0:0:0:
64,192,180525,1,0,0:0:0:0:
320,192,180525,1,0,0:0:0:0:
192,192,180615,1,0,0:0:0:0:
320,192,180705,1,0,0:0:0:0:
192,192,180796,1,0,0:0:0:0:
320,192,180886,1,0,0:0:0:0:
64,192,180886,1,0,0:0:0:0:
448,192,180977,1,0,0:0:0:0:
320,192,181067,1,0,0:0:0:0:
64,192,181067,1,0,0:0:0:0:
192,192,181157,1,0,0:0:0:0:
320,192,181248,1,0,0:0:0:0:
64,192,181248,1,0,0:0:0:0:
448,192,181338,1,0,0:0:0:0:
320,192,181428,1,0,0:0:0:0:
64,192,181428,1,0,0:0:0:0:
192,192,181519,1,0,0:0:0:0:
64,192,181609,1,0,0:0:0:0:
448,192,181609,1,0,0:0:0:0:
320,192,181699,1,0,0:0:0:0:
64,192,181745,1,0,0:0:0:0:
448,192,181790,1,0,0:0:0:0:
192,192,181790,1,0,0:0:0:0:
64,192,181880,1,0,0:0:0:0:
320,192,181880,1,0,0:0:0:0:
192,192,181971,1,0,0:0:0:0:
448,192,181971,1,0,0:0:0:0:
320,192,182061,1,0,0:0:0:0:
192,192,182151,1,0,0:0:0:0:
64,192,182151,1,0,0:0:0:0:
448,192,182151,1,0,0:0:0:0:
64,192,182332,1,0,0:0:0:0:
320,192,182332,1,0,0:0:0:0:
192,192,182422,1,0,0:0:0:0:
64,192,182513,1,0,0:0:0:0:
448,192,182513,1,0,0:0:0:0:
320,192,182603,1,0,0:0:0:0:
64,192,182693,1,0,0:0:0:0:
192,192,182693,1,0,0:0:0:0:
448,192,182784,1,0,0:0:0:0:
64,192,182874,1,0,0:0:0:0:
192,192,182874,1,0,0:0:0:0:
320,192,182874,1,0,0:0:0:0:
448,192,182964,1,0,0:0:0:0:
192,192,183055,1,0,0:0:0:0:
64,192,183055,1,0,0:0:0:0:
320,192,183145,1,0,0:0:0:0:
192,192,183236,1,0,0:0:0:0:
64,192,183236,1,0,0:0:0:0:
448,192,183326,1,0,0:0:0:0:
320,192,183416,1,0,0:0:0:0:
192,192,183416,1,0,0:0:0:0:
64,192,183416,1,0,0:0:0:0:
448,192,183597,1,0,0:0:0:0:
192,192,183597,1,0,0:0:0:0:
320,192,183687,1,0,0:0:0:0:
448,192,183778,1,0,0:0:0:0:
64,192,183778,1,0,0:0:0:0:
192,192,183868,1,0,0:0:0:0:
448,192,183958,1,0,0:0:0:0:
320,192,183958,1,0,0:0:0:0:
64,192,184049,1,0,0:0:0:0:
448,192,184139,1,0,0:0:0:0:
320,192,184139,1,0,0:0:0:0:
192,192,184230,1,0,0:0:0:0:
320,192,184320,1,0,0:0:0:0:
448,192,184320,1,0,0:0:0:0:
64,192,184320,1,0,0:0:0:0:
192,192,184410,1,0,0:0:0:0:
320,192,184501,1,0,0:0:0:0:
448,192,184501,1,0,0:0:0:0:
64,192,184591,1,0,0:0:0:0:
320,192,184681,1,0,0:0:0:0:
448,192,184681,1,0,0:0:0:0:
192,192,184772,1,0,0:0:0:0:
320,192,184862,1,0,0:0:0:0:
448,192,184862,1,0,0:0:0:0:
192,192,184952,1,0,0:0:0:0:
64,192,184998,1,0,0:0:0:0:
448,192,185043,1,0,0:0:0:0:
320,192,185043,1,0,0:0:0:0:
320,192,185224,1,0,0:0:0:0:
192,192,185314,1,0,0:0:0:0:
320,192,185404,1,0,0:0:0:0:
64,192,185404,1,0,0:0:0:0:
448,192,185495,1,0,0:0:0:0:
320,192,185585,1,0,0:0:0:0:
64,192,185585,1,0,0:0:0:0:
192,192,185675,1,0,0:0:0:0:
320,192,185766,1,0,0:0:0:0:
64,192,185766,1,0,0:0:0:0:
448,192,185766,1,0,0:0:0:0:
192,192,185856,1,0,0:0:0:0:
320,192,185946,1,0,0:0:0:0:
64,192,185946,1,0,0:0:0:0:
192,192,186037,1,0,0:0:0:0:
64,192,186127,1,0,0:0:0:0:
448,192,186127,1,0,0:0:0:0:
320,192,186218,1,0,0:0:0:0:
64,192,186308,1,0,0:0:0:0:
448,192,186308,1,0,0:0:0:0:
192,192,186308,1,0,0:0:0:0:
320,192,186398,1,0,0:0:0:0:
448,192,186443,1,0,0:0:0:0:
64,192,186489,1,0,0:0:0:0:
320,192,186579,1,0,0:0:0:0:
192,192,186669,1,0,0:0:0:0:
448,192,186669,1,0,0:0:0:0:
64,192,186760,1,0,0:0:0:0:
192,192,186850,1,0,0:0:0:0:
448,192,186850,1,0,0:0:0:0:
320,192,186940,1,0,0:0:0:0:
192,192,187031,1,0,0:0:0:0:
448,192,187031,1,0,0:0:0:0:
64,192,187121,1,0,0:0:0:0:
192,192,187211,1,0,0:0:0:0:
448,192,187211,1,0,0:0:0:0:
320,192,187302,1,0,0:0:0:0:
448,192,187392,1,0,0:0:0:0:
64,192,187392,1,0,0:0:0:0:
192,192,187483,1,0,0:0:0:0:
64,192,187573,1,0,0:0:0:0:
320,192,187573,1,0,0:0:0:0:
448,192,187618,1,0,0:0:0:0:
192,192,187663,1,0,0:0:0:0:
320,192,187754,1,0,0:0:0:0:
448,192,187754,1,0,0:0:0:0:
192,192,187844,1,0,0:0:0:0:
320,192,187934,1,0,0:0:0:0:
448,192,187934,1,0,0:0:0:0:
64,192,187934,1,0,0:0:0:0:
192,192,188115,1,0,0:0:0:0:
64,192,188115,1,0,0:0:0:0:
448,192,188205,1,0,0:0:0:0:
320,192,188296,1,0,0:0:0:0:
192,192,188296,1,0,0:0:0:0:
64,192,188386,1,0,0:0:0:0:
448,192,188477,1,0,0:0:0:0:
320,192,188477,1,0,0:0:0:0:
192,192,188567,1,0,0:0:0:0:
320,192,188657,1,0,0:0:0:0:
448,192,188657,1,0,0:0:0:0:
64,192,188657,1,0,0:0:0:0:
192,192,188748,1,0,0:0:0:0:
448,192,188838,1,0,0:0:0:0:
320,192,188838,1,0,0:0:0:0:
64,192,188928,1,0,0:0:0:0:
448,192,189019,1,0,0:0:0:0:
320,192,189019,1,0,0:0:0:0:
192,192,189109,1,0,0:0:0:0:
448,192,189199,1,0,0:0:0:0:
320,192,189199,1,0,0:0:0:0:
64,192,189199,1,0,0:0:0:0:
64,192,189380,1,0,0:0:0:0:
320,192,189380,1,0,0:0:0:0:
448,192,189380,1,0,0:0:0:0:
192,192,189471,1,0,0:0:0:0:
64,192,189561,1,0,0:0:0:0:
448,192,189561,1,0,0:0:0:0:
320,192,189651,1,0,0:0:0:0:
64,192,189742,1,0,0:0:0:0:
192,192,189742,1,0,0:0:0:0:
448,192,189832,1,0,0:0:0:0:
64,192,189922,1,0,0:0:0:0:
192,192,189922,1,0,0:0:0:0:
320,192,190013,1,0,0:0:0:0:
64,192,190103,1,0,0:0:0:0:
192,192,190103,1,0,0:0:0:0:
448,192,190103,1,0,0:0:0:0:
320,192,190193,1,0,0:0:0:0:
64,192,190284,1,0,0:0:0:0:
192,192,190284,1,0,0:0:0:0:
448,192,190374,1,0,0:0:0:0:
320,192,190464,1,0,0:0:0:0:
64,192,190464,1,0,0:0:0:0:
192,192,190555,1,0,0:0:0:0:
448,192,190645,1,0,0:0:0:0:
64,192,190645,1,0,0:0:0:0:
320,192,190736,1,0,0:0:0:0:
192,192,190781,1,0,0:0:0:0:
448,192,190826,1,0,0:0:0:0:
64,192,190826,1,0,0:0:0:0:
192,192,191007,1,0,0:0:0:0:
448,192,191007,1,0,0:0:0:0:
320,192,191097,1,0,0:0:0:0:
448,192,191187,1,0,0:0:0:0:
192,192,191187,1,0,0:0:0:0:
64,192,191278,1,0,0:0:0:0:
448,192,191368,1,0,0:0:0:0:
192,192,191368,1,0,0:0:0:0:
320,192,191458,1,0,0:0:0:0:
64,192,191549,1,0,0:0:0:0:
448,192,191549,1,0,0:0:0:0:
192,192,191549,1,0,0:0:0:0:
320,192,191639,1,0,0:0:0:0:
448,192,191730,1,0,0:0:0:0:
64,192,191730,1,0,0:0:0:0:
320,192,191820,1,0,0:0:0:0:
64,192,191910,1,0,0:0:0:0:
448,192,191910,1,0,0:0:0:0:
192,192,192001,1,0,0:0:0:0:
320,192,192091,1,0,0:0:0:0:
64,192,192091,1,0,0:0:0:0:
448,192,192091,1,0,0:0:0:0:
192,192,192181,1,0,0:0:0:0:
448,192,192227,1,0,0:0:0:0:
320,192,192272,1,0,0:0:0:0:
192,192,192362,1,0,0:0:0:0:
64,192,192452,1,0,0:0:0:0:
320,192,192452,1,0,0:0:0:0:
448,192,192543,1,0,0:0:0:0:
64,192,192633,1,0,0:0:0:0:
320,192,192633,1,0,0:0:0:0:
192,192,192724,1,0,0:0:0:0:
64,192,192814,1,0,0:0:0:0:
320,192,192814,1,0,0:0:0:0:
448,192,192904,1,0,0:0:0:0:
320,192,192995,1,0,0:0:0:0:
64,192,192995,1,0,0:0:0:0:
192,192,193085,1,0,0:0:0:0:
448,192,193175,1,0,0:0:0:0:
64,192,193175,1,0,0:0:0:0:
192,192,193266,1,0,0:0:0:0:
320,192,193311,1,0,0:0:0:0:
448,192,193356,1,0,0:0:0:0:
64,192,193356,1,0,0:0:0:0:
320,192,193446,1,0,0:0:0:0:
192,192,193446,1,0,0:0:0:0:
448,192,193537,1,0,0:0:0:0:
64,192,193537,1,0,0:0:0:0:
320,192,193627,1,0,0:0:0:0:
448,192,193718,1,0,0:0:0:0:
64,192,193718,1,0,0:0:0:0:
192,192,193718,1,0,0:0:0:0:
320,192,193898,1,0,0:0:0:0:
192,192,193898,1,0,0:0:0:0:
64,192,193989,1,0,0:0:0:0:
448,192,194079,1,0,0:0:0:0:
320,192,194079,1,0,0:0:0:0:
192,192,194169,1,0,0:0:0:0:
448,192,194260,1,0,0:0:0:0:
64,192,194260,1,0,0:0:0:0:
320,192,194350,1,0,0:0:0:0:
448,192,194440,1,0,0:0:0:0:
64,192,194440,1,0,0:0:0:0:
192,192,194531,1,0,0:0:0:0:
448,192,194621,1,0,0:0:0:0:
320,192,194621,1,0,0:0:0:0:
64,192,194711,1,0,0:0:0:0:
320,192,194802,1,0,0:0:0:0:
192,192,194802,1,0,0:0:0:0:
64,192,194892,1,0,0:0:0:0:
192,192,194983,1,0,0:0:0:0:
448,192,194983,1,0,0:0:0:0:
320,192,194983,1,0,0:0:0:0:
64,192,195073,1,0,0:0:0:0:
320,192,195163,1,0,0:0:0:0:
192,192,195163,1,0,0:0:0:0:
448,192,195254,1,0,0:0:0:0:
192,192,195344,1,0,0:0:0:0:
64,192,195344,1,0,0:0:0:0:
448,192,195434,1,0,0:0:0:0:
64,192,195525,1,0,0:0:0:0:
320,192,195525,1,0,0:0:0:0:
448,192,195615,1,0,0:0:0:0:
64,192,195705,1,0,0:0:0:0:
192,192,195705,1,0,0:0:0:0:
320,192,195796,1,0,0:0:0:0:
64,192,195886,1,0,0:0:0:0:
448,192,195886,1,0,0:0:0:0:
192,192,195977,1,0,0:0:0:0:
64,192,196067,1,0,0:0:0:0:
448,192,196067,1,0,0:0:0:0:
320,192,196157,1,0,0:0:0:0:
64,192,196248,1,0,0:0:0:0:
192,192,196248,1,0,0:0:0:0:
320,192,196293,1,0,0:0:0:0:
448,192,196338,1,0,0:0:0:0:
192,192,196383,1,0,0:0:0:0:
320,192,196428,1,0,0:0:0:0:
64,192,196474,1,0,0:0:0:0:
192,192,196519,1,0,0:0:0:0:
320,192,196564,1,0,0:0:0:0:
64,192,196609,1,0,0:0:0:0:
448,192,196609,1,0,0:0:0:0:
192,192,196790,1,0,0:0:0:0:
320,192,196790,1,0,0:0:0:0:
448,192,196880,1,0,0:0:0:0:
64,192,196971,1,0,0:0:0:0:
192,192,196971,1,0,0:0:0:0:
320,192,197061,1,0,0:0:0:0:
64,192,197151,1,0,0:0:0:0:
448,192,197151,1,0,0:0:0:0:
192,192,197242,1,0,0:0:0:0:
64,192,197332,1,0,0:0:0:0:
448,192,197332,1,0,0:0:0:0:
192,192,197377,1,0,0:0:0:0:
320,192,197422,1,0,0:0:0:0:
448,192,197468,1,0,0:0:0:0:
64,192,197513,1,0,0:0:0:0:
192,192,197558,1,0,0:0:0:0:
448,192,197603,1,0,0:0:0:0:
320,192,197648,1,0,0:0:0:0:
192,192,197693,1,0,0:0:0:0:
64,192,197739,1,0,0:0:0:0:
448,192,197784,1,0,0:0:0:0:
320,192,197829,1,0,0:0:0:0:
64,192,197874,1,0,0:0:0:0:
192,192,197874,1,0,0:0:0:0:
448,192,197964,1,0,0:0:0:0:
320,192,198010,1,0,0:0:0:0:
192,192,198055,1,0,0:0:0:0:
64,192,198055,1,0,0:0:0:0:
448,192,198100,1,0,0:0:0:0:
320,192,198145,1,0,0:0:0:0:
192,192,198190,1,0,0:0:0:0:
64,192,198236,1,0,0:0:0:0:
448,192,198281,1,0,0:0:0:0:
320,192,198326,1,0,0:0:0:0:
192,192,198371,1,0,0:0:0:0:
448,192,198416,1,0,0:0:0:0:
64,192,198416,1,0,0:0:0:0:
320,192,198461,1,0,0:0:0:0:
192,192,198507,1,0,0:0:0:0:
64,192,198552,1,0,0:0:0:0:
448,192,198597,1,0,0:0:0:0:
320,192,198597,1,0,0:0:0:0:
192,192,198687,1,0,0:0:0:0:
448,192,198778,1,0,0:0:0:0:
64,192,198778,1,0,0:0:0:0:
192,192,198823,1,0,0:0:0:0:
320,192,198868,1,0,0:0:0:0:
192,192,198913,1,0,0:0:0:0:
448,192,198958,1,0,0:0:0:0:
64,192,198958,1,0,0:0:0:0:
320,192,199004,1,0,0:0:0:0:
192,192,199049,1,0,0:0:0:0:
64,192,199094,1,0,0:0:0:0:
448,192,199139,1,0,0:0:0:0:
320,192,199139,1,0,0:0:0:0:
192,192,199184,1,0,0:0:0:0:
64,192,199230,1,0,0:0:0:0:
448,192,199275,1,0,0:0:0:0:
320,192,199320,1,0,0:0:0:0:
192,192,199320,1,0,0:0:0:0:
64,192,199410,1,0,0:0:0:0:
192,192,199501,1,0,0:0:0:0:
448,192,199501,1,0,0:0:0:0:
320,192,199501,1,0,0:0:0:0:
320,192,199681,1,0,0:0:0:0:
192,192,199772,1,0,0:0:0:0:
320,192,199862,1,0,0:0:0:0:
64,192,199952,1,0,0:0:0:0:
448,192,200043,1,0,0:0:0:0:
320,192,200043,1,0,0:0:0:0:
192,192,200133,1,0,0:0:0:0:
320,192,200224,1,0,0:0:0:0:
448,192,200224,1,0,0:0:0:0:
64,192,200314,1,0,0:0:0:0:
192,192,200314,1,0,0:0:0:0:
320,192,200404,1,0,0:0:0:0:
448,192,200404,1,0,0:0:0:0:
192,192,200495,1,0,0:0:0:0:
64,192,200495,1,0,0:0:0:0:
320,192,200585,1,0,0:0:0:0:
448,192,200585,1,0,0:0:0:0:
192,192,200675,1,0,0:0:0:0:
320,192,200766,1,0,0:0:0:0:
448,192,200766,1,0,0:0:0:0:
64,192,200766,1,0,0:0:0:0:
192,192,200856,1,0,0:0:0:0:
320,192,200946,1,0,0:0:0:0:
448,192,200946,1,0,0:0:0:0:
64,192,200992,1,0,0:0:0:0:
192,192,201037,1,0,0:0:0:0:
320,192,201127,1,0,0:0:0:0:
448,192,201127,1,0,0:0:0:0:
64,192,201218,1,0,0:0:0:0:
320,192,201308,1,0,0:0:0:0:
448,192,201308,1,0,0:0:0:0:
192,192,201353,1,0,0:0:0:0:
64,192,201398,1,0,0:0:0:0:
320,192,201489,1,0,0:0:0:0:
192,192,201489,1,0,0:0:0:0:
448,192,201579,1,0,0:0:0:0:
64,192,201669,1,0,0:0:0:0:
192,192,201669,1,0,0:0:0:0:
320,192,201760,1,0,0:0:0:0:
448,192,201760,1,0,0:0:0:0:
64,192,201850,1,0,0:0:0:0:
192,192,201850,1,0,0:0:0:0:
448,192,201940,1,0,0:0:0:0:
320,192,201940,1,0,0:0:0:0:
64,192,202031,1,0,0:0:0:0:
192,192,202076,1,0,0:0:0:0:
320,192,202121,1,0,0:0:0:0:
64,192,202211,1,0,0:0:0:0:
448,192,202211,1,0,0:0:0:0:
320,192,202302,1,0,0:0:0:0:
192,192,202347,1,0,0:0:0:0:
448,192,202392,1,0,0:0:0:0:
64,192,202392,1,0,0:0:0:0:
320,192,202573,1,0,0:0:0:0:
64,192,202573,1,0,0:0:0:0:
192,192,202663,1,0,0:0:0:0:
320,192,202754,1,0,0:0:0:0:
448,192,202754,1,0,0:0:0:0:
64,192,202844,1,0,0:0:0:0:
192,192,202844,1,0,0:0:0:0:
320,192,202934,1,0,0:0:0:0:
448,192,202980,1,0,0:0:0:0:
192,192,203025,1,0,0:0:0:0:
320,192,203115,1,0,0:0:0:0:
64,192,203115,1,0,0:0:0:0:
448,192,203205,1,0,0:0:0:0:
192,192,203205,1,0,0:0:0:0:
320,192,203296,1,0,0:0:0:0:
192,192,203386,1,0,0:0:0:0:
64,192,203386,1,0,0:0:0:0:
320,192,203477,1,0,0:0:0:0:
448,192,203477,1,0,0:0:0:0:
192,192,203567,1,0,0:0:0:0:
320,192,203657,1,0,0:0:0:0:
448,192,203657,1,0,0:0:0:0:
64,192,203657,1,0,0:0:0:0:
64,192,203838,1,0,0:0:0:0:
320,192,203838,1,0,0:0:0:0:
192,192,203883,1,0,0:0:0:0:
448,192,203928,1,0,0:0:0:0:
64,192,204019,1,0,0:0:0:0:
320,192,204019,1,0,0:0:0:0:
192,192,204109,1,0,0:0:0:0:
448,192,204109,1,0,0:0:0:0:
64,192,204199,1,0,0:0:0:0:
320,192,204199,1,0,0:0:0:0:
192,192,204290,1,0,0:0:0:0:
448,192,204290,1,0,0:0:0:0:
64,192,204380,1,0,0:0:0:0:
320,192,204380,1,0,0:0:0:0:
192,192,204471,1,0,0:0:0:0:
448,192,204561,1,0,0:0:0:0:
64,192,204561,1,0,0:0:0:0:
320,192,204606,1,0,0:0:0:0:
192,192,204651,1,0,0:0:0:0:
448,192,204742,1,0,0:0:0:0:
320,192,204742,1,0,0:0:0:0:
64,192,204832,1,0,0:0:0:0:
192,192,204877,1,0,0:0:0:0:
448,192,204922,1,0,0:0:0:0:
320,192,204968,1,0,0:0:0:0:
64,192,205013,1,0,0:0:0:0:
192,192,205013,1,0,0:0:0:0:
448,192,205103,1,0,0:0:0:0:
320,192,205193,1,0,0:0:0:0:
192,192,205284,1,0,0:0:0:0:
64,192,205284,1,0,0:0:0:0:
192,192,205464,1,0,0:0:0:0:
320,192,205555,1,0,0:0:0:0:
192,192,205645,1,0,0:0:0:0:
448,192,205645,1,0,0:0:0:0:
320,192,205736,1,0,0:0:0:0:
64,192,205826,1,0,0:0:0:0:
192,192,205826,1,0,0:0:0:0:
320,192,205916,1,0,0:0:0:0:
192,192,206007,1,0,0:0:0:0:
64,192,206007,1,0,0:0:0:0:
320,192,206052,1,0,0:0:0:0:
448,192,206097,1,0,0:0:0:0:
192,192,206187,1,0,0:0:0:0:
64,192,206187,1,0,0:0:0:0:
448,192,206233,1,0,0:0:0:0:
320,192,206278,1,0,0:0:0:0:
192,192,206368,1,0,0:0:0:0:
64,192,206368,1,0,0:0:0:0:
320,192,206458,1,0,0:0:0:0:
192,192,206549,1,0,0:0:0:0:
64,192,206549,1,0,0:0:0:0:
448,192,206549,1,0,0:0:0:0:
320,192,206639,1,0,0:0:0:0:
192,192,206730,1,0,0:0:0:0:
64,192,206730,1,0,0:0:0:0:
448,192,206820,1,0,0:0:0:0:
320,192,206865,1,0,0:0:0:0:
192,192,206910,1,0,0:0:0:0:
64,192,206910,1,0,0:0:0:0:
448,192,207001,1,0,0:0:0:0:
192,192,207091,1,0,0:0:0:0:
64,192,207091,1,0,0:0:0:0:
448,192,207181,1,0,0:0:0:0:
192,192,207272,1,0,0:0:0:0:
320,192,207272,1,0,0:0:0:0:
448,192,207362,1,0,0:0:0:0:
320,192,207452,1,0,0:0:0:0:
64,192,207452,1,0,0:0:0:0:
192,192,207543,1,0,0:0:0:0:
448,192,207633,1,0,0:0:0:0:
320,192,207633,1,0,0:0:0:0:
192,192,207724,1,0,0:0:0:0:
64,192,207814,1,0,0:0:0:0:
448,192,207814,1,0,0:0:0:0:
320,192,207859,1,0,0:0:0:0:
192,192,207904,1,0,0:0:0:0:
448,192,207995,1,0,0:0:0:0:
64,192,207995,1,0,0:0:0:0:
192,192,208085,1,0,0:0:0:0:
320,192,208130,1,0,0:0:0:0:
64,192,208175,1,0,0:0:0:0:
448,192,208175,1,0,0:0:0:0:
192,192,208356,1,0,0:0:0:0:
448,192,208356,1,0,0:0:0:0:
320,192,208446,1,0,0:0:0:0:
192,192,208537,1,0,0:0:0:0:
64,192,208537,1,0,0:0:0:0:
448,192,208627,1,0,0:0:0:0:
320,192,208627,1,0,0:0:0:0:
192,192,208718,1,0,0:0:0:0:
64,192,208763,1,0,0:0:0:0:
320,192,208808,1,0,0:0:0:0:
192,192,208898,1,0,0:0:0:0:
448,192,208898,1,0,0:0:0:0:
64,192,208989,1,0,0:0:0:0:
320,192,208989,1,0,0:0:0:0:
192,192,209079,1,0,0:0:0:0:
320,192,209169,1,0,0:0:0:0:
448,192,209169,1,0,0:0:0:0:
192,192,209260,1,0,0:0:0:0:
64,192,209260,1,0,0:0:0:0:
320,192,209350,1,0,0:0:0:0:
192,192,209440,1,0,0:0:0:0:
64,192,209440,1,0,0:0:0:0:
448,192,209440,1,0,0:0:0:0:
64,192,209621,1,0,0:0:0:0:
448,192,209621,1,0,0:0:0:0:
192,192,209621,1,0,0:0:0:0:
320,192,209711,1,0,0:0:0:0:
448,192,209802,1,0,0:0:0:0:
192,192,209802,1,0,0:0:0:0:
320,192,209892,1,0,0:0:0:0:
64,192,209892,1,0,0:0:0:0:
448,192,209983,1,0,0:0:0:0:
192,192,209983,1,0,0:0:0:0:
320,192,210073,1,0,0:0:0:0:
64,192,210073,1,0,0:0:0:0:
448,192,210163,1,0,0:0:0:0:
192,192,210163,1,0,0:0:0:0:
320,192,210254,1,0,0:0:0:0:
192,192,210344,1,0,0:0:0:0:
64,192,210344,1,0,0:0:0:0:
448,192,210344,1,0,0:0:0:0:
320,192,210434,1,0,0:0:0:0:
64,192,210525,1,0,0:0:0:0:
448,192,210615,1,0,0:0:0:0:
192,192,210705,1,0,0:0:0:0:
64,192,210705,1,0,0:0:0:0:
320,192,210751,1,0,0:0:0:0:
448,192,210796,1,0,0:0:0:0:
320,192,210886,1,0,0:0:0:0:
192,192,210977,1,0,0:0:0:0:
64,192,211067,1,0,0:0:0:0:
448,192,211067,1,0,0:0:0:0:
320,192,211248,1,0,0:0:0:0:
192,192,211338,1,0,0:0:0:0:
320,192,211428,1,0,0:0:0:0:
448,192,211428,1,0,0:0:0:0:
64,192,211519,1,0,0:0:0:0:
320,192,211609,1,0,0:0:0:0:
192,192,211699,1,0,0:0:0:0:
320,192,211790,1,0,0:0:0:0:
64,192,211790,1,0,0:0:0:0:
448,192,211790,1,0,0:0:0:0:
192,192,211880,1,0,0:0:0:0:
448,192,211971,1,0,0:0:0:0:
320,192,211971,1,0,0:0:0:0:
64,192,212061,1,0,0:0:0:0:
320,192,212151,1,0,0:0:0:0:
448,192,212151,1,0,0:0:0:0:
192,192,212242,1,0,0:0:0:0:
64,192,212332,1,0,0:0:0:0:
320,192,212332,1,0,0:0:0:0:
448,192,212332,1,0,0:0:0:0:
192,192,212422,1,0,0:0:0:0:
448,192,212513,1,0,0:0:0:0:
320,192,212513,1,0,0:0:0:0:
192,192,212603,1,0,0:0:0:0:
64,192,212603,1,0,0:0:0:0:
320,192,212693,1,0,0:0:0:0:
448,192,212693,1,0,0:0:0:0:
192,192,212784,1,0,0:0:0:0:
64,192,212784,1,0,0:0:0:0:
320,192,212874,1,0,0:0:0:0:
448,192,212874,1,0,0:0:0:0:
192,192,212964,1,0,0:0:0:0:
64,192,213055,1,0,0:0:0:0:
320,192,213055,1,0,0:0:0:0:
192,192,213145,1,0,0:0:0:0:
448,192,213236,1,0,0:0:0:0:
64,192,213236,1,0,0:0:0:0:
320,192,213236,1,0,0:0:0:0:
192,192,213326,1,0,0:0:0:0:
448,192,213416,1,0,0:0:0:0:
64,192,213507,1,0,0:0:0:0:
320,192,213597,1,0,0:0:0:0:
192,192,213642,1,0,0:0:0:0:
64,192,213687,1,0,0:0:0:0:
192,192,213778,1,0,0:0:0:0:
320,192,213868,1,0,0:0:0:0:
448,192,213913,1,0,0:0:0:0:
192,192,213958,1,0,0:0:0:0:
64,192,213958,1,0,0:0:0:0:
192,192,214139,1,0,0:0:0:0:
64,192,214230,1,0,0:0:0:0:
320,192,214230,1,0,0:0:0:0:
192,192,214320,1,0,0:0:0:0:
448,192,214320,1,0,0:0:0:0:
320,192,214410,1,0,0:0:0:0:
192,192,214501,1,0,0:0:0:0:
64,192,214501,1,0,0:0:0:0:
320,192,214591,1,0,0:0:0:0:
448,192,214591,1,0,0:0:0:0:
192,192,214681,1,0,0:0:0:0:
64,192,214681,1,0,0:0:0:0:
320,192,214772,1,0,0:0:0:0:
192,192,214862,1,0,0:0:0:0:
448,192,214862,1,0,0:0:0:0:
320,192,214952,1,0,0:0:0:0:
448,192,215043,1,0,0:0:0:0:
192,192,215043,1,0,0:0:0:0:
64,192,215043,1,0,0:0:0:0:
320,192,215133,1,0,0:0:0:0:
192,192,215224,1,0,0:0:0:0:
64,192,215224,1,0,0:0:0:0:
448,192,215314,1,0,0:0:0:0:
320,192,215359,1,0,0:0:0:0:
192,192,215404,1,0,0:0:0:0:
64,192,215404,1,0,0:0:0:0:
320,192,215449,1,0,0:0:0:0:
448,192,215495,1,0,0:0:0:0:
192,192,215585,1,0,0:0:0:0:
64,192,215630,1,0,0:0:0:0:
320,192,215675,1,0,0:0:0:0:
192,192,215766,1,0,0:0:0:0:
448,192,215766,1,0,0:0:0:0:
320,192,215856,1,0,0:0:0:0:
192,192,215946,1,0,0:0:0:0:
64,192,215946,1,0,0:0:0:0:
320,192,216037,1,0,0:0:0:0:
448,192,216127,1,0,0:0:0:0:
64,192,216127,1,0,0:0:0:0:
192,192,216218,1,0,0:0:0:0:
448,192,216308,1,0,0:0:0:0:
320,192,216308,1,0,0:0:0:0:
64,192,216398,1,0,0:0:0:0:
448,192,216443,1,0,0:0:0:0:
192,192,216489,1,0,0:0:0:0:
320,192,216489,1,0,0:0:0:0:
64,192,216579,1,0,0:0:0:0:
192,192,216669,1,0,0:0:0:0:
320,192,216669,1,0,0:0:0:0:
448,192,216760,1,0,0:0:0:0:
320,192,216850,1,0,0:0:0:0:
448,192,216850,1,0,0:0:0:0:
192,192,216850,1,0,0:0:0:0:
64,192,216850,1,0,0:0:0:0:
320,192,217031,1,0,0:0:0:0:
192,192,217031,1,0,0:0:0:0:
448,192,217121,1,0,0:0:0:0:
192,192,217211,1,0,0:0:0:0:
320,192,217211,1,0,0:0:0:0:
64,192,217302,1,0,0:0:0:0:
320,192,217392,1,0,0:0:0:0:
192,192,217392,1,0,0:0:0:0:
448,192,217483,1,0,0:0:0:0:
192,192,217573,1,0,0:0:0:0:
320,192,217573,1,0,0:0:0:0:
64,192,217573,1,0,0:0:0:0:
448,192,217663,1,0,0:0:0:0:
320,192,217754,1,0,0:0:0:0:
192,192,217754,1,0,0:0:0:0:
64,192,217844,1,0,0:0:0:0:
192,192,217934,1,0,0:0:0:0:
320,192,217934,1,0,0:0:0:0:
64,192,218025,1,0,0:0:0:0:
320,192,218115,1,0,0:0:0:0:
448,192,218115,1,0,0:0:0:0:
192,192,218115,1,0,0:0:0:0:
64,192,218205,1,0,0:0:0:0:
448,192,218296,1,0,0:0:0:0:
320,192,218296,1,0,0:0:0:0:
192,192,218386,1,0,0:0:0:0:
320,192,218477,1,0,0:0:0:0:
448,192,218477,1,0,0:0:0:0:
64,192,218567,1,0,0:0:0:0:
320,192,218657,1,0,0:0:0:0:
448,192,218657,1,0,0:0:0:0:
64,192,218748,1,0,0:0:0:0:
448,192,218838,1,0,0:0:0:0:
320,192,218838,1,0,0:0:0:0:
64,192,218928,1,0,0:0:0:0:
320,192,219019,1,0,0:0:0:0:
448,192,219019,1,0,0:0:0:0:
64,192,219109,1,0,0:0:0:0:
448,192,219199,1,0,0:0:0:0:
320,192,219199,1,0,0:0:0:0:
192,192,219290,1,0,0:0:0:0:
320,192,219380,1,0,0:0:0:0:
448,192,219380,1,0,0:0:0:0:
192,192,219471,1,0,0:0:0:0:
448,192,219561,1,0,0:0:0:0:
320,192,219561,1,0,0:0:0:0:
192,192,219606,1,0,0:0:0:0:
64,192,219651,1,0,0:0:0:0:
320,192,219742,1,0,0:0:0:0:
192,192,219742,1,0,0:0:0:0:
448,192,219742,1,0,0:0:0:0:
64,192,219787,1,0,0:0:0:0:
448,192,219832,1,0,0:0:0:0:
192,192,219922,1,0,0:0:0:0:
320,192,219922,1,0,0:0:0:0:
64,192,220013,1,0,0:0:0:0:
320,192,220103,1,0,0:0:0:0:
192,192,220103,1,0,0:0:0:0:
448,192,220193,1,0,0:0:0:0:
192,192,220284,1,0,0:0:0:0:
320,192,220284,1,0,0:0:0:0:
448,192,220374,1,0,0:0:0:0:
192,192,220464,1,0,0:0:0:0:
64,192,220464,1,0,0:0:0:0:
320,192,220555,1,0,0:0:0:0:
64,192,220645,1,0,0:0:0:0:
192,192,220645,1,0,0:0:0:0:
448,192,220736,1,0,0:0:0:0:
192,192,220826,1,0,0:0:0:0:
64,192,220826,1,0,0:0:0:0:
320,192,220916,1,0,0:0:0:0:
192,192,221007,1,0,0:0:0:0:
64,192,221007,1,0,0:0:0:0:
320,192,221097,1,0,0:0:0:0:
64,192,221187,1,0,0:0:0:0:
448,192,221187,1,0,0:0:0:0:
320,192,221278,1,0,0:0:0:0:
448,192,221368,1,0,0:0:0:0:
192,192,221368,1,0,0:0:0:0:
448,192,221458,1,0,0:0:0:0:
64,192,221549,1,0,0:0:0:0:
320,192,221549,1,0,0:0:0:0:
192,192,221639,1,0,0:0:0:0:
448,192,221730,1,0,0:0:0:0:
192,192,221730,1,0,0:0:0:0:
320,192,221820,1,0,0:0:0:0:
64,192,221910,1,0,0:0:0:0:
448,192,221910,1,0,0:0:0:0:
192,192,222001,1,0,0:0:0:0:
320,192,222091,1,0,0:0:0:0:
64,192,222091,1,0,0:0:0:0:
64,192,222181,1,0,0:0:0:0:
448,192,222272,1,0,0:0:0:0:
192,192,222272,1,0,0:0:0:0:
448,192,222362,1,0,0:0:0:0:
320,192,222452,1,0,0:0:0:0:
64,192,222452,1,0,0:0:0:0:
192,192,222543,1,0,0:0:0:0:
64,192,222633,1,0,0:0:0:0:
448,192,222633,1,0,0:0:0:0:
192,192,222678,1,0,0:0:0:0:
320,192,222724,1,0,0:0:0:0:
448,192,222769,1,0,0:0:0:0:
64,192,222814,1,0,0:0:0:0:
192,192,222859,1,0,0:0:0:0:
320,192,222904,1,0,0:0:0:0:
448,192,222949,1,0,0:0:0:0:
64,192,222995,1,0,0:0:0:0:
192,192,223040,1,0,0:0:0:0:
320,192,223085,1,0,0:0:0:0:
448,192,223130,1,0,0:0:0:0:
64,192,223175,1,0,0:0:0:0:
192,192,223221,1,0,0:0:0:0:
320,192,223266,1,0,0:0:0:0:
448,192,223311,1,0,0:0:0:0:
192,192,223356,1,0,0:0:0:0:
64,192,223401,1,0,0:0:0:0:
320,192,223446,1,0,0:0:0:0:
448,192,223492,1,0,0:0:0:0:
192,192,223537,1,0,0:0:0:0:
64,192,223582,1,0,0:0:0:0:
320,192,223627,1,0,0:0:0:0:
448,192,223672,1,0,0:0:0:0:
192,192,223718,1,0,0:0:0:0:
64,192,223763,1,0,0:0:0:0:
320,192,223808,1,0,0:0:0:0:
448,192,223853,1,0,0:0:0:0:
192,192,223898,1,0,0:0:0:0:
64,192,223943,1,0,0:0:0:0:
320,192,223989,1,0,0:0:0:0:
448,192,224034,1,0,0:0:0:0:
64,192,224079,1,0,0:0:0:0:
320,192,224124,1,0,0:0:0:0:
192,192,224169,1,0,0:0:0:0:
64,192,224214,1,0,0:0:0:0:
448,192,224260,1,0,0:0:0:0:
192,192,224305,1,0,0:0:0:0:
320,192,224350,1,0,0:0:0:0:
448,192,224395,1,0,0:0:0:0:
64,192,224440,1,0,0:0:0:0:
320,192,224486,1,0,0:0:0:0:
192,192,224531,1,0,0:0:0:0:
64,192,224576,1,0,0:0:0:0:
448,192,224621,1,0,0:0:0:0:
192,192,224666,1,0,0:0:0:0:
320,192,224711,1,0,0:0:0:0:
448,192,224757,1,0,0:0:0:0:
64,192,224802,1,0,0:0:0:0:
320,192,224847,1,0,0:0:0:0:
192,192,224892,1,0,0:0:0:0:
64,192,224937,1,0,0:0:0:0:
448,192,224983,1,0,0:0:0:0:
192,192,225028,1,0,0:0:0:0:
320,192,225073,1,0,0:0:0:0:
448,192,225118,1,0,0:0:0:0:
64,192,225163,1,0,0:0:0:0:
320,192,225208,1,0,0:0:0:0:
192,192,225254,1,0,0:0:0:0:
64,192,225299,1,0,0:0:0:0:
448,192,225344,1,0,0:0:0:0:
192,192,225389,1,0,0:0:0:0:
320,192,225434,1,0,0:0:0:0:
448,192,225480,1,0,0:0:0:0:
64,192,225525,1,0,0:0:0:0:
192,192,225570,1,0,0:0:0:0:
320,192,225615,1,0,0:0:0:0:
448,192,225660,1,0,0:0:0:0:
64,192,225705,1,0,0:0:0:0:
192,192,225751,1,0,0:0:0:0:
320,192,225796,1,0,0:0:0:0:
448,192,225841,1,0,0:0:0:0:
64,192,225886,1,0,0:0:0:0:
192,192,225931,1,0,0:0:0:0:
320,192,225977,1,0,0:0:0:0:
64,192,226022,1,0,0:0:0:0:
448,192,226067,1,0,0:0:0:0:
320,192,226112,1,0,0:0:0:0:
64,192,226157,1,0,0:0:0:0:
192,192,226202,1,0,0:0:0:0:
448,192,226248,1,0,0:0:0:0:
320,192,226293,1,0,0:0:0:0:
192,192,226338,1,0,0:0:0:0:
64,192,226383,1,0,0:0:0:0:
448,192,226428,1,0,0:0:0:0:
320,192,226474,1,0,0:0:0:0:
192,192,226519,1,0,0:0:0:0:
64,192,226564,1,0,0:0:0:0:
448,192,226609,1,0,0:0:0:0:
320,192,226654,1,0,0:0:0:0:
192,192,226699,1,0,0:0:0:0:
448,192,226745,1,0,0:0:0:0:
64,192,226790,1,0,0:0:0:0:
192,192,226835,1,0,0:0:0:0:
448,192,226880,1,0,0:0:0:0:
320,192,226925,1,0,0:0:0:0:
64,192,226971,1,0,0:0:0:0:
192,192,227016,1,0,0:0:0:0:
448,192,227061,1,0,0:0:0:0:
320,192,227106,1,0,0:0:0:0:
64,192,227151,1,0,0:0:0:0:
192,192,227196,1,0,0:0:0:0:
448,192,227242,1,0,0:0:0:0:
320,192,227287,1,0,0:0:0:0:
64,192,227332,1,0,0:0:0:0:
192,192,227377,1,0,0:0:0:0:
448,192,227422,1,0,0:0:0:0:
320,192,227468,1,0,0:0:0:0:
64,192,227513,1,0,0:0:0:0:
192,192,227558,1,0,0:0:0:0:
448,192,227603,1,0,0:0:0:0:
320,192,227648,1,0,0:0:0:0:
192,192,227693,1,0,0:0:0:0:
64,192,227739,1,0,0:0:0:0:
448,192,227784,1,0,0:0:0:0:
320,192,227829,1,0,0:0:0:0:
192,192,227874,1,0,0:0:0:0:
64,192,227919,1,0,0:0:0:0:
448,192,227964,1,0,0:0:0:0:
192,192,228010,1,0,0:0:0:0:
320,192,228055,1,0,0:0:0:0:
448,192,228100,1,0,0:0:0:0:
64,192,228145,1,0,0:0:0:0:
192,192,228190,1,0,0:0:0:0:
320,192,228236,1,0,0:0:0:0:
448,192,228281,1,0,0:0:0:0:
64,192,228326,1,0,0:0:0:0:
192,192,228371,1,0,0:0:0:0:
320,192,228416,1,0,0:0:0:0:
448,192,228461,1,0,0:0:0:0:
64,192,228507,1,0,0:0:0:0:
192,192,228552,1,0,0:0:0:0:
320,192,228597,1,0,0:0:0:0:
448,192,228642,1,0,0:0:0:0:
320,192,228687,1,0,0:0:0:0:
192,192,228733,1,0,0:0:0:0:
64,192,228778,1,0,0:0:0:0:
448,192,228823,1,0,0:0:0:0:
320,192,228868,1,0,0:0:0:0:
64,192,228913,1,0,0:0:0:0:
192,192,228958,1,0,0:0:0:0:
320,192,229004,1,0,0:0:0:0:
448,192,229049,1,0,0:0:0:0:
320,192,229094,1,0,0:0:0:0:
192,192,229139,1,0,0:0:0:0:
64,192,229184,1,0,0:0:0:0:
448,192,229230,1,0,0:0:0:0:
320,192,229275,1,0,0:0:0:0:
64,192,229320,1,0,0:0:0:0:
192,192,229365,1,0,0:0:0:0:
320,192,229410,1,0,0:0:0:0:
448,192,229455,1,0,0:0:0:0:
320,192,229501,1,0,0:0:0:0:
192,192,229546,1,0,0:0:0:0:
64,192,229591,1,0,0:0:0:0:
448,192,229636,1,0,0:0:0:0:
320,192,229681,1,0,0:0:0:0:
192,192,229727,1,0,0:0:0:0:
64,192,229772,1,0,0:0:0:0:
448,192,229817,1,0,0:0:0:0:
320,192,229862,1,0,0:0:0:0:
192,192,229907,1,0,0:0:0:0:
64,192,229952,1,0,0:0:0:0:
448,192,229998,1,0,0:0:0:0:
320,192,230043,1,0,0:0:0:0:
64,192,230088,1,0,0:0:0:0:
192,192,230133,1,0,0:0:0:0:
320,192,230178,1,0,0:0:0:0:
448,192,230224,1,0,0:0:0:0:
320,192,230269,1,0,0:0:0:0:
192,192,230314,1,0,0:0:0:0:
64,192,230359,1,0,0:0:0:0:
448,192,230404,1,0,0:0:0:0:
320,192,230449,1,0,0:0:0:0:
192,192,230495,1,0,0:0:0:0:
64,192,230540,1,0,0:0:0:0:
192,192,230585,1,0,0:0:0:0:
320,192,230630,1,0,0:0:0:0:
448,192,230675,1,0,0:0:0:0:
64,192,230721,1,0,0:0:0:0:
192,192,230766,1,0,0:0:0:0:
448,192,230811,1,0,0:0:0:0:
320,192,230856,1,0,0:0:0:0:
192,192,230901,1,0,0:0:0:0:
64,192,230946,1,0,0:0:0:0:
192,192,230992,1,0,0:0:0:0:
320,192,231037,1,0,0:0:0:0:
448,192,231082,1,0,0:0:0:0:
192,192,231127,1,0,0:0:0:0:
64,192,231172,1,0,0:0:0:0:
320,192,231218,1,0,0:0:0:0:
192,192,231263,1,0,0:0:0:0:
448,192,231308,1,0,0:0:0:0:
320,192,231353,1,0,0:0:0:0:
64,192,231398,1,0,0:0:0:0:
192,192,231443,1,0,0:0:0:0:
448,192,231489,1,0,0:0:0:0:
320,192,231534,1,0,0:0:0:0:
192,192,231579,1,0,0:0:0:0:
64,192,231624,1,0,0:0:0:0:
448,192,231669,1,0,0:0:0:0:
192,192,231714,1,0,0:0:0:0:
320,192,231760,1,0,0:0:0:0:
64,192,231805,1,0,0:0:0:0:
448,192,231850,1,0,0:0:0:0:
320,192,231895,1,0,0:0:0:0:
192,192,231940,1,0,0:0:0:0:
64,192,231986,1,0,0:0:0:0:
320,192,232031,1,0,0:0:0:0:
448,192,232076,1,0,0:0:0:0:
64,192,232121,1,0,0:0:0:0:
192,192,232166,1,0,0:0:0:0:
320,192,232211,1,0,0:0:0:0:
64,192,232257,1,0,0:0:0:0:
448,192,232302,1,0,0:0:0:0:
192,192,232347,1,0,0:0:0:0:
320,192,232392,1,0,0:0:0:0:
448,192,232437,1,0,0:0:0:0:
192,192,232483,1,0,0:0:0:0:
64,192,232528,1,0,0:0:0:0:
320,192,232573,1,0,0:0:0:0:
448,192,232618,1,0,0:0:0:0:
64,192,232663,1,0,0:0:0:0:
320,192,232708,1,0,0:0:0:0:
192,192,232754,1,0,0:0:0:0:
64,192,232799,1,0,0:0:0:0:
448,192,232844,1,0,0:0:0:0:
320,192,232889,1,0,0:0:0:0:
192,192,232934,1,0,0:0:0:0:
64,192,232980,1,0,0:0:0:0:
320,192,233025,1,0,0:0:0:0:
448,192,233070,1,0,0:0:0:0:
192,192,233115,1,0,0:0:0:0:
320,192,233160,1,0,0:0:0:0:
64,192,233205,1,0,0:0:0:0:
448,192,233251,1,0,0:0:0:0:
192,192,233296,1,0,0:0:0:0:
64,192,233341,1,0,0:0:0:0:
320,192,233386,1,0,0:0:0:0:
192,192,233431,1,0,0:0:0:0:
64,192,233477,1,0,0:0:0:0:
320,192,233522,1,0,0:0:0:0:
448,192,233567,1,0,0:0:0:0:
192,192,233612,1,0,0:0:0:0:
64,192,233657,1,0,0:0:0:0:
320,192,233702,1,0,0:0:0:0:
192,192,233748,1,0,0:0:0:0:
448,192,233793,1,0,0:0:0:0:
64,192,233838,1,0,0:0:0:0:
192,192,233883,1,0,0:0:0:0:
320,192,233928,1,0,0:0:0:0:
448,192,233974,1,0,0:0:0:0:
64,192,234019,1,0,0:0:0:0:
320,192,234064,1,0,0:0:0:0:
192,192,234109,1,0,0:0:0:0:
64,192,234154,1,0,0:0:0:0:
448,192,234199,1,0,0:0:0:0:
320,192,234199,1,0,0:0:0:0:
192,192,234245,1,0,0:0:0:0:
64,192,234290,1,0,0:0:0:0:
320,192,234335,1,0,0:0:0:0:
448,192,234380,1,0,0:0:0:0:
64,192,234425,1,0,0:0:0:0:
192,192,234471,1,0,0:0:0:0:
320,192,234516,1,0,0:0:0:0:
448,192,234561,1,0,0:0:0:0:
64,192,234606,1,0,0:0:0:0:
320,192,234651,1,0,0:0:0:0:
192,192,234696,1,0,0:0:0:0:
448,192,234742,1,0,0:0:0:0:
320,192,234787,1,0,0:0:0:0:
192,192,234832,1,0,0:0:0:0:
448,192,234877,1,0,0:0:0:0:
320,192,234922,1,0,0:0:0:0:
64,192,234922,1,0,0:0:0:0:
192,192,234968,1,0,0:0:0:0:
448,192,235013,1,0,0:0:0:0:
64,192,235058,1,0,0:0:0:0:
192,192,235103,1,0,0:0:0:0:
448,192,235148,1,0,0:0:0:0:
320,192,235193,1,0,0:0:0:0:
64,192,235239,1,0,0:0:0:0:
192,192,235284,1,0,0:0:0:0:
320,192,235329,1,0,0:0:0:0:
64,192,235374,1,0,0:0:0:0:
448,192,235419,1,0,0:0:0:0:
192,192,235464,1,0,0:0:0:0:
64,192,235510,1,0,0:0:0:0:
320,192,235555,1,0,0:0:0:0:
448,192,235600,1,0,0:0:0:0:
192,192,235645,1,0,0:0:0:0:
64,192,235645,1,0,0:0:0:0:
320,192,235690,1,0,0:0:0:0:
448,192,235736,1,0,0:0:0:0:
192,192,235781,1,0,0:0:0:0:
64,192,235826,1,0,0:0:0:0:
320,192,235871,1,0,0:0:0:0:
192,192,235916,1,0,0:0:0:0:
448,192,235961,1,0,0:0:0:0:
64,192,236007,1,0,0:0:0:0:
320,192,236052,1,0,0:0:0:0:
448,192,236097,1,0,0:0:0:0:
192,192,236142,1,0,0:0:0:0:
64,192,236187,1,0,0:0:0:0:
448,192,236233,1,0,0:0:0:0:
320,192,236278,1,0,0:0:0:0:
64,192,236323,1,0,0:0:0:0:
192,192,236368,1,0,0:0:0:0:
448,192,236368,1,0,0:0:0:0:
320,192,236413,1,0,0:0:0:0:
64,192,236458,1,0,0:0:0:0:
192,192,236504,1,0,0:0:0:0:
320,192,236549,1,0,0:0:0:0:
448,192,236594,1,0,0:0:0:0:
192,192,236639,1,0,0:0:0:0:
64,192,236684,1,0,0:0:0:0:
320,192,236730,1,0,0:0:0:0:
448,192,236775,1,0,0:0:0:0:
64,192,236820,1,0,0:0:0:0:
192,192,236865,1,0,0:0:0:0:
320,192,236910,1,0,0:0:0:0:
64,192,236955,1,0,0:0:0:0:
448,192,237001,1,0,0:0:0:0:
320,192,237046,1,0,0:0:0:0:
192,192,237091,1,0,0:0:0:0:
64,192,237091,1,0,0:0:0:0:
320,192,237181,1,0,0:0:0:0:
192,192,237272,1,0,0:0:0:0:
64,192,237362,1,0,0:0:0:0:
192,192,237452,1,0,0:0:0:0:
320,192,237543,1,0,0:0:0:0:
192,192,237633,1,0,0:0:0:0:
448,192,237724,1,0,0:0:0:0:
320,192,237814,1,0,0:0:0:0:
64,192,237814,1,0,0:0:0:0:
192,192,237904,1,0,0:0:0:0:
448,192,237995,1,0,0:0:0:0:
320,192,238085,1,0,0:0:0:0:
448,192,238175,1,0,0:0:0:0:
64,192,238266,1,0,0:0:0:0:
448,192,238356,1,0,0:0:0:0:
192,192,238446,1,0,0:0:0:0:
320,192,238537,1,0,0:0:0:0:
448,192,238537,1,0,0:0:0:0:
64,192,238627,1,0,0:0:0:0:
320,192,238718,1,0,0:0:0:0:
448,192,238808,1,0,0:0:0:0:
320,192,238898,1,0,0:0:0:0:
64,192,238989,1,0,0:0:0:0:
320,192,239079,1,0,0:0:0:0:
192,192,239169,1,0,0:0:0:0:
64,192,239260,1,0,0:0:0:0:
320,192,239260,1,0,0:0:0:0:
448,192,239350,1,0,0:0:0:0:
192,192,239440,1,0,0:0:0:0:
320,192,239531,1,0,0:0:0:0:
192,192,239621,1,0,0:0:0:0:
448,192,239711,1,0,0:0:0:0:
192,192,239802,1,0,0:0:0:0:
64,192,239892,1,0,0:0:0:0:
320,192,239983,1,0,0:0:0:0:
448,192,239983,1,0,0:0:0:0:
192,192,240073,1,0,0:0:0:0:
320,192,240163,1,0,0:0:0:0:
64,192,240254,1,0,0:0:0:0:
320,192,240344,1,0,0:0:0:0:
448,192,240434,1,0,0:0:0:0:
320,192,240525,1,0,0:0:0:0:
64,192,240615,1,0,0:0:0:0:
192,192,240705,1,0,0:0:0:0:
448,192,240705,1,0,0:0:0:0:
320,192,240796,1,0,0:0:0:0:
64,192,240886,1,0,0:0:0:0:
448,192,240977,1,0,0:0:0:0:
64,192,241067,1,0,0:0:0:0:
192,192,241157,1,0,0:0:0:0:
64,192,241248,1,0,0:0:0:0:
320,192,241338,1,0,0:0:0:0:
192,192,241428,1,0,0:0:0:0:
64,192,241428,1,0,0:0:0:0:
448,192,241519,1,0,0:0:0:0:
192,192,241609,1,0,0:0:0:0:
320,192,241699,1,0,0:0:0:0:
192,192,241790,1,0,0:0:0:0:
64,192,241880,1,0,0:0:0:0:
192,192,241971,1,0,0:0:0:0:
320,192,242061,1,0,0:0:0:0:
448,192,242151,1,0,0:0:0:0:
192,192,242151,1,0,0:0:0:0:
64,192,242242,1,0,0:0:0:0:
320,192,242332,1,0,0:0:0:0:
192,192,242422,1,0,0:0:0:0:
320,192,242513,1,0,0:0:0:0:
64,192,242603,1,0,0:0:0:0:
320,192,242693,1,0,0:0:0:0:
448,192,242784,1,0,0:0:0:0:
192,192,242874,5,0,0:0:0:0:
64,192,242874,1,0,0:0:0:0:
320,192,243055,1,0,0:0:0:0:
448,192,243236,1,0,0:0:0:0:
192,192,243416,1,0,0:0:0:0:
320,192,243597,1,0,0:0:0:0:
448,192,243778,1,0,0:0:0:0:
64,192,243958,1,0,0:0:0:0:
320,192,244139,1,0,0:0:0:0:
448,192,244320,1,0,0:0:0:0:
192,192,244501,1,0,0:0:0:0:
320,192,244681,1,0,0:0:0:0:
64,192,244862,1,0,0:0:0:0:
192,192,245043,1,0,0:0:0:0:
320,192,245224,1,0,0:0:0:0:
192,192,245404,1,0,0:0:0:0:
64,192,245585,1,0,0:0:0:0:
320,192,245766,1,0,0:0:0:0:
448,192,245766,1,0,0:0:0:0:
