osu file format v14

[General]
AudioFilename: audio.mp3
AudioLeadIn: 0
PreviewTime: 17369
Countdown: 0
SampleSet: Soft
StackLeniency: 0
Mode: 1
LetterboxInBreaks: 0
WidescreenStoryboard: 0

[Editor]
DistanceSpacing: 1
BeatDivisor: 12
GridSize: 32
TimelineZoom: 1

[Metadata]
Title:Maigo no Haien
TitleUnicode:迷子の廃園
Artist:Kikuo
ArtistUnicode:きくお
Creator:Alchyr
Version:Kantan
Source:
Tags:Deserted Garden of the Lost Children featured artist fa KIKUOWORLD classical instrumental mappers' guild mg
BeatmapID:3850580
BeatmapSetID:1871425

[Difficulty]
HPDrainRate:9.5
CircleSize:2
OverallDifficulty:4
ApproachRate:10
SliderMultiplier:1.4
SliderTickRate:1

[Events]
//Background and Video events
0,0,"bg.jpg",0,0
//Break Periods
//Storyboard Layer 0 (Background)
//Storyboard Layer 1 (Fail)
//Storyboard Layer 2 (Pass)
//Storyboard Layer 3 (Foreground)
//Storyboard Layer 4 (Overlay)
//Storyboard Sound Samples

[TimingPoints]
1870,333.333333333333,3,2,0,44,1,8
2869,333.333333333333,3,2,0,44,1,8
3536,333.333333333333,3,2,0,44,1,0

[HitObjects]
444,384,1870,5,0,0:0:0:0:
444,384,2869,1,0,0:0:0:0:
444,384,3536,1,8,0:0:0:0:
256,192,4035,1,0,0:0:0:0:
256,192,4202,1,0,0:0:0:0:
256,192,5202,1,8,0:0:0:0:
444,384,5535,1,8,0:0:0:0:
256,192,5869,1,0,0:0:0:0:
256,192,6202,1,0,0:0:0:0:
256,192,6535,1,8,0:0:0:0:
256,192,6869,1,0,0:0:0:0:
256,192,7202,1,0,0:0:0:0:
256,192,7535,1,8,0:0:0:0:
256,192,7869,1,0,0:0:0:0:
444,384,8202,1,0,0:0:0:0:
256,192,9535,1,0,0:0:0:0:
256,192,10535,1,8,0:0:0:0:
444,384,11202,1,8,0:0:0:0:
444,384,11535,1,8,0:0:0:0:
256,192,12035,1,0,0:0:0:0:
256,192,12202,1,0,0:0:0:0:
256,192,13202,1,0,0:0:0:0:
444,384,13535,1,8,0:0:0:0:
256,192,13869,1,0,0:0:0:0:
256,192,14202,1,8,0:0:0:0:
256,192,14535,1,0,0:0:0:0:
256,192,14869,1,8,0:0:0:0:
444,384,15202,1,8,0:0:0:0:
256,192,15535,1,0,0:0:0:0:
444,384,16202,1,8,0:0:0:0:
444,384,16535,1,8,0:0:0:0:
444,384,17535,1,8,0:0:0:0:
256,192,18035,1,0,0:0:0:0:
256,192,18202,1,0,0:0:0:0:
256,192,19202,1,8,0:0:0:0:
444,384,19535,1,8,0:0:0:0:
256,192,19869,1,0,0:0:0:0:
256,192,20202,1,0,0:0:0:0:
256,192,20535,1,8,0:0:0:0:
256,192,20869,1,8,0:0:0:0:
256,192,21202,1,0,0:0:0:0:
256,192,21535,1,8,0:0:0:0:
256,192,21869,1,0,0:0:0:0:
444,384,22202,1,0,0:0:0:0:
256,192,23535,1,0,0:0:0:0:
444,384,24535,1,8,0:0:0:0:
444,384,25202,1,8,0:0:0:0:
444,384,25535,1,8,0:0:0:0:
256,192,26036,1,0,0:0:0:0:
256,192,26202,1,0,0:0:0:0:
256,192,27202,1,8,0:0:0:0:
444,384,27535,1,8,0:0:0:0:
256,192,27869,1,0,0:0:0:0:
256,192,28202,1,8,0:0:0:0:
256,192,28535,1,0,0:0:0:0:
256,192,28869,1,8,0:0:0:0:
444,384,29202,1,8,0:0:0:0:
444,384,29535,1,0,0:0:0:0:
256,192,30535,1,8,0:0:0:0:
256,192,30869,1,8,0:0:0:0:
444,384,31202,1,8,0:0:0:0:
444,384,31535,1,0,0:0:0:0:
444,384,31869,1,0,0:0:0:0:
256,192,32202,1,0,0:0:0:0:
256,192,32535,1,8,0:0:0:0:
444,384,33535,1,8,0:0:0:0:
256,192,33869,1,0,0:0:0:0:
444,384,34202,1,8,0:0:0:0:
256,192,34535,1,0,0:0:0:0:
444,384,35202,1,0,0:0:0:0:
444,384,35535,1,0,0:0:0:0:
256,192,36202,1,8,0:0:0:0:
444,384,36535,1,0,0:0:0:0:
256,192,36869,1,0,0:0:0:0:
256,192,37202,1,0,0:0:0:0:
256,192,37535,1,12,0:0:0:0:
256,192,38535,1,8,0:0:0:0:
256,192,38869,1,8,0:0:0:0:
444,384,39202,1,8,0:0:0:0:
444,384,39535,1,0,0:0:0:0:
444,384,39869,1,0,0:0:0:0:
256,192,40202,1,0,0:0:0:0:
256,192,40535,1,8,0:0:0:0:
444,384,41535,1,8,0:0:0:0:
256,192,41869,1,0,0:0:0:0:
444,384,42202,1,8,0:0:0:0:
256,192,42535,1,0,0:0:0:0:
256,192,42869,1,0,0:0:0:0:
256,192,43202,1,0,0:0:0:0:
256,192,43535,1,8,0:0:0:0:
256,192,44202,1,0,0:0:0:0:
256,192,44535,1,0,0:0:0:0:
261,185,44869,1,8,0:0:0:0:
256,192,45202,1,8,0:0:0:0:
256,192,45536,1,0,0:0:0:0:
444,384,46536,1,0,0:0:0:0:
444,384,47536,1,0,0:0:0:0:
444,384,48536,1,0,0:0:0:0:
444,384,49536,1,8,0:0:0:0:
444,384,50536,1,8,0:0:0:0:
444,384,51536,1,8,0:0:0:0:
256,192,52536,1,0,0:0:0:0:
444,384,53536,1,8,0:0:0:0:
256,192,54202,1,0,0:0:0:0:
256,192,54536,1,0,0:0:0:0:
31,257,54869,1,8,0:0:0:0:
444,384,55202,1,8,0:0:0:0:
256,192,55536,1,0,0:0:0:0:
444,384,56202,1,8,0:0:0:0:
444,384,56536,1,8,0:0:0:0:
