osu file format v14

[General]
AudioFilename: audio.mp3
AudioLeadIn: 0
PreviewTime: 17369
Countdown: 0
SampleSet: Soft
StackLeniency: 0
Mode: 1
LetterboxInBreaks: 0
WidescreenStoryboard: 0

[Editor]
DistanceSpacing: 1
BeatDivisor: 2
GridSize: 32
TimelineZoom: 2.3

[Metadata]
Title:Maigo no Haien
TitleUnicode:迷子の廃園
Artist:Kikuo
ArtistUnicode:きくお
Creator:Alchyr
Version:Astray
Source:
Tags:Deserted Garden of the Lost Children featured artist fa KIKUOWORLD classical instrumental mappers' guild mg
BeatmapID:3850578
BeatmapSetID:1871425

[Difficulty]
HPDrainRate:10
CircleSize:2
OverallDifficulty:5
ApproachRate:10
SliderMultiplier:1.4
SliderTickRate:1

[Events]
//Background and Video events
0,0,"bg.jpg",0,0
//Break Periods
//Storyboard Layer 0 (Background)
//Storyboard Layer 1 (Fail)
//Storyboard Layer 2 (Pass)
//Storyboard Layer 3 (Foreground)
//Storyboard Layer 4 (Overlay)
//Storyboard Sound Samples

[TimingPoints]
1870,333.333333333333,3,2,0,44,1,8
1870,-200,3,2,0,44,0,0
2869,333.333333333333,3,2,0,44,1,8
2869,-147.54085496318,3,2,0,44,0,0
3536,333.333333333333,3,2,0,44,1,0
3536,-120.481927710843,3,2,0,44,0,0
17527,-87.719298245614,3,2,0,44,0,0
17860,-90.0522618445262,3,2,0,44,0,0
18027,-92.925546144484,3,2,0,44,0,0
18194,-96.820223616584,3,2,0,44,0,0
18527,-106.705600627857,3,2,0,44,0,0
18860,-116.318907007777,3,2,0,44,0,0
19194,-120.481927710843,3,2,0,44,0,0
19360,-119.639155081585,3,2,0,44,0,0
19527,-117.201266211304,3,2,0,44,0,0
19694,-113.470838631032,3,2,0,44,0,0
19860,-108.892301827015,3,2,0,44,0,0
20027,-103.84472309082,3,2,0,44,0,0
20194,-98.7408902353538,3,2,0,44,0,0
20360,-93.9106656732137,3,2,0,44,0,0
20527,-89.5056147952153,3,2,0,44,0,0
20694,-85.6880576163501,3,2,0,44,0,0
20860,-82.5481595600662,3,2,0,44,0,0
21027,-80.0822409697549,3,2,0,44,0,0
21194,-78.3228326211276,3,2,0,44,0,0
21360,-77.2748030475485,3,2,0,44,0,0
21527,-76.9230769230769,3,2,0,44,0,0
21860,-77.6084908175142,3,2,0,44,0,0
22194,-79.6770274894118,3,2,0,44,0,0
22527,-83.1178079160885,3,2,0,44,0,0
22860,-87.8996370707362,3,2,0,44,0,0
23194,-93.906479202167,3,2,0,44,0,0
23527,-100.772027099569,3,2,0,44,0,0
23860,-107.887855178909,3,2,0,44,0,0
24194,-114.311461341166,3,2,0,44,0,0
24527,-118.838068907477,3,2,0,44,0,0
24860,-120.481927710843,3,2,0,44,0,0
25194,-102.902456132002,3,2,0,44,0,0
25360,-96.5744637850186,3,2,0,44,0,0
25527,-91.6061714821464,3,2,0,44,0,0
25860,-85.3422905407945,3,2,0,44,0,0
26027,-83.831481732595,3,2,0,44,0,0
26194,-83.3333333333333,3,2,0,44,0,0
26527,-84.1037681166847,3,2,0,44,0,0
26860,-86.4226859027078,3,2,0,44,0,0
27194,-90.3179190751445,3,2,0,44,0,0
27360,-87.3784397697434,3,2,0,44,0,0
27527,-86.2068965517241,3,2,0,44,0,0
27694,-86.7312477915749,3,2,0,44,0,0
27860,-88.2932935423928,3,2,0,44,0,0
28027,-90.9126538468044,3,2,0,44,0,0
28194,-94.5709620632127,3,2,0,44,0,0
28360,-99.1904494818983,3,2,0,44,0,0
28527,-104.712041884817,3,2,0,44,0,0
28694,-110.884608018273,3,2,0,44,0,0
28860,-117.28926154738,3,2,0,44,0,0
29027,-123.450219850254,3,2,0,44,0,0
29194,-128.632063352012,3,2,0,44,0,0
29360,-132.098125363993,3,2,0,44,0,0
29527,-133.333333333333,3,2,0,44,0,0
29860,-138.713017412163,3,2,0,44,0,0
30194,-144.326901638466,3,2,0,44,0,0
30527,-150.15015015015,3,2,0,44,0,0
30694,-142.098329199125,3,2,0,44,0,0
30860,-134.522678581586,3,2,0,44,0,0
31027,-127.308882786456,3,2,0,44,0,0
31194,-120.481927710843,3,2,0,44,0,0
31484,-100,3,2,0,44,0,0
31694,-100.617772316131,3,2,0,44,0,0
31860,-102.439863294499,3,2,0,44,0,0
32024,-105.430491240368,3,2,0,44,0,0
32191,-109.459211910495,3,2,0,44,0,0
32357,-114.270332042911,3,2,0,44,0,0
32524,-119.557490902258,3,2,0,44,0,0
32857,-129.206308147425,3,2,0,44,0,0
33191,-133.333333333333,3,2,0,44,0,0
33524,-87.719298245614,3,2,0,44,0,0
33691,-88.3090589544009,3,2,0,44,0,0
33857,-90.0522618445262,3,2,0,44,0,0
34024,-92.925546144484,3,2,0,44,0,0
34191,-96.820223616584,3,2,0,44,0,0
34357,-101.507791164714,3,2,0,44,0,0
34524,-106.705600627857,3,2,0,44,0,0
34857,-116.318907007777,3,2,0,44,0,0
35191,-120.481927710843,3,2,0,44,0,0
35524,-117.319862504175,3,2,0,44,0,0
35857,-114.240786145387,3,2,0,44,0,0
36191,-111.233636335174,3,2,0,44,0,0
36524,-108.31429384166,3,2,0,44,0,0
36857,-105.471569904145,3,2,0,44,0,0
37191,-102.695251374469,3,2,0,44,0,0
37482,-87.719298245614,3,2,0,44,0,0
37821,-100,3,2,0,44,0,0
38191,-101.655985512213,3,2,0,44,0,0
38524,-106.243283175693,3,2,0,44,0,0
38691,-109.299184997294,3,2,0,44,0,0
38857,-112.51580503556,3,2,0,44,0,0
39024,-115.603555865511,3,2,0,44,0,0
39191,-118.17594312189,3,2,0,44,0,0
39357,-119.878913753778,3,2,0,44,0,0
39524,-120.481927710843,3,2,0,44,0,0
39691,-119.527011057258,3,2,0,44,0,0
39857,-116.860256655687,3,2,0,44,0,0
40024,-112.914173628903,3,2,0,44,0,0
40191,-108.30351083336,3,2,0,44,0,0
40357,-103.640605204231,3,2,0,44,0,0
40524,-99.3375281496441,3,2,0,44,0,0
40857,-93.0988175417677,3,2,0,44,0,0
41191,-98.0392156862745,3,2,0,44,0,0
41524,-111.111111111111,3,2,0,44,0,0
41691,-109.153641827925,3,2,0,44,0,0
41857,-104.178473022377,3,2,0,44,0,0
42024,-98.0392156862745,3,2,0,44,0,0
42191,-92.5832661107,3,2,0,44,0,0
42357,-88.9790416922422,3,2,0,44,0,0
42524,-87.719298245614,3,2,0,44,0,0
42691,-85.8162867926046,3,2,0,44,0,0
42857,-83.9655868794802,3,2,0,44,0,0
43024,-82.1440096816907,3,2,0,44,0,0
43191,-80.3619503817784,3,2,0,44,0,0
43357,-78.6288777897483,3,2,0,44,0,0
43524,-76.9230769230769,3,2,0,44,0,0
44024,-99.009900990099,3,2,0,44,0,0
44191,-99.5469790688749,3,2,0,44,0,0
44357,-101.113832504788,3,2,0,44,0,0
44524,-103.626943005181,3,2,0,44,0,0
44691,-106.887115797356,3,2,0,44,0,0
44857,-110.566442986025,3,2,0,44,0,0
45024,-114.285714285714,3,2,0,44,0,0
45191,-117.506655044647,3,2,0,44,0,0
45357,-119.69609050155,3,2,0,44,0,0
45524,-120.481927710843,3,2,0,44,0,0
45857,-123.015715533444,3,2,0,44,0,0
46191,-125.610640389823,3,2,0,44,0,0
46524,-128.252287291196,3,2,0,44,0,0
46857,-130.949489186397,3,2,0,44,0,0
47191,-133.711771086286,3,2,0,44,0,0
47524,-136.523788322016,3,2,0,44,0,0
47857,-139.394943514484,3,2,0,44,0,0
48191,-142.335375980456,3,2,0,44,0,0
48524,-145.328751412248,3,2,0,44,0,0
48857,-148.385078843246,3,2,0,44,0,0
49191,-151.515151515152,3,2,0,44,0,0
49524,-87.719298245614,3,2,0,44,0,0
49857,-91.1188755061106,3,2,0,44,0,0
50191,-94.6610120920415,3,2,0,44,0,0
50524,-98.3296167275076,3,2,0,44,0,0
50857,-102.140398798794,3,2,0,44,0,0
51191,-106.110983833752,3,2,0,44,0,0
51524,-110.223334193875,3,2,0,44,0,0
51857,-114.495059435594,3,2,0,44,0,0
52191,-118.945917028848,3,2,0,44,0,0
52524,-123.555687545114,3,2,0,44,0,0
52857,-128.344110551045,3,2,0,44,0,0
53191,-133.333333333333,3,2,0,44,0,0
53440,-76.9230769230769,3,2,0,44,0,0
54025,-99.009900990099,3,2,0,44,0,0
54192,-99.5469790688749,3,2,0,44,0,0
54358,-101.113832504788,3,2,0,44,0,0
54525,-103.626943005181,3,2,0,44,0,0
54692,-106.887115797356,3,2,0,44,0,0
54858,-110.566442986025,3,2,0,44,0,0
55025,-114.285714285714,3,2,0,44,0,0
55192,-117.506655044647,3,2,0,44,0,0
55358,-119.69609050155,3,2,0,44,0,0
55525,-120.481927710843,3,2,0,44,0,0
55858,-100,3,2,0,44,0,0

[HitObjects]
444,384,1870,5,0,0:0:0:0:
444,384,2869,1,0,0:0:0:0:
444,384,3536,1,8,0:0:0:0:
444,384,3869,1,0,0:0:0:0:
444,384,4035,1,8,0:0:0:0:
444,384,4202,1,8,0:0:0:0:
444,384,4535,1,0,0:0:0:0:
444,384,4869,1,8,0:0:0:0:
444,384,5202,1,0,0:0:0:0:
444,384,5369,1,8,0:0:0:0:
444,384,5535,1,8,0:0:0:0:
444,384,5702,1,0,0:0:0:0:
444,384,5869,1,8,0:0:0:0:
444,384,6035,1,0,0:0:0:0:
444,384,6202,1,0,0:0:0:0:
444,384,6369,1,0,0:0:0:0:
444,384,6535,1,8,0:0:0:0:
444,384,6702,1,0,0:0:0:0:
444,384,6869,1,8,0:0:0:0:
444,384,7035,1,8,0:0:0:0:
444,384,7202,1,8,0:0:0:0:
444,384,7369,1,0,0:0:0:0:
444,384,7535,1,8,0:0:0:0:
444,384,7869,1,0,0:0:0:0:
444,384,8202,1,0,0:0:0:0:
444,384,8535,1,8,0:0:0:0:
444,384,8869,1,0,0:0:0:0:
444,384,9202,1,0,0:0:0:0:
444,384,9535,1,8,0:0:0:0:
444,384,9869,1,0,0:0:0:0:
444,384,10202,1,0,0:0:0:0:
444,384,10535,1,8,0:0:0:0:
444,384,10869,1,0,0:0:0:0:
444,384,11202,1,8,0:0:0:0:
444,384,11369,1,0,0:0:0:0:
444,384,11535,1,8,0:0:0:0:
444,384,11869,1,0,0:0:0:0:
444,384,12035,1,8,0:0:0:0:
444,384,12202,1,8,0:0:0:0:
444,384,12535,1,0,0:0:0:0:
444,384,12869,1,8,0:0:0:0:
444,384,13202,1,0,0:0:0:0:
444,384,13369,1,8,0:0:0:0:
444,384,13535,1,8,0:0:0:0:
444,384,13702,1,0,0:0:0:0:
444,384,13869,1,0,0:0:0:0:
444,384,14035,1,8,0:0:0:0:
444,384,14202,1,0,0:0:0:0:
444,384,14369,1,0,0:0:0:0:
444,384,14535,1,8,0:0:0:0:
444,384,14702,1,8,0:0:0:0:
444,384,14869,1,0,0:0:0:0:
444,384,15035,1,0,0:0:0:0:
444,384,15202,1,8,0:0:0:0:
444,384,15369,1,8,0:0:0:0:
444,384,15535,1,0,0:0:0:0:
444,384,16035,1,8,0:0:0:0:
444,384,16202,1,8,0:0:0:0:
444,384,16535,1,8,0:0:0:0:
444,384,17535,1,8,0:0:0:0:
444,384,17869,1,0,0:0:0:0:
444,384,18035,1,8,0:0:0:0:
444,384,18202,1,8,0:0:0:0:
444,384,18535,1,0,0:0:0:0:
444,384,18869,1,8,0:0:0:0:
444,384,19202,1,0,0:0:0:0:
444,384,19369,1,8,0:0:0:0:
444,384,19535,1,8,0:0:0:0:
444,384,19702,1,0,0:0:0:0:
444,384,19869,1,8,0:0:0:0:
444,384,20035,1,0,0:0:0:0:
444,384,20202,1,0,0:0:0:0:
444,384,20369,1,0,0:0:0:0:
444,384,20535,1,8,0:0:0:0:
444,384,20702,1,0,0:0:0:0:
444,384,20869,1,8,0:0:0:0:
444,384,21035,1,8,0:0:0:0:
444,384,21202,1,8,0:0:0:0:
444,384,21369,1,0,0:0:0:0:
444,384,21535,1,8,0:0:0:0:
444,384,21869,1,0,0:0:0:0:
444,384,22202,1,0,0:0:0:0:
444,384,22535,1,8,0:0:0:0:
444,384,22869,1,0,0:0:0:0:
444,384,23202,1,0,0:0:0:0:
444,384,23535,1,8,0:0:0:0:
444,384,23869,1,0,0:0:0:0:
444,384,24202,1,0,0:0:0:0:
444,384,24535,1,8,0:0:0:0:
444,384,24869,1,0,0:0:0:0:
444,384,25202,1,8,0:0:0:0:
444,384,25369,1,0,0:0:0:0:
444,384,25535,1,8,0:0:0:0:
444,384,25869,1,0,0:0:0:0:
444,384,26035,1,8,0:0:0:0:
444,384,26202,1,8,0:0:0:0:
444,384,26535,1,0,0:0:0:0:
444,384,26869,1,8,0:0:0:0:
444,384,27202,1,0,0:0:0:0:
444,384,27369,1,8,0:0:0:0:
444,384,27535,1,8,0:0:0:0:
444,384,27702,1,0,0:0:0:0:
444,384,27869,1,0,0:0:0:0:
444,384,28036,1,8,0:0:0:0:
444,384,28202,1,0,0:0:0:0:
444,384,28369,1,0,0:0:0:0:
444,384,28535,1,8,0:0:0:0:
444,384,28702,1,8,0:0:0:0:
444,384,28869,1,0,0:0:0:0:
444,384,29036,1,0,0:0:0:0:
444,384,29202,1,8,0:0:0:0:
444,384,29369,1,8,0:0:0:0:
444,384,29535,1,0,0:0:0:0:
444,384,29869,1,8,0:0:0:0:
444,384,30202,1,8,0:0:0:0:
444,384,30535,1,0,0:0:0:0:
444,384,30702,1,0,0:0:0:0:
444,384,30869,1,8,0:0:0:0:
444,384,31036,1,0,0:0:0:0:
444,384,31202,1,8,0:0:0:0:
444,384,31535,1,0,0:0:0:0:
444,384,31702,1,8,0:0:0:0:
444,384,31869,1,0,0:0:0:0:
444,384,32036,1,8,0:0:0:0:
444,384,32202,1,8,0:0:0:0:
444,384,32369,1,0,0:0:0:0:
444,384,32535,1,8,0:0:0:0:
444,384,32869,1,0,0:0:0:0:
444,384,33202,1,0,0:0:0:0:
444,384,33535,1,8,0:0:0:0:
444,384,33702,1,0,0:0:0:0:
444,384,33869,1,8,0:0:0:0:
444,384,34036,1,0,0:0:0:0:
444,384,34202,1,8,0:0:0:0:
444,384,34369,1,8,0:0:0:0:
444,384,34535,1,0,0:0:0:0:
444,384,34869,1,8,0:0:0:0:
444,384,35202,1,0,0:0:0:0:
444,384,35535,1,0,0:0:0:0:
444,384,35869,1,8,0:0:0:0:
444,384,36202,1,0,0:0:0:0:
444,384,36535,1,0,0:0:0:0:
444,384,36869,1,8,0:0:0:0:
444,384,37202,1,8,0:0:0:0:
444,384,37535,1,12,0:0:0:0:
444,384,37869,1,0,0:0:0:0:
444,384,38202,1,0,0:0:0:0:
444,384,38535,1,0,0:0:0:0:
444,384,38702,1,0,0:0:0:0:
444,384,38869,1,0,0:0:0:0:
444,384,39035,1,0,0:0:0:0:
444,384,39202,1,8,0:0:0:0:
444,384,39369,1,8,0:0:0:0:
444,384,39535,1,0,0:0:0:0:
444,384,39702,1,8,0:0:0:0:
444,384,39869,1,0,0:0:0:0:
444,384,40035,1,8,0:0:0:0:
444,384,40202,1,8,0:0:0:0:
444,384,40369,1,0,0:0:0:0:
444,384,40535,1,8,0:0:0:0:
444,384,40869,1,0,0:0:0:0:
444,384,41202,1,0,0:0:0:0:
444,384,41535,1,8,0:0:0:0:
444,384,41702,1,0,0:0:0:0:
444,384,41869,1,8,0:0:0:0:
444,384,42035,1,0,0:0:0:0:
444,384,42202,1,8,0:0:0:0:
444,384,42369,1,8,0:0:0:0:
444,384,42535,1,0,0:0:0:0:
444,384,42702,1,8,0:0:0:0:
444,384,42869,1,0,0:0:0:0:
444,384,43035,1,8,0:0:0:0:
444,384,43202,1,0,0:0:0:0:
444,384,43369,1,0,0:0:0:0:
444,384,43535,1,8,0:0:0:0:
444,384,44035,1,0,0:0:0:0:
444,384,44202,1,0,0:0:0:0:
444,384,44369,1,8,0:0:0:0:
444,384,44535,1,8,0:0:0:0:
444,384,44702,1,0,0:0:0:0:
444,384,44869,1,0,0:0:0:0:
444,384,45035,1,8,0:0:0:0:
444,384,45202,1,8,0:0:0:0:
444,384,45369,1,8,0:0:0:0:
444,384,45536,1,0,0:0:0:0:
444,384,45869,1,8,0:0:0:0:
444,384,46202,1,8,0:0:0:0:
444,384,46536,1,0,0:0:0:0:
444,384,46869,1,8,0:0:0:0:
444,384,47202,1,8,0:0:0:0:
444,384,47536,1,0,0:0:0:0:
444,384,47869,1,8,0:0:0:0:
444,384,48202,1,8,0:0:0:0:
444,384,48536,1,0,0:0:0:0:
444,384,48869,1,8,0:0:0:0:
444,384,49202,1,8,0:0:0:0:
444,384,49536,1,8,0:0:0:0:
444,384,49869,1,0,0:0:0:0:
444,384,50202,1,0,0:0:0:0:
444,384,50536,1,8,0:0:0:0:
444,384,50869,1,0,0:0:0:0:
444,384,51202,1,0,0:0:0:0:
444,384,51536,1,8,0:0:0:0:
444,384,51869,1,0,0:0:0:0:
444,384,52202,1,0,0:0:0:0:
444,384,52536,1,8,0:0:0:0:
444,384,52869,1,0,0:0:0:0:
444,384,53202,1,0,0:0:0:0:
444,384,53536,1,8,0:0:0:0:
444,384,54035,1,8,0:0:0:0:
444,384,54202,1,8,0:0:0:0:
444,384,54369,1,0,0:0:0:0:
444,384,54536,1,0,0:0:0:0:
444,384,54702,1,8,0:0:0:0:
444,384,54869,1,8,0:0:0:0:
444,384,55035,1,0,0:0:0:0:
444,384,55202,1,8,0:0:0:0:
444,384,55369,1,8,0:0:0:0:
444,384,55536,1,0,0:0:0:0:
444,384,56035,1,8,0:0:0:0:
444,384,56202,1,8,0:0:0:0:
444,384,56536,1,8,0:0:0:0:
