osu file format v14

[General]
AudioFilename: audio.mp3
AudioLeadIn: 0
PreviewTime: 333496
Countdown: 0
SampleSet: Soft
StackLeniency: 0.4
Mode: 0
LetterboxInBreaks: 0
WidescreenStoryboard: 0

[Editor]
Bookmarks: 5095,12313,26749,41185,59230,73667,89005,104343,118779,135246,151148,165584,176524,204330,205146,207877,222143,230434,253103,253907,265201,275772,278966,285672,288848,292576,298103,319080,331378,333516,334378,357496,387877,393496,401260,407966,409757,422388,445025,456319,466201,469378
DistanceSpacing: 1.3
BeatDivisor: 4
GridSize: 32
TimelineZoom: 2.7

[Metadata]
Title:Kara Kara Kara no Kara
TitleUnicode:カラカラカラのカラ
Artist:Kikuo
ArtistUnicode:きくお
Creator:Heniu
Version:Reprise
Source:
Tags:hatsune_miku kikuo vocaloid soft accordion breakcore marathon
BeatmapID:1816706
BeatmapSetID:869235

[Difficulty]
HPDrainRate:6
CircleSize:4
OverallDifficulty:8.7
ApproachRate:9.3
SliderMultiplier:2.8
SliderTickRate:2

[Events]
//Background and Video events
0,0,"maxresdefault.jpg",0,0
//Break Periods
2,118979,125443
2,126197,134692
2,227812,229883
//Storyboard Layer 0 (Background)
//Storyboard Layer 1 (Fail)
//Storyboard Layer 2 (Pass)
//Storyboard Layer 3 (Foreground)
//Storyboard Layer 4 (Overlay)
//Storyboard Sound Samples

[TimingPoints]
5095.65947155486,451.127819548872,4,2,0,40,1,0
5096,-66.6666666666667,4,2,0,40,0,0
5546,-133.333333333333,4,2,0,40,0,0
8930,-83.3333333333333,4,2,0,40,0,0
9381,-133.333333333333,4,2,0,40,0,0
9832,-200,4,2,0,40,0,0
10509,-100,4,2,0,40,0,0
10960,-133.333333333333,4,2,0,40,0,0
11185,-100,4,2,0,40,0,0
11862,-100,4,2,0,5,0,0
12313,-133.333333333333,4,2,0,40,0,0
31373,-133.333333333333,4,2,0,5,0,0
31486,-133.333333333333,4,2,0,40,0,0
31937,-133.333333333333,4,2,0,5,0,0
32163,-133.333333333333,4,2,0,40,0,0
40734,-133.333333333333,4,2,0,5,0,0
41185,-100,4,2,0,40,0,0
44343,-76.9230769230769,4,2,0,40,0,0
44794,-90.9090909090909,4,2,0,40,0,0
58779,-133.333333333333,4,2,0,40,0,0
59230,-76.9230769230769,4,2,0,40,0,0
67802,-100,4,2,0,40,0,0
68253,-76.9230769230769,4,2,0,40,0,0
69832,-100,4,2,0,40,0,0
70058,-76.9230769230769,4,2,0,40,0,0
73667,-133.333333333333,4,2,0,40,0,0
89005,-76.9230769230769,4,2,0,40,0,0
89456,-100,4,2,0,40,0,0
89907,-100,4,2,0,40,0,0
95997,-133.333333333333,4,2,0,40,0,0
96223,-100,4,2,0,40,0,0
104343,-76.9230769230769,4,2,0,40,0,0
104569,-100,4,2,0,40,0,0
118328,-76.9230769230769,4,2,0,40,0,0
118554,-100,4,2,0,40,0,0
136824,-76.9230769230769,4,2,0,40,0,0
144043,-100,4,2,0,40,0,0
180133,428.571428571429,4,2,0,40,1,0
181871,428.571428571429,4,2,0,40,1,0
183576,422.535211267606,4,2,0,40,1,0
185266,413.793103448276,4,2,0,40,1,0
186930,408.163265306122,4,2,0,40,1,0
188562,402.684563758389,4,2,0,40,1,0
190172,397.350993377483,4,2,0,40,1,0
191761,389.61038961039,4,2,0,40,1,0
193319,384.615384615385,4,2,0,40,1,0
194857,379.746835443038,4,2,0,40,1,0
196375,370.37037037037,4,2,0,40,1,0
197856,368.098159509202,4,2,0,40,1,0
199328,363.636363636364,4,2,0,40,1,0
202222,351.906158357771,4,2,0,40,1,0
203629,350.877192982456,4,2,0,40,1,0
207849,352.941176470588,4,2,0,40,1,0
209613,-133.333333333333,4,2,0,40,0,0
209966,-333.333333333333,4,2,0,40,0,0
210672,-100,4,2,0,40,0,0
211025,-133.333333333333,4,2,0,40,0,0
212084,-100,4,2,0,40,0,0
212613,-200,4,2,0,40,0,0
213496,-100,4,2,0,40,0,0
216143,-66.6666666666667,4,2,0,40,0,0
216319,-100,4,2,0,40,0,0
216849,-66.6666666666667,4,2,0,40,0,0
217025,-1000,4,2,0,40,0,0
217907,-133.333333333333,4,2,0,40,0,0
219496,-100,4,2,0,40,0,0
223378,-133.333333333333,4,2,0,40,0,0
223731,-100,4,2,0,40,0,0
225143,-133.333333333333,4,2,0,40,0,0
225849,-100,4,2,0,40,0,0
247378,-133.333333333333,4,2,0,40,0,0
247996,-100,4,2,0,40,0,0
280554,-100,4,2,0,40,0,0
298201,-133.333333333333,4,2,0,40,0,0
309496,-200,4,2,0,40,0,0
319378,-166.666666666667,4,2,0,40,0,0
320084,-142.857142857143,4,2,0,40,0,0
320437,-100,4,2,0,40,0,0
332084,-80,4,2,0,40,0,0
333496,-100,4,2,0,40,0,0
337201,-100,4,2,0,40,0,0
337378,-76.9230769230769,4,2,0,40,0,0
360496,-133.333333333333,4,2,0,40,0,0
360672,-76.9230769230769,4,2,0,40,0,0
368437,-100,4,2,0,40,0,0
371613,-76.9230769230769,4,2,0,40,0,0
373554,-100,4,2,0,40,0,0
389966,-200,4,2,0,10,0,0
408319,-166.666666666667,4,2,0,20,0,0
408672,-142.857142857143,4,2,0,30,0,0
409731,-333.333333333333,4,2,0,40,0,0
419790,-333.333333333333,4,2,0,5,0,0
419878,-333.333333333333,4,2,0,40,0,0
421731,-100,4,2,0,40,0,0
428437,-133.333333333333,4,2,0,40,0,0
428613,-100,4,2,0,40,0,0
430025,-133.333333333333,4,2,0,40,0,0
430554,-100,4,2,0,40,0,0
431613,-1000,4,2,0,40,0,0
432319,-100,4,2,0,40,0,0
433378,-133.333333333333,4,2,0,40,0,0
433731,-100,4,2,0,40,0,0
437260,-133.333333333333,4,2,0,40,0,0
437437,-100,4,2,0,40,0,0
442201,-166.666666666667,4,2,0,40,0,0
442554,-100,4,2,0,40,0,0
443613,-133.333333333333,4,2,0,40,0,0
443966,-100,4,2,0,40,0,0
445025,-133.333333333333,4,2,0,40,0,0
474496,-133.333333333333,4,2,0,5,0,0

[Colours]
Combo1 : 255,55,55
Combo2 : 0,128,255
Combo3 : 205,218,54
Combo4 : 250,165,177

[HitObjects]
92,161,5095,6,0,B|92:128|119:130|130:144|104:204|61:238,1,140,4|0,0:0|0:0,0:0:0:0:
239,136,5546,1,0,0:0:0:0:
91,67,5772,1,0,0:0:0:0:
313,57,5997,2,0,L|396:279,1,210.000008010865
434,315,6561,2,0,L|489:346,2,52.5000020027162
356,321,6900,5,8,0:0:0:0:
459,243,7125,1,8,0:0:0:0:
260,283,7351,2,0,B|301:243|277:226|252:228|187:310,1,157.500006008148,8|0,0:0|0:0,0:0:0:0:
189,311,7802,6,0,L|157:194,1,105.000004005432,8|0,0:0|0:0,0:0:0:0:
159,198,8140,1,8,0:0:0:0:
277,244,8253,2,0,L|245:127,1,105.000004005432,8|0,0:0|0:0,0:0:0:0:
33,235,8704,5,0,0:0:0:0:
93,29,8930,6,0,B|131:83|131:83|79:87,1,83.9999974365236
33,86,9155,2,0,P|60:147|115:155,1,83.9999974365236
166,154,9381,2,0,L|129:197,1,52.5000020027162
187,290,9606,2,0,B|191:280|191:280|220:257|220:257|224:247,1,52.5000020027161
305,151,9832,2,0,L|269:125,1,35
266,121,10058,1,0,0:0:0:0:
425,133,10283,1,0,0:0:0:0:
372,283,10509,6,0,L|393:351,2,70
253,234,10960,6,0,L|214:283,1,52.5000020027162
157,355,11185,2,0,B|217:280|217:280|246:305|230:330,1,140
137,93,11862,6,0,L|174:85,6,35
43,115,12313,1,0,0:0:0:0:
126,241,12539,5,0,0:0:0:0:
57,322,12764,1,0,0:0:0:0:
154,219,12990,1,0,0:0:0:0:
222,299,13215,2,0,B|277:347|277:347|348:330|371:228,1,210
364,250,13892,1,0,0:0:0:0:
312,121,14118,5,0,0:0:0:0:
284,229,14343,1,0,0:0:0:0:
216,53,14569,1,0,0:0:0:0:
244,161,14794,1,0,0:0:0:0:
286,56,15020,1,0,0:0:0:0:
150,141,15246,2,0,B|116:67|116:67|153:72,1,105.000004005432
176,222,15697,2,0,B|179:245|179:245|105:211,1,105.000004005432
32,31,16148,5,0,0:0:0:0:
107,132,16373,1,0,0:0:0:0:
32,233,16599,1,0,0:0:0:0:
102,336,16824,1,0,0:0:0:0:
177,263,17050,1,0,0:0:0:0:
253,335,17276,1,0,0:0:0:0:
327,260,17501,1,0,0:0:0:0:
253,362,17727,5,0,0:0:0:0:
178,261,17952,1,0,0:0:0:0:
56,344,18178,1,0,0:0:0:0:
139,175,18403,1,0,0:0:0:0:
327,260,18629,1,0,0:0:0:0:
32,31,19080,5,0,0:0:0:0:
244,57,19531,6,0,L|227:187,1,105.000004005432
229,174,19870,1,0,0:0:0:0:
228,189,19982,1,0,0:0:0:0:
214,355,20208,1,0,0:0:0:0:
214,355,20434,2,0,B|166:339|126:300|126:300|84:341|10:358,1,210.000008010865
220,280,21110,6,0,P|171:242|154:210,1,52.5000020027161
160,212,21336,1,0,0:0:0:0:
284,208,21561,1,0,0:0:0:0:
177,137,21787,1,0,0:0:0:0:
305,135,22012,1,0,0:0:0:0:
160,212,22238,1,0,0:0:0:0:
307,288,22464,6,0,P|352:259|371:263,1,52.5000020027161
307,288,22689,2,0,P|262:259|243:263,1,52.5000020027161
307,288,22915,2,0,P|352:259|371:263,1,52.5000020027161
307,288,23140,2,0,P|262:259|243:263,1,52.5000020027161
195,315,23366,5,0,0:0:0:0:
249,132,23591,1,0,0:0:0:0:
198,308,23817,1,0,0:0:0:0:
247,139,24043,1,0,0:0:0:0:
202,298,24268,1,0,0:0:0:0:
201,154,24494,1,0,0:0:0:0:
167,267,24719,1,0,0:0:0:0:
153,127,24945,6,0,L|170:71,1,52.5000020027161
115,282,25170,2,0,L|98:338,1,52.5000020027161
63,66,25396,2,0,L|67:119,1,52.5000020027161
3,291,25621,2,0,L|36:250,1,52.5000020027161
99,200,25847,1,0,0:0:0:0:
32,31,26298,5,0,0:0:0:0:
285,75,26749,6,0,L|361:76,2,52.5000020027161
147,75,27200,1,0,0:0:0:0:
9,74,27426,1,0,0:0:0:0:
147,254,27652,5,0,0:0:0:0:
57,164,27877,1,0,0:0:0:0:
147,75,28103,1,0,0:0:0:0:
236,164,28328,1,0,0:0:0:0:
87,331,28554,6,0,L|11:330,2,52.5000020027161
225,331,29005,1,0,0:0:0:0:
363,332,29231,1,0,0:0:0:0:
363,116,29456,5,0,0:0:0:0:
471,224,29682,1,0,0:0:0:0:
363,332,29907,1,0,0:0:0:0:
256,224,30133,1,0,0:0:0:0:
256,192,30358,12,0,31937,0:0:0:0:
176,74,32163,5,0,0:0:0:0:
335,44,32388,1,0,0:0:0:0:
244,31,32614,1,0,0:0:0:0:
242,191,32840,1,0,0:0:0:0:
82,164,33065,5,0,0:0:0:0:
237,112,33291,1,0,0:0:0:0:
397,240,33516,5,0,0:0:0:0:
242,191,33742,1,0,0:0:0:0:
235,355,33967,6,0,P|271:321|276:309,1,52.5000020027161
197,283,34193,2,0,P|161:317|156:329,1,52.5000020027161
271,319,34418,2,0,P|272:269|267:257,1,52.5000020027161
160,318,34644,2,0,P|158:367|163:379,1,52.5000020027161
219,213,34870,2,0,P|161:220|126:273,1,105.000004005432
257,128,35321,2,0,L|328:227,1,105.000004005432
139,26,35772,6,0,P|103:60|98:72,1,52.5000020027161
177,98,35997,2,0,P|213:64|218:52,1,52.5000020027161
103,62,36223,2,0,P|101:111|106:123,1,52.5000020027161
214,63,36449,2,0,P|215:13|210:1,1,52.5000020027161
153,170,36674,1,0,0:0:0:0:
35,23,36900,1,0,0:0:0:0:
257,156,37125,1,0,0:0:0:0:
28,166,37351,1,0,0:0:0:0:
256,192,37576,12,0,40734,0:0:0:0:
136,128,41185,5,0,0:0:0:0:
282,32,41411,1,0,0:0:0:0:
271,65,41523,1,0,0:0:0:0:
260,98,41636,1,0,0:0:0:0:
188,278,41862,1,0,0:0:0:0:
380,263,42088,6,0,L|303:217,1,70
170,174,42313,2,0,L|247:220,1,70
399,186,42539,6,0,P|390:152|356:117,1,70
262,281,42764,2,0,P|270:314|305:350,1,70
427,309,42990,5,8,0:0:0:0:
395,354,43103,1,8,0:0:0:0:
194,230,43328,5,8,0:0:0:0:
304,206,43441,1,8,0:0:0:0:
56,147,43667,6,0,P|16:218|16:230,2,70
262,281,44118,2,0,P|232:324|193:347,1,70
110,347,44343,2,0,P|197:346|265:273,1,181.999991668702,2|0,0:0|0:0,0:0:0:0:
110,347,44794,5,4,0:0:0:0:
144,136,45020,2,0,L|151:226,1,77.0000023498536
153,247,45246,1,8,0:0:0:0:
238,119,45471,2,0,L|232:32,1,77.0000023498536
230,10,45697,1,0,0:0:0:0:
338,119,45922,2,0,L|344:206,1,77.0000023498536
346,228,46148,1,8,0:0:0:0:
331,44,46373,1,0,0:0:0:0:
488,147,46599,5,0,0:0:0:0:
261,149,46824,2,0,L|360:147,1,77.0000023498536
371,145,47050,1,8,0:0:0:0:
183,206,47276,1,0,0:0:0:0:
433,263,47501,2,0,L|334:261,1,77.0000023498536
324,261,47727,1,0,0:0:0:0:
506,261,47952,1,8,0:0:0:0:
408,88,48178,1,0,0:0:0:0:
413,351,48403,5,0,0:0:0:0:
189,310,48629,1,0,0:0:0:0:
208,235,48741,1,0,0:0:0:0:
227,160,48854,1,8,0:0:0:0:
189,310,49080,2,0,L|291:304,1,77.0000023498536
300,302,49306,1,0,0:0:0:0:
353,36,49531,5,0,0:0:0:0:
372,111,49644,1,0,0:0:0:0:
392,186,49756,1,8,0:0:0:0:
353,36,49982,2,0,L|251:42,1,77.0000023498536
244,42,50208,5,0,0:0:0:0:
467,175,50434,1,0,0:0:0:0:
286,185,50659,1,8,0:0:0:0:
496,34,50885,1,0,0:0:0:0:
440,297,51110,5,0,0:0:0:0:
372,84,51336,1,0,0:0:0:0:
374,254,51561,1,8,0:0:0:0:
442,41,51787,1,0,0:0:0:0:
211,114,52012,6,0,L|187:41,2,77.0000023498536,4|0|0,0:0|0:0|0:0,0:0:0:0:
267,268,52464,2,0,L|235:172,1,77.0000023498536,8|0,0:0|0:0,0:0:0:0:
341,271,52689,2,0,P|292:337|205:312,2,154.000004699707
106,231,53366,1,8,0:0:0:0:
43,251,53478,1,0,0:0:0:0:
34,316,53591,1,0,0:0:0:0:
89,352,53704,1,0,0:0:0:0:
145,317,53817,5,0,0:0:0:0:
112,96,54043,2,0,P|149:165|176:182,1,77.0000023498536
168,175,54268,1,8,0:0:0:0:
62,24,54494,2,0,P|29:108|69:174,1,154.000004699707
268,25,54945,5,0,0:0:0:0:
284,95,55057,1,0,0:0:0:0:
214,75,55170,1,8,0:0:0:0:
398,24,55396,2,0,P|408:86|380:150,1,77.0000023498536
373,144,55621,5,0,0:0:0:0:
344,188,55733,1,0,0:0:0:0:
346,242,55846,1,0,0:0:0:0:
345,295,55959,1,0,0:0:0:0:
315,338,56072,1,8,0:0:0:0:
255,91,56298,1,0,0:0:0:0:
197,338,56524,5,0,0:0:0:0:
167,295,56637,1,0,0:0:0:0:
166,242,56750,1,0,0:0:0:0:
168,188,56863,1,0,0:0:0:0:
139,144,56975,1,8,0:0:0:0:
92,360,57200,2,0,P|82:298|110:234,1,77.0000023498536
94,253,57426,1,0,0:0:0:0:
370,299,57652,5,0,0:0:0:0:
385,229,57764,1,0,0:0:0:0:
316,249,57877,1,8,0:0:0:0:
486,255,58103,2,0,P|488:212|469:165,1,77.0000023498536
325,357,58328,2,0,L|388:383,4,38.5000011749268
196,241,58779,2,0,P|162:259|139:289,3,52.5000020027161,8|0|0|0,0:0|0:0|0:0|0:0,0:0:0:0:
364,267,59230,6,0,P|261:224|179:253,1,181.999991668702,4|0,0:0|0:0,0:0:0:0:
451,197,59682,2,0,P|408:300|437:382,1,181.999991668702,8|0,0:0|0:0,0:0:0:0:
492,111,60133,2,0,P|389:154|307:125,1,181.999991668702
108,37,60584,2,0,B|154:27|154:27|250:45|250:45|309:33,1,181.999991668702,8|0,0:0|0:0,0:0:0:0:
108,37,61035,5,0,0:0:0:0:
256,128,61261,2,0,L|219:236,1,90.9999958343508
214,243,61486,1,8,0:0:0:0:
108,37,61712,2,0,L|145:145,1,90.9999958343508
150,152,61937,1,0,0:0:0:0:
351,61,62163,1,0,0:0:0:0:
110,36,62388,1,8,0:0:0:0:
294,171,62614,1,0,0:0:0:0:
50,139,62840,2,0,P|97:168|106:229,1,90.9999958343508
14,284,63065,5,0,0:0:0:0:
37,214,63178,1,0,0:0:0:0:
83,270,63291,1,8,0:0:0:0:
34,34,63516,5,0,0:0:0:0:
287,138,63742,5,0,0:0:0:0:
37,214,63967,5,0,0:0:0:0:
106,202,64080,1,0,0:0:0:0:
83,271,64193,1,8,0:0:0:0:
332,69,64418,6,0,P|247:64|204:118,1,90.9999958343508
229,288,64644,2,0,P|314:293|357:239,1,90.9999958343508
245,64,64870,2,0,P|178:117|182:186,1,90.9999958343508
315,294,65096,2,0,P|381:240|377:171,1,90.9999958343508,8|0,0:0|0:0,0:0:0:0:
177,118,65321,2,0,P|164:202|214:249,1,90.9999958343508
385,238,65547,2,0,P|397:153|347:106,1,90.9999958343508
165,203,65772,2,0,B|184:254|159:254|171:319,1,90.9999958343508
95,140,65997,2,0,B|81:94|106:94|98:50,1,90.9999958343508,8|0,0:0|0:0,0:0:0:0:
21,208,66223,2,0,P|61:235|110:237,1,90.9999958343508
312,143,66449,6,0,B|378:93|313:30|247:84|256:155|359:257,1,272.999987503052,4|0,0:0|0:0,0:0:0:0:
415,277,66900,2,0,P|382:249|280:242,1,90.9999958343508,8|0,0:0|0:0,0:0:0:0:
167,292,67125,2,0,P|200:320|302:327,1,90.9999958343508
229,113,67351,1,0,0:0:0:0:
187,67,67463,1,0,0:0:0:0:
125,67,67576,1,0,0:0:0:0:
83,113,67689,1,0,0:0:0:0:
91,177,67802,2,0,P|126:204|171:217,3,70,8|0|0|0,0:0|0:0|0:0|0:0,0:0:0:0:
305,171,68253,6,0,P|393:189|382:277,1,181.999991668702
286,337,68591,1,0,0:0:0:0:
371,356,68704,2,0,P|330:358|264:309,1,90.9999958343508,8|0,0:0|0:0,0:0:0:0:
174,222,68930,2,0,P|214:201|259:202,1,90.9999958343508
164,330,69155,2,0,P|123:332|57:283,1,90.9999958343508
46,256,69381,1,0,0:0:0:0:
41,193,69493,1,0,0:0:0:0:
174,222,69606,6,0,P|219:200|269:154,1,90.9999958343508,8|0,0:0|0:0,0:0:0:0:
42,123,69832,2,0,L|40:218,1,70
256,32,70058,5,0,0:0:0:0:
361,344,70283,1,0,0:0:0:0:
346,254,70395,1,0,0:0:0:0:
275,363,70508,1,8,0:0:0:0:
399,180,70734,2,0,L|329:278,1,90.9999958343508
176,108,70960,5,0,0:0:0:0:
458,52,71185,1,0,0:0:0:0:
443,141,71297,1,0,0:0:0:0:
372,33,71410,1,8,0:0:0:0:
485,208,71637,2,0,L|415:306,1,90.9999958343508
167,185,71862,6,0,P|121:201|83:243,1,90.9999958343508
344,198,72088,2,0,P|390:182|428:140,1,90.9999958343508
167,185,72313,6,0,P|120:168|82:127,1,90.9999958343508,8|0,0:0|0:0,0:0:0:0:
344,198,72539,2,0,P|390:214|428:255,1,90.9999958343508
149,54,72764,5,0,0:0:0:0:
294,269,72990,1,0,0:0:0:0:
218,115,73215,5,8,0:0:0:0:
363,330,73441,1,0,0:0:0:0:
94,248,74118,5,0,0:0:0:0:
229,186,74343,1,0,0:0:0:0:
87,144,74569,2,0,B|67:139|67:139|108:110|176:113,1,105.000004005432
229,186,75020,2,0,L|230:272,3,52.5000020027161,0|0|0|0,0:0|0:0|0:0|0:0,0:0:0:0:
232,312,75471,5,0,0:0:0:0:
356,332,75922,1,0,0:0:0:0:
473,287,76373,1,0,0:0:0:0:
347,185,76824,1,0,0:0:0:0:
456,45,77276,1,0,0:0:0:0:
332,25,77727,1,0,0:0:0:0:
215,70,78178,1,0,0:0:0:0:
347,185,78629,1,0,0:0:0:0:
65,103,78855,6,0,P|77:43|103:0,2,105.000004005432
134,266,79531,1,0,0:0:0:0:
73,184,79757,2,0,P|61:244|35:287,2,105.000004005432
3,27,80434,1,0,0:0:0:0:
138,138,80659,2,0,P|189:146|235:171,2,105.000004005432
287,108,81336,5,0,0:0:0:0:
358,183,81561,1,0,0:0:0:0:
351,286,81787,1,0,0:0:0:0:
498,66,82012,5,0,0:0:0:0:
495,169,82237,1,0,0:0:0:0:
417,237,82463,1,0,0:0:0:0:
399,100,82689,6,0,L|400:23,2,52.5000020027161
325,248,83140,2,0,L|284:205,2,52.5000020027161
352,275,83479,1,0,0:0:0:0:
381,301,83591,1,0,0:0:0:0:
222,278,83817,1,0,0:0:0:0:
411,223,84043,1,0,0:0:0:0:
221,199,84268,6,0,L|251:141,1,52.5000020027161
409,148,84494,2,0,L|379:90,1,52.5000020027161
219,84,84719,2,0,L|249:26,1,52.5000020027161
318,141,84945,2,0,L|342:187,1,52.5000020027161
172,140,85170,2,0,L|147:186,1,52.5000020027161
369,254,85396,2,0,L|410:334,1,52.5000020027161
115,252,85621,2,0,L|73:332,1,52.5000020027161
247,356,85847,2,0,L|247:314,8,26.2500010013581
206,33,89005,6,0,P|166:54|116:101,1,90.9999958343508
306,33,89230,2,0,P|346:54|396:101,1,90.9999958343508
213,120,89456,2,0,P|179:137|140:175,1,70
296,120,89681,2,0,P|329:137|366:176,1,70
254,241,89907,6,0,P|284:310|353:326,1,140,4|0,0:0|0:0,0:0:0:0:
220,165,90358,2,0,L|174:219,1,70,8|0,0:0|0:0,0:0:0:0:
145,354,90584,2,0,L|191:300,1,70
118,145,90809,2,0,B|81:181|80:235|112:273|112:273|29:283,1,210
28,283,91261,2,0,L|69:374,2,70,8|0|0,0:0|0:0|0:0,0:0:0:0:
31,88,91712,5,0,0:0:0:0:
174,218,91937,1,0,0:0:0:0:
195,237,92050,1,0,0:0:0:0:
223,249,92163,2,0,P|291:194|299:155,1,70,8|0,0:0|0:0,0:0:0:0:
164,144,92388,2,0,P|131:157|106:180,1,70
256,121,92614,6,0,L|256:43,1,70
256,208,92840,1,0,0:0:0:0:
256,361,93065,1,8,0:0:0:0:
404,223,93291,1,0,0:0:0:0:
411,283,93403,1,0,0:0:0:0:
387,338,93516,1,0,0:0:0:0:
256,257,93742,5,0,0:0:0:0:
124,334,93967,2,0,P|160:323|186:303,1,70,8|0,0:0|0:0,0:0:0:0:
40,266,94193,2,0,P|77:267|108:258,1,70
199,158,94418,2,0,P|168:216|94:262,1,140
105,159,94757,1,0,0:0:0:0:
169,226,94870,6,0,P|101:269|18:268,1,140,8|0,0:0|0:0,0:0:0:0:
12,201,95208,1,0,0:0:0:0:
28,131,95321,1,0,0:0:0:0:
248,290,95546,2,0,L|278:254,2,35
184,356,95772,2,0,P|115:347|77:320,1,70,8|0,0:0|0:0,0:0:0:0:
30,262,95997,2,0,P|44:293|68:314,2,52.5000020027161
215,81,96449,2,0,P|200:47|169:21,2,70,0|0|8,0:0|0:0|0:0,0:0:0:0:
194,276,96900,1,0,0:0:0:0:
232,339,97012,1,0,0:0:0:0:
296,371,97125,6,0,P|375:353|415:285,1,140,4|0,0:0|0:0,0:0:0:0:
426,170,97576,2,0,L|377:249,1,70,8|0,0:0|0:0,0:0:0:0:
310,242,97802,1,0,0:0:0:0:
345,154,98027,2,0,P|270:158|213:244,1,140
408,308,98479,1,8,0:0:0:0:
190,355,98704,1,0,0:0:0:0:
212,118,98930,2,0,P|147:172|151:238,1,140
346,155,99381,2,0,P|322:132|281:115,2,70,8|0|0,0:0|0:0|0:0,0:0:0:0:
426,298,99832,5,0,0:0:0:0:
424,47,100058,1,0,0:0:0:0:
469,106,100170,1,0,0:0:0:0:
434,169,100283,2,0,L|384:236,1,70,8|0,0:0|0:0,0:0:0:0:
235,198,100509,2,0,L|285:265,1,70
297,101,100734,2,0,P|266:86|220:81,1,70
106,116,100960,2,0,P|178:98|181:32,1,140,0|8,0:0|0:0,0:0:0:0:
80,196,101411,5,0,0:0:0:0:
154,204,101524,1,0,0:0:0:0:
224,175,101637,2,0,L|266:248,1,70
347,363,101862,2,0,L|381:302,1,70
460,167,102088,1,8,0:0:0:0:
460,167,102313,2,0,L|508:255,1,70
300,226,102539,6,0,B|315:179|315:179|326:223,1,70
250,339,102764,2,0,B|257:358|257:358|272:311,1,70
233,151,102990,2,0,P|187:203|176:275,2,140,8|0|0,0:0|0:0|0:0,0:0:0:0:
84,217,103667,1,0,0:0:0:0:
74,285,103779,1,0,0:0:0:0:
103,348,103892,1,8,0:0:0:0:
126,142,104118,2,0,L|19:140,1,70
30,140,104343,6,0,B|175:140|175:140|179:143|179:143|183:140|183:140|187:143|187:143|191:140|191:140|195:143|195:143|199:140|199:140|203:143|203:143|206:140|206:140|220:144,1,181.999991668702,4|0,0:0|0:0,0:0:0:0:
487,146,104794,1,8,0:0:0:0:
487,146,105020,2,0,P|446:189|437:243,1,70
458,284,105246,2,0,P|412:225|348:198,1,140
353,199,105697,1,8,0:0:0:0:
270,343,105922,2,0,L|307:278,1,70
403,361,106148,2,0,P|325:367|246:320,1,140
177,176,106599,1,8,0:0:0:0:
177,176,106824,2,0,L|168:275,1,70
161,353,107050,5,0,0:0:0:0:
246,142,107276,1,0,0:0:0:0:
98,308,107501,1,8,0:0:0:0:
276,212,107727,1,0,0:0:0:0:
62,91,107952,5,0,0:0:0:0:
181,49,108178,1,0,0:0:0:0:
306,67,108403,1,8,0:0:0:0:
181,49,108629,1,0,0:0:0:0:
62,91,108855,1,0,0:0:0:0:
87,73,108967,1,0,0:0:0:0:
14,210,109193,1,0,0:0:0:0:
23,181,109305,1,8,0:0:0:0:
139,194,109531,1,0,0:0:0:0:
14,210,109757,6,0,L|42:356,1,140
101,279,110095,1,0,0:0:0:0:
40,347,110208,2,0,L|188:355,1,140,8|0,0:0|0:0,0:0:0:0:
306,207,110659,2,0,P|256:253|176:245,1,140
227,172,110997,1,0,0:0:0:0:
143,136,111110,2,0,P|193:90|273:98,2,140,8|0|4,0:0|0:0|0:0,0:0:0:0:
109,257,111787,1,0,0:0:0:0:
92,66,112012,1,8,0:0:0:0:
32,177,112238,1,0,0:0:0:0:
192,278,112464,6,0,P|192:243|172:200,1,70
115,329,112689,2,0,P|139:353|183:369,1,70
108,242,112915,2,0,P|74:250|45:270,1,70,8|0,0:0|0:0,0:0:0:0:
247,361,113140,2,0,P|278:346|303:322,1,70
315,195,113366,6,0,P|371:142|507:210,1,210
488,174,113817,2,0,L|491:237,2,35,8|0|0,0:0|0:0|0:0,0:0:0:0:
491,40,114043,2,0,B|474:57|474:57|446:56|416:32,1,70
406,20,114268,1,0,0:0:0:0:
256,73,114494,1,0,0:0:0:0:
274,140,114606,1,0,0:0:0:0:
315,195,114719,1,8,0:0:0:0:
319,45,114945,2,0,P|286:65|214:70,1,70
124,45,115170,5,0,0:0:0:0:
274,140,115396,1,0,0:0:0:0:
423,120,115621,5,8,0:0:0:0:
273,215,115847,1,0,0:0:0:0:
133,158,116073,5,0,0:0:0:0:
133,191,116185,1,0,0:0:0:0:
379,226,116411,1,0,0:0:0:0:
379,193,116523,1,8,0:0:0:0:
41,302,116749,2,0,P|90:290|124:249,1,70
34,234,116975,6,0,L|45:377,1,140
131,335,117313,1,0,0:0:0:0:
41,302,117426,6,0,L|51:162,1,140,8|0,0:0|0:0,0:0:0:0:
255,63,117877,1,0,0:0:0:0:
26,93,118103,1,0,0:0:0:0:
255,146,118328,2,0,B|141:159|141:159|229:199,1,181.999991668702,8|0,0:0|0:0,0:0:0:0:
75,33,118779,1,4,0:0:0:0:
255,191,125997,5,4,0:0:0:0:
109,115,135246,6,0,L|215:98,1,70
270,88,135471,1,0,0:0:0:0:
210,117,135583,1,0,0:0:0:0:
216,182,135696,1,0,0:0:0:0:
279,201,135809,1,0,0:0:0:0:
319,150,135922,1,0,0:0:0:0:
297,355,136148,2,0,L|312:284,1,70
424,292,136373,6,0,P|365:323|310:285,2,140,0|0|4,0:0|0:0|0:0,0:0:0:0:
346,103,137050,1,0,0:0:0:0:
424,149,137163,2,0,L|337:97,1,90.9999958343508,0|8,0:0|0:0,0:0:0:0:
260,132,137388,1,0,0:0:0:0:
278,43,137501,2,0,L|255:157,1,90.9999958343508
239,222,137727,2,0,L|366:249,1,90.9999958343508
274,333,137952,2,0,L|147:306,1,90.9999958343508
359,353,138177,1,8,0:0:0:0:
475,164,138403,1,0,0:0:0:0:
248,127,138629,6,0,P|271:86|319:84,1,90.9999958343508
397,121,138855,1,0,0:0:0:0:
193,185,139080,2,0,P|175:146|179:91,1,90.9999958343508,8|0,0:0|0:0,0:0:0:0:
222,260,139306,2,0,P|176:261|135:243,1,90.9999958343508
10,140,139531,2,0,P|51:121|96:123,1,90.9999958343508
79,298,139757,2,0,P|60:256|62:211,1,90.9999958343508
222,260,139982,2,0,L|187:368,1,90.9999958343508,8|0,0:0|0:0,0:0:0:0:
213,152,140208,2,0,L|321:187,1,90.9999958343508
382,221,140434,5,0,0:0:0:0:
425,284,140546,1,0,0:0:0:0:
381,92,140772,1,0,0:0:0:0:
424,29,140884,1,8,0:0:0:0:
223,57,141110,2,0,P|179:63|119:107,1,90.9999958343508
77,154,141336,5,0,0:0:0:0:
34,217,141448,1,0,0:0:0:0:
256,215,141674,1,0,0:0:0:0:
213,152,141786,1,8,0:0:0:0:
48,300,142012,2,0,L|102:383,1,90.9999958343508
153,292,142239,5,0,0:0:0:0:
17,156,142464,1,0,0:0:0:0:
153,21,142690,1,8,0:0:0:0:
288,156,142915,1,0,0:0:0:0:
324,265,143140,5,0,0:0:0:0:
214,155,143366,1,0,0:0:0:0:
324,46,143591,1,8,0:0:0:0:
433,155,143817,1,0,0:0:0:0:
234,246,144043,2,0,B|190:227|171:264|171:264|172:298|149:329|149:329|75:274|124:186,1,280,4|8,0:0|0:0,0:0:0:0:
326,220,144719,2,0,P|269:161|177:164,2,140
299,345,145396,1,8,0:0:0:0:
347,351,145508,1,0,0:0:0:0:
393,337,145621,1,0,0:0:0:0:
429,304,145734,1,0,0:0:0:0:
448,258,145847,6,0,B|430:234|426:211|426:211|479:116|479:116|467:89|437:63,1,210
349,187,146298,2,0,L|390:118,1,70,8|0,0:0|0:0,0:0:0:0:
365,263,146524,2,0,P|297:245|278:209,1,70
215,113,146749,2,0,P|131:94|90:105,1,70
42,176,146975,1,0,0:0:0:0:
66,264,147088,1,0,0:0:0:0:
124,195,147200,1,8,0:0:0:0:
28,335,147426,2,0,P|62:341|120:325,1,70
200,256,147652,5,0,0:0:0:0:
358,311,147877,1,0,0:0:0:0:
297,237,147989,1,0,0:0:0:0:
269,328,148102,1,8,0:0:0:0:
411,199,148328,1,0,0:0:0:0:
230,163,148554,6,0,L|319:134,1,70
466,122,148779,1,0,0:0:0:0:
411,199,148892,1,0,0:0:0:0:
376,110,149004,1,8,0:0:0:0:
487,267,149230,1,0,0:0:0:0:
286,350,149456,6,0,P|321:354|356:350,1,70
221,209,149682,2,0,P|256:204|312:217,1,70
225,351,149907,2,0,P|189:355|133:342,1,70,8|0,0:0|0:0,0:0:0:0:
77,208,150133,2,0,P|111:203|146:207,1,70
94,352,150358,6,0,P|58:356|2:343,1,70
77,208,150584,2,0,P|111:203|146:207,1,70
365,215,150809,2,0,P|399:219|434:215,1,70,8|0,0:0|0:0,0:0:0:0:
291,76,151035,2,0,P|256:71|221:75,1,70
40,133,151261,5,4,0:0:0:0:
257,152,151486,1,0,0:0:0:0:
51,61,151712,1,8,0:0:0:0:
219,217,151937,1,0,0:0:0:0:
116,28,152163,1,0,0:0:0:0:
151,247,152388,1,0,0:0:0:0:
116,103,152614,1,8,0:0:0:0:
81,322,152839,1,0,0:0:0:0:
118,177,153065,5,0,0:0:0:0:
227,337,153291,2,0,P|263:265|254:196,2,140,0|8|0,0:0|0:0|0:0,0:0:0:0:
309,144,153967,1,0,0:0:0:0:
356,260,154193,1,0,0:0:0:0:
304,374,154418,1,8,0:0:0:0:
152,258,154644,6,0,B|200:283|246:268|246:268|208:216,1,140
65,96,155095,1,0,0:0:0:0:
10,169,155208,1,0,0:0:0:0:
100,178,155320,1,8,0:0:0:0:
276,82,155546,2,0,P|254:110|207:133,1,70
335,37,155772,6,0,P|406:28|479:50,1,140
469,170,156110,1,0,0:0:0:0:
399,112,156223,1,8,0:0:0:0:
405,302,156449,1,0,0:0:0:0:
257,351,156674,5,0,0:0:0:0:
391,217,156900,1,0,0:0:0:0:
257,83,157125,1,8,0:0:0:0:
124,217,157351,1,0,0:0:0:0:
126,336,157576,5,0,0:0:0:0:
12,222,157802,1,0,0:0:0:0:
126,108,158027,1,8,0:0:0:0:
239,222,158253,1,0,0:0:0:0:
54,152,158479,6,0,L|25:12,1,140,4|0,0:0|0:0,0:0:0:0:
181,168,158930,1,8,0:0:0:0:
152,305,159155,1,0,0:0:0:0:
119,103,159381,1,0,0:0:0:0:
182,78,159493,1,0,0:0:0:0:
245,105,159606,1,0,0:0:0:0:
270,169,159719,1,0,0:0:0:0:
266,239,159832,1,8,0:0:0:0:
291,303,159945,1,0,0:0:0:0:
354,330,160058,1,0,0:0:0:0:
418,306,160170,1,0,0:0:0:0:
443,241,160283,6,0,P|434:207|404:176,1,70
322,270,160509,2,0,P|330:303|353:329,1,70
270,169,160734,2,0,L|167:177,1,70,8|0,0:0|0:0,0:0:0:0:
93,290,160960,2,0,L|196:282,1,70
17,237,161185,2,0,P|41:171|40:138,1,70
31,80,161411,1,0,0:3:0:0:
114,118,161524,1,0,0:3:0:0:
40,171,161637,1,8,0:0:0:0:
162,284,161862,2,0,P|143:257|127:214,1,70
217,335,162088,6,0,P|285:360|361:334,1,140
338,211,162426,1,0,0:0:0:0:
283,284,162539,1,8,0:0:0:0:
430,223,162764,2,0,L|432:138,1,70
434,45,162990,6,0,P|396:102|322:127,1,140
258,11,163328,1,0,0:0:0:0:
344,42,163441,1,8,0:0:0:0:
121,39,163667,1,0,0:0:0:0:
203,225,163892,6,0,P|207:190|196:147,1,70
121,39,164118,2,0,P|117:74|128:117,1,70
125,251,164343,2,0,P|129:216|121:182,1,70,8|0,0:0|0:0,0:0:0:0:
44,65,164569,2,0,P|39:99|47:133,1,70
93,323,164794,6,0,P|127:327|161:319,1,70
309,322,165020,2,0,P|274:326|240:318,1,70
92,243,165246,2,0,P|126:238|160:246,1,70,8|0,0:0|0:0,0:0:0:0:
308,244,165472,2,0,P|273:239|239:247,1,70
201,344,165697,6,0,B|198:328|198:328|203:320|203:320|198:311|198:311|203:301|203:301|198:293|198:293|202:286|202:286|200:278|200:278|200:186,1,140,4|0,0:0|0:0,0:0:0:0:
139,27,166148,1,8,0:0:0:0:
139,27,166373,2,0,P|203:48|292:22,1,140
464,25,166824,1,0,0:0:0:0:
464,25,167050,2,0,P|478:92|457:158,1,140,8|0,0:0|0:0,0:0:0:0:
237,170,167501,5,0,0:0:0:0:
456,232,167727,1,0,0:0:0:0:
237,242,167952,1,8,0:0:0:0:
455,303,168178,1,0,0:0:0:0:
238,313,168403,2,0,P|300:278|295:203,1,140
226,152,168742,1,0,0:0:0:0:
322,129,168855,2,0,P|383:183|382:255,1,140,8|0,0:0|0:0,0:0:0:0:
431,32,169306,5,0,0:0:0:0:
276,61,169531,2,0,L|176:80,1,70
116,88,169757,1,8,0:0:0:0:
116,88,169982,2,0,L|152:274,1,140
56,260,170434,2,0,P|122:268|196:327,1,140,0|8,0:0|0:0,0:0:0:0:
181,308,170885,1,0,0:0:0:0:
256,102,171110,5,0,0:0:0:0:
256,308,171336,1,0,0:0:0:0:
329,100,171561,1,8,0:0:0:0:
327,307,171787,1,0,0:0:0:0:
402,96,172012,2,0,P|355:168|281:157,1,140
238,100,172351,1,0,0:0:0:0:
216,196,172464,2,0,L|191:301,1,70,8|0,0:0|0:0,0:0:0:0:
175,359,172689,2,0,L|162:271,1,70
144,165,172915,6,0,P|90:118|88:227,1,210,4|0,0:0|0:0,0:0:0:0:
81,231,173366,1,8,0:0:0:0:
211,280,173591,1,0,0:0:0:0:
342,237,173817,2,0,P|416:206|366:325,1,280,0|8,0:0|0:0,0:0:0:0:
438,120,174606,5,0,0:0:0:0:
395,32,174719,2,0,P|356:22|288:25,1,70
246,116,174945,2,0,P|280:125|315:128,1,70
247,24,175170,2,0,P|206:27|144:54,1,70,8|0,0:0|0:0,0:0:0:0:
76,108,175396,1,0,0:0:0:0:
100,238,175621,2,0,P|123:184|120:146,1,70
33,300,175847,2,0,L|3:242,2,35
113,324,176073,2,0,P|149:323|199:338,1,70,8|0,0:0|0:0,0:0:0:0:
314,346,176298,6,0,P|227:306|214:249,1,140,4|0,0:0|0:0,0:0:0:0:
307,164,176975,1,0,0:0:0:0:
170,131,177426,1,0,0:0:0:0:
272,35,177877,1,0,0:0:0:0:
411,128,178328,5,0,0:0:0:0:
276,228,178779,1,0,0:0:0:0:
138,131,179230,1,0,0:0:0:0:
136,299,179682,1,0,0:0:0:0:
373,233,180133,5,0,0:0:0:0:
150,211,180561,1,0,0:0:0:0:
289,35,180990,1,0,0:0:0:0:
261,256,181418,1,0,0:0:0:0:
227,34,181871,5,0,0:0:0:0:
55,218,182299,1,0,0:0:0:0:
276,97,182728,1,0,0:0:0:0:
106,282,183156,1,0,0:0:0:0:
105,295,183371,1,0,0:0:0:0:
355,256,183576,5,0,0:0:0:0:
182,36,183998,1,0,0:0:0:0:
291,294,184421,1,0,0:0:0:0:
117,74,184843,1,0,0:0:0:0:
120,58,185054,1,0,0:0:0:0:
34,287,185266,5,0,0:0:0:0:
313,288,185679,1,0,0:0:0:0:
42,359,186093,1,0,0:0:0:0:
284,218,186507,1,0,0:0:0:0:
295,213,186714,1,0,0:0:0:0:
45,92,186930,5,0,0:0:0:0:
247,285,187338,1,0,0:0:0:0:
108,41,187746,1,0,0:0:0:0:
387,45,188154,1,0,0:0:0:0:
401,45,188358,1,0,0:0:0:0:
95,141,188562,5,0,0:0:0:0:
191,141,188763,1,0,0:0:0:0:
353,189,188964,5,0,0:0:0:0:
257,189,189165,1,0,0:0:0:0:
94,222,189367,5,0,0:0:0:0:
190,222,189568,1,0,0:0:0:0:
352,270,189769,5,0,0:0:0:0:
256,270,189970,1,0,0:0:0:0:
94,318,190172,5,0,0:0:0:0:
248,217,190370,1,2,0:0:0:0:
256,270,190470,1,0,0:0:0:0:
226,319,190569,2,0,L|380:351,1,140,2|0,0:0|0:0,0:0:0:0:
328,159,190966,1,2,0:0:0:0:
166,168,191165,1,2,0:0:0:0:
178,115,191264,1,0,0:0:0:0:
148,66,191363,2,0,L|285:37,1,140,2|2,0:0|0:0,0:0:0:0:
397,59,191761,5,0,0:0:0:0:
472,140,191955,1,2,0:0:0:0:
470,252,192150,1,0,0:0:0:0:
396,336,192345,1,2,0:0:0:0:
325,249,192540,1,0,0:0:0:0:
254,336,192735,1,2,0:0:0:0:
188,212,192929,1,2,0:0:0:0:
123,336,193124,1,2,0:0:0:0:
251,258,193319,5,0,0:0:0:0:
98,236,193511,1,2,0:0:0:0:
251,214,193703,1,0,0:0:0:0:
98,192,193895,1,2,0:0:0:0:
251,126,194088,5,0,0:0:0:0:
98,148,194280,1,2,0:0:0:0:
251,170,194472,1,2,0:0:0:0:
98,192,194665,1,2,0:0:0:0:
185,20,194857,5,0,0:0:0:0:
174,182,195046,1,2,0:0:0:0:
184,100,195236,1,0,0:0:0:0:
195,262,195426,1,2,0:0:0:0:
174,182,195616,5,0,0:0:0:0:
163,344,195805,1,2,0:0:0:0:
93,256,195996,1,2,0:0:0:0:
255,267,196186,1,2,0:0:0:0:
400,332,196375,5,0,0:0:0:0:
255,267,196559,1,2,0:0:0:0:
319,123,196745,1,0,0:0:0:0:
463,187,196930,1,2,0:0:0:0:
192,122,197115,5,0,0:0:0:0:
47,187,197300,1,2,0:0:0:0:
111,331,197485,1,2,0:0:0:0:
255,267,197670,1,2,0:0:0:0:
119,155,197856,5,0,0:0:0:0:
199,40,198040,1,2,0:0:0:0:
338,39,198224,1,0,0:0:0:0:
416,154,198408,1,2,0:0:0:0:
338,39,198592,5,0,0:0:0:0:
199,40,198776,1,2,0:0:0:0:
119,155,198960,1,2,0:0:0:0:
174,287,199144,1,2,0:0:0:0:
275,157,199328,5,0,0:0:0:0:
117,234,199509,1,2,0:0:0:0:
362,138,199691,5,0,0:0:0:0:
204,215,199872,1,2,0:0:0:0:
333,323,200055,5,0,0:3:0:0:
275,157,200237,1,2,0:0:0:0:
285,249,200418,5,0,0:3:0:0:
225,81,200600,1,2,0:0:0:0:
391,99,200782,5,0,0:0:0:0:
257,8,200964,1,2,0:0:0:0:
257,269,201146,1,0,0:0:0:0:
391,178,201328,1,2,0:0:0:0:
123,178,201509,5,0,0:0:0:0:
257,269,201691,1,2,0:0:0:0:
257,8,201873,1,0,0:0:0:0:
123,99,202055,1,2,0:0:0:0:
391,99,202222,5,0,0:0:0:0:
391,99,202573,2,2,P|361:175|337:93,1,210
359,69,202925,5,2,0:0:0:0:
166,34,203101,1,2,0:0:0:0:
362,31,203277,1,2,0:0:0:0:
170,73,203453,1,2,0:0:0:0:
288,223,203629,5,2,0:0:0:0:
246,31,203805,1,2,0:0:0:0:
249,227,203979,1,2,0:0:0:0:
284,34,204155,1,2,0:0:0:0:
362,244,204330,5,2,0:0:0:0:
147,206,204506,1,2,0:0:0:0:
365,206,204682,1,2,0:0:0:0:
150,244,204857,1,2,0:0:0:0:
175,237,207849,5,0,0:0:0:0:
390,177,208025,2,0,L|333:262,1,70
277,342,208201,2,0,P|334:325|301:368,1,140
104,294,208554,2,0,L|44:278,4,35
150,139,208907,1,0,0:0:0:0:
81,365,209084,1,0,0:0:0:0:
59,139,209260,5,0,0:0:0:0:
105,140,209348,1,0,0:0:0:0:
150,139,209436,1,0,0:0:0:0:
194,139,209524,1,0,0:0:0:0:
239,141,209613,2,0,L|189:179,1,52.5000020027161
133,259,209790,2,0,L|188:260,1,52.5000020027161
275,285,209966,2,0,P|251:332|212:356,1,83.9999974365235
287,152,210496,2,0,L|325:150,1,20.9999993591309
485,138,210672,6,0,L|421:144,6,35
431,49,211025,2,0,L|370:56,3,52.5000020027161
291,78,211378,1,0,0:0:0:0:
239,71,211466,1,0,0:0:0:0:
195,43,211554,1,0,0:0:0:0:
147,35,211643,2,0,P|131:43|118:58,8,26.2500010013581
61,108,212084,6,0,B|92:206|92:206|119:161,1,140
23,233,212349,1,0,0:0:0:0:
90,285,212437,2,0,L|140:273,1,35
280,237,212613,2,0,L|230:249,1,35
255,323,212790,2,0,L|259:352,6,17.5
344,298,213143,2,0,B|418:282|418:282|409:333,1,105
411,340,213496,6,0,L|496:333,2,70
374,212,213849,2,0,P|450:212|494:280,2,140
428,32,214378,1,0,0:0:0:0:
294,125,214554,2,0,L|316:117,4,23.3333333333333
233,70,214731,2,0,L|169:102,2,46.6666666666667
227,164,214907,5,0,0:0:0:0:
410,286,215084,1,0,0:0:0:0:
221,355,215260,1,0,0:0:0:0:
322,321,215437,1,0,0:0:0:0:
233,204,215613,2,0,L|208:278,3,46.6666666666667
262,134,215849,2,0,L|275:100,4,23.3333333333333
350,198,216143,2,0,P|398:212|395:175,1,105.000004005432
317,26,216319,6,0,L|331:35,8,17.5
371,65,216584,1,0,0:0:0:0:
411,92,216672,1,0,0:0:0:0:
455,312,216849,2,0,P|484:271|505:302,1,105.000004005432
344,308,217025,2,0,L|290:308,1,49
283,308,217731,5,0,0:0:0:0:
437,201,217907,2,0,L|375:222,1,52.5000020027161
293,127,218084,2,0,L|308:198,1,52.5000020027161
274,52,218260,1,0,0:0:0:0:
105,160,218437,2,0,L|117:119,6,26.2500010013581
98,211,218790,1,0,0:0:0:0:
113,260,218878,1,0,0:0:0:0:
156,288,218966,1,0,0:0:0:0:
207,281,219054,1,0,0:0:0:0:
245,251,219143,6,0,L|285:241,4,26.2500010013581
351,287,219496,2,0,P|353:216|299:157,1,140
61,168,219849,2,0,L|-3:171,4,35
139,165,220113,1,0,0:0:0:0:
89,92,220201,2,0,L|31:257,1,140
255,351,220554,5,0,0:0:0:0:
274,346,220643,1,0,0:0:0:0:
286,333,220731,1,0,0:0:0:0:
66,336,220907,2,0,L|37:356,4,35
210,196,221260,2,0,L|199:131,6,46.6666666666667
232,247,221701,1,0,0:0:0:0:
274,281,221790,1,0,0:0:0:0:
136,243,221966,5,0,0:0:0:0:
258,93,222143,1,0,0:0:0:0:
185,75,222232,1,0,0:0:0:0:
111,96,222319,2,0,L|63:101,5,46.6666666666667
111,96,222672,2,0,L|116:256,1,140
19,42,223025,1,0,0:0:0:0:
29,268,223201,1,0,0:0:0:0:
250,226,223378,6,0,P|210:279|278:273,1,157.500006008148
327,339,223731,2,0,L|343:399,4,35
264,141,224084,2,0,P|326:192|334:235,1,70
346,268,224260,2,0,P|376:156|414:290,1,350
426,285,224790,5,0,0:0:0:0:
406,61,224966,1,0,0:0:0:0:
288,45,225143,2,0,L|226:38,6,52.5000020027161
146,114,225849,1,0,0:0:0:0:
346,144,226025,1,0,0:0:0:0:
141,201,226201,6,0,L|97:251,5,46.6666666666667
76,281,226554,2,0,L|94:335,6,35
50,189,226907,2,0,L|-23:242,2,70
105,132,227172,1,0,0:0:0:0:
141,201,227260,2,0,P|163:126|194:232,1,280
221,141,230437,6,0,P|196:185|196:227,1,70,8|0,0:0|0:0,0:0:0:0:
291,198,230613,2,0,P|316:154|316:112,1,70
240,41,230789,1,0,0:0:0:0:
199,33,230877,1,0,0:0:0:0:
158,39,230965,1,8,0:0:0:0:
120,58,231054,1,0,0:0:0:0:
91,87,231142,1,0,0:0:0:0:
73,125,231230,1,0,0:0:0:0:
68,166,231318,1,8,0:0:0:0:
76,207,231407,1,0,0:0:0:0:
106,243,231496,2,2,L|149:283,6,35,6|2|2|2|2|2|2,0:0|0:0|0:0|0:0|0:0|0:0|0:0,0:0:0:0:
375,193,231849,6,0,L|336:134,1,70,8|0,0:0|0:0,0:0:0:0:
301,235,232025,2,0,L|356:323,1,70
370,330,232201,1,0,0:0:0:0:
408,345,232289,1,0,0:0:0:0:
448,337,232378,1,8,0:0:0:0:
477,307,232465,1,0,0:0:0:0:
481,254,232554,1,0,0:0:0:0:
454,212,232642,1,0,0:0:0:0:
442,165,232730,1,8,0:0:0:0:
445,117,232818,1,0,0:0:0:0:
465,71,232907,2,2,L|476:43,9,23.3333333333333,6|2|2|2|2|2|2|2|2|2,0:0|0:0|0:0|0:0|0:0|0:0|0:0|0:0|0:0|0:0,0:0:0:0:
405,30,233260,5,8,0:0:0:0:
364,19,233348,1,0,0:0:0:0:
323,26,233436,1,0,0:0:0:0:
289,50,233524,1,0,0:0:0:0:
254,69,233613,1,0,0:0:0:0:
213,79,233701,1,0,0:0:0:0:
172,72,233789,1,8,0:0:0:0:
138,48,233877,1,0,0:0:0:0:
106,20,233966,2,0,L|61:102,1,70
93,207,234143,2,0,L|126:145,1,70,8|0,0:0|0:0,0:0:0:0:
233,199,234319,2,0,L|199:260,1,70,4|2,0:0|0:0,0:0:0:0:
42,352,234496,1,2,0:0:0:0:
81,85,234672,5,8,0:0:0:0:
70,118,234760,1,0,0:0:0:0:
66,152,234848,1,0,0:0:0:0:
76,185,234936,1,0,0:0:0:0:
97,212,235024,1,0,0:0:0:0:
127,231,235112,1,0,0:0:0:0:
161,239,235200,1,8,0:0:0:0:
195,235,235289,1,0,0:0:0:0:
232,214,235378,1,0,0:0:0:0:
276,192,235466,1,0,0:0:0:0:
323,182,235554,1,8,0:0:0:0:
372,184,235642,1,0,0:0:0:0:
420,201,235731,2,2,L|443:215,10,23.3333333333333,6|2|2|2|2|2|2|2|2|2|2,0:0|0:0|0:0|0:0|0:0|0:0|0:0|0:0|0:0|0:0|0:0,0:0:0:0:
460,232,236084,6,0,L|461:130,1,70,8|0,0:0|0:0,0:0:0:0:
389,62,236260,2,0,L|389:131,1,70
384,262,236437,1,0,0:0:0:0:
344,249,236525,1,0,0:0:0:0:
317,214,236613,2,0,L|312:161,6,35,8|0|0|0|0|0|0,0:0|0:0|0:0|0:0|0:0|0:0|0:0,0:0:0:0:
268,101,236966,2,2,L|216:163,2,70,10|2|6,0:0|0:0|0:0,0:0:0:0:
29,34,237319,1,0,0:0:0:0:
68,249,237496,5,8,0:0:0:0:
83,280,237584,1,0,0:0:0:0:
109,302,237672,1,0,0:0:0:0:
143,312,237760,1,0,0:0:0:0:
177,308,237848,1,0,0:0:0:0:
207,290,237937,1,0,0:0:0:0:
227,262,238025,1,8,0:0:0:0:
234,228,238113,1,0,0:0:0:0:
219,185,238201,5,0,0:0:0:0:
218,143,238289,1,0,0:0:0:0:
230,103,238377,1,8,0:0:0:0:
254,68,238465,1,0,0:0:0:0:
286,42,238553,1,6,0:0:0:0:
326,27,238642,1,2,0:0:0:0:
367,24,238730,1,2,0:0:0:0:
408,34,238818,1,2,0:0:0:0:
443,57,238907,6,0,L|475:120,1,70,8|0,0:0|0:0,0:0:0:0:
469,257,239084,1,0,0:0:0:0:
430,240,239172,1,0,0:0:0:0:
398,214,239260,1,0,0:0:0:0:
374,179,239348,1,0,0:0:0:0:
354,142,239437,1,8,0:0:0:0:
315,125,239525,1,0,0:0:0:0:
274,128,239613,1,0,0:0:0:0:
237,148,239701,1,0,0:0:0:0:
213,182,239789,1,8,0:0:0:0:
207,223,239878,1,0,0:0:0:0:
219,262,239966,2,2,P|245:298|282:318,1,70,6|2,0:0|0:0,0:0:0:0:
339,248,240143,2,2,P|313:212|276:192,1,70
370,337,240319,5,8,0:0:0:0:
404,313,240407,1,0,0:0:0:0:
431,281,240495,1,0,0:0:0:0:
449,243,240583,1,0,0:0:0:0:
455,202,240671,1,0,0:0:0:0:
450,160,240760,1,0,0:0:0:0:
433,121,240848,2,0,L|405:81,4,35,8|0|0|0|0,0:0|0:0|0:0|0:0|0:0,0:0:0:0:
257,194,241201,5,8,0:0:0:0:
107,35,241378,1,6,0:0:0:0:
127,62,241466,1,2,0:0:0:0:
155,84,241554,1,2,0:0:0:0:
187,96,241642,1,2,0:0:0:0:
226,93,241731,6,0,B|254:79|266:50|240:32|209:11|194:41|163:77|206:129|154:154,1,210,8|0,0:0|0:0,0:0:0:0:
138,170,242084,1,0,0:0:0:0:
108,199,242172,1,0,0:0:0:0:
94,238,242260,1,8,0:0:0:0:
99,280,242348,1,0,0:0:0:0:
122,314,242436,1,0,0:0:0:0:
158,336,242525,1,0,0:0:0:0:
199,339,242613,1,8,0:0:0:0:
238,324,242701,1,0,0:0:0:0:
266,293,242790,5,4,0:0:0:0:
256,252,242878,1,2,0:0:0:0:
271,213,242966,1,2,0:0:0:0:
304,188,243054,1,2,0:0:0:0:
344,188,243143,2,0,P|366:206|391:233,4,35,8|0|0|0|0,0:0|0:0|0:0|0:0|0:0,0:0:0:0:
195,101,243496,2,0,P|237:67|260:26,1,70
117,142,243672,2,0,P|69:167|46:208,1,70,8|0,0:0|0:0,0:0:0:0:
53,283,243848,5,0,0:0:0:0:
72,319,243936,1,0,0:0:0:0:
105,345,244024,1,8,0:0:0:0:
146,353,244112,1,0,0:0:0:0:
186,343,244200,1,6,0:0:0:0:
223,315,244290,1,2,0:0:0:0:
263,305,244378,1,2,0:0:0:0:
304,313,244466,1,2,0:0:0:0:
336,339,244554,6,0,P|391:353|478:289,1,140,8|0,0:0|0:0,0:0:0:0:
420,218,244819,1,0,0:0:0:0:
423,250,244907,1,0,0:0:0:0:
388,87,245084,1,8,0:0:0:0:
350,70,245172,1,0,0:0:0:0:
308,73,245260,1,0,0:0:0:0:
273,95,245348,1,0,0:0:0:0:
253,132,245436,1,8,0:0:0:0:
253,173,245525,1,0,0:0:0:0:
275,210,245613,2,2,P|237:204|201:207,1,70,6|2,0:0|0:0,0:0:0:0:
307,283,245790,2,2,P|345:289|381:286,1,70
275,354,245966,5,8,0:0:0:0:
233,359,246054,1,0,0:0:0:0:
192,350,246142,1,0,0:0:0:0:
157,328,246230,1,0,0:0:0:0:
132,294,246318,1,0,0:0:0:0:
124,250,246407,1,0,0:0:0:0:
140,211,246495,1,8,0:0:0:0:
146,170,246583,1,0,0:0:0:0:
141,128,246671,5,0,0:0:0:0:
121,83,246760,1,0,0:0:0:0:
85,61,246848,1,8,0:0:0:0:
45,67,246936,1,0,0:0:0:0:
18,98,247024,1,6,0:0:0:0:
16,139,247112,1,2,0:0:0:0:
42,171,247201,1,2,0:0:0:0:
212,72,247378,2,0,L|261:32,3,52.5000020027161,8|0|0|0,0:0|0:0|0:0|0:0,0:0:0:0:
150,122,247731,2,0,L|199:180,3,52.5000020027161,0|0|8|0,0:0|0:0|0:0|0:0,0:0:0:0:
193,258,248084,6,0,P|228:248|273:214,1,70
284,206,248260,1,8,0:0:0:0:
314,177,248348,1,0,0:0:0:0:
351,158,248436,1,4,0:0:0:0:
392,151,248524,1,0,0:0:0:0:
434,157,248612,1,0,0:0:0:0:
472,174,248701,1,0,0:0:0:0:
494,213,248790,5,8,0:0:0:0:
504,254,248878,1,0,0:0:0:0:
493,294,248966,1,0,0:0:0:0:
464,323,249054,1,0,0:0:0:0:
424,335,249142,1,0,0:0:0:0:
384,325,249231,1,0,0:0:0:0:
355,293,249319,1,8,0:0:0:0:
346,251,249407,1,0,0:0:0:0:
348,207,249496,5,0,0:0:0:0:
370,171,249584,1,0,0:0:0:0:
375,130,249672,1,8,0:0:0:0:
363,90,249760,1,0,0:0:0:0:
334,58,249848,2,2,L|356:29,6,35
33,37,253025,5,0,0:0:0:0:
301,115,253201,1,0,0:0:0:0:
265,174,253289,1,0,0:0:0:0:
207,211,253377,1,0,0:0:0:0:
378,197,253554,5,0,0:0:0:0:
413,137,253642,1,0,0:0:0:0:
471,100,253730,1,0,0:0:0:0:
305,257,253907,5,0,0:0:0:0:
340,317,253995,1,0,0:0:0:0:
398,356,254084,2,0,L|467:328,1,70
275,353,254260,2,0,L|210:326,1,70
301,43,254437,6,0,L|290:134,1,70
210,326,254613,2,0,L|221:235,1,70
338,59,254790,2,0,L|303:144,1,70
176,309,254966,2,0,L|211:224,1,70
369,85,255143,2,0,L|314:158,1,70
149,285,255319,2,0,L|204:211,1,70
411,196,255496,1,0,0:0:0:0:
114,182,255672,1,0,0:0:0:0:
369,85,255848,6,0,L|326:140,1,70
149,285,256024,2,0,L|190:228,1,70
338,59,256201,2,0,L|311:123,1,70
176,309,256377,2,0,L|202:244,1,70
301,43,256554,2,0,L|292:112,1,70
210,326,256730,2,0,L|218:256,1,70
206,51,256907,1,0,0:0:0:0:
318,326,257083,1,0,0:0:0:0:
40,142,257260,6,0,B|140:131|140:131|76:77,1,140,2|0,0:0|0:0,0:0:0:0:
302,184,257613,6,0,B|202:195|202:195|266:249,1,140,2|0,0:0|0:0,0:0:0:0:
479,236,257966,6,0,B|379:225|379:225|409:199,1,140,2|0,0:0|0:0,0:0:0:0:
402,99,258319,1,0,0:0:0:0:
407,311,258496,1,0,0:0:0:0:
240,49,258672,5,0,0:0:0:0:
170,40,258760,1,0,0:0:0:0:
103,55,258848,1,0,0:0:0:0:
325,185,259025,5,0,0:0:0:0:
256,194,259113,1,0,0:0:0:0:
189,179,259201,1,0,0:0:0:0:
409,42,259378,5,0,0:0:0:0:
339,33,259466,1,0,0:0:0:0:
272,48,259554,1,0,0:0:0:0:
419,186,259731,1,0,0:0:0:0:
92,184,259907,1,0,0:0:0:0:
309,127,260084,5,0,0:0:0:0:
143,346,260260,1,0,0:0:0:0:
183,284,260348,1,0,0:0:0:0:
217,348,260437,1,0,0:0:0:0:
360,247,260613,5,0,0:0:0:0:
299,204,260701,1,0,0:0:0:0:
292,277,260790,1,0,0:0:0:0:
189,143,260966,1,0,0:0:0:0:
256,33,261143,1,0,0:0:0:0:
111,162,261319,1,0,0:0:0:0:
354,310,261496,5,0,0:0:0:0:
136,282,261672,5,0,0:0:0:0:
205,275,261760,1,0,0:0:0:0:
275,268,261848,1,0,0:0:0:0:
111,162,262025,5,0,0:0:0:0:
180,168,262113,1,0,0:0:0:0:
250,175,262201,1,0,0:0:0:0:
106,39,262378,5,0,0:0:0:0:
173,57,262466,1,0,0:0:0:0:
241,76,262554,1,0,0:0:0:0:
397,141,262731,1,0,0:0:0:0:
397,141,262819,1,0,0:0:0:0:
397,141,262907,5,0,0:0:0:0:
340,54,263084,1,0,0:0:0:0:
415,240,263260,1,0,0:0:0:0:
264,63,263437,1,0,0:0:0:0:
294,285,263613,1,0,0:0:0:0:
184,54,263790,1,0,0:0:0:0:
59,71,263966,1,0,0:0:0:0:
37,196,264143,1,0,0:0:0:0:
298,154,264319,5,0,0:0:0:0:
118,290,264496,1,0,0:0:0:0:
180,333,264584,1,0,0:0:0:0:
255,314,264672,2,0,L|321:266,1,70
377,238,264848,2,0,L|422:305,1,70,0|0,0:3|0:3,0:3:0:0:
298,380,265025,2,0,L|364:332,1,70
498,239,265201,1,0,0:0:0:0:
251,178,265378,5,0,0:0:0:0:
462,85,265554,1,0,0:0:0:0:
177,37,265731,5,0,0:0:0:0:
384,51,265907,1,0,0:0:0:0:
315,66,265995,1,0,0:0:0:0:
247,81,266083,1,0,0:0:0:0:
12,120,266260,5,0,0:0:0:0:
80,135,266348,1,0,0:0:0:0:
148,150,266436,1,0,0:0:0:0:
368,207,266613,1,0,0:0:0:0:
120,270,266790,1,0,0:0:0:0:
366,339,266966,1,0,0:0:0:0:
256,145,267143,6,0,L|256:45,1,70
256,47,267319,1,0,0:0:0:0:
256,243,267496,2,0,L|256:143,1,70
256,145,267672,1,0,0:0:0:0:
256,341,267848,2,0,L|256:241,1,70
256,243,268024,1,0,0:0:0:0:
256,47,268201,5,0,0:0:0:0:
256,145,268378,1,0,0:0:0:0:
22,64,268554,2,0,L|131:102,1,70,2|0,0:0|0:0,0:0:0:0:
157,113,268731,1,0,0:0:0:0:
189,266,268907,2,0,L|298:228,1,70,2|0,0:0|0:0,0:0:0:0:
324,217,269084,1,0,0:0:0:0:
331,67,269260,2,0,L|440:105,1,70,2|0,0:0|0:0,0:0:0:0:
466,116,269437,1,0,0:0:0:0:
247,159,269613,5,0,0:0:0:0:
402,322,269790,1,0,0:0:0:0:
118,171,269966,5,0,0:0:0:0:
118,171,270143,1,0,0:0:0:0:
107,240,270231,1,0,0:0:0:0:
96,309,270319,1,0,0:0:0:0:
394,171,270496,1,0,0:0:0:0:
404,240,270584,1,0,0:0:0:0:
415,309,270672,1,0,0:0:0:0:
257,324,270848,1,0,0:0:0:0:
256,198,271025,1,0,0:0:0:0:
256,72,271201,1,0,0:0:0:0:
257,324,271378,5,0,0:0:0:0:
96,309,271554,1,0,0:0:0:0:
156,266,271642,1,0,0:0:0:0:
165,338,271731,1,0,0:0:0:0:
415,308,271907,5,0,0:0:0:0:
354,265,271995,1,0,0:0:0:0:
347,338,272084,1,0,0:0:0:0:
374,177,272260,1,0,0:0:0:0:
310,68,272437,1,0,0:0:0:0:
187,41,272613,1,0,0:0:0:0:
229,225,272790,6,0,L|326:248,1,70
137,132,272966,2,0,L|40:109,1,70
252,219,273143,2,0,L|375:215,1,70,0|0,0:3|0:3,0:3:0:0:
113,137,273319,2,0,L|-9:141,1,70,0|0,0:3|0:3,0:3:0:0:
264,200,273496,2,0,L|387:163,1,70,0|0,0:3|0:3,0:3:0:0:
101,156,273672,2,0,L|-21:193,1,70,0|0,0:3|0:3,0:3:0:0:
267,178,273848,2,0,L|376:111,1,70,0|0,0:3|0:3,0:3:0:0:
175,213,274025,1,0,0:0:0:0:
170,282,274113,1,0,0:0:0:0:
166,352,274201,5,0,0:0:0:0:
364,250,274378,1,0,0:0:0:0:
177,127,274554,1,0,0:0:0:0:
166,352,274731,1,0,0:0:0:0:
292,354,274907,1,0,0:0:0:0:
416,333,275084,1,0,0:0:0:0:
474,221,275260,1,0,0:0:0:0:
474,95,275437,1,0,0:0:0:0:
328,33,275613,6,0,L|236:33,1,70
165,32,275790,2,0,L|74:32,1,70
93,132,275966,2,0,L|185:132,1,70
256,131,276143,2,0,L|347:131,1,70
324,229,276319,2,0,L|254:229,1,70
161,230,276496,2,0,L|91:230,1,70
93,326,276671,1,0,0:0:0:0:
256,327,276848,1,0,0:0:0:0:
419,328,277025,5,0,0:0:0:0:
419,188,277201,1,0,0:0:0:0:
419,118,277289,1,0,0:0:0:0:
419,48,277377,1,0,0:0:0:0:
322,49,277554,2,0,L|322:140,1,70
224,117,277730,2,0,L|224:47,1,70
224,192,277907,1,0,0:0:0:0:
224,337,278084,1,0,0:0:0:0:
224,192,278260,1,0,0:0:0:0:
35,193,278437,5,0,0:0:0:0:
33,33,278613,1,0,0:0:0:0:
103,33,278701,1,0,0:0:0:0:
173,33,278789,1,0,0:0:0:0:
339,33,278966,1,0,0:0:0:0:
409,33,279054,1,0,0:0:0:0:
479,33,279142,1,0,0:0:0:0:
477,193,279319,1,0,0:0:0:0:
257,192,279496,1,0,0:0:0:0:
256,351,279672,1,0,0:0:0:0:
113,228,279848,6,0,L|142:83,1,140,2|0,0:0|0:0,0:0:0:0:
263,248,280201,2,0,L|293:93,1,140,2|0,0:0|0:0,0:0:0:0:
413,275,280554,2,0,L|446:127,1,140,2|0,0:0|0:0,0:0:0:0:
226,45,280907,1,0,0:0:0:0:
388,47,281084,1,0,0:0:0:0:
423,47,281172,1,0,0:0:0:0:
458,47,281260,5,0,0:0:0:0:
343,175,281437,1,0,0:0:0:0:
336,209,281525,1,0,0:0:0:0:
341,243,281613,1,0,0:0:0:0:
183,285,281790,1,0,0:0:0:0:
190,319,281878,1,0,0:0:0:0:
185,353,281966,1,0,0:0:0:0:
257,209,282143,1,0,0:0:0:0:
181,61,282319,1,0,0:0:0:0:
97,205,282496,1,0,0:0:0:0:
264,114,282672,6,0,L|331:77,1,70
511,33,282848,2,0,L|444:70,1,70
257,80,283025,2,0,L|332:62,1,70
512,66,283201,2,0,L|442:84,1,70
260,46,283378,2,0,L|336:48,1,70
512,100,283554,2,0,L|438:98,1,70
271,14,283731,2,0,L|345:36,1,70
422,166,283907,1,0,0:0:0:0:
374,179,283995,1,0,0:0:0:0:
327,192,284084,6,0,P|300:219|280:261,1,70
371,271,284260,1,0,0:0:0:0:
371,271,284348,1,0,0:0:0:0:
371,271,284437,2,0,P|353:301|328:325,1,70
201,274,284613,2,0,P|218:304|243:328,1,70
388,270,284790,2,0,P|367:307|337:336,1,70
184,274,284966,2,0,P|204:310|234:339,1,70
281,219,285143,2,0,L|281:77,1,140
281,46,285407,1,0,0:0:0:0:
204,103,285496,6,0,L|114:62,1,70
5,103,285672,2,0,L|95:144,1,70
200,77,285848,2,0,L|103:60,1,70
8,128,286024,2,0,L|105:145,1,70
190,53,286201,2,0,L|92:62,1,70
18,152,286377,2,0,L|116:143,1,70
174,32,286554,2,0,L|82:67,1,70
34,173,286730,2,0,L|126:138,1,70
256,100,286907,6,0,L|256:188,1,70
256,260,287084,1,0,0:0:0:0:
256,260,287172,1,0,0:0:0:0:
256,260,287260,2,0,L|256:348,1,70
357,331,287437,1,0,0:0:0:0:
357,331,287525,1,0,0:0:0:0:
357,331,287613,2,0,L|357:243,1,70
360,162,287790,1,0,0:0:0:0:
362,30,287966,1,0,0:0:0:0:
360,162,288143,1,0,0:0:0:0:
255,33,288319,5,0,0:0:0:0:
91,33,288496,1,0,0:0:0:0:
126,33,288584,1,0,0:0:0:0:
161,33,288672,1,0,0:0:0:0:
38,134,288848,1,0,0:0:0:0:
73,134,288936,1,0,0:0:0:0:
108,134,289024,1,0,0:0:0:0:
237,134,289201,1,0,0:0:0:0:
363,132,289378,1,0,0:0:0:0:
237,134,289554,1,0,0:0:0:0:
236,327,289731,5,0,0:0:0:0:
157,210,289907,2,0,L|152:296,1,70
153,316,290084,1,0,0:0:0:0:
355,210,290260,2,0,L|360:296,1,70
359,316,290437,1,0,0:0:0:0:
352,127,290613,1,0,0:0:0:0:
256,127,290790,1,0,0:0:0:0:
160,127,290966,1,0,0:0:0:0:
436,277,291143,6,0,L|407:137,1,140,2|0,0:0|0:0,0:0:0:0:
286,297,291496,2,0,L|255:156,1,140,2|0,0:0|0:0,0:0:0:0:
136,324,291849,2,0,L|103:176,1,140,2|0,0:0|0:0,0:0:0:0:
67,29,292201,1,0,0:0:0:0:
179,175,292378,1,0,0:0:0:0:
179,175,292466,1,0,0:0:0:0:
179,175,292554,1,0,0:0:0:0:
356,35,292790,5,0,0:0:0:0:
356,35,292907,2,0,L|270:119,1,93.3333333333333
179,175,293143,1,0,0:0:0:0:
179,175,293260,2,0,L|245:240,1,93.3333333333333
326,281,293496,1,0,0:0:0:0:
412,259,293613,1,0,0:0:0:0:
436,173,293731,1,0,0:0:0:0:
372,111,293848,1,0,0:0:0:0:
284,118,293966,6,0,L|193:66,1,93.3333333333333
115,32,294201,1,0,0:0:0:0:
115,32,294319,2,0,L|72:187,1,93.3333333333333
186,160,294554,1,0,0:0:0:0:
186,160,294672,2,0,L|229:315,1,93.3333333333333
121,283,294907,1,0,0:0:0:0:
121,283,295025,2,0,L|78:438,1,93.3333333333333
281,222,295378,5,0,0:0:0:0:
109,124,295554,1,0,0:0:0:0:
174,99,295642,1,0,0:0:0:0:
240,75,295730,1,0,0:0:0:0:
464,108,295907,1,0,0:0:0:0:
279,141,296084,1,0,0:0:0:0:
439,37,296260,1,0,0:0:0:0:
323,202,296437,1,0,0:0:0:0:
368,20,296613,1,0,0:0:0:0:
367,282,296790,5,2,0:0:0:0:
289,25,296966,1,2,0:0:0:0:
299,316,297143,1,2,0:0:0:0:
439,37,297319,1,2,0:0:0:0:
230,287,297496,1,10,0:0:0:0:
167,309,297584,1,2,0:0:0:0:
117,264,297672,1,10,0:0:0:0:
133,199,297760,1,2,0:0:0:0:
200,185,297848,5,10,0:0:0:0:
216,120,297936,1,2,0:0:0:0:
166,75,298024,1,10,0:0:0:0:
104,98,298112,1,2,0:0:0:0:
82,159,298201,5,10,0:0:0:0:
136,307,298437,1,0,0:0:0:0:
136,313,298554,1,0,0:0:0:0:
245,234,298790,1,0,0:0:0:0:
245,240,298907,1,0,0:0:0:0:
352,321,299143,1,0,0:0:0:0:
352,327,299260,1,0,0:0:0:0:
463,242,299496,5,0,0:0:0:0:
472,169,299613,1,0,0:0:0:0:
336,202,299848,1,0,0:0:0:0:
327,129,299965,1,0,0:0:0:0:
204,197,300201,1,0,0:0:0:0:
213,124,300318,1,0,0:0:0:0:
298,257,300554,1,0,0:0:0:0:
292,265,300672,1,0,0:0:0:0:
286,273,300790,1,0,0:0:0:0:
280,280,300907,1,0,0:0:0:0:
274,287,301025,6,0,L|187:288,1,70.0000026702882
135,284,301260,1,0,0:0:0:0:
130,276,301378,2,0,L|180:196,1,70.0000026702882
236,219,301613,1,0,0:0:0:0:
241,211,301731,2,0,L|191:131,1,70.0000026702882
135,151,301966,1,0,0:0:0:0:
130,143,302084,2,0,L|180:63,1,70.0000026702882
241,57,302319,1,0,0:0:0:0:
311,87,302437,6,0,L|351:160,1,70.0000026702882
376,215,302672,1,0,0:0:0:0:
370,223,302790,1,0,0:0:0:0:
364,231,302908,1,0,0:0:0:0:
358,238,303025,1,0,0:0:0:0:
351,246,303143,2,0,L|272:287,1,70.0000026702882
220,306,303378,1,0,0:0:0:0:
188,240,303496,2,0,L|115:322,1,70.0000026702882
83,245,303731,1,0,0:0:0:0:
27,296,303848,6,0,L|19:371,2,70.0000026702882
37,223,304201,2,0,L|29:153,2,70.0000026702882
101,291,304554,2,0,L|93:366,2,70.0000026702882
111,218,304907,2,0,L|103:148,2,70.0000026702882
171,267,305260,5,0,0:0:0:0:
193,283,305377,1,0,0:0:0:0:
220,288,305495,1,0,0:0:0:0:
247,281,305612,1,0,0:0:0:0:
210,160,305848,1,0,0:0:0:0:
230,143,305966,2,0,P|254:116|268:78,2,70.0000026702882
153,118,306319,2,0,P|140:154|155:212,1,70.0000026702882
197,239,306554,1,0,0:0:0:0:
165,309,306672,6,0,L|101:278,1,70.0000026702882
38,241,306907,1,0,0:0:0:0:
69,171,307025,2,0,P|58:136|34:101,2,70.0000026702882
38,241,307378,1,0,0:0:0:0:
28,281,307495,1,0,0:0:0:0:
40,321,307613,1,0,0:0:0:0:
71,348,307730,1,0,0:0:0:0:
111,314,307848,1,0,0:0:0:0:
151,323,307965,1,0,0:0:0:0:
191,308,308084,6,0,P|193:273|201:233,1,70.0000026702882
231,171,308319,1,0,0:0:0:0:
300,134,308437,2,0,P|316:100|324:56,2,70.0000026702882
231,171,308790,1,0,0:0:0:0:
182,171,308907,1,0,0:0:0:0:
144,142,309025,1,0,0:0:0:0:
131,93,309143,2,0,P|134:58|127:21,2,70.0000026702882
85,218,309496,6,0,B|140:235|140:235|127:278|139:315|139:315|174:285|185:247|185:247|243:303|318:294|342:237|396:222|429:253|404:291,1,490
264,205,310907,2,0,B|302:204|359:150|430:184|430:184|444:151|413:121|413:121|474:94|484:36,1,350
500,228,311966,2,0,P|475:252|412:260,1,70
293,263,312319,6,0,B|316:296|351:298|351:298|316:316|291:345|291:345|248:355|206:339|189:297|172:271|146:254|112:258|91:278|85:308|107:331,1,385
96,305,313378,1,0,0:0:0:0:
165,95,313731,2,0,P|232:95|202:136,1,140
255,7,314260,2,0,P|321:47|396:27,1,140
311,120,314790,2,0,P|297:156|264:194,1,70
159,291,315143,6,0,B|197:276|216:250|216:250|249:250|269:273|269:273|273:283|273:283|281:278|281:278|308:259|337:266|337:266|370:289|406:283|406:283|461:283|461:283|411:227|430:186,1,420
383,84,316378,5,0,0:0:0:0:
390,76,316466,1,0,0:0:0:0:
398,68,316554,2,0,P|311:83|261:58,1,140
188,164,317084,2,0,P|275:149|325:174,1,140
246,295,317613,2,0,L|252:210,1,70
266,35,317966,6,0,B|230:39|201:65|201:65|195:100|163:123|163:123|125:119|97:142|97:142|82:179|33:187|33:187|85:207|94:280|71:276|95:221|120:242|126:287,1,420
219,351,319378,6,0,B|206:353|192:336|213:318|271:357|322:361|343:325|337:303|317:305|300:325,1,167.999994873047
430,357,319907,1,0,0:0:0:0:
408,231,320084,6,0,B|402:256|434:262|452:230|393:192|371:140,1,146.999995513916
308,172,320437,6,0,B|280:188|265:171|277:149|307:113|314:63|277:38|244:44|228:77|241:101|269:101,1,210
266,100,320790,5,0,0:0:0:0:
151,158,320966,1,0,0:0:0:0:
241,27,321143,1,0,0:0:0:0:
207,216,321319,1,0,0:0:0:0:
70,80,321496,1,0,0:0:0:0:
264,105,321672,1,0,0:0:0:0:
73,162,321848,1,0,0:0:0:0:
260,188,322025,1,0,0:0:0:0:
72,247,322201,5,0,0:0:0:0:
260,269,322378,1,0,0:0:0:0:
51,162,322554,1,0,0:0:0:0:
275,137,322731,1,0,0:0:0:0:
32,78,322907,1,0,0:0:0:0:
291,7,323084,1,0,0:0:0:0:
299,210,323260,1,0,0:0:0:0:
362,63,323437,1,0,0:0:0:0:
357,253,323613,5,0,0:0:0:0:
440,73,323790,1,0,0:0:0:0:
393,331,323966,1,0,0:0:0:0:
462,148,324143,1,0,0:0:0:0:
319,327,324319,1,0,0:0:0:0:
475,266,324496,1,0,0:0:0:0:
260,280,324672,1,0,0:0:0:0:
415,311,324848,1,0,0:0:0:0:
221,215,325024,5,0,0:0:0:0:
353,168,325201,1,0,0:0:0:0:
232,349,325377,1,0,0:0:0:0:
344,242,325554,1,0,0:0:0:0:
148,338,325730,1,2,0:0:0:0:
76,234,325907,1,2,0:0:0:0:
72,107,326084,1,2,0:0:0:0:
188,153,326260,1,2,0:0:0:0:
79,90,326437,6,0,L|248:49,1,140,2|0,0:0|0:0,0:0:0:0:
304,37,326701,1,0,0:0:0:0:
270,123,326790,2,0,L|447:163,1,140,2|0,0:0|0:0,0:0:0:0:
404,314,327143,1,2,0:0:0:0:
404,314,327231,1,8,0:0:0:0:
213,353,327407,1,2,0:0:0:0:
213,353,327496,2,0,L|360:386,1,140,8|0,0:0|0:0,0:0:0:0:
254,190,327848,5,2,0:0:0:0:
72,310,328113,1,2,0:0:0:0:
72,310,328201,2,0,L|81:140,1,140,8|0,0:0|0:0,0:0:0:0:
221,42,328554,1,2,0:0:0:0:
220,71,328643,1,8,0:0:0:0:
407,73,328819,1,2,0:0:0:0:
408,44,328908,1,8,0:0:0:0:
143,112,329084,1,0,0:0:0:0:
332,175,329260,5,8,0:0:0:0:
138,215,329437,1,2,0:0:0:0:
324,276,329613,1,8,0:0:0:0:
138,337,329790,1,2,0:0:0:0:
140,140,329966,1,8,0:0:0:0:
60,335,330143,1,2,0:0:0:0:
65,142,330319,2,0,L|64:86,3,46.6666666666667,8|0|0|2,0:0|0:0|0:0|0:0,0:0:0:0:
130,304,330672,5,8,0:0:0:0:
157,95,330848,1,2,0:0:0:0:
207,305,331025,1,8,0:0:0:0:
234,96,331201,1,2,0:0:0:0:
311,318,331378,1,8,0:0:0:0:
102,291,331554,1,2,0:0:0:0:
309,240,331731,2,0,L|355:239,3,46.6666666666667,8|0|0|2,0:0|0:0|0:0|0:0,0:0:0:0:
156,68,332084,6,0,L|177:179,4,87.5
309,240,332790,6,0,L|289:339,4,87.5
60,87,333496,6,0,L|180:75,1,70
295,76,333672,1,0,0:0:0:0:
295,76,333760,1,0,0:0:0:0:
295,76,333848,2,0,L|190:197,1,140
89,295,334201,6,0,P|118:325|164:333,1,70
410,294,334378,2,0,P|381:324|335:332,1,70
114,291,334554,2,0,P|137:314|174:321,1,70
387,289,334731,2,0,P|363:313|326:319,1,70
221,255,334907,5,12,0:0:0:0:
166,29,335084,1,0,0:0:0:0:
172,321,335260,5,0,0:0:0:0:
221,87,335437,1,8,0:0:0:0:
346,348,335613,5,0,0:0:0:0:
291,122,335790,1,0,0:0:0:0:
82,209,335966,1,0,0:0:0:0:
337,194,336143,1,0,0:0:0:0:
194,25,336319,5,8,0:0:0:0:
56,108,336496,1,0,0:0:0:0:
351,105,336672,1,0,0:0:0:0:
123,59,336849,1,8,0:0:0:0:
174,285,337025,5,0,0:0:0:0:
399,245,337201,1,0,0:0:0:0:
100,320,337378,5,0,0:0:0:0:
325,360,337554,1,0,0:0:0:0:
336,315,337643,1,0,0:0:0:0:
323,269,337731,2,0,B|311:215|352:179|352:179|351:134|329:108|287:106,1,181.999991668702,8|0,0:0|0:0,0:0:0:0:
254,182,337996,1,0,0:0:0:0:
314,111,338084,2,0,P|339:69|352:22,1,90.9999958343508
185,30,338260,2,0,P|162:73|159:161,1,90.9999958343508,8|0,0:0|0:0,0:0:0:0:
157,246,338437,6,0,P|138:153|71:202,1,181.999991668702
63,269,338701,1,0,0:0:0:0:
157,246,338790,2,0,B|251:209|251:277|365:242,1,181.999991668702
155,51,339143,5,8,0:0:0:0:
410,69,339319,1,0,0:0:0:0:
144,126,339496,1,0,0:0:0:0:
433,142,339672,1,8,0:0:0:0:
132,201,339848,1,0,0:0:0:0:
457,214,340024,1,0,0:0:0:0:
457,214,340113,1,0,0:0:0:0:
457,214,340201,2,0,B|397:251|397:251|463:303|450:356,1,181.999991668702
372,343,340466,1,0,0:0:0:0:
327,278,340554,6,0,B|286:308|292:359|292:359|224:284|268:163,1,272.999987503052,12|0,0:0|0:0,0:0:0:0:
259,190,340907,1,0,0:0:0:0:
116,264,341084,2,0,L|35:159,1,90.9999958343508,8|0,0:0|0:0,0:0:0:0:
63,338,341260,2,0,P|151:347|203:269,1,181.999991668702
192,244,341525,1,0,0:0:0:0:
177,200,341613,1,0,0:0:0:0:
179,155,341701,1,0,0:0:0:0:
181,110,341789,1,0,0:0:0:0:
168,66,341877,1,0,0:0:0:0:
98,94,341966,6,0,B|223:41|223:41|250:44|268:60,1,181.999991668702,8|0,0:0|0:0,0:0:0:0:
286,133,342231,1,0,0:0:0:0:
265,57,342319,2,0,B|404:56|404:56|427:45|444:18,1,181.999991668702,0|8,0:0|0:0,0:0:0:0:
380,230,342672,1,0,0:0:0:0:
424,222,342760,1,0,0:0:0:0:
463,243,342848,1,0,0:0:0:0:
481,284,342936,1,0,0:0:0:0:
468,329,343025,2,0,B|449:353|418:357|418:357|366:317|280:325,1,181.999991668702
229,348,343290,1,0,0:0:0:0:
243,273,343378,5,8,0:0:0:0:
50,325,343554,1,0,0:0:0:0:
110,277,343643,1,0,0:0:0:0:
119,352,343731,1,0,0:0:0:0:
33,115,343907,1,8,0:0:0:0:
282,189,344084,5,0,0:0:0:0:
62,42,344260,1,0,0:0:0:0:
109,102,344349,1,0,0:0:0:0:
135,31,344437,1,0,0:0:0:0:
88,187,344613,2,0,P|140:183|177:156,1,90.9999958343508
261,36,344790,6,0,P|239:72|240:145,1,90.9999958343508,8|0,0:0|0:0,0:0:0:0:
357,221,344966,2,0,P|379:185|378:112,1,90.9999958343508
235,200,345143,2,0,P|239:241|285:298,1,90.9999958343508
409,351,345319,1,8,0:0:0:0:
363,351,345407,1,0,0:0:0:0:
318,351,345495,1,0,0:0:0:0:
445,254,345672,1,0,0:0:0:0:
232,361,345848,2,0,P|200:330|179:264,1,90.9999958343508
169,160,346025,2,0,P|151:118|118:86,1,90.9999958343508
32,32,346201,5,12,0:0:0:0:
364,47,346378,1,0,0:0:0:0:
112,18,346554,2,0,L|334:42,1,181.999991668702,0|8,0:0|0:0,0:0:0:0:
435,224,346907,1,0,0:0:0:0:
107,260,347084,1,0,0:0:0:0:
358,232,347260,2,0,L|136:256,1,181.999991668702
313,61,347613,6,0,P|352:136|355:244,1,181.999991668702,8|0,0:0|0:0,0:0:0:0:
229,46,347966,1,0,0:0:0:0:
222,331,348143,1,8,0:0:0:0:
148,86,348319,1,0,0:0:0:0:
151,283,348496,1,0,0:0:0:0:
55,185,348672,1,0,0:0:0:0:
309,187,348848,1,0,0:0:0:0:
272,230,348937,1,0,0:0:0:0:
252,283,349025,6,0,B|312:323|384:329|384:329|391:306|386:266,1,181.999991668702,8|0,0:0|0:0,0:0:0:0:
385,213,349290,1,0,0:0:0:0:
454,251,349378,2,0,L|479:32,1,181.999991668702,0|8,0:0|0:0,0:0:0:0:
187,54,349731,6,0,B|265:73|307:122|307:122|283:143|251:149,1,181.999991668702
195,140,349996,1,0,0:0:0:0:
236,209,350084,2,0,B|281:315|280:315|330:208,1,181.999991668702
101,211,350437,5,8,0:0:0:0:
389,282,350613,1,0,0:0:0:0:
138,292,350790,1,0,0:0:0:0:
411,201,350966,1,8,0:0:0:0:
256,32,351143,5,0,0:0:0:0:
298,295,351319,1,0,0:0:0:0:
301,98,351496,5,0,0:0:0:0:
259,361,351672,1,0,0:0:0:0:
259,361,351760,1,0,0:0:0:0:
259,361,351848,6,0,B|188:363|123:338|123:338|131:313|159:290,1,181.999991668702,12|0,0:0|0:0,0:0:0:0:
368,255,352201,1,0,0:0:0:0:
148,188,352378,2,0,L|256:186,1,90.9999958343508,8|0,0:0|0:0,0:0:0:0:
314,186,352554,2,0,B|255:146|261:63|261:63|289:84|326:85,1,181.999991668702
334,100,352819,1,0,0:0:0:0:
374,133,352907,1,0,0:0:0:0:
424,118,352995,1,0,0:0:0:0:
439,68,353083,1,0,0:0:0:0:
405,28,353171,1,0,0:0:0:0:
356,34,353260,6,0,B|324:48|298:81|298:81|258:42|158:19,1,181.999991668702,8|0,0:0|0:0,0:0:0:0:
201,110,353525,1,0,0:0:0:0:
135,68,353613,2,0,B|83:105|38:155|38:155|25:130|28:84,1,181.999991668702,0|8,0:0|0:0,0:0:0:0:
249,169,353966,2,0,P|225:287|170:364,1,181.999991668702
131,295,354231,1,0,0:0:0:0:
105,223,354319,1,0,0:0:0:0:
359,352,354496,1,0,0:0:0:0:
349,64,354672,5,8,0:0:0:0:
105,223,354848,1,0,0:0:0:0:
159,166,354937,1,0,0:0:0:0:
180,239,355025,1,0,0:0:0:0:
34,32,355201,1,8,0:0:0:0:
349,64,355378,5,0,0:0:0:0:
126,296,355554,1,0,0:0:0:0:
180,239,355643,1,0,0:0:0:0:
201,312,355731,1,0,0:0:0:0:
202,321,355819,1,0,0:0:0:0:
203,332,355907,1,0,0:0:0:0:
204,342,355996,1,0,0:0:0:0:
205,352,356084,6,0,L|317:314,1,90.9999958343508,8|0,0:0|0:0,0:0:0:0:
267,230,356260,2,0,L|353:259,1,90.9999958343508
437,287,356437,2,0,P|385:194|423:127,1,181.999991668702,0|8,0:0|0:0,0:0:0:0:
476,183,356701,1,0,0:0:0:0:
414,133,356790,2,0,L|307:50,1,90.9999958343508
282,27,356966,2,0,P|314:113|238:126,2,181.999991668702,0|4|0,0:0|0:0|0:0,0:0:0:0:
27,35,357496,6,0,L|186:207,1,181.999991668702,12|0,0:0|0:0,0:0:0:0:
431,108,357848,1,0,0:0:0:0:
303,290,358025,1,8,0:0:0:0:
253,106,358201,1,0,0:0:0:0:
492,187,358378,1,0,0:0:0:0:
242,234,358554,1,0,0:0:0:0:
260,28,358731,1,0,0:0:0:0:
303,290,358907,5,8,0:0:0:0:
165,84,359084,1,0,0:0:0:0:
122,306,359260,1,0,0:0:0:0:
27,106,359437,1,8,0:0:0:0:
247,120,359613,1,0,0:0:0:0:
70,249,359790,1,0,0:0:0:0:
48,34,359966,1,0,0:0:0:0:
247,120,360143,1,0,0:0:0:0:
48,34,360319,6,0,L|184:24,1,90.9999958343508,8|0,0:0|0:0,0:0:0:0:
232,26,360496,2,0,L|304:33,2,52.5000020027161
27,106,360848,1,8,0:0:0:0:
280,170,361025,2,0,B|389:100|389:100|275:96,1,181.999991668702
125,167,361378,2,0,B|72:165|72:165|181:95,1,181.999991668702
191,290,361731,5,8,0:0:0:0:
258,96,361907,1,0,0:0:0:0:
191,290,362084,2,0,B|257:318|322:320|322:320|322:296|300:266,1,181.999991668702,0|8,0:0|0:0,0:0:0:0:
39,238,362437,1,0,0:0:0:0:
268,208,362613,1,0,0:0:0:0:
218,198,362701,1,0,0:0:0:0:
182,160,362790,1,0,0:0:0:0:
405,187,362966,2,0,L|378:283,1,90.9999958343508
360,353,363143,6,0,B|403:269|469:244|469:244|495:281,1,181.999991668702,12|0,0:0|0:0,0:0:0:0:
475,107,363496,2,0,B|410:110|327:75|327:75|341:57|358:55,1,181.999991668702,0|8,0:0|0:0,0:0:0:0:
317,224,363848,1,0,0:0:0:0:
301,275,363936,1,0,0:0:0:0:
263,314,364024,1,0,0:0:0:0:
212,329,364112,1,0,0:0:0:0:
159,318,364200,1,0,0:0:0:0:
118,283,364289,1,0,0:0:0:0:
98,233,364377,1,0,0:0:0:0:
103,179,364466,1,0,0:0:0:0:
159,124,364554,6,0,P|189:227|226:187,1,181.999991668702,8|0,0:0|0:0,0:0:0:0:
254,164,364819,1,0,0:0:0:0:
276,239,364907,2,0,B|247:298|252:363|252:363|293:357|321:316,1,181.999991668702,0|8,0:0|0:0,0:0:0:0:
437,195,365260,1,0,0:0:0:0:
402,165,365348,1,0,0:0:0:0:
363,142,365436,1,0,0:0:0:0:
319,131,365524,1,0,0:0:0:0:
274,133,365612,1,0,0:0:0:0:
228,138,365701,1,0,0:0:0:0:
183,133,365789,1,0,0:0:0:0:
142,114,365877,1,0,0:0:0:0:
105,87,365965,5,8,0:0:0:0:
198,222,366143,1,0,0:0:0:0:
237,285,366231,1,0,0:0:0:0:
164,288,366319,1,0,0:0:0:0:
344,218,366496,1,8,0:0:0:0:
203,355,366672,5,0,0:0:0:0:
232,156,366848,1,0,0:0:0:0:
159,159,366936,1,0,0:0:0:0:
198,222,367024,1,0,0:0:0:0:
156,37,367201,2,0,P|63:85|50:100,1,90.9999958343508
39,126,367378,5,8,0:0:0:0:
137,305,367554,1,0,0:0:0:0:
93,265,367643,1,0,0:0:0:0:
41,237,367731,1,0,0:0:0:0:
232,156,367907,1,8,0:0:0:0:
292,338,368084,2,0,B|287:269|303:204|303:204|327:224|340:260,1,181.999991668702
137,305,368437,2,4,B|157:306|145:335|115:331|109:311|163:247|142:181,1,140
132,24,368790,5,12,0:0:0:0:
286,91,368966,2,0,L|196:83,1,70
191,82,369143,1,0,0:0:0:0:
375,32,369319,2,0,L|369:134,1,70,8|0,0:0|0:0,0:0:0:0:
369,126,369496,1,0,0:0:0:0:
183,171,369672,1,0,0:0:0:0:
408,194,369848,1,0,0:0:0:0:
186,244,370025,1,0,0:0:0:0:
253,43,370201,6,0,L|220:137,1,70,8|0,0:0|0:0,0:0:0:0:
261,183,370378,2,0,L|284:249,1,70
354,334,370554,2,0,L|377:267,1,70
408,194,370731,2,0,L|384:127,1,70,8|0,0:0|0:0,0:0:0:0:
376,101,370907,1,0,0:0:0:0:
286,249,371084,5,0,0:0:0:0:
260,289,371172,1,0,0:0:0:0:
214,302,371260,1,0,0:0:0:0:
170,281,371348,1,0,0:0:0:0:
152,237,371436,1,0,0:0:0:0:
167,192,371525,1,0,0:0:0:0:
208,170,371613,6,0,P|130:140|190:132,1,181.999991668702,8|0,0:0|0:0,0:0:0:0:
209,95,371878,1,0,0:0:0:0:
145,54,371966,1,0,0:0:0:0:
286,249,372143,1,8,0:0:0:0:
428,129,372319,2,0,P|430:204|363:170,1,181.999991668702
362,95,372584,1,0,0:0:0:0:
426,54,372672,1,0,0:0:0:0:
286,249,372848,1,0,0:0:0:0:
480,300,373025,5,8,0:0:0:0:
283,329,373201,1,0,0:0:0:0:
455,227,373378,1,0,0:0:0:0:
286,249,373554,2,0,B|183:258|183:258|208:202,1,140,8|0,0:0|0:0,0:0:0:0:
257,175,373819,1,0,0:0:0:0:
183,149,373907,2,0,L|112:97,1,70
66,60,374084,2,0,P|84:117|26:156,1,140
215,33,374437,6,0,B|272:30|320:50|320:50|348:39|363:17,1,140,8|0,0:0|0:0,0:0:0:0:
257,175,374790,1,0,0:0:0:0:
471,145,374966,2,0,B|470:150|442:161|442:161|394:141|337:144,1,140,8|0,0:0|0:0,0:0:0:0:
426,292,375319,1,0,0:0:0:0:
386,277,375407,1,0,0:0:0:0:
344,273,375495,1,0,0:0:0:0:
304,282,375583,1,0,0:0:0:0:
264,297,375671,1,0,0:0:0:0:
223,304,375760,1,0,0:0:0:0:
180,298,375848,6,0,P|196:224|176:151,1,140,8|0,0:0|0:0,0:0:0:0:
59,322,376201,2,0,P|43:248|63:175,1,140,0|8,0:0|0:0,0:0:0:0:
205,55,376554,1,0,0:0:0:0:
244,69,376642,1,0,0:0:0:0:
286,73,376730,1,0,0:0:0:0:
326,64,376818,1,0,0:0:0:0:
366,49,376906,1,0,0:0:0:0:
407,42,376995,1,0,0:0:0:0:
451,49,377084,1,0,0:0:0:0:
480,240,377260,5,8,0:0:0:0:
287,181,377437,1,0,0:0:0:0:
363,182,377525,1,0,0:0:0:0:
325,247,377613,1,0,0:0:0:0:
326,64,377790,1,8,0:0:0:0:
207,261,377966,5,0,0:0:0:0:
148,68,378143,1,0,0:0:0:0:
149,144,378231,1,0,0:0:0:0:
214,106,378319,1,0,0:0:0:0:
25,107,378496,1,0,0:0:0:0:
331,104,378672,5,8,0:0:0:0:
272,297,378849,1,0,0:0:0:0:
273,221,378937,1,0,0:0:0:0:
338,259,379025,1,0,0:0:0:0:
148,250,379201,1,8,0:0:0:0:
202,34,379378,5,0,0:0:0:0:
273,221,379555,1,0,0:0:0:0:
267,145,379643,1,0,0:0:0:0:
205,188,379731,1,0,0:0:0:0:
419,200,379907,1,0,0:0:0:0:
419,53,380084,5,8,0:0:0:0:
419,102,380172,1,0,0:0:0:0:
419,151,380260,1,0,0:0:0:0:
419,200,380348,1,0,0:0:0:0:
419,249,380436,1,0,0:0:0:0:
93,331,380613,1,8,0:0:0:0:
93,331,380790,5,0,0:0:0:0:
93,282,380878,1,0,0:0:0:0:
93,233,380966,1,0,0:0:0:0:
93,184,381054,1,0,0:0:0:0:
93,135,381142,1,0,0:0:0:0:
432,192,381496,6,0,L|506:192,2,70,8|0|0,0:0|0:0|0:0,0:0:0:0:
379,192,381760,1,0,0:0:0:0:
330,192,381848,1,0,0:0:0:0:
80,192,382025,1,8,0:0:0:0:
80,192,382201,6,0,L|6:192,2,70
133,192,382465,1,0,0:0:0:0:
182,192,382553,1,0,0:0:0:0:
461,31,382907,5,8,0:0:0:0:
339,268,383084,1,0,0:0:0:0:
339,177,383172,1,0,0:0:0:0:
339,268,383260,1,0,0:0:0:0:
339,84,383437,5,8,0:0:0:0:
51,31,383613,5,8,0:0:0:0:
173,268,383790,1,0,0:0:0:0:
173,177,383878,1,0,0:0:0:0:
173,268,383966,1,0,0:0:0:0:
173,84,384143,5,8,0:0:0:0:
461,353,384319,5,8,0:0:0:0:
339,116,384496,1,0,0:0:0:0:
339,207,384584,1,0,0:0:0:0:
339,116,384672,1,0,0:0:0:0:
339,300,384849,5,8,0:0:0:0:
51,353,385025,5,8,0:0:0:0:
173,116,385202,1,0,0:0:0:0:
173,207,385290,1,0,0:0:0:0:
173,116,385378,1,0,0:0:0:0:
173,300,385555,5,8,0:0:0:0:
352,348,385731,5,10,0:0:0:0:
416,310,385848,5,2,0:0:0:0:
352,273,385966,5,2,0:0:0:0:
370,339,386084,5,10,0:0:0:0:
407,274,386201,5,2,0:0:0:0:
333,274,386319,5,2,0:0:0:0:
392,333,386437,5,10,0:0:0:0:
391,259,386554,5,2,0:0:0:0:
327,296,386672,5,2,0:0:0:0:
407,317,386790,5,10,0:0:0:0:
317,190,386966,1,0,0:0:0:0:
402,41,387143,5,2,0:0:0:0:
243,42,387319,1,2,0:0:0:0:
395,113,387496,1,2,0:0:0:0:
323,29,387672,1,2,0:0:0:0:
317,190,387848,1,2,0:0:0:0:
232,223,388025,1,2,0:0:0:0:
147,190,388201,1,2,0:0:0:0:
61,220,388378,1,2,0:0:0:0:
16,98,388554,1,6,0:0:0:0:
296,240,389966,6,0,P|361:164|374:101,1,140
220,109,390496,2,0,P|259:129|286:155,1,70
152,162,390848,2,0,P|136:129|141:81,2,70
204,238,391378,2,0,P|203:272|188:303,2,70
112,252,391907,2,0,P|98:288|107:351,1,70
262,355,392260,2,0,P|276:319|267:256,1,70
204,238,392613,6,0,P|231:212|265:202,1,70
353,231,392966,1,0,0:0:0:0:
352,230,393143,2,0,P|385:219|410:195,2,70
331,137,393672,1,0,0:0:0:0:
330,136,393848,2,0,P|305:112|273:101,1,70
209,171,394201,2,0,P|176:159|151:135,3,70
167,42,394907,2,0,P|91:68|93:209,1,210
225,235,395613,6,0,L|171:264,7,35
132,301,396319,2,0,L|186:330,7,35
231,344,397025,6,0,P|291:323|339:232,1,140
314,165,397554,1,0,0:0:0:0:
314,165,397731,2,0,P|345:185|390:192,1,70
312,140,398084,2,0,P|339:165|382:179,1,70
455,215,398437,6,0,B|479:145|432:144|459:63,1,140
371,32,398966,2,0,P|331:21|282:17,1,70
294,114,399319,2,0,P|259:109|225:99,1,70
151,39,399672,2,0,P|117:29|82:24,2,70
225,99,400201,2,0,P|259:94|293:84,2,70
135,132,400731,2,0,P|100:127|66:117,2,70
291,161,401260,5,0,0:0:0:0:
291,161,401437,1,0,0:0:0:0:
208,225,401613,1,0,0:0:0:0:
202,248,401701,1,0,0:0:0:0:
197,272,401789,1,0,0:0:0:0:
192,296,401877,1,0,0:0:0:0:
187,320,401965,1,0,0:0:0:0:
85,350,402143,1,0,0:0:0:0:
42,254,402319,5,0,0:0:0:0:
36,230,402407,1,0,0:0:0:0:
34,205,402495,1,0,0:0:0:0:
37,181,402583,1,0,0:0:0:0:
43,157,402671,1,0,0:0:0:0:
110,76,402848,1,0,0:0:0:0:
193,139,403025,5,0,0:0:0:0:
217,144,403113,1,0,0:0:0:0:
241,146,403201,1,0,0:0:0:0:
266,144,403289,1,0,0:0:0:0:
289,137,403377,1,0,0:0:0:0:
236,45,403554,1,0,0:0:0:0:
193,139,403731,5,0,0:0:0:0:
186,162,403819,1,0,0:0:0:0:
184,187,403907,1,0,0:0:0:0:
186,211,403995,1,0,0:0:0:0:
191,235,404083,1,0,0:0:0:0:
252,320,404260,1,0,0:0:0:0:
335,255,404437,5,0,0:0:0:0:
359,250,404525,1,0,0:0:0:0:
383,248,404613,1,0,0:0:0:0:
408,250,404701,1,0,0:0:0:0:
431,257,404789,1,0,0:0:0:0:
485,167,404966,1,0,0:0:0:0:
380,158,405143,5,0,0:0:0:0:
373,135,405231,1,0,0:0:0:0:
371,110,405319,1,0,0:0:0:0:
373,86,405407,1,0,0:0:0:0:
378,62,405495,1,0,0:0:0:0:
483,62,405672,1,0,0:0:0:0:
378,62,405848,5,0,0:0:0:0:
355,69,405936,1,0,0:0:0:0:
330,71,406024,1,0,0:0:0:0:
306,69,406112,1,0,0:0:0:0:
282,64,406200,1,0,0:0:0:0:
217,147,406378,1,0,0:0:0:0:
153,63,406554,5,0,0:0:0:0:
142,85,406642,1,0,0:0:0:0:
132,107,406730,1,0,0:0:0:0:
122,129,406818,1,0,0:0:0:0:
112,152,406906,1,0,0:0:0:0:
75,251,407084,1,0,0:0:0:0:
75,251,407260,2,0,P|117:241|168:246,1,70
223,309,407613,2,0,P|265:319|316:314,1,70
361,239,407966,2,0,P|395:239|429:248,1,70
289,215,408319,6,0,P|324:176|364:163,1,83.9999974365235
237,272,408672,2,0,P|215:224|223:177,1,97.9999970092774
296,113,409025,1,0,0:0:0:0:
231,28,409201,1,0,0:0:0:0:
166,114,409378,1,0,0:0:0:0:
93,34,409554,1,0,0:0:0:0:
35,116,409731,6,0,B|92:116|92:116|100:107|100:107|108:116|108:116|158:116|158:116|166:108|166:108|174:116|174:116|221:116|221:116|229:121|229:121|237:116|237:116|291:116|291:116|296:111|296:111|324:162|281:242|321:387|458:310|460:213|436:164|379:154|274:175|238:243|222:332|139:343|139:343|125:325|125:325|100:315|100:315|90:292|90:292|68:278|68:278|58:253|58:253|26:210|26:210|58:206|58:206|84:213|84:213|110:205|110:205|133:212|133:212|157:204|157:204|180:212|180:212|200:205|200:205|218:213|218:213|260:270|260:270|287:327|348:380|436:373|511:320|504:212|475:169|439:142|375:126|375:126|389:108|389:108|412:108|412:108|425:88|425:88|439:84|439:84|449:76|449:76|448:62|448:62|436:57|436:57|437:47|437:47|424:43|424:43|416:34|416:34|398:34|398:34|381:26|381:26|359:32|359:32|339:23|339:23|319:32|319:32|301:24|301:24|283:32|283:32|262:23|262:23|243:31|243:31|223:24|223:24|207:31|207:31|190:23|190:23|173:31|173:31|153:22|153:22|129:34|129:34|113:20|113:20|93:38|93:38|69:15|69:15|43:38|43:38|14:32,1,2393.99992694092
175,78,421378,5,0,0:0:0:0:
175,78,421731,1,0,0:0:0:0:
313,59,421907,1,0,0:0:0:0:
446,101,422084,1,0,0:0:0:0:
313,59,422260,1,0,0:0:0:0:
293,198,422437,6,0,P|373:247|265:249,1,210,12|0,0:0|0:0,0:0:0:0:
242,267,422790,2,0,L|158:220,2,70,0|0|8,0:0|0:0|0:0,0:0:0:0:
423,333,423143,2,0,B|457:299|457:249|457:249|446:245|446:245|456:236|456:236|444:229|444:229|455:223|455:223|444:215|444:215|453:208|453:208|445:202|445:202|452:196|452:196|443:189|443:189|452:186,1,210
452,185,423496,5,0,0:0:0:0:
393,74,423672,1,0,0:0:0:0:
337,217,423848,2,0,L|384:152,4,70,8|0|0|0|0,0:0|0:0|0:0|0:0|0:0,0:0:0:0:
255,38,424378,1,8,0:0:0:0:
181,248,424554,2,0,P|191:133|231:118,1,140
239,196,424819,1,0,0:0:0:0:
199,127,424907,2,0,B|167:77|109:67|109:67|95:89|87:132,1,140
84,328,425260,6,0,B|88:306|82:306|89:292|82:291|91:276|84:276|91:262|84:262|91:250|85:250|91:237|86:237|91:226|86:226|91:214|86:214|91:203|86:202|91:193|87:192|91:184,1,140,8|0,0:0|0:0,0:0:0:0:
18,113,425613,2,0,P|60:166|137:162,1,140,0|8,0:0|0:0,0:0:0:0:
266,67,425966,1,0,0:0:0:0:
328,42,426054,1,0,0:0:0:0:
380,83,426142,1,0,0:0:0:0:
372,149,426230,1,0,0:0:0:0:
310,175,426318,1,0,0:0:0:0:
261,169,426407,1,0,0:0:0:0:
220,158,426495,1,0,0:0:0:0:
188,131,426583,1,0,0:0:0:0:
152,102,426672,6,0,B|111:78|59:70|59:70|75:50|107:41,1,140,8|0,0:0|0:0,0:0:0:0:
328,42,427025,1,0,0:0:0:0:
164,24,427201,1,8,0:0:0:0:
376,109,427378,2,0,L|446:134,3,70
490,189,427731,2,0,L|456:12,1,140
371,195,428084,6,0,P|395:262|461:301,1,140,12|0,0:0|0:0,0:0:0:0:
307,309,428437,2,0,L|303:368,1,52.5000020027161
230,340,428613,2,0,L|216:199,1,140,8|0,0:0|0:0,0:0:0:0:
45,249,428966,2,0,P|89:194|148:218,1,140
26,112,429319,1,0,0:0:0:0:
51,87,429407,1,0,0:0:0:0:
76,63,429495,5,8,0:0:0:0:
114,284,429672,1,0,0:0:0:0:
150,42,429848,2,0,L|159:175,1,70
233,178,430025,2,0,L|230:124,1,52.5000020027161,8|0,0:0|0:0,0:0:0:0:
299,64,430201,2,0,L|296:19,2,35.0000013351441
303,100,430378,2,0,L|307:146,2,26.2500010013581
337,82,430554,6,0,B|447:74|447:74|442:94|420:110,1,140
348,269,430907,6,0,B|316:277|316:277|316:265|316:265|322:262|322:262|319:255|319:255|326:254|326:254|324:247|324:247|331:246|331:246|328:239|328:239|334:238|334:238|333:231|333:231|341:232|341:232|341:223|341:223|348:223|348:223|346:215|346:215|357:208,1,140,8|0,0:0|0:0,0:0:0:0:
422,186,431172,1,0,0:0:0:0:
351,211,431260,2,0,L|240:162,1,70
228,120,431437,2,0,P|221:158|191:194,1,70,8|0,0:0|0:0,0:0:0:0:
135,209,431613,2,0,L|155:259,1,49
167,281,432319,5,8,0:0:0:0:
94,126,432496,1,0,0:0:0:0:
124,109,432584,1,0,0:0:0:0:
155,92,432672,1,0,0:0:0:0:
346,71,432848,1,8,0:0:0:0:
229,161,433025,2,0,L|264:161,6,35
308,223,433378,2,0,L|375:222,3,52.5000020027161
435,214,433731,6,0,P|396:150|398:56,1,140,8|0,0:0|0:0,0:0:0:0:
171,90,434084,1,0,0:0:0:0:
361,19,434260,1,8,0:0:0:0:
109,37,434437,1,0,0:0:0:0:
93,68,434525,1,0,0:0:0:0:
92,102,434613,1,0,0:0:0:0:
105,135,434701,1,0,0:0:0:0:
131,159,434790,2,0,P|51:160|7:218,1,140
191,340,435143,5,8,0:0:0:0:
191,340,435231,1,0,0:0:0:0:
191,340,435319,1,0,0:0:0:0:
247,207,435496,2,0,L|255:146,4,35,0|0|0|0|8,0:0|0:0|0:0|0:0|0:0,0:0:0:0:
313,288,435848,2,0,L|320:376,5,70
390,332,436378,2,0,L|407:237,1,70
416,190,436554,5,8,0:0:0:0:
308,29,436731,1,0,0:0:0:0:
317,62,436819,1,0,0:0:0:0:
326,97,436907,2,0,L|341:149,6,35,0|0|0|0|8|0|0,0:0|0:0|0:0|0:0|0:0|0:0|0:0,0:0:0:0:
390,59,437260,2,0,L|503:25,1,105.000004005432
480,205,437613,1,0,0:0:0:0:
491,41,437790,1,0,0:0:0:0:
481,217,437966,6,0,B|482:271|466:322|466:322|448:316|435:288,1,140,8|0,0:0|0:0,0:0:0:0:
265,176,438319,2,0,P|337:193|412:267,1,140,0|8,0:0|0:0,0:0:0:0:
333,286,438584,1,0,0:0:0:0:
264,251,438672,2,0,P|192:268|117:342,1,140
140,307,438937,1,0,0:0:0:0:
140,307,439025,1,0,0:0:0:0:
146,157,439201,1,0,0:0:0:0:
71,353,439378,6,0,B|59:257|59:257|87:210,1,140,8|0,0:0|0:0,0:0:0:0:
272,154,439731,1,0,0:0:0:0:
146,157,439907,1,8,0:0:0:0:
148,284,440084,1,0,0:0:0:0:
276,279,440260,1,0,0:0:0:0:
208,110,440437,1,0,0:0:0:0:
212,329,440613,1,0,0:0:0:0:
326,216,440790,6,0,L|401:217,3,70,8|0|0|0,0:0|0:0|0:0|0:0,0:0:0:0:
427,217,441143,2,0,L|473:216,6,35,0|0|0|0|8|0|0,0:0|0:0|0:0|0:0|0:0|0:0|0:0,0:0:0:0:
484,215,441496,1,0,0:0:0:0:
328,129,441672,1,0,0:0:0:0:
372,115,441760,1,0,0:0:0:0:
385,70,441848,2,0,B|375:55|354:44|354:44|405:36|451:61|478:102|445:154,1,210
438,159,442201,6,0,L|389:199,4,41.9999987182618,8|0|0|0|0,0:0|0:0|0:0|0:0|0:0,0:0:0:0:
403,344,442731,1,8,0:0:0:0:
243,293,442907,1,0,0:0:0:0:
276,282,442995,1,0,0:0:0:0:
309,272,443083,1,0,0:0:0:0:
180,368,443260,1,0,0:0:0:0:
183,177,443437,1,0,0:0:0:0:
373,179,443613,6,0,L|429:179,3,52.5000020027161,8|0|0|0,0:0|0:0|0:0|0:0,0:0:0:0:
455,179,443966,2,0,P|430:99|450:48,1,140,0|8,0:0|0:0,0:0:0:0:
291,53,444319,2,0,P|310:118|285:182,1,140
212,159,444584,1,0,0:0:0:0:
212,82,444672,2,0,L|110:302,1,210,4|0,0:0|0:0,0:0:0:0:
114,294,445025,5,12,0:0:0:0:
66,106,445201,1,0,0:0:0:0:
215,246,445378,1,0,0:0:0:0:
193,293,445466,1,0,0:0:0:0:
171,341,445554,1,8,0:0:0:0:
357,242,445731,5,0,0:0:0:0:
195,145,445907,1,0,0:0:0:0:
399,136,446084,1,0,0:0:0:0:
418,184,446172,1,0,0:0:0:0:
437,233,446260,1,0,0:0:0:0:
443,40,446437,5,8,0:0:0:0:
255,39,446613,1,0,0:0:0:0:
283,227,446790,1,0,0:0:0:0:
302,178,446878,1,0,0:0:0:0:
321,130,446966,1,8,0:0:0:0:
371,313,447143,5,0,0:0:0:0:
181,301,447319,2,0,L|224:357,2,52.5000020027161
153,261,447584,1,0,0:0:0:0:
125,220,447672,1,0,0:0:0:0:
250,79,447848,5,8,0:0:0:0:
65,39,448025,1,0,0:0:0:0:
125,220,448201,1,0,0:0:0:0:
144,171,448289,1,0,0:0:0:0:
163,123,448377,1,8,0:0:0:0:
37,265,448554,5,0,0:0:0:0:
223,299,448731,1,0,0:0:0:0:
293,124,448907,1,0,0:0:0:0:
312,172,448995,1,0,0:0:0:0:
331,221,449083,1,0,0:0:0:0:
182,103,449260,5,8,0:0:0:0:
370,76,449437,1,0,0:0:0:0:
248,220,449613,1,0,0:0:0:0:
200,239,449701,1,0,0:0:0:0:
151,258,449789,1,8,0:0:0:0:
86,80,449966,5,0,0:0:0:0:
51,236,450143,2,0,L|58:303,1,52.5000020027161
13,351,450319,1,0,0:0:0:0:
65,344,450407,1,0,0:0:0:0:
117,338,450495,1,0,0:0:0:0:
326,313,450672,5,12,0:0:0:0:
201,172,450848,1,0,0:0:0:0:
373,252,451025,1,0,0:0:0:0:
404,210,451113,1,0,0:0:0:0:
436,168,451201,1,8,0:0:0:0:
473,355,451378,5,0,0:0:0:0:
285,372,451554,1,0,0:0:0:0:
309,184,451731,1,0,0:0:0:0:
277,226,451819,1,0,0:0:0:0:
245,268,451907,1,0,0:0:0:0:
169,72,452084,5,8,0:0:0:0:
353,112,452260,1,0,0:0:0:0:
194,215,452437,1,0,0:0:0:0:
162,173,452525,1,0,0:0:0:0:
130,131,452613,1,8,0:0:0:0:
313,179,452790,5,0,0:0:0:0:
167,298,452966,1,0,0:0:0:0:
53,146,453143,1,0,0:0:0:0:
85,104,453231,1,0,0:0:0:0:
117,62,453319,1,0,0:0:0:0:
328,56,453496,5,8,0:0:0:0:
154,129,453672,1,0,0:0:0:0:
352,127,453848,1,0,0:0:0:0:
404,127,453936,1,0,0:0:0:0:
457,127,454024,1,8,0:0:0:0:
284,207,454201,6,0,L|168:207,2,105.000004005432
336,207,454643,1,0,0:0:0:0:
389,207,454731,1,0,0:0:0:0:
256,355,454907,5,8,0:0:0:0:
406,309,455084,1,0,0:0:0:0:
406,309,455172,1,0,0:0:0:0:
406,309,455260,1,0,0:0:0:0:
216,281,455437,1,8,0:0:0:0:
389,207,455613,2,0,L|375:97,1,105.000004005432
186,101,455966,2,0,P|244:86|257:28,1,105.000004005432,4|0,0:0|0:0,0:0:0:0:
173,207,456319,5,12,0:0:0:0:
92,304,456496,1,0,0:0:0:0:
209,349,456672,1,0,0:0:0:0:
247,333,456760,1,0,0:0:0:0:
282,309,456848,1,8,0:0:0:0:
366,214,457025,6,0,L|424:324,1,105.000004005432
282,309,457378,1,0,0:0:0:0:
243,293,457466,1,0,0:0:0:0:
208,269,457554,1,0,0:0:0:0:
137,164,457731,5,8,0:0:0:0:
117,40,457907,1,0,0:0:0:0:
239,73,458084,1,0,0:0:0:0:
278,89,458172,1,0,0:0:0:0:
313,113,458260,1,8,0:0:0:0:
404,200,458437,6,0,L|449:84,1,105.000004005432,0|8,0:0|0:0,0:0:0:0:
313,113,458790,1,0,0:0:0:0:
274,129,458878,1,0,0:0:0:0:
239,153,458966,1,0,0:0:0:0:
183,266,459143,5,8,0:0:0:0:
279,347,459319,1,0,0:0:0:0:
391,290,459496,1,0,0:0:0:0:
399,249,459584,1,0,0:0:0:0:
397,206,459672,1,8,0:0:0:0:
374,82,459848,6,0,L|254:53,1,105.000004005432
149,99,460201,1,0,0:0:0:0:
141,140,460289,1,0,0:0:0:0:
143,183,460377,1,0,0:0:0:0:
267,207,460554,5,8,0:0:0:0:
327,317,460731,1,0,0:0:0:0:
201,323,460907,1,0,0:0:0:0:
158,325,460995,1,0,0:0:0:0:
117,317,461083,1,8,0:0:0:0:
53,207,461260,6,0,L|70:84,1,105.000004005432,0|8,0:0|0:0,0:0:0:0:
173,34,461613,1,0,0:0:0:0:
216,32,461701,1,0,0:0:0:0:
257,40,461789,1,0,0:0:0:0:
376,126,461966,5,12,0:0:0:0:
424,242,462143,1,0,0:0:0:0:
299,222,462319,1,0,0:0:0:0:
256,220,462407,1,0,0:0:0:0:
215,228,462495,1,8,0:0:0:0:
96,272,462672,2,0,L|195:363,1,105.000004005432
215,228,463025,1,0,0:0:0:0:
223,187,463113,1,0,0:0:0:0:
221,144,463201,1,0,0:0:0:0:
135,50,463378,5,8,0:0:0:0:
99,170,463554,1,0,0:0:0:0:
221,144,463731,1,0,0:0:0:0:
264,142,463819,1,0,0:0:0:0:
305,150,463907,1,8,0:0:0:0:
429,172,464084,6,0,L|401:60,1,105.000004005432,0|8,0:0|0:0,0:0:0:0:
305,150,464437,1,0,0:0:0:0:
303,193,464525,1,0,0:0:0:0:
311,234,464613,1,0,0:0:0:0:
394,329,464790,5,8,0:0:0:0:
270,349,464966,1,0,0:0:0:0:
152,303,465143,1,0,0:0:0:0:
152,303,465231,1,0,0:0:0:0:
152,303,465319,1,8,0:0:0:0:
100,187,465496,6,0,L|160:83,1,105.000004005432
256,25,465848,1,0,0:0:0:0:
256,25,465937,1,0,0:0:0:0:
256,25,466025,1,0,0:0:0:0:
256,114,466201,5,0,0:0:0:0:
256,190,466378,5,0,0:0:0:0:
339,144,466554,1,0,0:0:0:0:
173,144,466731,1,0,0:0:0:0:
256,275,466907,2,0,B|253:283|253:283|259:285|259:285|253:289|253:289|259:290|259:290|253:295|253:295|259:295|259:295|253:300|253:300|259:300|259:300|253:304|253:304|259:304|259:304|253:308|253:308|259:309|259:309|253:313|253:313|259:314|259:314|256:339,1,105.000004005432
256,190,467260,1,0,0:0:0:0:
257,369,467437,1,0,0:0:0:0:
256,190,467790,5,2,0:0:0:0:
256,32,467966,1,2,0:0:0:0:
392,111,468143,1,2,0:0:0:0:
256,190,468319,5,2,0:0:0:0:
120,269,468496,1,2,0:0:0:0:
256,348,468672,1,2,0:0:0:0:
256,32,468848,1,2,0:0:0:0:
256,192,469378,12,4,474496,0:0:0:0:
