osu file format v14

[General]
AudioFilename: audio.mp3
AudioLeadIn: 0
PreviewTime: 43885
Countdown: 0
SampleSet: Normal
StackLeniency: 0.2
Mode: 3
LetterboxInBreaks: 0
SpecialStyle: 0
WidescreenStoryboard: 0

[Editor]
DistanceSpacing: 0.5
BeatDivisor: 4
GridSize: 4
TimelineZoom: 1.14

[Metadata]
Title:Kara Kara Kara no Kara
TitleUnicode:カラカラカラのカラ
Artist:Kikuo
ArtistUnicode:きくお
Creator:Amos
Version:Kara
Source:
Tags:Kikuo Miku 5
BeatmapID:1530679
BeatmapSetID:724886

[Difficulty]
HPDrainRate:7
CircleSize:4
OverallDifficulty:8
ApproachRate:5
SliderMultiplier:3.1
SliderTickRate:1

[Events]
//Background and Video events
0,0,"kikuo.jpg",0,0
//Break Periods
2,298432,308327
//Storyboard Layer 0 (Background)
//Storyboard Layer 1 (Fail)
//Storyboard Layer 2 (Pass)
//Storyboard Layer 3 (Foreground)
//Storyboard Sound Samples

[TimingPoints]
1500,451.127819548872,4,1,0,25,1,0
1500,-78.7401574803149,4,1,0,25,0,0
178341,447.761194029851,4,1,0,25,1,0
178341,-79.3650793650794,4,1,0,25,0,0
180132,441.176470588235,4,1,0,25,1,0
180132,-80,4,1,0,25,0,0
181896,428.571428571429,4,1,0,25,1,0
181896,-82.6446280991736,4,1,0,25,0,0
183610,419.58041958042,4,1,0,25,1,0
183610,-84.7457627118644,4,1,0,25,0,0
185288,413.793103448276,4,1,0,25,1,0
185288,-85.4700854700855,4,1,0,25,0,0
186943,408.163265306122,4,1,0,25,1,0
186943,-86.9565217391304,4,1,0,25,0,0
188575,400,4,1,0,25,1,0
188575,-88.4955752212389,4,1,0,25,0,0
191775,387.096774193548,4,1,0,25,1,0
191775,-91.743119266055,4,1,0,25,0,0
193323,384.615384615385,4,1,0,25,1,0
193323,-92.5925925925926,4,1,0,25,0,0
194861,377.358490566038,4,1,0,25,1,0
194861,-94.3396226415094,4,1,0,25,0,0
197879,368.098159509202,4,1,0,25,1,0
197879,-96.1538461538461,4,1,0,25,0,0
199351,363.636363636364,4,1,0,25,1,0
199351,-97.0873786407767,4,1,0,25,0,0
200805,357.142857142857,4,1,0,25,1,0
200805,-99.009900990099,4,1,0,25,0,0
202233,352.941176470588,4,1,0,25,1,0
202233,-100,4,1,0,25,0,0

[HitObjects]
320,192,1500,5,8,2:0:0:0:
448,192,1500,1,8,2:0:0:0:
192,192,1725,1,8,2:0:0:0:
320,192,1725,1,8,2:0:0:0:
320,192,1951,1,8,2:0:0:0:
448,192,1951,1,8,2:0:0:0:
192,192,2176,1,8,2:0:0:0:
320,192,2176,1,8,2:0:0:0:
320,192,2402,1,8,2:0:0:0:
448,192,2402,1,8,2:0:0:0:
192,192,2627,1,8,2:0:0:0:
320,192,2627,1,8,2:0:0:0:
64,192,2853,1,8,2:0:0:0:
192,192,2853,1,8,2:0:0:0:
320,192,3078,1,8,2:0:0:0:
448,192,3078,1,8,2:0:0:0:
192,192,3304,1,8,2:0:0:0:
320,192,3304,1,8,2:0:0:0:
320,192,3530,1,8,2:0:0:0:
448,192,3530,1,8,2:0:0:0:
192,192,3755,1,8,2:0:0:0:
320,192,3755,1,8,2:0:0:0:
64,192,3981,1,8,2:0:0:0:
192,192,3981,1,8,2:0:0:0:
320,192,4206,1,8,2:0:0:0:
448,192,4206,1,8,2:0:0:0:
192,192,4432,1,8,2:0:0:0:
320,192,4432,1,8,2:0:0:0:
320,192,4657,1,8,2:0:0:0:
448,192,4657,1,8,2:0:0:0:
192,192,4883,1,8,2:0:0:0:
320,192,4883,1,8,2:0:0:0:
64,192,5109,128,8,5560:2:0:0:0:
192,192,5109,1,8,2:0:0:0:
448,192,5334,1,8,2:0:0:0:
192,192,5560,1,8,2:0:0:0:
320,192,5785,1,8,2:0:0:0:
448,192,5785,1,8,2:0:0:0:
320,192,6011,1,8,2:0:0:0:
64,192,6011,128,8,6687:2:0:0:0:
192,192,6236,1,8,2:0:0:0:
320,192,6462,1,8,2:0:0:0:
448,192,6462,1,8,2:0:0:0:
192,192,6687,1,8,2:0:0:0:
320,192,6913,1,8,2:0:0:0:
64,192,6913,1,8,2:0:0:0:
192,192,7139,1,8,2:0:0:0:
448,192,7139,1,8,2:0:0:0:
192,192,7364,1,8,2:0:0:0:
64,192,7364,1,8,2:0:0:0:
64,192,7590,1,8,2:0:0:0:
320,192,7590,128,8,7815:2:0:0:0:
192,192,7815,128,8,8041:2:0:0:0:
448,192,7815,1,8,2:0:0:0:
320,192,8041,1,8,2:0:0:0:
64,192,8266,1,8,2:0:0:0:
448,192,8266,1,8,2:0:0:0:
192,192,8492,1,8,2:0:0:0:
448,192,8492,1,8,2:0:0:0:
320,192,8718,1,8,2:0:0:0:
192,192,8718,1,8,2:0:0:0:
64,192,12327,1,8,2:0:0:0:
192,192,12327,128,8,13003:2:0:0:0:
448,192,13003,128,8,14131:2:0:0:0:
64,192,13003,1,8,2:0:0:0:
64,192,14131,128,8,14808:2:0:0:0:
320,192,14131,1,8,2:0:0:0:
448,192,14808,1,8,2:0:0:0:
320,192,14808,128,8,15259:2:0:0:0:
64,192,15259,1,8,2:0:0:0:
192,192,15259,1,8,2:0:0:0:
192,192,15484,1,8,2:0:0:0:
320,192,15484,1,8,2:0:0:0:
64,192,15710,1,8,2:0:0:0:
192,192,15710,1,8,2:0:0:0:
192,192,15936,1,8,2:0:0:0:
448,192,15936,128,8,16161:2:0:0:0:
64,192,16161,1,8,2:0:0:0:
192,192,16161,1,8,2:0:0:0:
192,192,16387,1,8,2:0:0:0:
320,192,16387,1,8,2:0:0:0:
320,192,16612,1,8,2:0:0:0:
448,192,16612,1,8,2:0:0:0:
64,192,16838,1,8,2:0:0:0:
192,192,16838,1,8,2:0:0:0:
192,192,17063,1,8,2:0:0:0:
320,192,17063,1,8,2:0:0:0:
64,192,17289,1,8,2:0:0:0:
192,192,17289,1,8,2:0:0:0:
192,192,17515,1,8,2:0:0:0:
320,192,17515,1,8,2:0:0:0:
448,192,17740,1,8,2:0:0:0:
192,192,17740,1,8,2:0:0:0:
64,192,17966,1,8,2:0:0:0:
448,192,17966,1,8,2:0:0:0:
192,192,18191,1,8,2:0:0:0:
320,192,18191,1,8,2:0:0:0:
64,192,18417,1,8,2:0:0:0:
192,192,18417,1,8,2:0:0:0:
448,192,18642,1,8,2:0:0:0:
192,192,18642,1,8,2:0:0:0:
64,192,19093,1,8,2:0:0:0:
448,192,19545,128,8,20221:2:0:0:0:
64,192,20221,1,8,2:0:0:0:
192,192,20221,128,8,21349:2:0:0:0:
320,192,21349,1,8,2:0:0:0:
64,192,21349,128,8,22026:2:0:0:0:
448,192,22026,128,8,22477:2:0:0:0:
192,192,22026,1,8,2:0:0:0:
64,192,22477,1,8,2:0:0:0:
192,192,22703,1,8,2:0:0:0:
64,192,22928,1,8,2:0:0:0:
192,192,23154,1,8,2:0:0:0:
320,192,23379,128,8,23605:2:0:0:0:
192,192,23379,1,8,2:0:0:0:
192,192,23605,128,8,23830:2:0:0:0:
448,192,23605,1,8,2:0:0:0:
64,192,23830,128,8,24056:2:0:0:0:
320,192,23830,1,8,2:0:0:0:
192,192,24056,1,8,2:0:0:0:
448,192,24056,128,8,24281:2:0:0:0:
320,192,24281,1,8,2:0:0:0:
64,192,24281,128,8,24507:2:0:0:0:
192,192,24507,1,8,2:0:0:0:
320,192,24507,128,8,24733:2:0:0:0:
192,192,24733,1,8,2:0:0:0:
64,192,24733,128,8,24958:2:0:0:0:
320,192,24958,1,8,2:0:0:0:
192,192,24958,1,8,2:0:0:0:
448,192,25184,1,8,2:0:0:0:
192,192,25184,1,8,2:0:0:0:
64,192,25409,1,8,2:0:0:0:
448,192,25409,1,8,2:0:0:0:
192,192,25635,1,8,2:0:0:0:
64,192,25635,1,8,2:0:0:0:
320,192,25860,1,8,2:0:0:0:
448,192,25860,1,8,2:0:0:0:
192,192,26312,1,8,2:0:0:0:
64,192,26763,1,8,2:0:0:0:
320,192,26763,1,8,2:0:0:0:
320,192,26988,1,8,2:0:0:0:
448,192,26988,1,8,2:0:0:0:
192,192,27214,1,8,2:0:0:0:
448,192,27214,1,8,2:0:0:0:
64,192,27439,1,8,2:0:0:0:
448,192,27439,1,8,2:0:0:0:
192,192,27665,1,8,2:0:0:0:
320,192,27665,128,8,27890:2:0:0:0:
64,192,27890,128,8,28116:2:0:0:0:
192,192,27890,1,8,2:0:0:0:
448,192,28116,128,8,28342:2:0:0:0:
320,192,28116,1,8,2:0:0:0:
320,192,28342,128,8,28567:2:0:0:0:
192,192,28342,1,8,2:0:0:0:
192,192,28567,1,8,2:0:0:0:
448,192,28567,1,8,2:0:0:0:
64,192,28793,1,8,2:0:0:0:
320,192,28793,1,8,2:0:0:0:
192,192,29018,1,8,2:0:0:0:
448,192,29018,1,8,2:0:0:0:
320,192,29244,1,8,2:0:0:0:
192,192,29244,1,8,2:0:0:0:
64,192,29469,1,8,2:0:0:0:
192,192,29469,128,8,29695:2:0:0:0:
320,192,29695,128,8,29921:2:0:0:0:
448,192,29695,1,8,2:0:0:0:
192,192,29921,128,8,30146:2:0:0:0:
64,192,29921,1,8,2:0:0:0:
64,192,30146,128,8,30372:2:0:0:0:
320,192,30146,1,8,2:0:0:0:
320,192,30372,1,8,2:0:0:0:
192,192,30372,128,8,31499:2:0:0:0:
64,192,30823,1,8,2:0:0:0:
320,192,31048,1,8,2:0:0:0:
448,192,31048,1,8,2:0:0:0:
448,192,31274,1,8,2:0:0:0:
320,192,31499,128,8,31725:2:0:0:0:
64,192,31499,1,8,2:0:0:0:
448,192,31725,128,8,31951:2:0:0:0:
192,192,31725,1,8,2:0:0:0:
192,192,31951,128,8,32176:2:0:0:0:
64,192,31951,1,8,2:0:0:0:
320,192,32176,1,8,2:0:0:0:
448,192,32176,1,8,2:0:0:0:
64,192,32402,1,8,2:0:0:0:
320,192,32402,1,8,2:0:0:0:
192,192,32627,1,8,2:0:0:0:
448,192,32627,1,8,2:0:0:0:
320,192,32853,1,8,2:0:0:0:
192,192,32853,1,8,2:0:0:0:
320,192,33078,1,8,2:0:0:0:
448,192,33078,1,8,2:0:0:0:
192,192,33304,1,8,2:0:0:0:
320,192,33304,1,8,2:0:0:0:
64,192,33530,1,8,2:0:0:0:
448,192,33530,1,8,2:0:0:0:
320,192,33755,1,8,2:0:0:0:
64,192,33755,1,8,2:0:0:0:
192,192,33981,1,8,2:0:0:0:
448,192,33981,1,8,2:0:0:0:
192,192,34206,1,8,2:0:0:0:
320,192,34206,1,8,2:0:0:0:
192,192,34432,1,8,2:0:0:0:
448,192,34432,1,8,2:0:0:0:
64,192,34657,1,8,2:0:0:0:
192,192,34657,1,8,2:0:0:0:
64,192,34883,1,8,2:0:0:0:
320,192,34883,128,8,35334:2:0:0:0:
192,192,35334,1,8,2:0:0:0:
448,192,35334,1,8,2:0:0:0:
64,192,35560,1,8,2:0:0:0:
192,192,35560,128,8,35785:2:0:0:0:
320,192,35785,1,8,2:0:0:0:
448,192,35785,1,8,2:0:0:0:
192,192,36011,1,8,2:0:0:0:
320,192,36011,1,8,2:0:0:0:
64,192,36236,1,8,2:0:0:0:
448,192,36236,1,8,2:0:0:0:
192,192,36462,1,8,2:0:0:0:
448,192,36462,1,8,2:0:0:0:
64,192,36687,1,8,2:0:0:0:
192,192,36687,128,8,36913:2:0:0:0:
448,192,36913,128,8,37139:2:0:0:0:
320,192,36913,1,8,2:0:0:0:
64,192,37139,128,8,37364:2:0:0:0:
192,192,37139,1,8,2:0:0:0:
320,192,37364,128,8,37590:2:0:0:0:
448,192,37364,1,8,2:0:0:0:
64,192,37590,128,8,37815:2:0:0:0:
448,192,37590,1,8,2:0:0:0:
192,192,37815,1,8,2:0:0:0:
320,192,37815,1,8,2:0:0:0:
64,192,38041,1,8,2:0:0:0:
192,192,38041,1,8,2:0:0:0:
192,192,38266,1,8,2:0:0:0:
64,192,38266,1,8,2:0:0:0:
64,192,38492,1,8,2:0:0:0:
192,192,38567,1,8,2:0:0:0:
320,192,38642,1,8,2:0:0:0:
448,192,38718,1,8,2:0:0:0:
320,192,38793,1,8,2:0:0:0:
192,192,38868,1,8,2:0:0:0:
64,192,38943,1,8,2:0:0:0:
192,192,39018,1,8,2:0:0:0:
320,192,39093,1,8,2:0:0:0:
448,192,39169,1,8,2:0:0:0:
320,192,39244,1,8,2:0:0:0:
192,192,39319,1,8,2:0:0:0:
448,192,39394,128,8,39620:2:0:0:0:
64,192,39394,1,8,2:0:0:0:
192,192,39620,128,8,39845:2:0:0:0:
64,192,39620,1,8,2:0:0:0:
320,192,39845,128,8,40071:2:0:0:0:
448,192,39845,1,8,2:0:0:0:
448,192,40071,128,8,40296:2:0:0:0:
192,192,40071,1,8,2:0:0:0:
64,192,40296,128,8,40635:2:0:0:0:
192,192,40296,1,8,2:0:0:0:
192,192,40635,1,8,2:0:0:0:
320,192,40748,1,8,2:0:0:0:
64,192,40973,1,8,2:0:0:0:
448,192,41199,1,8,2:0:0:0:
320,192,41199,128,8,41424:2:0:0:0:
192,192,41424,1,8,2:0:0:0:
64,192,41424,128,8,41650:2:0:0:0:
448,192,41650,128,8,41763:2:0:0:0:
192,192,41650,1,8,2:0:0:0:
320,192,41763,128,8,41875:2:0:0:0:
192,192,41875,128,8,41988:2:0:0:0:
64,192,41988,128,8,42101:2:0:0:0:
448,192,42101,1,8,2:0:0:0:
320,192,42101,128,8,42327:2:0:0:0:
192,192,42327,1,8,2:0:0:0:
64,192,42327,128,8,42552:2:0:0:0:
448,192,42552,128,8,42665:2:0:0:0:
192,192,42552,1,8,2:0:0:0:
320,192,42665,128,8,42778:2:0:0:0:
192,192,42778,128,8,42890:2:0:0:0:
64,192,42890,128,8,43003:2:0:0:0:
320,192,43003,1,8,2:0:0:0:
448,192,43003,1,8,2:0:0:0:
320,192,43116,1,8,2:0:0:0:
448,192,43116,1,8,2:0:0:0:
64,192,43342,1,8,2:0:0:0:
192,192,43342,1,8,2:0:0:0:
64,192,43454,1,8,2:0:0:0:
192,192,43454,1,8,2:0:0:0:
320,192,43680,1,8,2:0:0:0:
192,192,43906,128,8,44131:2:0:0:0:
64,192,43906,1,8,2:0:0:0:
320,192,44131,128,8,44357:2:0:0:0:
192,192,44357,128,8,44582:2:0:0:0:
448,192,44357,1,8,2:0:0:0:
64,192,44582,1,8,2:0:0:0:
448,192,44808,1,8,2:0:0:0:
320,192,44808,1,8,2:0:0:0:
192,192,44808,1,8,2:0:0:0:
320,192,45033,1,8,2:0:0:0:
448,192,45033,1,8,2:0:0:0:
64,192,45033,1,8,2:0:0:0:
192,192,45259,1,8,2:0:0:0:
320,192,45259,1,8,2:0:0:0:
448,192,45259,1,8,2:0:0:0:
64,192,45484,1,8,2:0:0:0:
320,192,45484,1,8,2:0:0:0:
448,192,45484,1,8,2:0:0:0:
192,192,45710,1,8,2:0:0:0:
320,192,45710,1,8,2:0:0:0:
448,192,45710,1,8,2:0:0:0:
320,192,45936,1,8,2:0:0:0:
64,192,45936,1,8,2:0:0:0:
448,192,45936,1,8,2:0:0:0:
64,192,46161,1,8,2:0:0:0:
192,192,46161,1,8,2:0:0:0:
448,192,46161,1,8,2:0:0:0:
192,192,46387,1,8,2:0:0:0:
320,192,46387,1,8,2:0:0:0:
448,192,46387,1,8,2:0:0:0:
64,192,46612,1,8,2:0:0:0:
320,192,46612,1,8,2:0:0:0:
448,192,46612,1,8,2:0:0:0:
192,192,46838,1,8,2:0:0:0:
320,192,46838,1,8,2:0:0:0:
448,192,46838,1,8,2:0:0:0:
320,192,47063,1,8,2:0:0:0:
64,192,47063,1,8,2:0:0:0:
448,192,47063,1,8,2:0:0:0:
64,192,47289,1,8,2:0:0:0:
192,192,47289,1,8,2:0:0:0:
448,192,47289,1,8,2:0:0:0:
192,192,47515,1,8,2:0:0:0:
320,192,47515,1,8,2:0:0:0:
448,192,47515,1,8,2:0:0:0:
64,192,47740,1,8,2:0:0:0:
320,192,47740,1,8,2:0:0:0:
448,192,47740,1,8,2:0:0:0:
192,192,47966,1,8,2:0:0:0:
320,192,47966,1,8,2:0:0:0:
448,192,47966,1,8,2:0:0:0:
64,192,48191,1,8,2:0:0:0:
320,192,48191,1,8,2:0:0:0:
448,192,48191,1,8,2:0:0:0:
64,192,48417,128,8,48868:2:0:0:0:
320,192,48417,1,8,2:0:0:0:
192,192,48417,1,8,2:0:0:0:
192,192,48642,1,8,2:0:0:0:
320,192,48755,1,8,2:0:0:0:
448,192,48868,1,8,2:0:0:0:
448,192,49093,1,8,2:0:0:0:
320,192,49093,1,8,2:0:0:0:
64,192,49319,128,8,49770:2:0:0:0:
192,192,49319,1,8,2:0:0:0:
320,192,49319,1,8,2:0:0:0:
192,192,49545,1,8,2:0:0:0:
320,192,49657,1,8,2:0:0:0:
448,192,49770,1,8,2:0:0:0:
192,192,49996,1,8,2:0:0:0:
320,192,49996,1,8,2:0:0:0:
448,192,49996,1,8,2:0:0:0:
64,192,50221,1,8,2:0:0:0:
320,192,50221,1,8,2:0:0:0:
448,192,50221,1,8,2:0:0:0:
64,192,50447,1,8,2:0:0:0:
192,192,50447,1,8,2:0:0:0:
448,192,50447,1,8,2:0:0:0:
192,192,50672,1,8,2:0:0:0:
320,192,50672,1,8,2:0:0:0:
448,192,50672,1,8,2:0:0:0:
64,192,50898,1,8,2:0:0:0:
320,192,50898,1,8,2:0:0:0:
448,192,50898,1,8,2:0:0:0:
64,192,51124,1,8,2:0:0:0:
448,192,51124,1,8,2:0:0:0:
192,192,51124,1,8,2:0:0:0:
64,192,51349,1,8,2:0:0:0:
192,192,51349,1,8,2:0:0:0:
448,192,51349,1,8,2:0:0:0:
192,192,51575,1,8,2:0:0:0:
320,192,51575,1,8,2:0:0:0:
448,192,51575,1,8,2:0:0:0:
64,192,51800,1,8,2:0:0:0:
320,192,51800,1,8,2:0:0:0:
448,192,51800,1,8,2:0:0:0:
192,192,52026,128,8,52703:2:0:0:0:
64,192,52026,1,8,2:0:0:0:
320,192,52251,1,8,2:0:0:0:
448,192,52251,1,8,2:0:0:0:
64,192,52477,1,8,2:0:0:0:
448,192,52703,128,8,52928:2:0:0:0:
320,192,52703,1,8,2:0:0:0:
64,192,52928,128,8,53830:2:0:0:0:
192,192,52928,1,8,2:0:0:0:
320,192,53379,1,8,2:0:0:0:
448,192,53379,1,8,2:0:0:0:
448,192,53830,128,8,54281:2:0:0:0:
192,192,53830,1,8,2:0:0:0:
64,192,54056,1,8,2:0:0:0:
320,192,54056,1,8,2:0:0:0:
192,192,54281,128,8,54733:2:0:0:0:
320,192,54281,1,8,2:0:0:0:
64,192,54507,1,8,2:0:0:0:
448,192,54507,1,8,2:0:0:0:
320,192,54733,1,8,2:0:0:0:
448,192,54733,1,8,2:0:0:0:
64,192,54958,1,8,2:0:0:0:
192,192,54958,1,8,2:0:0:0:
320,192,55071,1,8,2:0:0:0:
448,192,55071,1,8,2:0:0:0:
64,192,55184,1,8,2:0:0:0:
192,192,55184,128,8,55635:2:0:0:0:
320,192,55635,1,8,2:0:0:0:
448,192,55635,1,8,2:0:0:0:
64,192,55748,1,8,2:0:0:0:
192,192,55860,1,8,2:0:0:0:
320,192,55860,1,8,2:0:0:0:
448,192,55973,1,8,2:0:0:0:
64,192,56086,1,8,2:0:0:0:
320,192,56086,1,8,2:0:0:0:
320,192,56312,1,8,2:0:0:0:
448,192,56312,1,8,2:0:0:0:
64,192,56537,1,8,2:0:0:0:
320,192,56537,1,8,2:0:0:0:
448,192,56650,1,8,2:0:0:0:
192,192,56763,1,8,2:0:0:0:
320,192,56763,1,8,2:0:0:0:
64,192,56875,1,8,2:0:0:0:
448,192,56988,1,8,2:0:0:0:
320,192,56988,1,8,2:0:0:0:
192,192,57214,1,8,2:0:0:0:
320,192,57214,1,8,2:0:0:0:
448,192,57214,1,8,2:0:0:0:
64,192,57439,1,8,2:0:0:0:
320,192,57439,1,8,2:0:0:0:
448,192,57439,1,8,2:0:0:0:
448,192,57665,1,8,2:0:0:0:
192,192,57665,1,8,2:0:0:0:
64,192,57665,1,8,2:0:0:0:
192,192,57890,1,8,2:0:0:0:
320,192,57890,1,8,2:0:0:0:
448,192,57890,1,8,2:0:0:0:
64,192,58116,1,8,2:0:0:0:
320,192,58116,1,8,2:0:0:0:
448,192,58116,1,8,2:0:0:0:
192,192,58342,1,8,2:0:0:0:
320,192,58342,1,8,2:0:0:0:
448,192,58342,1,8,2:0:0:0:
64,192,58567,1,8,2:0:0:0:
320,192,58567,1,8,2:0:0:0:
448,192,58567,1,8,2:0:0:0:
192,192,58793,1,8,2:0:0:0:
320,192,58793,1,8,2:0:0:0:
448,192,58793,1,8,2:0:0:0:
64,192,59018,1,8,2:0:0:0:
320,192,59018,1,8,2:0:0:0:
448,192,59018,1,8,2:0:0:0:
320,192,59244,1,8,2:0:0:0:
192,192,59244,1,8,2:0:0:0:
64,192,59244,1,8,2:0:0:0:
64,192,59469,1,8,2:0:0:0:
192,192,59469,1,8,2:0:0:0:
448,192,59469,1,8,2:0:0:0:
64,192,59695,1,8,2:0:0:0:
192,192,59695,1,8,2:0:0:0:
320,192,59695,1,8,2:0:0:0:
64,192,59921,1,8,2:0:0:0:
192,192,59921,1,8,2:0:0:0:
448,192,59921,1,8,2:0:0:0:
64,192,60146,1,8,2:0:0:0:
192,192,60146,1,8,2:0:0:0:
320,192,60146,1,8,2:0:0:0:
64,192,60372,1,8,2:0:0:0:
192,192,60372,1,8,2:0:0:0:
448,192,60372,1,8,2:0:0:0:
64,192,60597,1,8,2:0:0:0:
320,192,60597,1,8,2:0:0:0:
448,192,60597,1,8,2:0:0:0:
64,192,60823,1,8,2:0:0:0:
320,192,60823,1,8,2:0:0:0:
192,192,60823,1,8,2:0:0:0:
64,192,61048,1,8,2:0:0:0:
192,192,61048,1,8,2:0:0:0:
448,192,61048,1,8,2:0:0:0:
64,192,61274,1,8,2:0:0:0:
192,192,61274,1,8,2:0:0:0:
320,192,61274,1,8,2:0:0:0:
64,192,61499,1,8,2:0:0:0:
192,192,61499,1,8,2:0:0:0:
448,192,61499,1,8,2:0:0:0:
64,192,61725,1,8,2:0:0:0:
320,192,61725,1,8,2:0:0:0:
448,192,61725,1,8,2:0:0:0:
64,192,61951,1,8,2:0:0:0:
192,192,61951,1,8,2:0:0:0:
320,192,61951,1,8,2:0:0:0:
64,192,62176,1,8,2:0:0:0:
192,192,62176,1,8,2:0:0:0:
448,192,62176,1,8,2:0:0:0:
64,192,62402,1,8,2:0:0:0:
192,192,62402,1,8,2:0:0:0:
320,192,62402,1,8,2:0:0:0:
64,192,62627,1,8,2:0:0:0:
192,192,62627,1,8,2:0:0:0:
448,192,62627,1,8,2:0:0:0:
448,192,62853,128,8,63304:2:0:0:0:
64,192,62853,1,8,2:0:0:0:
320,192,62853,1,8,2:0:0:0:
64,192,63078,1,8,2:0:0:0:
192,192,63191,1,8,2:0:0:0:
320,192,63304,1,8,2:0:0:0:
192,192,63530,1,8,2:0:0:0:
320,192,63530,1,8,2:0:0:0:
448,192,63755,128,8,64206:2:0:0:0:
64,192,63755,1,8,2:0:0:0:
320,192,63755,1,8,2:0:0:0:
64,192,63981,1,8,2:0:0:0:
192,192,64093,1,8,2:0:0:0:
320,192,64206,1,8,2:0:0:0:
64,192,64432,1,8,2:0:0:0:
192,192,64432,1,8,2:0:0:0:
320,192,64432,1,8,2:0:0:0:
64,192,64657,1,8,2:0:0:0:
192,192,64657,1,8,2:0:0:0:
448,192,64657,1,8,2:0:0:0:
64,192,64883,1,8,2:0:0:0:
320,192,64883,1,8,2:0:0:0:
448,192,64883,1,8,2:0:0:0:
64,192,65109,1,8,2:0:0:0:
192,192,65109,1,8,2:0:0:0:
448,192,65109,1,8,2:0:0:0:
64,192,65334,1,8,2:0:0:0:
192,192,65334,1,8,2:0:0:0:
320,192,65334,1,8,2:0:0:0:
64,192,65560,1,8,2:0:0:0:
192,192,65560,1,8,2:0:0:0:
448,192,65560,1,8,2:0:0:0:
64,192,65785,1,8,2:0:0:0:
320,192,65785,1,8,2:0:0:0:
448,192,65785,1,8,2:0:0:0:
192,192,66011,1,8,2:0:0:0:
320,192,66011,1,8,2:0:0:0:
448,192,66011,1,8,2:0:0:0:
64,192,66236,1,8,2:0:0:0:
320,192,66236,1,8,2:0:0:0:
448,192,66236,1,8,2:0:0:0:
64,192,66462,128,8,67139:2:0:0:0:
448,192,66462,1,8,2:0:0:0:
192,192,66687,1,8,2:0:0:0:
320,192,66687,1,8,2:0:0:0:
448,192,66913,1,8,2:0:0:0:
448,192,67139,128,8,67364:2:0:0:0:
192,192,67139,1,8,2:0:0:0:
64,192,67364,128,8,68266:2:0:0:0:
320,192,67364,1,8,2:0:0:0:
192,192,67815,1,8,2:0:0:0:
448,192,67815,1,8,2:0:0:0:
448,192,68266,128,8,68718:2:0:0:0:
192,192,68266,1,8,2:0:0:0:
64,192,68492,1,8,2:0:0:0:
320,192,68492,1,8,2:0:0:0:
192,192,68718,128,8,69169:2:0:0:0:
320,192,68718,1,8,2:0:0:0:
64,192,68943,1,8,2:0:0:0:
448,192,68943,1,8,2:0:0:0:
320,192,69169,1,8,2:0:0:0:
448,192,69169,1,8,2:0:0:0:
64,192,69394,1,8,2:0:0:0:
192,192,69394,1,8,2:0:0:0:
320,192,69507,1,8,2:0:0:0:
448,192,69507,1,8,2:0:0:0:
64,192,69620,1,8,2:0:0:0:
192,192,69620,128,8,70071:2:0:0:0:
320,192,70071,1,8,2:0:0:0:
448,192,70071,1,8,2:0:0:0:
64,192,70184,1,8,2:0:0:0:
192,192,70296,1,8,2:0:0:0:
320,192,70296,1,8,2:0:0:0:
64,192,70409,1,8,2:0:0:0:
320,192,70522,1,8,2:0:0:0:
448,192,70522,1,8,2:0:0:0:
192,192,70748,1,8,2:0:0:0:
320,192,70748,1,8,2:0:0:0:
320,192,70973,1,8,2:0:0:0:
448,192,70973,1,8,2:0:0:0:
64,192,71086,1,8,2:0:0:0:
320,192,71199,1,8,2:0:0:0:
192,192,71199,1,8,2:0:0:0:
64,192,71312,1,8,2:0:0:0:
448,192,71424,1,8,2:0:0:0:
320,192,71424,1,8,2:0:0:0:
64,192,71650,1,8,2:0:0:0:
192,192,71650,1,8,2:0:0:0:
320,192,71650,1,8,2:0:0:0:
64,192,71875,1,8,2:0:0:0:
192,192,71875,1,8,2:0:0:0:
448,192,71875,1,8,2:0:0:0:
64,192,72101,1,8,2:0:0:0:
320,192,72101,1,8,2:0:0:0:
448,192,72101,1,8,2:0:0:0:
64,192,72327,1,8,2:0:0:0:
192,192,72327,1,8,2:0:0:0:
448,192,72327,1,8,2:0:0:0:
64,192,72552,1,8,2:0:0:0:
192,192,72552,1,8,2:0:0:0:
320,192,72552,1,8,2:0:0:0:
64,192,72778,1,8,2:0:0:0:
192,192,72778,1,8,2:0:0:0:
448,192,72778,1,8,2:0:0:0:
64,192,73003,1,8,2:0:0:0:
192,192,73003,1,8,2:0:0:0:
320,192,73003,1,8,2:0:0:0:
64,192,73229,1,8,2:0:0:0:
192,192,73229,1,8,2:0:0:0:
448,192,73229,1,8,2:0:0:0:
192,192,73454,128,8,73680:2:0:0:0:
64,192,73454,128,8,73680:2:0:0:0:
320,192,73454,128,8,73680:2:0:0:0:
448,192,73680,1,8,2:0:0:0:
64,192,75484,1,8,2:0:0:0:
192,192,75484,128,8,75710:2:0:0:0:
320,192,75710,1,8,2:0:0:0:
64,192,75710,128,8,75936:2:0:0:0:
448,192,75936,1,8,2:0:0:0:
320,192,75936,128,8,76161:2:0:0:0:
192,192,76161,1,8,2:0:0:0:
448,192,76161,128,8,76387:2:0:0:0:
64,192,76387,1,8,2:0:0:0:
192,192,76387,128,8,76612:2:0:0:0:
320,192,76612,128,8,76838:2:0:0:0:
448,192,76838,128,8,77063:2:0:0:0:
192,192,76838,1,8,2:0:0:0:
192,192,77063,128,8,77289:2:0:0:0:
320,192,77063,1,8,2:0:0:0:
64,192,77289,1,8,2:0:0:0:
320,192,77289,128,8,77515:2:0:0:0:
192,192,77515,128,8,77740:2:0:0:0:
448,192,77515,1,8,2:0:0:0:
448,192,77740,128,8,77966:2:0:0:0:
64,192,77740,1,8,2:0:0:0:
320,192,77966,128,8,78191:2:0:0:0:
192,192,77966,1,8,2:0:0:0:
192,192,78191,128,8,78417:2:0:0:0:
64,192,78191,1,8,2:0:0:0:
320,192,78417,128,8,78642:2:0:0:0:
448,192,78417,1,8,2:0:0:0:
192,192,78642,128,8,78868:2:0:0:0:
64,192,78642,1,8,2:0:0:0:
64,192,78868,128,8,79093:2:0:0:0:
320,192,78868,1,8,2:0:0:0:
320,192,79093,128,8,79319:2:0:0:0:
448,192,79093,128,8,79319:2:0:0:0:
192,192,79319,128,8,79545:2:0:0:0:
64,192,79319,1,8,2:0:0:0:
448,192,79545,128,8,79770:2:0:0:0:
64,192,79545,128,8,79770:2:0:0:0:
320,192,79770,128,8,79996:2:0:0:0:
192,192,79770,128,8,79996:2:0:0:0:
448,192,79996,128,8,80221:2:0:0:0:
64,192,79996,1,8,2:0:0:0:
320,192,80221,128,8,80447:2:0:0:0:
192,192,80221,1,8,2:0:0:0:
192,192,80447,128,8,80672:2:0:0:0:
64,192,80447,1,8,2:0:0:0:
64,192,80672,128,8,80898:2:0:0:0:
320,192,80672,1,8,2:0:0:0:
192,192,80898,128,8,81124:2:0:0:0:
448,192,80898,1,8,2:0:0:0:
320,192,81124,128,8,81349:2:0:0:0:
64,192,81124,1,8,2:0:0:0:
448,192,81349,128,8,81575:2:0:0:0:
192,192,81349,1,8,2:0:0:0:
320,192,81575,128,8,81800:2:0:0:0:
64,192,81575,1,8,2:0:0:0:
192,192,81800,128,8,82026:2:0:0:0:
448,192,81800,1,8,2:0:0:0:
448,192,82026,128,8,82251:2:0:0:0:
64,192,82026,1,8,2:0:0:0:
320,192,82251,128,8,82477:2:0:0:0:
192,192,82251,1,8,2:0:0:0:
192,192,82477,128,8,82703:2:0:0:0:
64,192,82477,1,8,2:0:0:0:
320,192,82703,1,8,2:0:0:0:
448,192,82703,1,8,2:0:0:0:
64,192,82928,1,8,2:0:0:0:
320,192,82928,1,8,2:0:0:0:
64,192,83154,1,8,2:0:0:0:
192,192,83154,1,8,2:0:0:0:
320,192,83266,1,8,2:0:0:0:
448,192,83266,1,8,2:0:0:0:
64,192,83379,1,8,2:0:0:0:
192,192,83379,1,8,2:0:0:0:
320,192,83492,1,8,2:0:0:0:
448,192,83492,1,8,2:0:0:0:
64,192,83605,1,8,2:0:0:0:
192,192,83605,1,8,2:0:0:0:
192,192,83830,1,8,2:0:0:0:
448,192,83830,1,8,2:0:0:0:
192,192,84056,1,8,2:0:0:0:
320,192,84056,1,8,2:0:0:0:
64,192,84169,1,8,2:0:0:0:
448,192,84169,1,8,2:0:0:0:
192,192,84281,1,8,2:0:0:0:
320,192,84281,1,8,2:0:0:0:
64,192,84394,1,8,2:0:0:0:
448,192,84394,1,8,2:0:0:0:
192,192,84507,1,8,2:0:0:0:
320,192,84507,1,8,2:0:0:0:
192,192,84733,1,8,2:0:0:0:
64,192,84733,1,8,2:0:0:0:
192,192,84958,1,8,2:0:0:0:
448,192,84958,1,8,2:0:0:0:
320,192,85184,1,8,2:0:0:0:
192,192,85184,1,8,2:0:0:0:
448,192,85409,1,8,2:0:0:0:
192,192,85409,1,8,2:0:0:0:
64,192,85635,1,8,2:0:0:0:
448,192,85635,1,8,2:0:0:0:
320,192,85860,1,8,2:0:0:0:
448,192,85860,1,8,2:0:0:0:
192,192,86086,1,8,2:0:0:0:
64,192,86086,1,8,2:0:0:0:
320,192,86312,1,8,2:0:0:0:
64,192,86312,1,8,2:0:0:0:
64,192,88567,1,8,2:0:0:0:
448,192,89018,128,8,89695:2:0:0:0:
320,192,89244,128,8,89695:2:0:0:0:
192,192,89469,128,8,89695:2:0:0:0:
64,192,89695,1,8,2:0:0:0:
320,192,89921,1,8,2:0:0:0:
448,192,89921,1,8,2:0:0:0:
192,192,90146,1,8,2:0:0:0:
64,192,90372,1,8,2:0:0:0:
320,192,90372,1,8,2:0:0:0:
320,192,90597,1,8,2:0:0:0:
448,192,90597,1,8,2:0:0:0:
64,192,90823,128,8,91048:2:0:0:0:
192,192,90823,1,8,2:0:0:0:
320,192,91048,128,8,91499:2:0:0:0:
448,192,91048,1,8,2:0:0:0:
64,192,91274,1,8,2:0:0:0:
448,192,91499,1,8,2:0:0:0:
64,192,91725,1,8,2:0:0:0:
192,192,91725,1,8,2:0:0:0:
320,192,91951,128,8,92176:2:0:0:0:
192,192,92176,128,8,92627:2:0:0:0:
448,192,92176,1,8,2:0:0:0:
64,192,92402,1,8,2:0:0:0:
320,192,92402,1,8,2:0:0:0:
448,192,92627,1,8,2:0:0:0:
64,192,92853,1,8,2:0:0:0:
192,192,92853,1,8,2:0:0:0:
448,192,93078,1,8,2:0:0:0:
320,192,93078,1,8,2:0:0:0:
64,192,93304,1,8,2:0:0:0:
192,192,93379,1,8,2:0:0:0:
320,192,93454,1,8,2:0:0:0:
448,192,93530,1,8,2:0:0:0:
64,192,93530,1,8,2:0:0:0:
320,192,93755,1,8,2:0:0:0:
192,192,93981,1,8,2:0:0:0:
448,192,93981,1,8,2:0:0:0:
64,192,94206,1,8,2:0:0:0:
192,192,94206,1,8,2:0:0:0:
320,192,94432,1,8,2:0:0:0:
192,192,94657,1,8,2:0:0:0:
64,192,94657,1,8,2:0:0:0:
192,192,94883,1,8,2:0:0:0:
448,192,94883,1,8,2:0:0:0:
448,192,95109,1,8,2:0:0:0:
64,192,95334,1,8,2:0:0:0:
320,192,95334,1,8,2:0:0:0:
192,192,95560,1,8,2:0:0:0:
448,192,95672,1,8,2:0:0:0:
64,192,95785,1,8,2:0:0:0:
320,192,95898,1,8,2:0:0:0:
192,192,96011,1,8,2:0:0:0:
448,192,96124,1,8,2:0:0:0:
64,192,96236,1,8,2:0:0:0:
192,192,96462,1,8,2:0:0:0:
320,192,96537,1,8,2:0:0:0:
448,192,96612,1,8,2:0:0:0:
320,192,96687,1,8,2:0:0:0:
64,192,96800,1,8,2:0:0:0:
320,192,96913,1,8,2:0:0:0:
192,192,96913,1,8,2:0:0:0:
448,192,97139,1,8,2:0:0:0:
192,192,97139,1,8,2:0:0:0:
320,192,97139,128,8,98041:2:0:0:0:
64,192,97364,1,8,2:0:0:0:
192,192,97590,1,8,2:0:0:0:
448,192,97590,1,8,2:0:0:0:
448,192,97815,1,8,2:0:0:0:
192,192,98041,1,8,2:0:0:0:
64,192,98266,1,8,2:0:0:0:
192,192,98266,1,8,2:0:0:0:
320,192,98492,1,8,2:0:0:0:
448,192,98492,1,8,2:0:0:0:
192,192,98718,1,8,2:0:0:0:
320,192,98718,1,8,2:0:0:0:
64,192,98943,1,8,2:0:0:0:
192,192,98943,1,8,2:0:0:0:
320,192,99169,1,8,2:0:0:0:
448,192,99394,1,8,2:0:0:0:
320,192,99394,1,8,2:0:0:0:
320,192,99620,1,8,2:0:0:0:
64,192,99620,1,8,2:0:0:0:
64,192,99845,128,8,100071:2:0:0:0:
192,192,99845,1,8,2:0:0:0:
320,192,100071,128,8,100296:2:0:0:0:
448,192,100071,1,8,2:0:0:0:
192,192,100071,1,8,2:0:0:0:
64,192,100296,128,8,100522:2:0:0:0:
448,192,100296,1,8,2:0:0:0:
320,192,100522,128,8,100748:2:0:0:0:
192,192,100522,1,8,2:0:0:0:
64,192,100748,128,8,100973:2:0:0:0:
448,192,100748,1,8,2:0:0:0:
192,192,100973,1,8,2:0:0:0:
320,192,101199,1,8,2:0:0:0:
448,192,101199,1,8,2:0:0:0:
64,192,101424,1,8,2:0:0:0:
448,192,101424,1,8,2:0:0:0:
320,192,101650,1,8,2:0:0:0:
192,192,101650,1,8,2:0:0:0:
320,192,101875,1,8,2:0:0:0:
64,192,102101,1,8,2:0:0:0:
192,192,102101,1,8,2:0:0:0:
320,192,102327,1,8,2:0:0:0:
192,192,102552,1,8,2:0:0:0:
448,192,102552,1,8,2:0:0:0:
64,192,102778,1,8,2:0:0:0:
320,192,102778,1,8,2:0:0:0:
192,192,103003,1,8,2:0:0:0:
448,192,103003,1,8,2:0:0:0:
64,192,103229,1,8,2:0:0:0:
320,192,103229,1,8,2:0:0:0:
448,192,103454,128,8,103906:2:0:0:0:
320,192,103454,1,8,2:0:0:0:
64,192,103680,1,8,2:0:0:0:
192,192,103793,1,8,2:0:0:0:
320,192,103906,1,8,2:0:0:0:
192,192,104018,1,8,2:0:0:0:
320,192,104131,1,8,2:0:0:0:
64,192,104244,1,8,2:0:0:0:
192,192,104357,1,8,2:0:0:0:
448,192,104357,1,8,2:0:0:0:
64,192,104582,1,8,2:0:0:0:
320,192,104808,1,8,2:0:0:0:
448,192,104808,1,8,2:0:0:0:
192,192,105033,1,8,2:0:0:0:
64,192,105033,1,8,2:0:0:0:
320,192,105259,1,8,2:0:0:0:
64,192,105484,1,8,2:0:0:0:
448,192,105710,1,8,2:0:0:0:
192,192,105936,1,8,2:0:0:0:
448,192,106161,1,8,2:0:0:0:
64,192,106161,1,8,2:0:0:0:
192,192,106387,1,8,2:0:0:0:
448,192,106612,1,8,2:0:0:0:
64,192,106838,1,8,2:0:0:0:
320,192,106838,1,8,2:0:0:0:
448,192,107063,128,8,107289:2:0:0:0:
64,192,107063,1,8,2:0:0:0:
192,192,107289,128,8,107515:2:0:0:0:
320,192,107289,1,8,2:0:0:0:
320,192,107515,128,8,107740:2:0:0:0:
64,192,107515,1,8,2:0:0:0:
448,192,107740,1,8,2:0:0:0:
64,192,107740,128,8,107966:2:0:0:0:
192,192,107966,1,8,2:0:0:0:
448,192,107966,1,8,2:0:0:0:
64,192,108191,1,8,2:0:0:0:
320,192,108191,1,8,2:0:0:0:
192,192,108417,1,8,2:0:0:0:
448,192,108417,1,8,2:0:0:0:
64,192,108642,1,8,2:0:0:0:
320,192,108642,1,8,2:0:0:0:
192,192,108868,1,8,2:0:0:0:
448,192,108868,1,8,2:0:0:0:
64,192,108981,1,8,2:0:0:0:
320,192,108981,1,8,2:0:0:0:
448,192,109206,1,8,2:0:0:0:
192,192,109206,1,8,2:0:0:0:
64,192,109319,1,8,2:0:0:0:
320,192,109319,1,8,2:0:0:0:
192,192,109545,1,8,2:0:0:0:
64,192,109770,1,8,2:0:0:0:
320,192,109770,1,8,2:0:0:0:
192,192,109996,1,8,2:0:0:0:
320,192,109996,128,8,110221:2:0:0:0:
448,192,110221,1,8,2:0:0:0:
192,192,110221,128,8,110447:2:0:0:0:
64,192,110447,1,8,2:0:0:0:
320,192,110672,1,8,2:0:0:0:
448,192,110672,1,8,2:0:0:0:
192,192,110898,1,8,2:0:0:0:
448,192,110898,1,8,2:0:0:0:
320,192,111124,1,8,2:0:0:0:
64,192,111124,1,8,2:0:0:0:
192,192,111349,1,8,2:0:0:0:
64,192,111349,1,8,2:0:0:0:
192,192,111575,1,8,2:0:0:0:
320,192,111575,1,8,2:0:0:0:
64,192,111800,1,8,2:0:0:0:
320,192,112026,1,8,2:0:0:0:
192,192,112251,1,8,2:0:0:0:
448,192,112251,1,8,2:0:0:0:
192,192,112477,1,8,2:0:0:0:
64,192,112703,1,8,2:0:0:0:
320,192,112928,1,8,2:0:0:0:
192,192,113154,1,8,2:0:0:0:
448,192,113379,1,8,2:0:0:0:
192,192,113379,1,8,2:0:0:0:
320,192,113605,1,8,2:0:0:0:
64,192,113830,1,8,2:0:0:0:
320,192,114056,1,8,2:0:0:0:
448,192,114056,1,8,2:0:0:0:
192,192,114281,1,8,2:0:0:0:
64,192,114507,1,8,2:0:0:0:
320,192,114733,1,8,2:0:0:0:
448,192,114958,1,8,2:0:0:0:
64,192,115184,1,8,2:0:0:0:
320,192,115184,1,8,2:0:0:0:
192,192,115409,1,8,2:0:0:0:
448,192,115409,1,8,2:0:0:0:
64,192,115635,1,8,2:0:0:0:
320,192,115635,1,8,2:0:0:0:
192,192,115860,1,8,2:0:0:0:
448,192,115860,1,8,2:0:0:0:
64,192,116086,1,8,2:0:0:0:
320,192,116086,1,8,2:0:0:0:
192,192,116199,1,8,2:0:0:0:
448,192,116199,1,8,2:0:0:0:
64,192,116424,1,8,2:0:0:0:
320,192,116424,1,8,2:0:0:0:
192,192,116537,1,8,2:0:0:0:
448,192,116537,1,8,2:0:0:0:
64,192,116763,128,8,116988:2:0:0:0:
192,192,116988,1,8,2:0:0:0:
448,192,116988,1,8,2:0:0:0:
320,192,116988,128,8,117439:2:0:0:0:
448,192,117327,1,8,2:0:0:0:
192,192,117439,1,8,2:0:0:0:
64,192,117439,1,8,2:0:0:0:
192,192,117665,1,8,2:0:0:0:
320,192,117665,1,8,2:0:0:0:
448,192,117890,1,8,2:0:0:0:
192,192,117890,1,8,2:0:0:0:
320,192,118116,1,8,2:0:0:0:
448,192,118116,1,8,2:0:0:0:
64,192,118342,1,8,2:0:0:0:
192,192,118342,1,8,2:0:0:0:
192,192,118567,1,8,2:0:0:0:
448,192,118567,1,8,2:0:0:0:
320,192,118793,1,8,2:0:0:0:
64,192,118793,1,8,2:0:0:0:
192,192,119018,1,8,2:0:0:0:
448,192,119244,1,8,2:0:0:0:
192,192,119469,1,8,2:0:0:0:
320,192,119695,1,8,2:0:0:0:
64,192,119921,1,8,2:0:0:0:
320,192,120146,1,8,2:0:0:0:
448,192,120372,1,8,2:0:0:0:
64,192,120597,1,8,2:0:0:0:
320,192,120597,1,8,2:0:0:0:
320,192,120823,1,8,2:0:0:0:
64,192,121048,1,8,2:0:0:0:
320,192,121274,1,8,2:0:0:0:
448,192,121499,1,8,2:0:0:0:
192,192,121725,1,8,2:0:0:0:
448,192,121951,1,8,2:0:0:0:
64,192,122176,1,8,2:0:0:0:
192,192,122402,1,8,2:0:0:0:
448,192,122402,1,8,2:0:0:0:
320,192,122627,1,8,2:0:0:0:
64,192,122853,1,8,2:0:0:0:
448,192,123078,1,8,2:0:0:0:
192,192,123304,1,8,2:0:0:0:
320,192,123530,1,8,2:0:0:0:
64,192,123755,1,8,2:0:0:0:
448,192,123981,1,8,2:0:0:0:
320,192,124206,1,8,2:0:0:0:
64,192,124206,1,8,2:0:0:0:
448,192,124432,1,8,2:0:0:0:
192,192,124657,1,8,2:0:0:0:
448,192,124883,1,8,2:0:0:0:
64,192,125109,1,8,2:0:0:0:
192,192,125334,1,8,2:0:0:0:
320,192,125560,1,8,2:0:0:0:
448,192,125785,1,8,2:0:0:0:
320,192,126011,1,8,2:0:0:0:
64,192,126011,128,8,126687:2:0:0:0:
320,192,126687,1,8,2:0:0:0:
64,192,126913,1,8,2:0:0:0:
448,192,127139,1,8,2:0:0:0:
192,192,127364,1,8,2:0:0:0:
320,192,127590,1,8,2:0:0:0:
64,192,127815,1,8,2:0:0:0:
192,192,127815,1,8,2:0:0:0:
320,192,128041,1,8,2:0:0:0:
192,192,128266,1,8,2:0:0:0:
64,192,128492,1,8,2:0:0:0:
448,192,128718,1,8,2:0:0:0:
192,192,128943,1,8,2:0:0:0:
448,192,129169,1,8,2:0:0:0:
64,192,129394,1,8,2:0:0:0:
320,192,129620,1,8,2:0:0:0:
448,192,129620,128,8,130296:2:0:0:0:
192,192,130296,1,8,2:0:0:0:
64,192,130522,1,8,2:0:0:0:
448,192,130748,1,8,2:0:0:0:
192,192,130973,1,8,2:0:0:0:
320,192,131199,1,8,2:0:0:0:
64,192,131424,1,8,2:0:0:0:
448,192,131424,1,8,2:0:0:0:
192,192,131650,1,8,2:0:0:0:
320,192,131875,1,8,2:0:0:0:
64,192,132101,1,8,2:0:0:0:
448,192,132327,1,8,2:0:0:0:
192,192,132552,1,8,2:0:0:0:
320,192,132778,1,8,2:0:0:0:
192,192,133003,1,8,2:0:0:0:
448,192,133454,128,8,133906:2:0:0:0:
192,192,133454,1,8,2:0:0:0:
64,192,133680,1,8,2:0:0:0:
64,192,133906,128,8,134131:2:0:0:0:
320,192,133906,1,8,2:0:0:0:
448,192,134131,1,8,2:0:0:0:
64,192,135259,1,8,2:0:0:0:
192,192,135259,1,8,2:0:0:0:
448,192,135484,1,8,2:0:0:0:
192,192,135484,1,8,2:0:0:0:
448,192,135710,1,8,2:0:0:0:
64,192,135710,1,8,2:0:0:0:
192,192,135936,1,8,2:0:0:0:
320,192,135936,1,8,2:0:0:0:
64,192,136161,1,8,2:0:0:0:
192,192,136161,1,8,2:0:0:0:
320,192,136387,1,8,2:0:0:0:
448,192,136387,1,8,2:0:0:0:
192,192,136612,1,8,2:0:0:0:
320,192,136612,1,8,2:0:0:0:
64,192,136838,1,8,2:0:0:0:
192,192,136838,1,8,2:0:0:0:
448,192,136838,1,8,2:0:0:0:
64,192,137063,1,8,2:0:0:0:
320,192,137063,1,8,2:0:0:0:
448,192,137063,1,8,2:0:0:0:
64,192,137289,1,8,2:0:0:0:
192,192,137289,1,8,2:0:0:0:
448,192,137289,1,8,2:0:0:0:
64,192,137515,1,8,2:0:0:0:
320,192,137515,1,8,2:0:0:0:
448,192,137515,1,8,2:0:0:0:
64,192,137740,1,8,2:0:0:0:
192,192,137740,1,8,2:0:0:0:
448,192,137740,1,8,2:0:0:0:
64,192,137966,1,8,2:0:0:0:
320,192,137966,1,8,2:0:0:0:
448,192,137966,1,8,2:0:0:0:
64,192,138191,1,8,2:0:0:0:
320,192,138191,1,8,2:0:0:0:
448,192,138191,1,8,2:0:0:0:
64,192,138417,1,8,2:0:0:0:
192,192,138417,1,8,2:0:0:0:
448,192,138417,1,8,2:0:0:0:
64,192,138642,1,8,2:0:0:0:
320,192,138642,1,8,2:0:0:0:
448,192,138642,1,8,2:0:0:0:
64,192,138868,1,8,2:0:0:0:
192,192,138868,1,8,2:0:0:0:
448,192,138868,1,8,2:0:0:0:
64,192,139093,1,8,2:0:0:0:
320,192,139093,1,8,2:0:0:0:
448,192,139093,1,8,2:0:0:0:
64,192,139319,1,8,2:0:0:0:
320,192,139319,1,8,2:0:0:0:
448,192,139319,1,8,2:0:0:0:
192,192,139545,1,8,2:0:0:0:
64,192,139545,1,8,2:0:0:0:
448,192,139545,1,8,2:0:0:0:
320,192,139770,1,8,2:0:0:0:
64,192,139770,1,8,2:0:0:0:
448,192,139770,1,8,2:0:0:0:
320,192,139996,1,8,2:0:0:0:
192,192,139996,1,8,2:0:0:0:
448,192,139996,1,8,2:0:0:0:
64,192,140221,1,8,2:0:0:0:
320,192,140221,1,8,2:0:0:0:
448,192,140221,1,8,2:0:0:0:
64,192,140447,1,8,2:0:0:0:
448,192,140447,1,8,2:0:0:0:
192,192,140447,128,8,140898:2:0:0:0:
320,192,140672,1,8,2:0:0:0:
448,192,140785,1,8,2:0:0:0:
320,192,140898,1,8,2:0:0:0:
64,192,141124,1,8,2:0:0:0:
320,192,141124,1,8,2:0:0:0:
192,192,141349,128,8,141800:2:0:0:0:
448,192,141349,1,8,2:0:0:0:
64,192,141349,1,8,2:0:0:0:
320,192,141575,1,8,2:0:0:0:
448,192,141687,1,8,2:0:0:0:
320,192,141800,1,8,2:0:0:0:
64,192,142026,1,8,2:0:0:0:
192,192,142026,1,8,2:0:0:0:
320,192,142026,1,8,2:0:0:0:
64,192,142251,1,8,2:0:0:0:
192,192,142251,1,8,2:0:0:0:
448,192,142251,1,8,2:0:0:0:
64,192,142477,1,8,2:0:0:0:
320,192,142477,1,8,2:0:0:0:
448,192,142477,1,8,2:0:0:0:
320,192,142703,1,8,2:0:0:0:
192,192,142703,1,8,2:0:0:0:
448,192,142703,1,8,2:0:0:0:
64,192,142928,1,8,2:0:0:0:
320,192,142928,1,8,2:0:0:0:
448,192,142928,1,8,2:0:0:0:
64,192,143154,1,8,2:0:0:0:
192,192,143154,1,8,2:0:0:0:
448,192,143154,1,8,2:0:0:0:
448,192,143379,1,8,2:0:0:0:
320,192,143379,1,8,2:0:0:0:
64,192,143379,1,8,2:0:0:0:
64,192,143605,1,8,2:0:0:0:
192,192,143605,1,8,2:0:0:0:
448,192,143605,1,8,2:0:0:0:
64,192,143830,1,8,2:0:0:0:
320,192,143830,1,8,2:0:0:0:
448,192,143830,1,8,2:0:0:0:
320,192,144056,128,8,144733:2:0:0:0:
64,192,144056,1,8,2:0:0:0:
192,192,144281,1,8,2:0:0:0:
448,192,144281,1,8,2:0:0:0:
64,192,144507,1,8,2:0:0:0:
448,192,144733,1,8,2:0:0:0:
192,192,144733,128,8,144958:2:0:0:0:
320,192,144958,128,8,145860:2:0:0:0:
64,192,144958,1,8,2:0:0:0:
192,192,145409,1,8,2:0:0:0:
448,192,145409,1,8,2:0:0:0:
448,192,145860,128,8,146312:2:0:0:0:
192,192,145860,1,8,2:0:0:0:
64,192,146086,1,8,2:0:0:0:
320,192,146086,1,8,2:0:0:0:
192,192,146312,128,8,146763:2:0:0:0:
320,192,146312,1,8,2:0:0:0:
64,192,146537,1,8,2:0:0:0:
448,192,146537,1,8,2:0:0:0:
320,192,146763,1,8,2:0:0:0:
448,192,146763,1,8,2:0:0:0:
64,192,146988,1,8,2:0:0:0:
448,192,146988,1,8,2:0:0:0:
192,192,147101,1,8,2:0:0:0:
320,192,147101,1,8,2:0:0:0:
448,192,147214,128,8,147665:2:0:0:0:
64,192,147214,1,8,2:0:0:0:
64,192,147665,1,8,2:0:0:0:
320,192,147665,128,8,147890:2:0:0:0:
192,192,147890,1,8,2:0:0:0:
64,192,148003,1,8,2:0:0:0:
192,192,148116,1,8,2:0:0:0:
320,192,148342,1,8,2:0:0:0:
448,192,148342,1,8,2:0:0:0:
64,192,148567,1,8,2:0:0:0:
320,192,148567,128,8,148793:2:0:0:0:
192,192,148793,1,8,2:0:0:0:
64,192,148906,1,8,2:0:0:0:
192,192,149018,1,8,2:0:0:0:
320,192,149244,1,8,2:0:0:0:
192,192,149244,1,8,2:0:0:0:
64,192,149244,1,8,2:0:0:0:
64,192,149469,1,8,2:0:0:0:
192,192,149469,1,8,2:0:0:0:
448,192,149469,1,8,2:0:0:0:
64,192,149695,1,8,2:0:0:0:
320,192,149695,1,8,2:0:0:0:
448,192,149695,1,8,2:0:0:0:
64,192,149921,1,8,2:0:0:0:
192,192,149921,1,8,2:0:0:0:
320,192,149921,1,8,2:0:0:0:
64,192,150146,1,8,2:0:0:0:
192,192,150146,1,8,2:0:0:0:
448,192,150146,1,8,2:0:0:0:
64,192,150372,1,8,2:0:0:0:
320,192,150372,1,8,2:0:0:0:
448,192,150372,1,8,2:0:0:0:
64,192,150597,1,8,2:0:0:0:
192,192,150597,1,8,2:0:0:0:
448,192,150597,1,8,2:0:0:0:
64,192,150823,1,8,2:0:0:0:
320,192,150823,1,8,2:0:0:0:
448,192,150823,1,8,2:0:0:0:
64,192,151048,1,8,2:0:0:0:
192,192,151048,1,8,2:0:0:0:
448,192,151048,1,8,2:0:0:0:
192,192,151274,1,8,2:0:0:0:
320,192,151274,1,8,2:0:0:0:
448,192,151274,1,8,2:0:0:0:
320,192,151499,1,8,2:0:0:0:
192,192,151499,1,8,2:0:0:0:
64,192,151499,1,8,2:0:0:0:
192,192,151725,1,8,2:0:0:0:
320,192,151725,1,8,2:0:0:0:
448,192,151725,1,8,2:0:0:0:
320,192,151951,1,8,2:0:0:0:
192,192,151951,1,8,2:0:0:0:
64,192,151951,1,8,2:0:0:0:
192,192,152176,1,8,2:0:0:0:
320,192,152176,1,8,2:0:0:0:
448,192,152176,1,8,2:0:0:0:
320,192,152402,1,8,2:0:0:0:
192,192,152402,1,8,2:0:0:0:
64,192,152402,1,8,2:0:0:0:
64,192,152627,1,8,2:0:0:0:
192,192,152627,1,8,2:0:0:0:
320,192,152627,1,8,2:0:0:0:
192,192,152853,1,8,2:0:0:0:
320,192,152853,1,8,2:0:0:0:
448,192,152853,1,8,2:0:0:0:
320,192,153078,1,8,2:0:0:0:
64,192,153078,1,8,2:0:0:0:
192,192,153078,1,8,2:0:0:0:
192,192,153304,1,8,2:0:0:0:
320,192,153304,1,8,2:0:0:0:
448,192,153304,1,8,2:0:0:0:
320,192,153530,1,8,2:0:0:0:
192,192,153530,1,8,2:0:0:0:
64,192,153530,1,8,2:0:0:0:
448,192,153755,1,8,2:0:0:0:
192,192,153755,1,8,2:0:0:0:
64,192,153755,1,8,2:0:0:0:
64,192,153981,1,8,2:0:0:0:
192,192,153981,1,8,2:0:0:0:
448,192,153981,1,8,2:0:0:0:
64,192,154206,1,8,2:0:0:0:
320,192,154206,1,8,2:0:0:0:
448,192,154206,1,8,2:0:0:0:
64,192,154432,1,8,2:0:0:0:
192,192,154432,1,8,2:0:0:0:
448,192,154432,1,8,2:0:0:0:
64,192,154657,1,8,2:0:0:0:
320,192,154657,1,8,2:0:0:0:
448,192,154657,1,8,2:0:0:0:
448,192,154883,1,8,2:0:0:0:
64,192,154883,1,8,2:0:0:0:
320,192,154883,128,8,155334:2:0:0:0:
192,192,155109,1,8,2:0:0:0:
64,192,155221,1,8,2:0:0:0:
192,192,155334,1,8,2:0:0:0:
448,192,155560,1,8,2:0:0:0:
192,192,155560,1,8,2:0:0:0:
320,192,155785,128,8,156236:2:0:0:0:
64,192,155785,1,8,2:0:0:0:
448,192,155785,1,8,2:0:0:0:
192,192,156011,1,8,2:0:0:0:
64,192,156124,1,8,2:0:0:0:
192,192,156236,1,8,2:0:0:0:
192,192,156462,1,8,2:0:0:0:
320,192,156462,1,8,2:0:0:0:
448,192,156462,1,8,2:0:0:0:
192,192,156687,1,8,2:0:0:0:
320,192,156687,1,8,2:0:0:0:
448,192,156687,1,8,2:0:0:0:
64,192,156913,1,8,2:0:0:0:
192,192,156913,1,8,2:0:0:0:
320,192,156913,1,8,2:0:0:0:
192,192,157139,1,8,2:0:0:0:
320,192,157139,1,8,2:0:0:0:
448,192,157139,1,8,2:0:0:0:
320,192,157364,1,8,2:0:0:0:
192,192,157364,1,8,2:0:0:0:
64,192,157364,1,8,2:0:0:0:
192,192,157590,1,8,2:0:0:0:
320,192,157590,1,8,2:0:0:0:
448,192,157590,1,8,2:0:0:0:
320,192,157815,1,8,2:0:0:0:
192,192,157815,1,8,2:0:0:0:
64,192,157815,1,8,2:0:0:0:
192,192,158041,1,8,2:0:0:0:
320,192,158041,1,8,2:0:0:0:
448,192,158041,1,8,2:0:0:0:
64,192,158266,1,8,2:0:0:0:
320,192,158266,1,8,2:0:0:0:
448,192,158266,1,8,2:0:0:0:
448,192,158492,1,8,2:0:0:0:
192,192,158492,128,8,159169:2:0:0:0:
64,192,158718,1,8,2:0:0:0:
320,192,158718,1,8,2:0:0:0:
448,192,158943,1,8,2:0:0:0:
320,192,159169,128,8,159394:2:0:0:0:
64,192,159169,1,8,2:0:0:0:
448,192,159394,1,8,2:0:0:0:
192,192,159394,128,8,160296:2:0:0:0:
64,192,159845,1,8,2:0:0:0:
320,192,159845,1,8,2:0:0:0:
320,192,160296,1,8,2:0:0:0:
64,192,160296,128,8,160748:2:0:0:0:
192,192,160522,1,8,2:0:0:0:
448,192,160522,1,8,2:0:0:0:
192,192,160748,1,8,2:0:0:0:
320,192,160748,128,8,161199:2:0:0:0:
64,192,160973,1,8,2:0:0:0:
448,192,160973,1,8,2:0:0:0:
64,192,161199,1,8,2:0:0:0:
192,192,161199,1,8,2:0:0:0:
64,192,161424,1,8,2:0:0:0:
448,192,161424,1,8,2:0:0:0:
192,192,161537,1,8,2:0:0:0:
320,192,161537,1,8,2:0:0:0:
448,192,161650,1,8,2:0:0:0:
64,192,161650,128,8,162101:2:0:0:0:
192,192,162101,128,8,162327:2:0:0:0:
448,192,162101,1,8,2:0:0:0:
320,192,162327,1,8,2:0:0:0:
448,192,162439,1,8,2:0:0:0:
320,192,162552,1,8,2:0:0:0:
64,192,162778,1,8,2:0:0:0:
192,192,162778,1,8,2:0:0:0:
192,192,163003,128,8,163229:2:0:0:0:
448,192,163003,1,8,2:0:0:0:
320,192,163229,1,8,2:0:0:0:
448,192,163342,1,8,2:0:0:0:
320,192,163454,1,8,2:0:0:0:
64,192,163680,1,8,2:0:0:0:
192,192,163680,1,8,2:0:0:0:
448,192,163680,1,8,2:0:0:0:
64,192,163906,1,8,2:0:0:0:
320,192,163906,1,8,2:0:0:0:
448,192,163906,1,8,2:0:0:0:
64,192,164131,1,8,2:0:0:0:
192,192,164131,1,8,2:0:0:0:
448,192,164131,1,8,2:0:0:0:
448,192,164357,1,8,2:0:0:0:
320,192,164357,1,8,2:0:0:0:
64,192,164357,1,8,2:0:0:0:
64,192,164582,1,8,2:0:0:0:
192,192,164582,1,8,2:0:0:0:
448,192,164582,1,8,2:0:0:0:
448,192,164808,1,8,2:0:0:0:
320,192,164808,1,8,2:0:0:0:
64,192,164808,1,8,2:0:0:0:
192,192,165033,1,8,2:0:0:0:
320,192,165033,1,8,2:0:0:0:
448,192,165033,1,8,2:0:0:0:
64,192,165259,1,8,2:0:0:0:
320,192,165259,1,8,2:0:0:0:
448,192,165259,1,8,2:0:0:0:
64,192,165484,1,8,2:0:0:0:
192,192,165484,1,8,2:0:0:0:
448,192,165484,1,8,2:0:0:0:
64,192,165710,1,8,2:0:0:0:
192,192,165710,1,8,2:0:0:0:
320,192,165710,1,8,2:0:0:0:
448,192,165936,1,8,2:0:0:0:
192,192,166161,1,8,2:0:0:0:
320,192,166161,1,8,2:0:0:0:
64,192,166387,1,8,2:0:0:0:
192,192,166387,1,8,2:0:0:0:
320,192,166612,1,8,2:0:0:0:
64,192,166838,1,8,2:0:0:0:
320,192,166838,1,8,2:0:0:0:
448,192,167063,1,8,2:0:0:0:
192,192,167289,1,8,2:0:0:0:
320,192,167515,1,8,2:0:0:0:
448,192,167515,1,8,2:0:0:0:
192,192,167740,1,8,2:0:0:0:
320,192,167740,1,8,2:0:0:0:
64,192,167966,1,8,2:0:0:0:
448,192,167966,1,8,2:0:0:0:
192,192,168191,1,8,2:0:0:0:
448,192,168191,1,8,2:0:0:0:
192,192,168417,1,8,2:0:0:0:
64,192,168417,1,8,2:0:0:0:
320,192,168642,1,8,2:0:0:0:
448,192,168642,1,8,2:0:0:0:
64,192,168868,1,8,2:0:0:0:
320,192,168868,1,8,2:0:0:0:
320,192,169093,1,8,2:0:0:0:
192,192,169093,1,8,2:0:0:0:
192,192,169319,1,8,2:0:0:0:
448,192,169319,1,8,2:0:0:0:
192,192,169545,1,8,2:0:0:0:
320,192,169770,1,8,2:0:0:0:
448,192,169770,1,8,2:0:0:0:
64,192,169996,1,8,2:0:0:0:
192,192,169996,1,8,2:0:0:0:
320,192,170221,1,8,2:0:0:0:
64,192,170447,1,8,2:0:0:0:
448,192,170447,1,8,2:0:0:0:
320,192,170672,1,8,2:0:0:0:
192,192,170898,1,8,2:0:0:0:
320,192,171124,1,8,2:0:0:0:
448,192,171124,1,8,2:0:0:0:
192,192,171349,1,8,2:0:0:0:
320,192,171349,1,8,2:0:0:0:
64,192,171575,1,8,2:0:0:0:
192,192,171575,1,8,2:0:0:0:
192,192,171800,1,8,2:0:0:0:
448,192,171800,1,8,2:0:0:0:
64,192,172026,1,8,2:0:0:0:
320,192,172026,1,8,2:0:0:0:
192,192,172251,1,8,2:0:0:0:
320,192,172251,1,8,2:0:0:0:
448,192,172477,1,8,2:0:0:0:
192,192,172477,1,8,2:0:0:0:
64,192,172703,1,8,2:0:0:0:
448,192,172703,1,8,2:0:0:0:
64,192,172928,1,8,2:0:0:0:
192,192,172928,1,8,2:0:0:0:
320,192,173154,1,8,2:0:0:0:
64,192,173379,1,8,2:0:0:0:
320,192,173379,1,8,2:0:0:0:
448,192,173605,1,8,2:0:0:0:
320,192,173605,1,8,2:0:0:0:
192,192,173830,1,8,2:0:0:0:
320,192,174056,1,8,2:0:0:0:
64,192,174056,1,8,2:0:0:0:
192,192,174281,1,8,2:0:0:0:
448,192,174507,1,8,2:0:0:0:
64,192,174733,1,8,2:0:0:0:
192,192,174733,1,8,2:0:0:0:
320,192,174958,1,8,2:0:0:0:
192,192,174958,1,8,2:0:0:0:
448,192,175184,1,8,2:0:0:0:
64,192,175184,1,8,2:0:0:0:
192,192,175409,1,8,2:0:0:0:
448,192,175409,1,8,2:0:0:0:
320,192,175635,1,8,2:0:0:0:
448,192,175635,1,8,2:0:0:0:
64,192,175860,1,8,2:0:0:0:
192,192,175860,1,8,2:0:0:0:
192,192,176086,1,8,2:0:0:0:
320,192,176086,1,8,2:0:0:0:
320,192,176312,1,8,2:0:0:0:
448,192,176312,1,8,2:0:0:0:
192,192,176537,128,8,176988:2:0:0:0:
448,192,176537,1,8,2:0:0:0:
320,192,176988,128,8,177439:2:0:0:0:
448,192,176988,1,8,2:0:0:0:
192,192,177439,1,8,2:0:0:0:
64,192,177439,128,8,177890:2:0:0:0:
320,192,177890,1,8,2:0:0:0:
64,192,178116,1,8,2:0:0:0:
192,192,178116,1,8,2:0:0:0:
320,192,178341,128,8,178788:2:0:0:0:
448,192,178341,1,8,2:0:0:0:
64,192,178788,128,8,179236:2:0:0:0:
192,192,178788,1,8,2:0:0:0:
448,192,179236,128,8,179684:2:0:0:0:
320,192,179236,1,8,2:0:0:0:
64,192,179684,1,8,2:0:0:0:
320,192,179908,1,8,2:0:0:0:
192,192,179908,1,8,2:0:0:0:
64,192,180132,1,8,2:0:0:0:
192,192,180132,1,8,2:0:0:0:
320,192,180352,1,8,2:0:0:0:
448,192,180352,1,8,2:0:0:0:
64,192,180573,1,8,2:0:0:0:
192,192,180573,1,8,2:0:0:0:
320,192,180793,1,8,2:0:0:0:
448,192,180793,1,8,2:0:0:0:
64,192,181014,1,8,2:0:0:0:
192,192,181014,128,8,181455:2:0:0:0:
320,192,181234,1,8,2:0:0:0:
64,192,181455,1,8,2:0:0:0:
320,192,181676,1,8,2:0:0:0:
448,192,181676,1,8,2:0:0:0:
192,192,181896,1,8,2:0:0:0:
320,192,181896,1,8,2:0:0:0:
64,192,182110,1,8,2:0:0:0:
192,192,182110,1,8,2:0:0:0:
192,192,182324,1,8,2:0:0:0:
320,192,182324,1,8,2:0:0:0:
320,192,182538,1,8,2:0:0:0:
448,192,182538,1,8,2:0:0:0:
192,192,182753,128,8,183181:2:0:0:0:
64,192,182753,1,8,2:0:0:0:
448,192,182967,1,8,2:0:0:0:
64,192,183181,1,8,2:0:0:0:
192,192,183396,1,8,2:0:0:0:
320,192,183396,1,8,2:0:0:0:
64,192,183610,1,8,2:0:0:0:
448,192,183610,1,8,2:0:0:0:
64,192,183819,1,8,2:0:0:0:
192,192,183819,1,8,2:0:0:0:
448,192,184029,1,8,2:0:0:0:
192,192,184029,1,8,2:0:0:0:
320,192,184239,1,8,2:0:0:0:
64,192,184239,1,8,2:0:0:0:
320,192,184449,1,8,2:0:0:0:
448,192,184449,1,8,2:0:0:0:
64,192,184658,1,8,2:0:0:0:
192,192,184658,1,8,2:0:0:0:
192,192,184868,1,8,2:0:0:0:
448,192,184868,1,8,2:0:0:0:
192,192,185078,1,8,2:0:0:0:
320,192,185078,1,8,2:0:0:0:
192,192,185288,1,8,2:0:0:0:
64,192,185288,1,8,2:0:0:0:
320,192,185494,1,8,2:0:0:0:
64,192,185494,1,8,2:0:0:0:
192,192,185701,1,8,2:0:0:0:
448,192,185701,1,8,2:0:0:0:
192,192,185908,1,8,2:0:0:0:
64,192,185908,1,8,2:0:0:0:
192,192,186115,1,8,2:0:0:0:
320,192,186115,1,8,2:0:0:0:
320,192,186322,1,8,2:0:0:0:
448,192,186322,1,8,2:0:0:0:
64,192,186529,1,8,2:0:0:0:
448,192,186529,1,8,2:0:0:0:
192,192,186736,1,8,2:0:0:0:
64,192,186736,1,8,2:0:0:0:
448,192,186943,1,8,2:0:0:0:
320,192,186943,1,8,2:0:0:0:
64,192,187147,1,8,2:0:0:0:
192,192,187147,1,8,2:0:0:0:
320,192,187351,1,8,2:0:0:0:
192,192,187351,1,8,2:0:0:0:
64,192,187555,1,8,2:0:0:0:
448,192,187555,1,8,2:0:0:0:
192,192,187759,1,8,2:0:0:0:
320,192,187759,1,8,2:0:0:0:
64,192,187963,1,8,2:0:0:0:
448,192,187963,1,8,2:0:0:0:
64,192,188167,1,8,2:0:0:0:
320,192,188167,1,8,2:0:0:0:
192,192,188371,1,8,2:0:0:0:
448,192,188371,1,8,2:0:0:0:
320,192,188575,1,8,2:0:0:0:
64,192,188575,1,8,2:0:0:0:
320,192,188775,1,8,2:0:0:0:
192,192,188775,1,8,2:0:0:0:
64,192,188975,1,8,2:0:0:0:
448,192,188975,1,8,2:0:0:0:
192,192,189175,1,8,2:0:0:0:
320,192,189175,1,8,2:0:0:0:
64,192,189375,1,8,2:0:0:0:
192,192,189375,1,8,2:0:0:0:
448,192,189575,1,8,2:0:0:0:
192,192,189575,1,8,2:0:0:0:
192,192,189775,1,8,2:0:0:0:
64,192,189775,1,8,2:0:0:0:
192,192,189975,1,8,2:0:0:0:
320,192,189975,1,8,2:0:0:0:
320,192,190175,1,8,2:0:0:0:
448,192,190175,1,8,2:0:0:0:
192,192,190375,1,8,2:0:0:0:
448,192,190375,1,8,2:0:0:0:
64,192,190575,1,8,2:0:0:0:
320,192,190575,1,8,2:0:0:0:
192,192,190775,1,8,2:0:0:0:
448,192,190775,1,8,2:0:0:0:
192,192,190975,1,8,2:0:0:0:
64,192,190975,1,8,2:0:0:0:
192,192,191175,1,8,2:0:0:0:
320,192,191175,1,8,2:0:0:0:
64,192,191375,1,8,2:0:0:0:
192,192,191375,1,8,2:0:0:0:
192,192,191575,1,8,2:0:0:0:
320,192,191575,1,8,2:0:0:0:
320,192,191775,1,8,2:0:0:0:
192,192,191775,1,8,2:0:0:0:
64,192,191968,1,8,2:0:0:0:
448,192,191968,1,8,2:0:0:0:
448,192,192162,1,8,2:0:0:0:
320,192,192162,1,8,2:0:0:0:
64,192,192355,1,8,2:0:0:0:
320,192,192355,1,8,2:0:0:0:
64,192,192549,1,8,2:0:0:0:
192,192,192549,1,8,2:0:0:0:
64,192,192742,1,8,2:0:0:0:
320,192,192742,1,8,2:0:0:0:
64,192,192936,1,8,2:0:0:0:
448,192,192936,1,8,2:0:0:0:
192,192,193129,1,8,2:0:0:0:
320,192,193129,1,8,2:0:0:0:
320,192,193323,1,8,2:0:0:0:
192,192,193323,1,8,2:0:0:0:
64,192,193515,1,8,2:0:0:0:
320,192,193515,1,8,2:0:0:0:
64,192,193707,1,8,2:0:0:0:
448,192,193707,1,8,2:0:0:0:
64,192,193899,1,8,2:0:0:0:
320,192,193899,1,8,2:0:0:0:
64,192,194092,1,8,2:0:0:0:
448,192,194092,1,8,2:0:0:0:
64,192,194284,1,8,2:0:0:0:
320,192,194284,1,8,2:0:0:0:
64,192,194476,1,8,2:0:0:0:
448,192,194476,1,8,2:0:0:0:
64,192,194669,1,8,2:0:0:0:
320,192,194669,1,8,2:0:0:0:
64,192,194861,1,8,2:0:0:0:
192,192,194861,1,8,2:0:0:0:
192,192,195049,1,8,2:0:0:0:
320,192,195049,1,8,2:0:0:0:
320,192,195238,1,8,2:0:0:0:
448,192,195238,1,8,2:0:0:0:
192,192,195427,1,8,2:0:0:0:
320,192,195427,1,8,2:0:0:0:
64,192,195615,1,8,2:0:0:0:
192,192,195615,1,8,2:0:0:0:
320,192,195804,1,8,2:0:0:0:
192,192,195804,1,8,2:0:0:0:
64,192,195993,1,8,2:0:0:0:
192,192,195993,1,8,2:0:0:0:
192,192,196181,1,8,2:0:0:0:
320,192,196181,1,8,2:0:0:0:
448,192,196370,1,8,2:0:0:0:
320,192,196370,1,8,2:0:0:0:
64,192,196559,1,8,2:0:0:0:
320,192,196559,1,8,2:0:0:0:
64,192,196747,1,8,2:0:0:0:
448,192,196747,1,8,2:0:0:0:
64,192,196936,1,8,2:0:0:0:
320,192,196936,1,8,2:0:0:0:
64,192,197125,1,8,2:0:0:0:
448,192,197125,1,8,2:0:0:0:
64,192,197313,1,8,2:0:0:0:
192,192,197313,1,8,2:0:0:0:
192,192,197502,1,8,2:0:0:0:
320,192,197502,1,8,2:0:0:0:
64,192,197691,1,8,2:0:0:0:
192,192,197691,1,8,2:0:0:0:
192,192,197879,1,8,2:0:0:0:
320,192,197879,1,8,2:0:0:0:
64,192,198063,1,8,2:0:0:0:
320,192,198063,1,8,2:0:0:0:
192,192,198247,1,8,2:0:0:0:
448,192,198247,1,8,2:0:0:0:
192,192,198431,1,8,2:0:0:0:
320,192,198431,1,8,2:0:0:0:
64,192,198615,1,8,2:0:0:0:
192,192,198615,1,8,2:0:0:0:
448,192,198799,1,8,2:0:0:0:
192,192,198799,1,8,2:0:0:0:
320,192,198983,1,8,2:0:0:0:
192,192,198983,1,8,2:0:0:0:
64,192,199167,1,8,2:0:0:0:
448,192,199167,1,8,2:0:0:0:
320,192,199351,1,8,2:0:0:0:
64,192,199351,1,8,2:0:0:0:
64,192,199532,1,8,2:0:0:0:
192,192,199532,1,8,2:0:0:0:
192,192,199714,1,8,2:0:0:0:
448,192,199714,1,8,2:0:0:0:
320,192,199896,1,8,2:0:0:0:
64,192,199896,1,8,2:0:0:0:
192,192,200078,1,8,2:0:0:0:
320,192,200078,1,8,2:0:0:0:
320,192,200260,1,8,2:0:0:0:
448,192,200260,1,8,2:0:0:0:
64,192,200441,1,8,2:0:0:0:
320,192,200441,1,8,2:0:0:0:
192,192,200623,1,8,2:0:0:0:
448,192,200623,1,8,2:0:0:0:
64,192,200805,1,8,2:0:0:0:
192,192,200805,1,8,2:0:0:0:
192,192,200983,1,8,2:0:0:0:
320,192,200983,1,8,2:0:0:0:
320,192,201162,1,8,2:0:0:0:
448,192,201162,1,8,2:0:0:0:
64,192,201340,1,8,2:0:0:0:
192,192,201340,1,8,2:0:0:0:
320,192,201519,1,8,2:0:0:0:
192,192,201519,1,8,2:0:0:0:
320,192,201697,1,8,2:0:0:0:
448,192,201697,1,8,2:0:0:0:
64,192,201876,1,8,2:0:0:0:
192,192,201876,1,8,2:0:0:0:
192,192,202055,1,8,2:0:0:0:
320,192,202055,1,8,2:0:0:0:
64,192,202233,1,8,2:0:0:0:
448,192,202233,128,8,202585:2:0:0:0:
192,192,202585,1,8,2:0:0:0:
320,192,202585,1,8,2:0:0:0:
64,192,202762,1,8,2:0:0:0:
192,192,202762,1,8,2:0:0:0:
320,192,202938,1,8,2:0:0:0:
448,192,202938,1,8,2:0:0:0:
64,192,203115,1,8,2:0:0:0:
320,192,203115,1,8,2:0:0:0:
192,192,203291,1,8,2:0:0:0:
448,192,203291,1,8,2:0:0:0:
320,192,203468,1,8,2:0:0:0:
192,192,203468,1,8,2:0:0:0:
64,192,203644,1,8,2:0:0:0:
448,192,203644,1,8,2:0:0:0:
192,192,203821,1,8,2:0:0:0:
64,192,203821,1,8,2:0:0:0:
320,192,203997,1,8,2:0:0:0:
448,192,203997,1,8,2:0:0:0:
192,192,204174,1,8,2:0:0:0:
64,192,204174,1,8,2:0:0:0:
192,192,204350,1,8,2:0:0:0:
448,192,204350,1,8,2:0:0:0:
320,192,204527,1,8,2:0:0:0:
64,192,204527,1,8,2:0:0:0:
192,192,204703,1,8,2:0:0:0:
320,192,204703,1,8,2:0:0:0:
64,192,204880,1,8,2:0:0:0:
448,192,204880,1,8,2:0:0:0:
320,192,205056,1,8,2:0:0:0:
64,192,207880,1,8,2:0:0:0:
192,192,207880,1,8,2:0:0:0:
320,192,208056,128,8,208233:2:0:0:0:
448,192,208056,1,8,2:0:0:0:
64,192,208233,128,8,208409:2:0:0:0:
192,192,208233,1,8,2:0:0:0:
448,192,208409,128,8,208585:2:0:0:0:
320,192,208409,1,8,2:0:0:0:
320,192,208585,1,8,2:0:0:0:
192,192,208644,1,8,2:0:0:0:
64,192,208703,1,8,2:0:0:0:
192,192,208762,1,8,2:0:0:0:
320,192,208821,1,8,2:0:0:0:
64,192,208938,128,8,209291:2:0:0:0:
448,192,208938,1,8,2:0:0:0:
192,192,209115,1,8,2:0:0:0:
448,192,209115,1,8,2:0:0:0:
320,192,209203,1,8,2:0:0:0:
448,192,209291,1,8,2:0:0:0:
320,192,209380,1,8,2:0:0:0:
192,192,209468,1,8,2:0:0:0:
64,192,209556,1,8,2:0:0:0:
320,192,209644,128,8,209821:2:0:0:0:
192,192,209644,1,8,2:0:0:0:
64,192,209821,128,8,209997:2:0:0:0:
448,192,209821,1,8,2:0:0:0:
448,192,209997,128,8,210174:2:0:0:0:
192,192,209997,1,8,2:0:0:0:
320,192,210174,1,8,2:0:0:0:
64,192,210174,128,8,210350:2:0:0:0:
192,192,210350,128,8,210527:2:0:0:0:
320,192,210350,1,8,2:0:0:0:
320,192,210527,128,8,210703:2:0:0:0:
448,192,210527,1,8,2:0:0:0:
64,192,210703,1,8,2:0:0:0:
192,192,210703,128,8,211409:2:0:0:0:
320,192,211409,1,8,2:0:0:0:
448,192,211497,1,8,2:0:0:0:
192,192,211585,1,8,2:0:0:0:
64,192,211674,1,8,2:0:0:0:
320,192,211762,1,8,2:0:0:0:
448,192,211850,1,8,2:0:0:0:
192,192,211938,1,8,2:0:0:0:
64,192,212027,1,8,2:0:0:0:
448,192,212115,128,8,212468:2:0:0:0:
192,192,212468,128,8,212644:2:0:0:0:
320,192,212468,1,8,2:0:0:0:
64,192,212644,128,8,212821:2:0:0:0:
448,192,212644,1,8,2:0:0:0:
320,192,212821,1,8,2:0:0:0:
448,192,212909,1,8,2:0:0:0:
192,192,212997,1,8,2:0:0:0:
320,192,213085,1,8,2:0:0:0:
64,192,213174,1,8,2:0:0:0:
192,192,213174,128,8,213350:2:0:0:0:
448,192,213350,128,8,213527:2:0:0:0:
320,192,213350,1,8,2:0:0:0:
64,192,213527,128,8,213703:2:0:0:0:
192,192,213527,1,8,2:0:0:0:
320,192,213703,1,8,2:0:0:0:
192,192,213880,1,8,2:0:0:0:
448,192,213880,128,8,214056:2:0:0:0:
64,192,214056,128,8,214233:2:0:0:0:
320,192,214056,1,8,2:0:0:0:
448,192,214233,128,8,214409:2:0:0:0:
192,192,214233,1,8,2:0:0:0:
320,192,214409,1,8,2:0:0:0:
64,192,214409,128,8,214762:2:0:0:0:
192,192,214585,1,8,2:0:0:0:
448,192,214762,1,8,2:0:0:0:
320,192,214762,1,8,2:0:0:0:
192,192,214821,1,8,2:0:0:0:
64,192,214880,1,8,2:0:0:0:
448,192,214938,128,8,215291:2:0:0:0:
320,192,214938,1,8,2:0:0:0:
192,192,215115,1,8,2:0:0:0:
320,192,215115,1,8,2:0:0:0:
64,192,215291,1,8,2:0:0:0:
192,192,215468,1,8,2:0:0:0:
448,192,215644,1,8,2:0:0:0:
320,192,215703,1,8,2:0:0:0:
192,192,215762,1,8,2:0:0:0:
64,192,215821,1,8,2:0:0:0:
320,192,215909,1,8,2:0:0:0:
448,192,215997,1,8,2:0:0:0:
64,192,215997,128,8,216174:2:0:0:0:
192,192,216174,128,8,216350:2:0:0:0:
320,192,216350,1,8,2:0:0:0:
64,192,216350,1,8,2:0:0:0:
448,192,216350,128,8,216703:2:0:0:0:
64,192,216615,1,8,2:0:0:0:
192,192,216703,1,8,2:0:0:0:
320,192,216703,128,8,216880:2:0:0:0:
64,192,216880,128,8,217056:2:0:0:0:
448,192,216880,1,8,2:0:0:0:
448,192,217056,128,8,217762:2:0:0:0:
192,192,217056,1,8,2:0:0:0:
192,192,217233,1,8,2:0:0:0:
192,192,217409,1,8,2:0:0:0:
192,192,217585,1,8,2:0:0:0:
192,192,217762,1,8,2:0:0:0:
64,192,217762,128,8,218291:2:0:0:0:
320,192,217762,1,8,2:0:0:0:
320,192,217938,1,8,2:0:0:0:
320,192,218115,1,8,2:0:0:0:
320,192,218291,1,8,2:0:0:0:
448,192,218291,128,8,218468:2:0:0:0:
320,192,218468,1,8,2:0:0:0:
64,192,218468,1,8,2:0:0:0:
192,192,218468,128,8,218821:2:0:0:0:
320,192,218644,1,8,2:0:0:0:
64,192,218821,1,8,2:0:0:0:
192,192,218909,1,8,2:0:0:0:
320,192,218997,1,8,2:0:0:0:
448,192,219085,1,8,2:0:0:0:
64,192,219174,1,8,2:0:0:0:
192,192,219233,1,8,2:0:0:0:
320,192,219291,1,8,2:0:0:0:
448,192,219350,1,8,2:0:0:0:
320,192,219409,1,8,2:0:0:0:
192,192,219468,1,8,2:0:0:0:
64,192,219527,128,8,219703:2:0:0:0:
320,192,219703,128,8,219880:2:0:0:0:
192,192,219703,1,8,2:0:0:0:
64,192,219880,1,8,2:0:0:0:
192,192,219968,1,8,2:0:0:0:
320,192,220056,1,8,2:0:0:0:
192,192,220144,1,8,2:0:0:0:
448,192,220233,1,8,2:0:0:0:
320,192,220321,1,8,2:0:0:0:
192,192,220409,1,8,2:0:0:0:
64,192,220585,1,8,2:0:0:0:
192,192,220585,1,8,2:0:0:0:
320,192,220674,1,8,2:0:0:0:
448,192,220762,1,8,2:0:0:0:
64,192,220762,1,8,2:0:0:0:
192,192,220938,1,8,2:0:0:0:
320,192,220938,128,8,221115:2:0:0:0:
64,192,221115,128,8,221291:2:0:0:0:
448,192,221115,1,8,2:0:0:0:
320,192,221291,1,8,2:0:0:0:
448,192,221380,1,8,2:0:0:0:
192,192,221468,1,8,2:0:0:0:
320,192,221556,1,8,2:0:0:0:
64,192,221644,1,8,2:0:0:0:
192,192,221733,1,8,2:0:0:0:
448,192,221821,128,8,221997:2:0:0:0:
320,192,221821,1,8,2:0:0:0:
64,192,221997,128,8,222174:2:0:0:0:
192,192,221997,1,8,2:0:0:0:
192,192,222174,128,8,222350:2:0:0:0:
320,192,222174,1,8,2:0:0:0:
64,192,222350,1,8,2:0:0:0:
192,192,222438,1,8,2:0:0:0:
320,192,222527,1,8,2:0:0:0:
448,192,222615,1,8,2:0:0:0:
320,192,222703,1,8,2:0:0:0:
192,192,222703,1,8,2:0:0:0:
192,192,222880,1,8,2:0:0:0:
64,192,222880,1,8,2:0:0:0:
448,192,223056,1,8,2:0:0:0:
320,192,223056,1,8,2:0:0:0:
320,192,223233,1,8,2:0:0:0:
192,192,223233,1,8,2:0:0:0:
192,192,223409,1,8,2:0:0:0:
64,192,223409,1,8,2:0:0:0:
192,192,223585,1,8,2:0:0:0:
320,192,223585,1,8,2:0:0:0:
320,192,223762,1,8,2:0:0:0:
448,192,223762,1,8,2:0:0:0:
64,192,223938,1,8,2:0:0:0:
192,192,223938,1,8,2:0:0:0:
320,192,224115,128,8,224291:2:0:0:0:
448,192,224115,1,8,2:0:0:0:
64,192,224291,128,8,224468:2:0:0:0:
192,192,224291,1,8,2:0:0:0:
192,192,224468,128,8,224644:2:0:0:0:
320,192,224468,1,8,2:0:0:0:
320,192,224644,128,8,224821:2:0:0:0:
448,192,224644,1,8,2:0:0:0:
64,192,224821,1,8,2:0:0:0:
192,192,224821,1,8,2:0:0:0:
64,192,224997,128,8,225703:2:0:0:0:
192,192,224997,1,8,2:0:0:0:
448,192,224997,1,8,2:0:0:0:
320,192,225085,1,8,2:0:0:0:
448,192,225174,1,8,2:0:0:0:
320,192,225262,1,8,2:0:0:0:
448,192,225350,1,8,2:0:0:0:
320,192,225438,1,8,2:0:0:0:
448,192,225527,1,8,2:0:0:0:
320,192,225615,1,8,2:0:0:0:
448,192,225703,1,8,2:0:0:0:
192,192,225703,1,8,2:0:0:0:
320,192,225880,1,8,2:0:0:0:
64,192,226056,1,8,2:0:0:0:
320,192,226233,1,8,2:0:0:0:
448,192,226233,1,8,2:0:0:0:
192,192,226321,1,8,2:0:0:0:
64,192,226409,1,8,2:0:0:0:
192,192,226497,1,8,2:0:0:0:
320,192,226585,128,8,226938:2:0:0:0:
64,192,226938,1,8,2:0:0:0:
448,192,226938,1,8,2:0:0:0:
192,192,227027,1,8,2:0:0:0:
320,192,227115,1,8,2:0:0:0:
448,192,227203,1,8,2:0:0:0:
320,192,227291,128,8,227644:2:0:0:0:
192,192,227291,1,8,2:0:0:0:
64,192,227644,1,8,2:0:0:0:
192,192,227644,1,8,2:0:0:0:
192,192,227821,1,8,2:0:0:0:
320,192,227821,1,8,2:0:0:0:
320,192,227997,1,8,2:0:0:0:
448,192,227997,1,8,2:0:0:0:
320,192,228174,1,8,2:0:0:0:
448,192,228174,1,8,2:0:0:0:
64,192,228350,1,8,2:0:0:0:
192,192,228350,1,8,2:0:0:0:
192,192,228527,1,8,2:0:0:0:
320,192,228527,1,8,2:0:0:0:
320,192,228703,1,8,2:0:0:0:
448,192,228703,1,8,2:0:0:0:
320,192,228880,1,8,2:0:0:0:
448,192,228880,1,8,2:0:0:0:
64,192,229056,1,8,2:0:0:0:
192,192,229056,1,8,2:0:0:0:
192,192,229232,1,8,2:0:0:0:
320,192,229232,1,8,2:0:0:0:
320,192,229409,1,8,2:0:0:0:
448,192,229409,1,8,2:0:0:0:
320,192,229585,1,8,2:0:0:0:
448,192,229585,1,8,2:0:0:0:
64,192,229762,1,8,2:0:0:0:
320,192,229762,1,8,2:0:0:0:
192,192,229938,1,8,2:0:0:0:
448,192,229938,1,8,2:0:0:0:
64,192,230115,1,8,2:0:0:0:
320,192,230115,1,8,2:0:0:0:
192,192,230291,1,8,2:0:0:0:
448,192,230291,1,8,2:0:0:0:
64,192,230468,1,8,2:0:0:0:
448,192,230468,1,8,2:0:0:0:
192,192,230644,128,8,230997:2:0:0:0:
320,192,230644,1,8,2:0:0:0:
448,192,230821,1,8,2:0:0:0:
64,192,230997,128,8,231174:2:0:0:0:
448,192,230997,1,8,2:0:0:0:
448,192,231174,128,8,231350:2:0:0:0:
320,192,231174,1,8,2:0:0:0:
192,192,231350,128,8,231527:2:0:0:0:
64,192,231350,1,8,2:0:0:0:
320,192,231527,128,8,231703:2:0:0:0:
448,192,231527,1,8,2:0:0:0:
64,192,231703,128,8,231880:2:0:0:0:
192,192,231703,1,8,2:0:0:0:
448,192,231880,128,8,232056:2:0:0:0:
320,192,231880,1,8,2:0:0:0:
320,192,232056,128,8,232232:2:0:0:0:
192,192,232056,1,8,2:0:0:0:
192,192,232232,128,8,232409:2:0:0:0:
64,192,232232,1,8,2:0:0:0:
320,192,232409,128,8,232585:2:0:0:0:
448,192,232409,1,8,2:0:0:0:
64,192,232585,1,8,2:0:0:0:
192,192,232585,1,8,2:0:0:0:
448,192,232762,1,8,2:0:0:0:
192,192,232938,1,8,2:0:0:0:
64,192,232938,1,8,2:0:0:0:
448,192,233115,1,8,2:0:0:0:
64,192,233291,1,8,2:0:0:0:
320,192,233291,1,8,2:0:0:0:
192,192,233468,128,8,233821:2:0:0:0:
320,192,233468,1,8,2:0:0:0:
64,192,233644,1,8,2:0:0:0:
448,192,233821,128,8,233997:2:0:0:0:
192,192,233997,128,8,234174:2:0:0:0:
320,192,233997,1,8,2:0:0:0:
320,192,234174,128,8,234350:2:0:0:0:
64,192,234174,1,8,2:0:0:0:
64,192,234350,128,8,234527:2:0:0:0:
448,192,234350,1,8,2:0:0:0:
320,192,234527,128,8,234703:2:0:0:0:
192,192,234527,1,8,2:0:0:0:
64,192,234703,128,8,234880:2:0:0:0:
192,192,234703,1,8,2:0:0:0:
320,192,234880,128,8,235056:2:0:0:0:
192,192,234880,1,8,2:0:0:0:
192,192,235056,128,8,235232:2:0:0:0:
64,192,235056,1,8,2:0:0:0:
448,192,235232,128,8,235409:2:0:0:0:
320,192,235232,1,8,2:0:0:0:
192,192,235409,1,8,2:0:0:0:
64,192,235409,1,8,2:0:0:0:
320,192,235585,1,8,2:0:0:0:
64,192,235762,1,8,2:0:0:0:
448,192,235762,1,8,2:0:0:0:
320,192,235938,1,8,2:0:0:0:
320,192,236115,1,8,2:0:0:0:
192,192,236115,1,8,2:0:0:0:
192,192,236291,128,8,236644:2:0:0:0:
320,192,236291,1,8,2:0:0:0:
448,192,236644,128,8,236821:2:0:0:0:
320,192,236644,1,8,2:0:0:0:
64,192,236821,128,8,236997:2:0:0:0:
192,192,236821,1,8,2:0:0:0:
192,192,236997,128,8,237174:2:0:0:0:
320,192,237174,128,8,237350:2:0:0:0:
64,192,237174,1,8,2:0:0:0:
448,192,237350,128,8,237527:2:0:0:0:
192,192,237350,1,8,2:0:0:0:
192,192,237527,128,8,237703:2:0:0:0:
320,192,237527,1,8,2:0:0:0:
320,192,237703,128,8,237880:2:0:0:0:
64,192,237703,1,8,2:0:0:0:
448,192,237880,128,8,238056:2:0:0:0:
192,192,237880,1,8,2:0:0:0:
320,192,238056,128,8,238232:2:0:0:0:
192,192,238056,1,8,2:0:0:0:
448,192,238232,128,8,238409:2:0:0:0:
64,192,238232,1,8,2:0:0:0:
192,192,238409,1,8,2:0:0:0:
320,192,238585,1,8,2:0:0:0:
64,192,238585,1,8,2:0:0:0:
192,192,238762,1,8,2:0:0:0:
448,192,238938,1,8,2:0:0:0:
320,192,238938,1,8,2:0:0:0:
192,192,239115,128,8,239468:2:0:0:0:
64,192,239115,1,8,2:0:0:0:
448,192,239291,1,8,2:0:0:0:
64,192,239468,1,8,2:0:0:0:
320,192,239468,128,8,239644:2:0:0:0:
448,192,239644,128,8,239821:2:0:0:0:
192,192,239821,128,8,239997:2:0:0:0:
320,192,239821,1,8,2:0:0:0:
320,192,239997,128,8,240174:2:0:0:0:
64,192,239997,1,8,2:0:0:0:
64,192,240174,128,8,240350:2:0:0:0:
448,192,240174,1,8,2:0:0:0:
192,192,240350,128,8,240527:2:0:0:0:
320,192,240350,1,8,2:0:0:0:
320,192,240527,128,8,240703:2:0:0:0:
64,192,240527,1,8,2:0:0:0:
192,192,240703,128,8,240880:2:0:0:0:
448,192,240703,1,8,2:0:0:0:
448,192,240880,128,8,241056:2:0:0:0:
64,192,240880,1,8,2:0:0:0:
192,192,241056,128,8,241232:2:0:0:0:
320,192,241056,1,8,2:0:0:0:
64,192,241232,1,8,2:0:0:0:
320,192,241232,1,8,2:0:0:0:
320,192,241409,1,8,2:0:0:0:
448,192,241409,1,8,2:0:0:0:
64,192,241585,1,8,2:0:0:0:
320,192,241762,1,8,2:0:0:0:
192,192,241762,1,8,2:0:0:0:
320,192,241938,1,8,2:0:0:0:
64,192,241938,128,8,242291:2:0:0:0:
320,192,242291,128,8,242468:2:0:0:0:
448,192,242291,1,8,2:0:0:0:
192,192,242468,128,8,242644:2:0:0:0:
64,192,242468,1,8,2:0:0:0:
448,192,242644,128,8,242821:2:0:0:0:
320,192,242644,1,8,2:0:0:0:
64,192,242821,128,8,242997:2:0:0:0:
192,192,242821,1,8,2:0:0:0:
192,192,242997,128,8,243174:2:0:0:0:
320,192,242997,1,8,2:0:0:0:
64,192,243174,128,8,243350:2:0:0:0:
320,192,243174,1,8,2:0:0:0:
448,192,243350,128,8,243527:2:0:0:0:
192,192,243350,1,8,2:0:0:0:
320,192,243527,128,8,243703:2:0:0:0:
192,192,243527,1,8,2:0:0:0:
192,192,243703,128,8,243880:2:0:0:0:
64,192,243703,1,8,2:0:0:0:
64,192,243880,128,8,244056:2:0:0:0:
320,192,244056,1,8,2:0:0:0:
64,192,244232,1,8,2:0:0:0:
192,192,244232,1,8,2:0:0:0:
320,192,244409,1,8,2:0:0:0:
192,192,244585,1,8,2:0:0:0:
448,192,244585,1,8,2:0:0:0:
320,192,244762,1,8,2:0:0:0:
448,192,244762,128,8,245115:2:0:0:0:
64,192,244938,1,8,2:0:0:0:
192,192,245115,1,8,2:0:0:0:
320,192,245115,128,8,245291:2:0:0:0:
64,192,245291,128,8,245468:2:0:0:0:
192,192,245291,1,8,2:0:0:0:
448,192,245468,128,8,245644:2:0:0:0:
320,192,245468,1,8,2:0:0:0:
320,192,245644,128,8,245821:2:0:0:0:
192,192,245644,1,8,2:0:0:0:
64,192,245821,128,8,245997:2:0:0:0:
192,192,245821,1,8,2:0:0:0:
192,192,245997,128,8,246174:2:0:0:0:
320,192,245997,1,8,2:0:0:0:
448,192,246174,128,8,246350:2:0:0:0:
320,192,246174,1,8,2:0:0:0:
320,192,246350,128,8,246527:2:0:0:0:
192,192,246350,1,8,2:0:0:0:
64,192,246527,128,8,246703:2:0:0:0:
192,192,246527,1,8,2:0:0:0:
192,192,246703,128,8,246880:2:0:0:0:
320,192,246703,1,8,2:0:0:0:
320,192,246880,1,8,2:0:0:0:
64,192,247056,1,8,2:0:0:0:
192,192,247056,1,8,2:0:0:0:
320,192,247232,1,8,2:0:0:0:
320,192,247409,1,8,2:0:0:0:
448,192,247409,1,8,2:0:0:0:
64,192,247585,128,8,247938:2:0:0:0:
192,192,247585,1,8,2:0:0:0:
320,192,247762,1,8,2:0:0:0:
448,192,247938,128,8,248115:2:0:0:0:
320,192,247938,1,8,2:0:0:0:
192,192,248115,128,8,248291:2:0:0:0:
64,192,248115,1,8,2:0:0:0:
320,192,248291,128,8,248468:2:0:0:0:
448,192,248291,1,8,2:0:0:0:
64,192,248468,128,8,248644:2:0:0:0:
192,192,248468,1,8,2:0:0:0:
320,192,248644,128,8,248821:2:0:0:0:
448,192,248644,1,8,2:0:0:0:
192,192,248821,128,8,248997:2:0:0:0:
64,192,248821,1,8,2:0:0:0:
448,192,248997,128,8,249174:2:0:0:0:
320,192,249174,128,8,249350:2:0:0:0:
192,192,249174,1,8,2:0:0:0:
64,192,249350,128,8,249527:2:0:0:0:
192,192,249350,1,8,2:0:0:0:
320,192,249527,128,8,249703:2:0:0:0:
448,192,249527,1,8,2:0:0:0:
64,192,249703,1,8,2:0:0:0:
192,192,249880,1,8,2:0:0:0:
448,192,249880,1,8,2:0:0:0:
320,192,250056,1,8,2:0:0:0:
64,192,250232,1,8,2:0:0:0:
448,192,250409,128,8,250762:2:0:0:0:
192,192,250762,128,8,250850:2:0:0:0:
192,192,250938,128,8,251027:2:0:0:0:
192,192,251115,128,8,251203:2:0:0:0:
192,192,251291,128,8,251380:2:0:0:0:
192,192,251468,128,8,251556:2:0:0:0:
192,192,251644,128,8,251732:2:0:0:0:
192,192,251821,128,8,251909:2:0:0:0:
192,192,251997,128,8,252085:2:0:0:0:
192,192,252174,128,8,252262:2:0:0:0:
192,192,252350,128,8,252438:2:0:0:0:
320,192,253056,1,8,2:0:0:0:
448,192,253056,1,8,2:0:0:0:
64,192,253232,1,8,2:0:0:0:
192,192,253321,1,8,2:0:0:0:
320,192,253409,1,8,2:0:0:0:
64,192,253585,1,8,2:0:0:0:
192,192,253674,1,8,2:0:0:0:
320,192,253762,1,8,2:0:0:0:
64,192,253938,1,8,2:0:0:0:
192,192,254027,1,8,2:0:0:0:
320,192,254115,1,8,2:0:0:0:
448,192,254115,1,8,2:0:0:0:
64,192,254291,1,8,2:0:0:0:
192,192,254291,1,8,2:0:0:0:
192,192,254468,1,8,2:0:0:0:
448,192,254468,1,8,2:0:0:0:
320,192,254644,1,8,2:0:0:0:
192,192,254732,1,8,2:0:0:0:
320,192,254821,1,8,2:0:0:0:
320,192,254997,1,8,2:0:0:0:
192,192,255085,1,8,2:0:0:0:
320,192,255174,1,8,2:0:0:0:
320,192,255350,1,8,2:0:0:0:
192,192,255438,1,8,2:0:0:0:
320,192,255527,1,8,2:0:0:0:
64,192,255527,1,8,2:0:0:0:
192,192,255703,1,8,2:0:0:0:
448,192,255703,1,8,2:0:0:0:
64,192,255880,1,8,2:0:0:0:
192,192,255880,1,8,2:0:0:0:
320,192,256056,1,8,2:0:0:0:
192,192,256056,1,8,2:0:0:0:
448,192,256144,1,8,2:0:0:0:
192,192,256232,1,8,2:0:0:0:
320,192,256409,1,8,2:0:0:0:
448,192,256497,1,8,2:0:0:0:
192,192,256585,1,8,2:0:0:0:
320,192,256762,1,8,2:0:0:0:
448,192,256850,1,8,2:0:0:0:
192,192,256938,1,8,2:0:0:0:
64,192,256938,1,8,2:0:0:0:
192,192,257115,1,8,2:0:0:0:
448,192,257115,1,8,2:0:0:0:
192,192,257291,1,8,2:0:0:0:
320,192,257291,1,8,2:0:0:0:
448,192,257468,1,8,2:0:0:0:
64,192,257556,1,8,2:0:0:0:
320,192,257644,1,8,2:0:0:0:
448,192,257821,1,8,2:0:0:0:
64,192,257909,1,8,2:0:0:0:
320,192,257997,1,8,2:0:0:0:
448,192,258174,1,8,2:0:0:0:
64,192,258262,1,8,2:0:0:0:
320,192,258350,1,8,2:0:0:0:
192,192,258350,1,8,2:0:0:0:
320,192,258527,1,8,2:0:0:0:
448,192,258527,1,8,2:0:0:0:
64,192,258703,1,8,2:0:0:0:
448,192,258703,1,8,2:0:0:0:
192,192,258880,1,8,2:0:0:0:
320,192,258968,1,8,2:0:0:0:
448,192,259056,1,8,2:0:0:0:
192,192,259232,1,8,2:0:0:0:
320,192,259321,1,8,2:0:0:0:
448,192,259409,1,8,2:0:0:0:
192,192,259585,1,8,2:0:0:0:
320,192,259674,1,8,2:0:0:0:
448,192,259762,1,8,2:0:0:0:
192,192,259762,1,8,2:0:0:0:
192,192,259938,1,8,2:0:0:0:
64,192,259938,1,8,2:0:0:0:
320,192,260115,1,8,2:0:0:0:
448,192,260115,1,8,2:0:0:0:
64,192,260291,1,8,2:0:0:0:
320,192,260380,1,8,2:0:0:0:
448,192,260468,1,8,2:0:0:0:
64,192,260644,1,8,2:0:0:0:
320,192,260732,1,8,2:0:0:0:
448,192,260821,1,8,2:0:0:0:
64,192,260997,1,8,2:0:0:0:
320,192,261085,1,8,2:0:0:0:
448,192,261174,1,8,2:0:0:0:
192,192,261174,1,8,2:0:0:0:
64,192,261350,1,8,2:0:0:0:
192,192,261350,1,8,2:0:0:0:
192,192,261527,1,8,2:0:0:0:
448,192,261527,1,8,2:0:0:0:
320,192,261703,1,8,2:0:0:0:
192,192,261791,1,8,2:0:0:0:
64,192,261880,1,8,2:0:0:0:
320,192,262056,1,8,2:0:0:0:
192,192,262144,1,8,2:0:0:0:
64,192,262232,1,8,2:0:0:0:
320,192,262409,1,8,2:0:0:0:
192,192,262497,1,8,2:0:0:0:
64,192,262585,1,8,2:0:0:0:
448,192,262585,1,8,2:0:0:0:
192,192,262762,1,8,2:0:0:0:
320,192,262762,1,8,2:0:0:0:
320,192,262938,1,8,2:0:0:0:
448,192,262938,1,8,2:0:0:0:
64,192,263115,1,8,2:0:0:0:
192,192,263115,1,8,2:0:0:0:
64,192,263291,1,8,2:0:0:0:
192,192,263291,1,8,2:0:0:0:
64,192,263468,1,8,2:0:0:0:
192,192,263468,1,8,2:0:0:0:
64,192,263644,1,8,2:0:0:0:
192,192,263644,1,8,2:0:0:0:
64,192,263821,1,8,2:0:0:0:
192,192,263821,1,8,2:0:0:0:
64,192,263997,1,8,2:0:0:0:
192,192,263997,1,8,2:0:0:0:
64,192,264174,1,8,2:0:0:0:
192,192,264174,1,8,2:0:0:0:
64,192,264350,1,8,2:0:0:0:
192,192,264350,1,8,2:0:0:0:
320,192,264527,1,8,2:0:0:0:
192,192,264615,1,8,2:0:0:0:
64,192,264703,1,8,2:0:0:0:
448,192,264880,1,8,2:0:0:0:
320,192,264968,1,8,2:0:0:0:
192,192,265056,1,8,2:0:0:0:
64,192,265232,1,8,2:0:0:0:
192,192,265232,1,8,2:0:0:0:
192,192,265409,1,8,2:0:0:0:
448,192,265409,1,8,2:0:0:0:
320,192,265585,1,8,2:0:0:0:
192,192,265585,1,8,2:0:0:0:
64,192,265762,1,8,2:0:0:0:
448,192,265762,1,8,2:0:0:0:
64,192,265938,1,8,2:0:0:0:
192,192,266027,1,8,2:0:0:0:
64,192,266115,1,8,2:0:0:0:
448,192,266291,1,8,2:0:0:0:
320,192,266380,1,8,2:0:0:0:
448,192,266468,1,8,2:0:0:0:
64,192,266644,1,8,2:0:0:0:
320,192,266644,1,8,2:0:0:0:
192,192,266821,1,8,2:0:0:0:
448,192,266821,1,8,2:0:0:0:
320,192,266997,1,8,2:0:0:0:
448,192,266997,1,8,2:0:0:0:
64,192,267174,1,8,2:0:0:0:
320,192,267174,1,8,2:0:0:0:
192,192,267350,1,8,2:0:0:0:
64,192,267438,1,8,2:0:0:0:
192,192,267527,1,8,2:0:0:0:
320,192,267703,1,8,2:0:0:0:
448,192,267791,1,8,2:0:0:0:
320,192,267880,1,8,2:0:0:0:
64,192,268056,1,8,2:0:0:0:
448,192,268056,1,8,2:0:0:0:
192,192,268232,1,8,2:0:0:0:
64,192,268232,1,8,2:0:0:0:
192,192,268409,1,8,2:0:0:0:
320,192,268409,1,8,2:0:0:0:
64,192,268585,1,8,2:0:0:0:
320,192,268585,128,8,268762:2:0:0:0:
448,192,268762,1,8,2:0:0:0:
192,192,268762,128,8,268938:2:0:0:0:
64,192,268938,1,8,2:0:0:0:
320,192,268938,128,8,269115:2:0:0:0:
448,192,269115,1,8,2:0:0:0:
192,192,269115,128,8,269291:2:0:0:0:
64,192,269291,1,8,2:0:0:0:
320,192,269291,128,8,269468:2:0:0:0:
448,192,269468,1,8,2:0:0:0:
192,192,269468,128,8,269644:2:0:0:0:
64,192,269644,1,8,2:0:0:0:
320,192,269644,128,8,269821:2:0:0:0:
448,192,269821,1,8,2:0:0:0:
192,192,269821,128,8,269997:2:0:0:0:
64,192,269997,1,8,2:0:0:0:
320,192,269997,1,8,2:0:0:0:
192,192,270174,1,8,2:0:0:0:
320,192,270262,1,8,2:0:0:0:
448,192,270350,1,8,2:0:0:0:
64,192,270527,1,8,2:0:0:0:
192,192,270615,1,8,2:0:0:0:
320,192,270703,1,8,2:0:0:0:
64,192,270880,1,8,2:0:0:0:
192,192,270880,1,8,2:0:0:0:
320,192,271056,1,8,2:0:0:0:
192,192,271056,1,8,2:0:0:0:
64,192,271232,1,8,2:0:0:0:
448,192,271232,1,8,2:0:0:0:
192,192,271409,1,8,2:0:0:0:
448,192,271409,1,8,2:0:0:0:
64,192,271585,1,8,2:0:0:0:
448,192,271674,1,8,2:0:0:0:
64,192,271762,1,8,2:0:0:0:
448,192,271938,1,8,2:0:0:0:
64,192,272027,1,8,2:0:0:0:
448,192,272115,1,8,2:0:0:0:
64,192,272291,1,8,2:0:0:0:
320,192,272291,1,8,2:0:0:0:
320,192,272468,1,8,2:0:0:0:
448,192,272468,1,8,2:0:0:0:
64,192,272644,1,8,2:0:0:0:
192,192,272644,1,8,2:0:0:0:
192,192,272821,1,8,2:0:0:0:
448,192,272821,1,8,2:0:0:0:
192,192,272997,1,8,2:0:0:0:
320,192,273085,1,8,2:0:0:0:
64,192,273174,1,8,2:0:0:0:
320,192,273350,1,8,2:0:0:0:
448,192,273438,1,8,2:0:0:0:
192,192,273527,1,8,2:0:0:0:
64,192,273703,1,8,2:0:0:0:
192,192,273703,1,8,2:0:0:0:
320,192,273880,1,8,2:0:0:0:
448,192,273880,1,8,2:0:0:0:
64,192,274056,1,8,2:0:0:0:
448,192,274056,1,8,2:0:0:0:
64,192,274232,1,8,2:0:0:0:
320,192,274232,1,8,2:0:0:0:
448,192,274409,128,8,274585:2:0:0:0:
320,192,274409,1,8,2:0:0:0:
64,192,274585,128,8,274762:2:0:0:0:
192,192,274585,1,8,2:0:0:0:
448,192,274762,128,8,274938:2:0:0:0:
320,192,274762,1,8,2:0:0:0:
64,192,274938,128,8,275115:2:0:0:0:
192,192,274938,1,8,2:0:0:0:
448,192,275115,128,8,275291:2:0:0:0:
320,192,275115,1,8,2:0:0:0:
64,192,275291,128,8,275468:2:0:0:0:
192,192,275291,1,8,2:0:0:0:
448,192,275468,128,8,275644:2:0:0:0:
320,192,275468,1,8,2:0:0:0:
64,192,275644,1,8,2:0:0:0:
192,192,275644,1,8,2:0:0:0:
320,192,275821,1,8,2:0:0:0:
448,192,275909,1,8,2:0:0:0:
320,192,275997,1,8,2:0:0:0:
192,192,276174,1,8,2:0:0:0:
320,192,276262,1,8,2:0:0:0:
192,192,276350,1,8,2:0:0:0:
64,192,276527,1,8,2:0:0:0:
192,192,276527,1,8,2:0:0:0:
192,192,276703,1,8,2:0:0:0:
448,192,276703,1,8,2:0:0:0:
320,192,276880,1,8,2:0:0:0:
64,192,276880,1,8,2:0:0:0:
192,192,277056,1,8,2:0:0:0:
320,192,277056,1,8,2:0:0:0:
64,192,277232,1,8,2:0:0:0:
320,192,277232,1,8,2:0:0:0:
192,192,277409,1,8,2:0:0:0:
320,192,277409,1,8,2:0:0:0:
320,192,277585,1,8,2:0:0:0:
448,192,277585,1,8,2:0:0:0:
64,192,277762,1,8,2:0:0:0:
192,192,277762,1,8,2:0:0:0:
192,192,277938,1,8,2:0:0:0:
448,192,277938,1,8,2:0:0:0:
320,192,278115,1,8,2:0:0:0:
192,192,278115,1,8,2:0:0:0:
64,192,278291,1,8,2:0:0:0:
320,192,278291,1,8,2:0:0:0:
192,192,278468,1,8,2:0:0:0:
320,192,278468,1,8,2:0:0:0:
64,192,278644,1,8,2:0:0:0:
192,192,278732,1,8,2:0:0:0:
320,192,278821,1,8,2:0:0:0:
448,192,278997,1,8,2:0:0:0:
320,192,279085,1,8,2:0:0:0:
192,192,279174,1,8,2:0:0:0:
64,192,279350,1,8,2:0:0:0:
320,192,279350,1,8,2:0:0:0:
192,192,279527,1,8,2:0:0:0:
320,192,279527,1,8,2:0:0:0:
64,192,279703,1,8,2:0:0:0:
448,192,279703,1,8,2:0:0:0:
320,192,279880,1,8,2:0:0:0:
192,192,279968,1,8,2:0:0:0:
320,192,280056,1,8,2:0:0:0:
64,192,280232,1,8,2:0:0:0:
192,192,280321,1,8,2:0:0:0:
64,192,280409,1,8,2:0:0:0:
448,192,280585,1,8,2:0:0:0:
320,192,280674,1,8,2:0:0:0:
448,192,280762,1,8,2:0:0:0:
192,192,280938,1,8,2:0:0:0:
320,192,280938,1,8,2:0:0:0:
64,192,281115,1,8,2:0:0:0:
192,192,281115,1,8,2:0:0:0:
192,192,281291,1,8,2:0:0:0:
448,192,281291,1,8,2:0:0:0:
64,192,281468,1,8,2:0:0:0:
192,192,281556,1,8,2:0:0:0:
320,192,281644,1,8,2:0:0:0:
192,192,281821,1,8,2:0:0:0:
320,192,281909,1,8,2:0:0:0:
448,192,281997,1,8,2:0:0:0:
64,192,282174,1,8,2:0:0:0:
192,192,282174,1,8,2:0:0:0:
64,192,282350,1,8,2:0:0:0:
192,192,282350,1,8,2:0:0:0:
64,192,282527,1,8,2:0:0:0:
192,192,282527,1,8,2:0:0:0:
64,192,282703,1,8,2:0:0:0:
192,192,282703,1,8,2:0:0:0:
320,192,282703,1,8,2:0:0:0:
192,192,282880,1,8,2:0:0:0:
320,192,282880,1,8,2:0:0:0:
192,192,283056,1,8,2:0:0:0:
320,192,283056,1,8,2:0:0:0:
192,192,283232,1,8,2:0:0:0:
320,192,283232,1,8,2:0:0:0:
192,192,283409,1,8,2:0:0:0:
320,192,283409,1,8,2:0:0:0:
192,192,283585,1,8,2:0:0:0:
320,192,283585,1,8,2:0:0:0:
192,192,283762,1,8,2:0:0:0:
320,192,283762,1,8,2:0:0:0:
192,192,283938,1,8,2:0:0:0:
320,192,284027,1,8,2:0:0:0:
448,192,284115,1,8,2:0:0:0:
64,192,284115,1,8,2:0:0:0:
192,192,284291,1,8,2:0:0:0:
448,192,284291,1,8,2:0:0:0:
64,192,284468,1,8,2:0:0:0:
192,192,284468,1,8,2:0:0:0:
320,192,284644,1,8,2:0:0:0:
192,192,284732,1,8,2:0:0:0:
64,192,284821,1,8,2:0:0:0:
320,192,284821,1,8,2:0:0:0:
448,192,284821,1,8,2:0:0:0:
192,192,284997,1,8,2:0:0:0:
320,192,284997,1,8,2:0:0:0:
64,192,285174,1,8,2:0:0:0:
320,192,285174,1,8,2:0:0:0:
192,192,285350,1,8,2:0:0:0:
448,192,285350,1,8,2:0:0:0:
192,192,285527,1,8,2:0:0:0:
320,192,285527,1,8,2:0:0:0:
64,192,285703,128,8,285880:2:0:0:0:
192,192,285703,1,8,2:0:0:0:
192,192,285880,128,8,286056:2:0:0:0:
320,192,285880,1,8,2:0:0:0:
320,192,286056,128,8,286232:2:0:0:0:
64,192,286056,1,8,2:0:0:0:
448,192,286232,128,8,286409:2:0:0:0:
192,192,286232,1,8,2:0:0:0:
320,192,286409,128,8,286585:2:0:0:0:
192,192,286409,1,8,2:0:0:0:
192,192,286585,128,8,286762:2:0:0:0:
64,192,286585,1,8,2:0:0:0:
64,192,286762,128,8,286938:2:0:0:0:
320,192,286762,1,8,2:0:0:0:
192,192,286938,1,8,2:0:0:0:
448,192,286938,1,8,2:0:0:0:
192,192,287115,1,8,2:0:0:0:
320,192,287203,1,8,2:0:0:0:
448,192,287291,1,8,2:0:0:0:
320,192,287468,1,8,2:0:0:0:
192,192,287556,1,8,2:0:0:0:
64,192,287644,1,8,2:0:0:0:
320,192,287821,1,8,2:0:0:0:
448,192,287821,1,8,2:0:0:0:
64,192,287997,1,8,2:0:0:0:
192,192,287997,1,8,2:0:0:0:
320,192,288174,1,8,2:0:0:0:
448,192,288174,1,8,2:0:0:0:
192,192,288350,1,8,2:0:0:0:
64,192,288350,1,8,2:0:0:0:
64,192,288527,1,8,2:0:0:0:
192,192,288527,1,8,2:0:0:0:
64,192,288703,1,8,2:0:0:0:
192,192,288703,1,8,2:0:0:0:
64,192,288880,1,8,2:0:0:0:
192,192,288880,1,8,2:0:0:0:
64,192,289056,1,8,2:0:0:0:
192,192,289056,1,8,2:0:0:0:
320,192,289232,1,8,2:0:0:0:
448,192,289232,1,8,2:0:0:0:
192,192,289409,1,8,2:0:0:0:
448,192,289409,1,8,2:0:0:0:
64,192,289585,1,8,2:0:0:0:
320,192,289585,1,8,2:0:0:0:
192,192,289762,1,8,2:0:0:0:
320,192,289762,1,8,2:0:0:0:
448,192,289938,1,8,2:0:0:0:
320,192,290027,1,8,2:0:0:0:
192,192,290115,1,8,2:0:0:0:
64,192,290291,1,8,2:0:0:0:
192,192,290380,1,8,2:0:0:0:
320,192,290468,1,8,2:0:0:0:
192,192,290644,1,8,2:0:0:0:
448,192,290644,1,8,2:0:0:0:
320,192,290821,1,8,2:0:0:0:
448,192,290821,1,8,2:0:0:0:
64,192,290997,1,8,2:0:0:0:
448,192,290997,1,8,2:0:0:0:
192,192,291174,1,8,2:0:0:0:
320,192,291174,1,8,2:0:0:0:
64,192,291350,1,8,2:0:0:0:
192,192,291438,1,8,2:0:0:0:
320,192,291527,1,8,2:0:0:0:
64,192,291527,1,8,2:0:0:0:
64,192,291703,1,8,2:0:0:0:
192,192,291791,1,8,2:0:0:0:
320,192,291880,1,8,2:0:0:0:
64,192,291880,1,8,2:0:0:0:
320,192,292056,1,8,2:0:0:0:
448,192,292056,1,8,2:0:0:0:
192,192,292232,1,8,2:0:0:0:
320,192,292232,1,8,2:0:0:0:
64,192,292409,1,8,2:0:0:0:
192,192,292409,1,8,2:0:0:0:
64,192,292585,1,8,2:0:0:0:
192,192,292585,1,8,2:0:0:0:
192,192,292703,1,8,2:0:0:0:
320,192,292703,1,8,2:0:0:0:
320,192,292821,1,8,2:0:0:0:
448,192,292821,1,8,2:0:0:0:
320,192,292938,1,8,2:0:0:0:
192,192,292938,1,8,2:0:0:0:
64,192,293056,1,8,2:0:0:0:
192,192,293056,1,8,2:0:0:0:
192,192,293174,1,8,2:0:0:0:
320,192,293174,1,8,2:0:0:0:
320,192,293291,1,8,2:0:0:0:
448,192,293291,1,8,2:0:0:0:
192,192,293409,1,8,2:0:0:0:
320,192,293409,1,8,2:0:0:0:
64,192,293527,1,8,2:0:0:0:
192,192,293527,1,8,2:0:0:0:
192,192,293644,1,8,2:0:0:0:
320,192,293644,1,8,2:0:0:0:
64,192,293762,1,8,2:0:0:0:
448,192,293762,1,8,2:0:0:0:
192,192,293880,1,8,2:0:0:0:
320,192,293880,1,8,2:0:0:0:
64,192,293997,1,8,2:0:0:0:
448,192,293997,1,8,2:0:0:0:
192,192,294115,1,8,2:0:0:0:
320,192,294115,1,8,2:0:0:0:
320,192,294232,1,8,2:0:0:0:
448,192,294232,1,8,2:0:0:0:
64,192,294350,1,8,2:0:0:0:
192,192,294350,1,8,2:0:0:0:
320,192,294468,1,8,2:0:0:0:
448,192,294468,1,8,2:0:0:0:
192,192,294585,1,8,2:0:0:0:
64,192,294585,1,8,2:0:0:0:
192,192,294703,1,8,2:0:0:0:
448,192,294703,1,8,2:0:0:0:
64,192,294821,1,8,2:0:0:0:
320,192,294821,1,8,2:0:0:0:
192,192,294938,1,8,2:0:0:0:
448,192,294938,1,8,2:0:0:0:
320,192,295056,1,8,2:0:0:0:
64,192,295056,1,8,2:0:0:0:
192,192,295174,1,8,2:0:0:0:
448,192,295174,1,8,2:0:0:0:
64,192,295291,1,8,2:0:0:0:
320,192,295291,1,8,2:0:0:0:
192,192,295409,1,8,2:0:0:0:
448,192,295409,1,8,2:0:0:0:
192,192,295585,1,8,2:0:0:0:
320,192,295674,1,8,2:0:0:0:
448,192,295762,1,8,2:0:0:0:
320,192,295938,1,8,2:0:0:0:
192,192,296027,1,8,2:0:0:0:
64,192,296115,1,8,2:0:0:0:
192,192,296291,1,8,2:0:0:0:
320,192,296291,1,8,2:0:0:0:
320,192,296468,1,8,2:0:0:0:
448,192,296468,1,8,2:0:0:0:
64,192,296644,1,8,2:0:0:0:
320,192,296644,1,8,2:0:0:0:
192,192,296821,1,8,2:0:0:0:
448,192,296821,1,8,2:0:0:0:
64,192,296997,1,8,2:0:0:0:
192,192,296997,1,8,2:0:0:0:
64,192,297174,1,8,2:0:0:0:
192,192,297174,1,8,2:0:0:0:
64,192,297350,1,8,2:0:0:0:
192,192,297350,1,8,2:0:0:0:
64,192,297527,1,8,2:0:0:0:
192,192,297615,1,8,2:0:0:0:
320,192,297703,1,8,2:0:0:0:
192,192,297791,1,8,2:0:0:0:
320,192,297880,1,8,2:0:0:0:
192,192,297968,1,8,2:0:0:0:
320,192,298056,1,8,2:0:0:0:
192,192,298144,1,8,2:0:0:0:
320,192,298232,1,8,2:0:0:0:
320,192,309527,132,8,310938:2:0:0:0:
448,192,309527,1,8,2:0:0:0:
64,192,310938,128,8,312350:2:0:0:0:
192,192,310938,1,8,2:0:0:0:
192,192,312350,128,8,313409:2:0:0:0:
320,192,312350,1,8,2:0:0:0:
64,192,313409,1,8,2:0:0:0:
320,192,313409,128,8,313762:2:0:0:0:
64,192,313762,128,8,314291:2:0:0:0:
448,192,313762,1,8,2:0:0:0:
320,192,314291,128,8,314821:2:0:0:0:
192,192,314291,1,8,2:0:0:0:
192,192,314821,128,8,315174:2:0:0:0:
448,192,314821,1,8,2:0:0:0:
320,192,315174,128,8,316585:2:0:0:0:
64,192,315174,1,8,2:0:0:0:
192,192,316585,128,8,317997:2:0:0:0:
448,192,316585,1,8,2:0:0:0:
64,192,317997,1,8,2:0:0:0:
320,192,317997,128,8,319056:2:0:0:0:
448,192,319056,128,8,319409:2:0:0:0:
192,192,319056,1,8,2:0:0:0:
192,192,319409,128,8,320115:2:0:0:0:
64,192,319409,1,8,2:0:0:0:
320,192,319409,1,8,2:0:0:0:
320,192,319762,1,8,2:0:0:0:
448,192,319762,1,8,2:0:0:0:
64,192,320115,1,8,2:0:0:0:
320,192,320115,1,8,2:0:0:0:
192,192,320468,1,8,2:0:0:0:
448,192,320468,1,8,2:0:0:0:
64,192,320821,1,8,2:0:0:0:
192,192,320909,1,8,2:0:0:0:
448,192,320997,1,8,2:0:0:0:
320,192,321085,1,8,2:0:0:0:
64,192,321174,1,8,2:0:0:0:
192,192,321262,1,8,2:0:0:0:
448,192,321350,1,8,2:0:0:0:
320,192,321438,1,8,2:0:0:0:
64,192,321527,1,8,2:0:0:0:
192,192,321615,1,8,2:0:0:0:
448,192,321703,1,8,2:0:0:0:
320,192,321791,1,8,2:0:0:0:
64,192,321880,1,8,2:0:0:0:
192,192,321968,1,8,2:0:0:0:
448,192,322056,1,8,2:0:0:0:
320,192,322144,1,8,2:0:0:0:
192,192,322232,1,8,2:0:0:0:
64,192,322321,1,8,2:0:0:0:
320,192,322409,1,8,2:0:0:0:
448,192,322497,1,8,2:0:0:0:
192,192,322585,1,8,2:0:0:0:
64,192,322674,1,8,2:0:0:0:
320,192,322762,1,8,2:0:0:0:
448,192,322850,1,8,2:0:0:0:
192,192,322938,1,8,2:0:0:0:
64,192,323027,1,8,2:0:0:0:
320,192,323115,1,8,2:0:0:0:
448,192,323203,1,8,2:0:0:0:
192,192,323291,1,8,2:0:0:0:
64,192,323380,1,8,2:0:0:0:
320,192,323468,1,8,2:0:0:0:
448,192,323556,1,8,2:0:0:0:
64,192,323644,1,8,2:0:0:0:
192,192,323732,1,8,2:0:0:0:
448,192,323821,1,8,2:0:0:0:
320,192,323909,1,8,2:0:0:0:
64,192,323997,1,8,2:0:0:0:
192,192,324085,1,8,2:0:0:0:
448,192,324174,1,8,2:0:0:0:
320,192,324262,1,8,2:0:0:0:
64,192,324350,1,8,2:0:0:0:
192,192,324438,1,8,2:0:0:0:
448,192,324527,1,8,2:0:0:0:
320,192,324615,1,8,2:0:0:0:
64,192,324703,1,8,2:0:0:0:
192,192,324791,1,8,2:0:0:0:
448,192,324880,1,8,2:0:0:0:
320,192,324968,1,8,2:0:0:0:
192,192,325056,1,8,2:0:0:0:
64,192,325144,1,8,2:0:0:0:
320,192,325232,1,8,2:0:0:0:
448,192,325321,1,8,2:0:0:0:
192,192,325409,1,8,2:0:0:0:
64,192,325497,1,8,2:0:0:0:
320,192,325585,1,8,2:0:0:0:
448,192,325674,1,8,2:0:0:0:
192,192,325762,1,8,2:0:0:0:
64,192,325850,1,8,2:0:0:0:
320,192,325938,1,8,2:0:0:0:
448,192,326027,1,8,2:0:0:0:
192,192,326115,1,8,2:0:0:0:
64,192,326203,1,8,2:0:0:0:
320,192,326291,1,8,2:0:0:0:
448,192,326380,1,8,2:0:0:0:
64,192,326468,1,8,2:0:0:0:
192,192,326556,1,8,2:0:0:0:
448,192,326644,1,8,2:0:0:0:
320,192,326732,1,8,2:0:0:0:
64,192,326821,1,8,2:0:0:0:
192,192,326909,1,8,2:0:0:0:
448,192,326997,1,8,2:0:0:0:
320,192,327085,1,8,2:0:0:0:
64,192,327174,1,8,2:0:0:0:
192,192,327262,1,8,2:0:0:0:
448,192,327350,1,8,2:0:0:0:
320,192,327438,1,8,2:0:0:0:
64,192,327527,1,8,2:0:0:0:
192,192,327615,1,8,2:0:0:0:
448,192,327703,1,8,2:0:0:0:
320,192,327791,1,8,2:0:0:0:
64,192,327880,1,8,2:0:0:0:
192,192,327968,1,8,2:0:0:0:
320,192,328056,1,8,2:0:0:0:
448,192,328144,1,8,2:0:0:0:
64,192,328232,1,8,2:0:0:0:
192,192,328321,1,8,2:0:0:0:
320,192,328409,1,8,2:0:0:0:
448,192,328497,1,8,2:0:0:0:
64,192,328585,1,8,2:0:0:0:
192,192,328674,1,8,2:0:0:0:
320,192,328762,1,8,2:0:0:0:
448,192,328850,1,8,2:0:0:0:
64,192,328938,1,8,2:0:0:0:
192,192,329027,1,8,2:0:0:0:
320,192,329115,1,8,2:0:0:0:
448,192,329203,1,8,2:0:0:0:
64,192,329291,1,8,2:0:0:0:
192,192,329380,1,8,2:0:0:0:
320,192,329468,1,8,2:0:0:0:
192,192,329556,1,8,2:0:0:0:
448,192,329644,1,8,2:0:0:0:
320,192,329732,1,8,2:0:0:0:
192,192,329821,1,8,2:0:0:0:
320,192,329909,1,8,2:0:0:0:
64,192,329997,1,8,2:0:0:0:
192,192,330085,1,8,2:0:0:0:
320,192,330174,1,8,2:0:0:0:
192,192,330262,1,8,2:0:0:0:
448,192,330350,1,8,2:0:0:0:
320,192,330438,1,8,2:0:0:0:
192,192,330527,1,8,2:0:0:0:
320,192,330615,1,8,2:0:0:0:
192,192,330703,1,8,2:0:0:0:
320,192,330791,1,8,2:0:0:0:
192,192,330880,1,8,2:0:0:0:
320,192,330968,1,8,2:0:0:0:
192,192,331056,1,8,2:0:0:0:
320,192,331144,1,8,2:0:0:0:
192,192,331232,1,8,2:0:0:0:
320,192,331321,1,8,2:0:0:0:
192,192,331409,1,8,2:0:0:0:
320,192,331497,1,8,2:0:0:0:
192,192,331585,1,8,2:0:0:0:
320,192,331674,1,8,2:0:0:0:
192,192,331762,1,8,2:0:0:0:
320,192,331850,1,8,2:0:0:0:
192,192,331938,1,8,2:0:0:0:
320,192,332027,1,8,2:0:0:0:
192,192,332115,1,8,2:0:0:0:
448,192,332115,1,8,2:0:0:0:
320,192,332203,1,8,2:0:0:0:
448,192,332291,1,8,2:0:0:0:
320,192,332380,1,8,2:0:0:0:
448,192,332468,1,8,2:0:0:0:
64,192,332821,1,8,2:0:0:0:
320,192,332821,1,8,2:0:0:0:
192,192,332909,1,8,2:0:0:0:
64,192,332997,1,8,2:0:0:0:
192,192,333085,1,8,2:0:0:0:
64,192,333174,1,8,2:0:0:0:
192,192,333527,128,8,333880:2:0:0:0:
320,192,333527,1,8,2:0:0:0:
448,192,333527,1,8,2:0:0:0:
64,192,333703,1,8,2:0:0:0:
320,192,333703,1,8,2:0:0:0:
448,192,333880,1,8,2:0:0:0:
64,192,334056,1,8,2:0:0:0:
192,192,334056,1,8,2:0:0:0:
320,192,334232,1,8,2:0:0:0:
192,192,334232,1,8,2:0:0:0:
64,192,334409,1,8,2:0:0:0:
448,192,334409,1,8,2:0:0:0:
192,192,334585,1,8,2:0:0:0:
448,192,334585,1,8,2:0:0:0:
320,192,334762,1,8,2:0:0:0:
448,192,334762,1,8,2:0:0:0:
64,192,334938,1,8,2:0:0:0:
192,192,334938,1,8,2:0:0:0:
320,192,334938,1,8,2:0:0:0:
448,192,335115,1,8,2:0:0:0:
192,192,335115,1,8,2:0:0:0:
64,192,335115,1,8,2:0:0:0:
64,192,335291,1,8,2:0:0:0:
192,192,335291,1,8,2:0:0:0:
320,192,335291,1,8,2:0:0:0:
448,192,335468,1,8,2:0:0:0:
192,192,335468,1,8,2:0:0:0:
64,192,335468,1,8,2:0:0:0:
64,192,335644,1,8,2:0:0:0:
192,192,335644,1,8,2:0:0:0:
320,192,335644,1,8,2:0:0:0:
64,192,335821,1,8,2:0:0:0:
192,192,335821,1,8,2:0:0:0:
448,192,335821,1,8,2:0:0:0:
64,192,335997,1,8,2:0:0:0:
320,192,335997,1,8,2:0:0:0:
448,192,335997,1,8,2:0:0:0:
192,192,336174,1,8,2:0:0:0:
320,192,336174,1,8,2:0:0:0:
448,192,336174,1,8,2:0:0:0:
64,192,336350,1,8,2:0:0:0:
192,192,336350,1,8,2:0:0:0:
320,192,336350,1,8,2:0:0:0:
64,192,336527,1,8,2:0:0:0:
192,192,336527,1,8,2:0:0:0:
320,192,336527,1,8,2:0:0:0:
64,192,336703,1,8,2:0:0:0:
192,192,336703,1,8,2:0:0:0:
448,192,336703,1,8,2:0:0:0:
64,192,336880,1,8,2:0:0:0:
320,192,336880,1,8,2:0:0:0:
448,192,336880,1,8,2:0:0:0:
64,192,337056,1,8,2:0:0:0:
192,192,337056,1,8,2:0:0:0:
320,192,337056,1,8,2:0:0:0:
64,192,337232,1,8,2:0:0:0:
192,192,337232,1,8,2:0:0:0:
448,192,337232,1,8,2:0:0:0:
64,192,337409,1,8,2:0:0:0:
192,192,337409,1,8,2:0:0:0:
320,192,337409,1,8,2:0:0:0:
64,192,337585,1,8,2:0:0:0:
192,192,337585,1,8,2:0:0:0:
448,192,337585,1,8,2:0:0:0:
192,192,337762,1,8,2:0:0:0:
64,192,337762,128,8,338115:2:0:0:0:
448,192,337938,1,8,2:0:0:0:
320,192,338027,1,8,2:0:0:0:
192,192,338115,1,8,2:0:0:0:
192,192,338291,1,8,2:0:0:0:
320,192,338291,1,8,2:0:0:0:
320,192,338468,1,8,2:0:0:0:
448,192,338468,128,8,338821:2:0:0:0:
64,192,338644,1,8,2:0:0:0:
192,192,338732,1,8,2:0:0:0:
320,192,338821,1,8,2:0:0:0:
64,192,338997,1,8,2:0:0:0:
192,192,338997,1,8,2:0:0:0:
320,192,338997,1,8,2:0:0:0:
64,192,339174,1,8,2:0:0:0:
192,192,339174,1,8,2:0:0:0:
448,192,339174,1,8,2:0:0:0:
64,192,339350,1,8,2:0:0:0:
320,192,339350,1,8,2:0:0:0:
448,192,339350,1,8,2:0:0:0:
192,192,339527,1,8,2:0:0:0:
320,192,339527,1,8,2:0:0:0:
448,192,339527,1,8,2:0:0:0:
64,192,339703,1,8,2:0:0:0:
192,192,339703,1,8,2:0:0:0:
320,192,339703,1,8,2:0:0:0:
64,192,339880,1,8,2:0:0:0:
192,192,339880,1,8,2:0:0:0:
320,192,339880,1,8,2:0:0:0:
64,192,340056,1,8,2:0:0:0:
192,192,340056,1,8,2:0:0:0:
448,192,340056,1,8,2:0:0:0:
64,192,340232,1,8,2:0:0:0:
192,192,340232,1,8,2:0:0:0:
320,192,340232,1,8,2:0:0:0:
64,192,340409,1,8,2:0:0:0:
192,192,340409,1,8,2:0:0:0:
448,192,340409,1,8,2:0:0:0:
192,192,340585,1,8,2:0:0:0:
448,192,340585,1,8,2:0:0:0:
320,192,340585,128,8,341115:2:0:0:0:
192,192,340762,1,8,2:0:0:0:
448,192,340938,1,8,2:0:0:0:
64,192,341115,128,8,341291:2:0:0:0:
192,192,341115,1,8,2:0:0:0:
192,192,341291,128,8,341997:2:0:0:0:
320,192,341644,1,8,2:0:0:0:
448,192,341644,1,8,2:0:0:0:
320,192,341997,1,8,2:0:0:0:
448,192,341997,128,8,342527:2:0:0:0:
64,192,341997,1,8,2:0:0:0:
192,192,342174,1,8,2:0:0:0:
64,192,342350,1,8,2:0:0:0:
192,192,342527,128,8,342703:2:0:0:0:
320,192,342527,1,8,2:0:0:0:
448,192,342703,1,8,2:0:0:0:
64,192,342880,1,8,2:0:0:0:
192,192,342880,1,8,2:0:0:0:
320,192,342968,1,8,2:0:0:0:
448,192,342968,1,8,2:0:0:0:
192,192,343056,1,8,2:0:0:0:
64,192,343056,128,8,343409:2:0:0:0:
320,192,343409,128,8,343585:2:0:0:0:
64,192,343585,1,8,2:0:0:0:
192,192,343585,1,8,2:0:0:0:
320,192,343674,1,8,2:0:0:0:
448,192,343674,1,8,2:0:0:0:
64,192,343762,1,8,2:0:0:0:
192,192,343762,128,8,344115:2:0:0:0:
448,192,344115,1,8,2:0:0:0:
320,192,344115,128,8,344291:2:0:0:0:
192,192,344291,1,8,2:0:0:0:
64,192,344291,1,8,2:0:0:0:
320,192,344380,1,8,2:0:0:0:
448,192,344380,1,8,2:0:0:0:
192,192,344468,1,8,2:0:0:0:
64,192,344468,1,8,2:0:0:0:
64,192,344644,1,8,2:0:0:0:
192,192,344644,1,8,2:0:0:0:
320,192,344644,1,8,2:0:0:0:
64,192,344821,1,8,2:0:0:0:
192,192,344821,1,8,2:0:0:0:
448,192,344821,1,8,2:0:0:0:
320,192,344997,1,8,2:0:0:0:
448,192,344997,1,8,2:0:0:0:
64,192,344997,1,8,2:0:0:0:
64,192,345174,1,8,2:0:0:0:
192,192,345174,1,8,2:0:0:0:
320,192,345174,1,8,2:0:0:0:
64,192,345350,1,8,2:0:0:0:
192,192,345350,1,8,2:0:0:0:
448,192,345350,1,8,2:0:0:0:
64,192,345527,1,8,2:0:0:0:
320,192,345527,1,8,2:0:0:0:
448,192,345527,1,8,2:0:0:0:
192,192,345703,1,8,2:0:0:0:
320,192,345703,1,8,2:0:0:0:
448,192,345703,1,8,2:0:0:0:
64,192,345880,1,8,2:0:0:0:
320,192,345880,1,8,2:0:0:0:
448,192,345880,1,8,2:0:0:0:
64,192,346056,1,8,2:0:0:0:
192,192,346056,1,8,2:0:0:0:
448,192,346056,1,8,2:0:0:0:
192,192,346232,1,8,2:0:0:0:
448,192,346232,1,8,2:0:0:0:
320,192,346232,1,8,2:0:0:0:
64,192,346409,1,8,2:0:0:0:
320,192,346409,1,8,2:0:0:0:
448,192,346409,1,8,2:0:0:0:
192,192,346585,1,8,2:0:0:0:
320,192,346585,1,8,2:0:0:0:
448,192,346585,1,8,2:0:0:0:
64,192,346762,1,8,2:0:0:0:
320,192,346762,1,8,2:0:0:0:
448,192,346762,1,8,2:0:0:0:
192,192,346938,1,8,2:0:0:0:
320,192,346938,1,8,2:0:0:0:
448,192,346938,1,8,2:0:0:0:
64,192,347115,1,8,2:0:0:0:
320,192,347115,1,8,2:0:0:0:
448,192,347115,1,8,2:0:0:0:
64,192,347291,1,8,2:0:0:0:
192,192,347291,1,8,2:0:0:0:
448,192,347291,1,8,2:0:0:0:
64,192,347468,1,8,2:0:0:0:
192,192,347468,1,8,2:0:0:0:
320,192,347468,1,8,2:0:0:0:
192,192,347644,1,8,2:0:0:0:
448,192,347644,1,8,2:0:0:0:
320,192,347644,1,8,2:0:0:0:
320,192,347821,1,8,2:0:0:0:
448,192,347821,1,8,2:0:0:0:
192,192,347821,1,8,2:0:0:0:
64,192,347997,1,8,2:0:0:0:
320,192,347997,1,8,2:0:0:0:
448,192,347997,1,8,2:0:0:0:
64,192,348174,1,8,2:0:0:0:
192,192,348174,1,8,2:0:0:0:
448,192,348174,1,8,2:0:0:0:
192,192,348350,1,8,2:0:0:0:
320,192,348350,1,8,2:0:0:0:
448,192,348350,1,8,2:0:0:0:
64,192,348527,1,8,2:0:0:0:
320,192,348527,1,8,2:0:0:0:
448,192,348527,1,8,2:0:0:0:
192,192,348703,1,8,2:0:0:0:
320,192,348703,1,8,2:0:0:0:
448,192,348703,1,8,2:0:0:0:
64,192,348880,1,8,2:0:0:0:
320,192,348880,1,8,2:0:0:0:
448,192,348880,1,8,2:0:0:0:
448,192,349056,128,8,349409:2:0:0:0:
320,192,349056,1,8,2:0:0:0:
320,192,349232,1,8,2:0:0:0:
192,192,349321,1,8,2:0:0:0:
64,192,349409,1,8,2:0:0:0:
192,192,349585,1,8,2:0:0:0:
320,192,349585,1,8,2:0:0:0:
64,192,349762,128,8,350115:2:0:0:0:
192,192,349762,1,8,2:0:0:0:
192,192,349938,1,8,2:0:0:0:
320,192,350027,1,8,2:0:0:0:
448,192,350115,1,8,2:0:0:0:
192,192,350291,1,8,2:0:0:0:
320,192,350291,1,8,2:0:0:0:
448,192,350291,1,8,2:0:0:0:
64,192,350468,1,8,2:0:0:0:
320,192,350468,1,8,2:0:0:0:
448,192,350468,1,8,2:0:0:0:
64,192,350644,1,8,2:0:0:0:
192,192,350644,1,8,2:0:0:0:
448,192,350644,1,8,2:0:0:0:
64,192,350821,1,8,2:0:0:0:
192,192,350821,1,8,2:0:0:0:
320,192,350821,1,8,2:0:0:0:
192,192,350997,1,8,2:0:0:0:
320,192,350997,1,8,2:0:0:0:
448,192,350997,1,8,2:0:0:0:
192,192,351174,1,8,2:0:0:0:
320,192,351174,1,8,2:0:0:0:
448,192,351174,1,8,2:0:0:0:
64,192,351350,1,8,2:0:0:0:
320,192,351350,1,8,2:0:0:0:
448,192,351350,1,8,2:0:0:0:
192,192,351527,1,8,2:0:0:0:
320,192,351527,1,8,2:0:0:0:
448,192,351527,1,8,2:0:0:0:
64,192,351703,1,8,2:0:0:0:
320,192,351703,1,8,2:0:0:0:
448,192,351703,1,8,2:0:0:0:
64,192,351880,128,8,352409:2:0:0:0:
192,192,351880,1,8,2:0:0:0:
320,192,351880,1,8,2:0:0:0:
192,192,352056,1,8,2:0:0:0:
448,192,352232,1,8,2:0:0:0:
320,192,352409,128,8,352585:2:0:0:0:
192,192,352409,1,8,2:0:0:0:
448,192,352585,1,8,2:0:0:0:
192,192,352585,128,8,353291:2:0:0:0:
64,192,352938,1,8,2:0:0:0:
320,192,352938,1,8,2:0:0:0:
64,192,353291,128,8,353821:2:0:0:0:
320,192,353291,1,8,2:0:0:0:
192,192,353468,1,8,2:0:0:0:
448,192,353644,1,8,2:0:0:0:
320,192,353821,128,8,353997:2:0:0:0:
192,192,353821,1,8,2:0:0:0:
448,192,353997,1,8,2:0:0:0:
192,192,353997,128,8,354174:2:0:0:0:
320,192,354174,1,8,2:0:0:0:
448,192,354174,1,8,2:0:0:0:
64,192,354262,1,8,2:0:0:0:
192,192,354262,1,8,2:0:0:0:
448,192,354350,1,8,2:0:0:0:
320,192,354350,128,8,354703:2:0:0:0:
64,192,354703,128,8,354880:2:0:0:0:
192,192,354703,1,8,2:0:0:0:
320,192,354880,1,8,2:0:0:0:
448,192,354880,1,8,2:0:0:0:
64,192,354968,1,8,2:0:0:0:
192,192,354968,1,8,2:0:0:0:
320,192,355056,1,8,2:0:0:0:
448,192,355056,1,8,2:0:0:0:
192,192,355232,1,8,2:0:0:0:
320,192,355232,1,8,2:0:0:0:
64,192,355409,128,8,355585:2:0:0:0:
320,192,355409,1,8,2:0:0:0:
320,192,355585,1,8,2:0:0:0:
448,192,355585,1,8,2:0:0:0:
64,192,355674,1,8,2:0:0:0:
192,192,355674,1,8,2:0:0:0:
320,192,355762,1,8,2:0:0:0:
448,192,355762,1,8,2:0:0:0:
64,192,355938,1,8,2:0:0:0:
192,192,355938,1,8,2:0:0:0:
320,192,355938,1,8,2:0:0:0:
64,192,356115,1,8,2:0:0:0:
192,192,356115,1,8,2:0:0:0:
448,192,356115,1,8,2:0:0:0:
64,192,356291,1,8,2:0:0:0:
320,192,356291,1,8,2:0:0:0:
448,192,356291,1,8,2:0:0:0:
192,192,356468,1,8,2:0:0:0:
320,192,356468,1,8,2:0:0:0:
448,192,356468,1,8,2:0:0:0:
64,192,356644,1,8,2:0:0:0:
320,192,356644,1,8,2:0:0:0:
448,192,356644,1,8,2:0:0:0:
64,192,356821,1,8,2:0:0:0:
192,192,356821,1,8,2:0:0:0:
448,192,356821,1,8,2:0:0:0:
64,192,356997,1,8,2:0:0:0:
320,192,356997,1,8,2:0:0:0:
448,192,356997,1,8,2:0:0:0:
64,192,357174,1,8,2:0:0:0:
192,192,357174,1,8,2:0:0:0:
448,192,357174,1,8,2:0:0:0:
64,192,357350,1,8,2:0:0:0:
320,192,357350,1,8,2:0:0:0:
448,192,357350,1,8,2:0:0:0:
64,192,357527,1,8,2:0:0:0:
192,192,357527,1,8,2:0:0:0:
448,192,357527,1,8,2:0:0:0:
192,192,357703,1,8,2:0:0:0:
320,192,357703,1,8,2:0:0:0:
448,192,357703,1,8,2:0:0:0:
320,192,357880,1,8,2:0:0:0:
192,192,357880,1,8,2:0:0:0:
64,192,357880,1,8,2:0:0:0:
192,192,358056,1,8,2:0:0:0:
320,192,358056,1,8,2:0:0:0:
448,192,358056,1,8,2:0:0:0:
320,192,358232,1,8,2:0:0:0:
192,192,358232,1,8,2:0:0:0:
64,192,358232,1,8,2:0:0:0:
192,192,358409,1,8,2:0:0:0:
320,192,358409,1,8,2:0:0:0:
448,192,358409,1,8,2:0:0:0:
320,192,358585,1,8,2:0:0:0:
192,192,358585,1,8,2:0:0:0:
448,192,358585,1,8,2:0:0:0:
64,192,358762,1,8,2:0:0:0:
192,192,358762,1,8,2:0:0:0:
320,192,358762,1,8,2:0:0:0:
192,192,358938,1,8,2:0:0:0:
320,192,358938,1,8,2:0:0:0:
448,192,358938,1,8,2:0:0:0:
64,192,359115,1,8,2:0:0:0:
192,192,359115,1,8,2:0:0:0:
320,192,359115,1,8,2:0:0:0:
192,192,359291,1,8,2:0:0:0:
320,192,359291,1,8,2:0:0:0:
448,192,359291,1,8,2:0:0:0:
192,192,359468,1,8,2:0:0:0:
320,192,359468,1,8,2:0:0:0:
448,192,359468,1,8,2:0:0:0:
192,192,359644,1,8,2:0:0:0:
320,192,359644,1,8,2:0:0:0:
448,192,359644,1,8,2:0:0:0:
64,192,359821,1,8,2:0:0:0:
320,192,359821,1,8,2:0:0:0:
448,192,359821,1,8,2:0:0:0:
64,192,359997,1,8,2:0:0:0:
192,192,359997,1,8,2:0:0:0:
448,192,359997,1,8,2:0:0:0:
64,192,360174,1,8,2:0:0:0:
192,192,360174,1,8,2:0:0:0:
320,192,360174,1,8,2:0:0:0:
448,192,360350,128,8,360703:2:0:0:0:
320,192,360350,1,8,2:0:0:0:
64,192,360527,1,8,2:0:0:0:
192,192,360615,1,8,2:0:0:0:
64,192,360703,1,8,2:0:0:0:
192,192,360880,1,8,2:0:0:0:
320,192,360880,1,8,2:0:0:0:
64,192,361056,128,8,361409:2:0:0:0:
192,192,361056,1,8,2:0:0:0:
448,192,361232,1,8,2:0:0:0:
320,192,361321,1,8,2:0:0:0:
448,192,361409,1,8,2:0:0:0:
192,192,361585,1,8,2:0:0:0:
64,192,361585,1,8,2:0:0:0:
320,192,361585,1,8,2:0:0:0:
64,192,361762,1,8,2:0:0:0:
192,192,361762,1,8,2:0:0:0:
448,192,361762,1,8,2:0:0:0:
64,192,361938,1,8,2:0:0:0:
320,192,361938,1,8,2:0:0:0:
448,192,361938,1,8,2:0:0:0:
192,192,362115,1,8,2:0:0:0:
320,192,362115,1,8,2:0:0:0:
448,192,362115,1,8,2:0:0:0:
64,192,362291,1,8,2:0:0:0:
320,192,362291,1,8,2:0:0:0:
448,192,362291,1,8,2:0:0:0:
64,192,362468,1,8,2:0:0:0:
192,192,362468,1,8,2:0:0:0:
448,192,362468,1,8,2:0:0:0:
64,192,362644,1,8,2:0:0:0:
192,192,362644,1,8,2:0:0:0:
320,192,362644,1,8,2:0:0:0:
192,192,362821,1,8,2:0:0:0:
320,192,362821,1,8,2:0:0:0:
448,192,362821,1,8,2:0:0:0:
64,192,362997,1,8,2:0:0:0:
192,192,362997,1,8,2:0:0:0:
320,192,362997,1,8,2:0:0:0:
192,192,363174,1,8,2:0:0:0:
448,192,363174,1,8,2:0:0:0:
320,192,363174,128,8,363703:2:0:0:0:
64,192,363350,1,8,2:0:0:0:
192,192,363527,1,8,2:0:0:0:
64,192,363703,1,8,2:0:0:0:
448,192,363703,128,8,363880:2:0:0:0:
192,192,363880,1,8,2:0:0:0:
320,192,363880,128,8,364585:2:0:0:0:
64,192,364232,1,8,2:0:0:0:
192,192,364232,1,8,2:0:0:0:
192,192,364585,128,8,365115:2:0:0:0:
448,192,364585,1,8,2:0:0:0:
320,192,364762,1,8,2:0:0:0:
64,192,364938,1,8,2:0:0:0:
320,192,365115,128,8,365291:2:0:0:0:
192,192,365291,1,8,2:0:0:0:
64,192,365291,128,8,365468:2:0:0:0:
320,192,365468,1,8,2:0:0:0:
448,192,365468,1,8,2:0:0:0:
64,192,365556,1,8,2:0:0:0:
192,192,365556,1,8,2:0:0:0:
320,192,365644,1,8,2:0:0:0:
448,192,365644,1,8,2:0:0:0:
192,192,365821,1,8,2:0:0:0:
320,192,365821,1,8,2:0:0:0:
448,192,365997,128,8,366174:2:0:0:0:
320,192,365997,1,8,2:0:0:0:
64,192,366174,1,8,2:0:0:0:
192,192,366174,1,8,2:0:0:0:
320,192,366262,1,8,2:0:0:0:
448,192,366262,1,8,2:0:0:0:
192,192,366350,1,8,2:0:0:0:
64,192,366350,1,8,2:0:0:0:
192,192,366527,1,8,2:0:0:0:
320,192,366527,1,8,2:0:0:0:
320,192,366703,1,8,2:0:0:0:
448,192,366703,1,8,2:0:0:0:
192,192,366791,1,8,2:0:0:0:
64,192,366791,1,8,2:0:0:0:
320,192,366880,1,8,2:0:0:0:
448,192,366880,1,8,2:0:0:0:
192,192,366968,1,8,2:0:0:0:
64,192,366968,1,8,2:0:0:0:
320,192,367056,1,8,2:0:0:0:
448,192,367056,1,8,2:0:0:0:
64,192,367232,1,8,2:0:0:0:
192,192,367232,1,8,2:0:0:0:
320,192,367232,1,8,2:0:0:0:
64,192,367409,1,8,2:0:0:0:
192,192,367409,1,8,2:0:0:0:
448,192,367409,1,8,2:0:0:0:
64,192,367585,1,8,2:0:0:0:
320,192,367585,1,8,2:0:0:0:
448,192,367585,1,8,2:0:0:0:
192,192,367762,1,8,2:0:0:0:
320,192,367762,1,8,2:0:0:0:
448,192,367762,1,8,2:0:0:0:
64,192,367938,1,8,2:0:0:0:
192,192,367938,1,8,2:0:0:0:
320,192,367938,1,8,2:0:0:0:
192,192,368115,1,8,2:0:0:0:
448,192,368115,1,8,2:0:0:0:
320,192,368115,1,8,2:0:0:0:
64,192,368291,1,8,2:0:0:0:
192,192,368291,1,8,2:0:0:0:
320,192,368291,1,8,2:0:0:0:
192,192,368468,1,8,2:0:0:0:
320,192,368468,1,8,2:0:0:0:
448,192,368468,1,8,2:0:0:0:
64,192,368644,1,8,2:0:0:0:
192,192,368644,1,8,2:0:0:0:
320,192,368644,1,8,2:0:0:0:
192,192,368821,1,8,2:0:0:0:
320,192,368821,1,8,2:0:0:0:
448,192,368821,1,8,2:0:0:0:
64,192,368997,1,8,2:0:0:0:
320,192,368997,1,8,2:0:0:0:
448,192,368997,1,8,2:0:0:0:
192,192,369174,1,8,2:0:0:0:
320,192,369174,1,8,2:0:0:0:
448,192,369174,1,8,2:0:0:0:
64,192,369350,1,8,2:0:0:0:
320,192,369350,1,8,2:0:0:0:
448,192,369350,1,8,2:0:0:0:
192,192,369527,1,8,2:0:0:0:
320,192,369527,1,8,2:0:0:0:
448,192,369527,1,8,2:0:0:0:
64,192,369703,1,8,2:0:0:0:
320,192,369703,1,8,2:0:0:0:
448,192,369703,1,8,2:0:0:0:
64,192,369880,1,8,2:0:0:0:
192,192,369880,1,8,2:0:0:0:
448,192,369880,1,8,2:0:0:0:
192,192,370056,1,8,2:0:0:0:
320,192,370056,1,8,2:0:0:0:
448,192,370056,1,8,2:0:0:0:
64,192,370232,1,8,2:0:0:0:
320,192,370232,1,8,2:0:0:0:
448,192,370232,1,8,2:0:0:0:
192,192,370409,1,8,2:0:0:0:
320,192,370409,1,8,2:0:0:0:
448,192,370409,1,8,2:0:0:0:
64,192,370585,1,8,2:0:0:0:
320,192,370585,1,8,2:0:0:0:
448,192,370585,1,8,2:0:0:0:
64,192,370762,1,8,2:0:0:0:
192,192,370762,1,8,2:0:0:0:
448,192,370762,1,8,2:0:0:0:
192,192,370938,1,8,2:0:0:0:
320,192,370938,1,8,2:0:0:0:
448,192,370938,1,8,2:0:0:0:
64,192,371115,1,8,2:0:0:0:
320,192,371115,1,8,2:0:0:0:
448,192,371115,1,8,2:0:0:0:
192,192,371291,1,8,2:0:0:0:
320,192,371291,1,8,2:0:0:0:
448,192,371291,1,8,2:0:0:0:
64,192,371468,1,8,2:0:0:0:
320,192,371468,1,8,2:0:0:0:
448,192,371468,1,8,2:0:0:0:
64,192,371644,128,8,371997:2:0:0:0:
192,192,371644,1,8,2:0:0:0:
192,192,371821,1,8,2:0:0:0:
320,192,371909,1,8,2:0:0:0:
448,192,371997,1,8,2:0:0:0:
64,192,372174,1,8,2:0:0:0:
192,192,372174,1,8,2:0:0:0:
448,192,372350,128,8,372703:2:0:0:0:
320,192,372350,1,8,2:0:0:0:
320,192,372527,1,8,2:0:0:0:
192,192,372615,1,8,2:0:0:0:
64,192,372703,1,8,2:0:0:0:
320,192,372880,1,8,2:0:0:0:
448,192,372880,1,8,2:0:0:0:
64,192,373056,128,8,373232:2:0:0:0:
192,192,373056,1,8,2:0:0:0:
448,192,373232,128,8,373409:2:0:0:0:
320,192,373232,1,8,2:0:0:0:
64,192,373409,1,8,2:0:0:0:
192,192,373409,1,8,2:0:0:0:
192,192,373585,1,8,2:0:0:0:
320,192,373585,1,8,2:0:0:0:
64,192,373762,1,8,2:0:0:0:
192,192,373762,1,8,2:0:0:0:
320,192,373938,1,8,2:0:0:0:
448,192,373938,1,8,2:0:0:0:
192,192,374115,1,8,2:0:0:0:
320,192,374115,1,8,2:0:0:0:
64,192,374291,1,8,2:0:0:0:
192,192,374291,1,8,2:0:0:0:
320,192,374468,128,8,374997:2:0:0:0:
448,192,374468,1,8,2:0:0:0:
192,192,374468,1,8,2:0:0:0:
64,192,374644,1,8,2:0:0:0:
192,192,374821,1,8,2:0:0:0:
192,192,374997,128,8,375174:2:0:0:0:
448,192,374997,1,8,2:0:0:0:
64,192,375174,1,8,2:0:0:0:
448,192,375174,128,8,375880:2:0:0:0:
192,192,375527,1,8,2:0:0:0:
320,192,375527,1,8,2:0:0:0:
192,192,375880,128,8,376409:2:0:0:0:
64,192,375880,1,8,2:0:0:0:
320,192,376056,1,8,2:0:0:0:
64,192,376232,1,8,2:0:0:0:
448,192,376409,128,8,376585:2:0:0:0:
320,192,376409,1,8,2:0:0:0:
64,192,376585,1,8,2:0:0:0:
192,192,376585,128,8,376762:2:0:0:0:
320,192,376762,1,8,2:0:0:0:
448,192,376762,1,8,2:0:0:0:
64,192,376850,1,8,2:0:0:0:
192,192,376850,1,8,2:0:0:0:
448,192,376938,1,8,2:0:0:0:
320,192,376938,128,8,377291:2:0:0:0:
64,192,377291,128,8,377468:2:0:0:0:
192,192,377291,1,8,2:0:0:0:
192,192,377468,1,8,2:0:0:0:
320,192,377556,1,8,2:0:0:0:
448,192,377644,1,8,2:0:0:0:
64,192,377821,1,8,2:0:0:0:
192,192,377821,1,8,2:0:0:0:
448,192,377997,1,8,2:0:0:0:
320,192,378085,1,8,2:0:0:0:
64,192,378174,1,8,2:0:0:0:
192,192,378262,1,8,2:0:0:0:
320,192,378350,1,8,2:0:0:0:
192,192,378527,1,8,2:0:0:0:
64,192,378703,128,8,378880:2:0:0:0:
320,192,378703,1,8,2:0:0:0:
192,192,378880,1,8,2:0:0:0:
320,192,378968,1,8,2:0:0:0:
448,192,379056,1,8,2:0:0:0:
64,192,379232,1,8,2:0:0:0:
192,192,379232,1,8,2:0:0:0:
448,192,379409,1,8,2:0:0:0:
320,192,379497,1,8,2:0:0:0:
64,192,379585,1,8,2:0:0:0:
192,192,379674,1,8,2:0:0:0:
320,192,379762,1,8,2:0:0:0:
448,192,379938,1,8,2:0:0:0:
448,192,380115,128,8,380291:2:0:0:0:
64,192,380115,1,8,2:0:0:0:
320,192,380291,1,8,2:0:0:0:
64,192,380380,1,8,2:0:0:0:
320,192,380468,128,8,380644:2:0:0:0:
448,192,380644,1,8,2:0:0:0:
64,192,380821,128,8,380997:2:0:0:0:
192,192,380821,1,8,2:0:0:0:
320,192,380997,128,8,381174:2:0:0:0:
448,192,380997,1,8,2:0:0:0:
64,192,381085,1,8,2:0:0:0:
192,192,381174,1,8,2:0:0:0:
448,192,381350,1,8,2:0:0:0:
192,192,381527,128,8,381703:2:0:0:0:
64,192,381527,1,8,2:0:0:0:
320,192,381703,1,8,2:0:0:0:
448,192,381791,1,8,2:0:0:0:
320,192,381880,1,8,2:0:0:0:
64,192,382056,1,8,2:0:0:0:
192,192,382056,1,8,2:0:0:0:
320,192,382232,128,8,382409:2:0:0:0:
448,192,382232,1,8,2:0:0:0:
64,192,382409,128,8,382585:2:0:0:0:
192,192,382409,1,8,2:0:0:0:
320,192,382497,1,8,2:0:0:0:
448,192,382585,1,8,2:0:0:0:
192,192,382762,1,8,2:0:0:0:
320,192,382938,128,8,383115:2:0:0:0:
448,192,382938,1,8,2:0:0:0:
64,192,383115,1,8,2:0:0:0:
192,192,383203,1,8,2:0:0:0:
320,192,383291,1,8,2:0:0:0:
64,192,383468,1,8,2:0:0:0:
192,192,383468,1,8,2:0:0:0:
320,192,383644,128,8,383821:2:0:0:0:
448,192,383644,1,8,2:0:0:0:
64,192,383821,1,8,2:0:0:0:
192,192,383909,1,8,2:0:0:0:
320,192,383997,1,8,2:0:0:0:
64,192,384174,1,8,2:0:0:0:
192,192,384174,1,8,2:0:0:0:
448,192,384350,1,8,2:0:0:0:
320,192,384350,128,8,384527:2:0:0:0:
64,192,384527,1,8,2:0:0:0:
192,192,384615,1,8,2:0:0:0:
320,192,384703,1,8,2:0:0:0:
64,192,384880,1,8,2:0:0:0:
192,192,384880,1,8,2:0:0:0:
320,192,385056,128,8,385232:2:0:0:0:
448,192,385056,1,8,2:0:0:0:
64,192,385232,1,8,2:0:0:0:
192,192,385321,1,8,2:0:0:0:
320,192,385409,1,8,2:0:0:0:
192,192,385585,1,8,2:0:0:0:
64,192,385585,1,8,2:0:0:0:
320,192,385762,1,8,2:0:0:0:
448,192,385762,1,8,2:0:0:0:
320,192,385880,1,8,2:0:0:0:
192,192,385880,1,8,2:0:0:0:
64,192,385997,1,8,2:0:0:0:
192,192,385997,1,8,2:0:0:0:
320,192,386115,1,8,2:0:0:0:
448,192,386115,1,8,2:0:0:0:
192,192,386232,1,8,2:0:0:0:
320,192,386232,1,8,2:0:0:0:
64,192,386350,1,8,2:0:0:0:
192,192,386350,1,8,2:0:0:0:
320,192,386468,1,8,2:0:0:0:
448,192,386468,1,8,2:0:0:0:
192,192,386585,1,8,2:0:0:0:
320,192,386585,1,8,2:0:0:0:
64,192,386703,1,8,2:0:0:0:
192,192,386703,1,8,2:0:0:0:
320,192,386821,1,8,2:0:0:0:
448,192,386821,1,8,2:0:0:0:
192,192,386997,1,8,2:0:0:0:
320,192,386997,1,8,2:0:0:0:
448,192,386997,1,8,2:0:0:0:
64,192,387174,1,8,2:0:0:0:
320,192,387174,1,8,2:0:0:0:
448,192,387174,1,8,2:0:0:0:
64,192,387350,1,8,2:0:0:0:
192,192,387350,1,8,2:0:0:0:
448,192,387350,1,8,2:0:0:0:
192,192,387527,1,8,2:0:0:0:
320,192,387527,1,8,2:0:0:0:
448,192,387527,1,8,2:0:0:0:
64,192,387703,1,8,2:0:0:0:
320,192,387703,1,8,2:0:0:0:
448,192,387703,1,8,2:0:0:0:
192,192,387880,1,8,2:0:0:0:
320,192,387880,1,8,2:0:0:0:
448,192,387880,1,8,2:0:0:0:
320,192,388056,1,8,2:0:0:0:
448,192,388056,1,8,2:0:0:0:
192,192,388056,1,8,2:0:0:0:
320,192,388232,1,8,2:0:0:0:
448,192,388232,1,8,2:0:0:0:
192,192,388232,1,8,2:0:0:0:
64,192,388409,1,8,2:0:0:0:
448,192,388409,1,8,2:0:0:0:
320,192,388409,1,8,2:0:0:0:
192,192,388585,128,8,389997:2:0:0:0:
320,192,388585,1,8,2:0:0:0:
448,192,388938,1,8,2:0:0:0:
64,192,388938,1,8,2:0:0:0:
320,192,389291,1,8,2:0:0:0:
448,192,389644,1,8,2:0:0:0:
320,192,389644,1,8,2:0:0:0:
320,192,389997,1,8,2:0:0:0:
64,192,389997,1,8,2:0:0:0:
448,192,389997,128,8,391409:2:0:0:0:
64,192,390174,1,8,2:0:0:0:
192,192,390350,1,8,2:0:0:0:
64,192,390527,1,8,2:0:0:0:
320,192,390703,1,8,2:0:0:0:
64,192,390880,1,8,2:0:0:0:
192,192,390880,1,8,2:0:0:0:
192,192,391056,1,8,2:0:0:0:
320,192,391056,1,8,2:0:0:0:
64,192,391232,1,8,2:0:0:0:
192,192,391232,1,8,2:0:0:0:
320,192,391409,1,8,2:0:0:0:
192,192,391409,128,8,392644:2:0:0:0:
64,192,391762,1,8,2:0:0:0:
320,192,392115,1,8,2:0:0:0:
64,192,392468,1,8,2:0:0:0:
320,192,392644,128,8,392821:2:0:0:0:
64,192,392821,128,8,392997:2:0:0:0:
192,192,392997,128,8,393174:2:0:0:0:
320,192,393174,128,8,393350:2:0:0:0:
192,192,393350,128,8,393527:2:0:0:0:
320,192,393527,128,8,393703:2:0:0:0:
448,192,393703,128,8,394232:2:0:0:0:
192,192,393880,1,8,2:0:0:0:
64,192,394056,1,8,2:0:0:0:
192,192,394232,1,8,2:0:0:0:
320,192,394232,128,8,395644:2:0:0:0:
64,192,394409,1,8,2:0:0:0:
448,192,394585,1,8,2:0:0:0:
64,192,394938,1,8,2:0:0:0:
64,192,395291,1,8,2:0:0:0:
192,192,395644,1,8,2:0:0:0:
448,192,395644,128,8,396527:2:0:0:0:
64,192,396527,1,8,2:0:0:0:
320,192,396703,1,8,2:0:0:0:
192,192,396880,1,8,2:0:0:0:
320,192,397056,128,8,398468:2:0:0:0:
448,192,397056,128,8,398468:2:0:0:0:
64,192,397056,1,8,2:0:0:0:
192,192,397409,1,8,2:0:0:0:
192,192,397762,1,8,2:0:0:0:
64,192,398115,1,8,2:0:0:0:
192,192,398468,1,8,2:0:0:0:
64,192,398644,1,8,2:0:0:0:
320,192,398821,1,8,2:0:0:0:
192,192,398997,1,8,2:0:0:0:
448,192,399174,1,8,2:0:0:0:
64,192,399350,1,8,2:0:0:0:
192,192,399527,1,8,2:0:0:0:
320,192,399703,1,8,2:0:0:0:
64,192,399880,1,8,2:0:0:0:
192,192,400056,1,8,2:0:0:0:
320,192,400232,1,8,2:0:0:0:
64,192,400409,1,8,2:0:0:0:
192,192,400585,1,8,2:0:0:0:
320,192,400762,128,8,401291:2:0:0:0:
64,192,401291,1,8,2:0:0:0:
192,192,401291,1,8,2:0:0:0:
192,192,401468,1,8,2:0:0:0:
320,192,401468,1,8,2:0:0:0:
64,192,401644,1,8,2:0:0:0:
192,192,401732,1,8,2:0:0:0:
320,192,401821,1,8,2:0:0:0:
448,192,401909,1,8,2:0:0:0:
320,192,401997,1,8,2:0:0:0:
192,192,401997,1,8,2:0:0:0:
192,192,402174,1,8,2:0:0:0:
64,192,402174,1,8,2:0:0:0:
448,192,402350,1,8,2:0:0:0:
320,192,402438,1,8,2:0:0:0:
192,192,402527,1,8,2:0:0:0:
64,192,402615,1,8,2:0:0:0:
192,192,402703,1,8,2:0:0:0:
320,192,402703,1,8,2:0:0:0:
320,192,402880,1,8,2:0:0:0:
448,192,402880,1,8,2:0:0:0:
64,192,403056,1,8,2:0:0:0:
192,192,403144,1,8,2:0:0:0:
320,192,403232,1,8,2:0:0:0:
448,192,403321,1,8,2:0:0:0:
320,192,403409,1,8,2:0:0:0:
192,192,403409,1,8,2:0:0:0:
192,192,403585,1,8,2:0:0:0:
64,192,403585,1,8,2:0:0:0:
448,192,403762,1,8,2:0:0:0:
320,192,403850,1,8,2:0:0:0:
192,192,403938,1,8,2:0:0:0:
64,192,404027,1,8,2:0:0:0:
192,192,404115,1,8,2:0:0:0:
320,192,404115,1,8,2:0:0:0:
320,192,404291,1,8,2:0:0:0:
448,192,404291,1,8,2:0:0:0:
64,192,404468,1,8,2:0:0:0:
192,192,404556,1,8,2:0:0:0:
320,192,404644,1,8,2:0:0:0:
448,192,404732,1,8,2:0:0:0:
192,192,404821,1,8,2:0:0:0:
320,192,404821,1,8,2:0:0:0:
64,192,404997,1,8,2:0:0:0:
192,192,404997,1,8,2:0:0:0:
448,192,405174,1,8,2:0:0:0:
320,192,405262,1,8,2:0:0:0:
192,192,405350,1,8,2:0:0:0:
64,192,405438,1,8,2:0:0:0:
192,192,405527,128,8,405703:2:0:0:0:
448,192,405527,128,8,405703:2:0:0:0:
320,192,405703,128,8,405880:2:0:0:0:
64,192,405703,128,8,405880:2:0:0:0:
192,192,405880,1,8,2:0:0:0:
320,192,405968,1,8,2:0:0:0:
448,192,406056,1,8,2:0:0:0:
320,192,406144,1,8,2:0:0:0:
64,192,406232,128,8,406409:2:0:0:0:
192,192,406232,128,8,406409:2:0:0:0:
320,192,406409,128,8,406585:2:0:0:0:
448,192,406409,128,8,406585:2:0:0:0:
64,192,406585,1,8,2:0:0:0:
192,192,406674,1,8,2:0:0:0:
320,192,406762,1,8,2:0:0:0:
448,192,406850,1,8,2:0:0:0:
64,192,406938,128,8,407115:2:0:0:0:
192,192,406938,1,8,2:0:0:0:
192,192,407115,128,8,407291:2:0:0:0:
320,192,407291,128,8,407468:2:0:0:0:
64,192,407291,1,8,2:0:0:0:
192,192,407468,128,8,407644:2:0:0:0:
448,192,407468,1,8,2:0:0:0:
320,192,407644,1,8,2:0:0:0:
448,192,407732,1,8,2:0:0:0:
320,192,407821,1,8,2:0:0:0:
192,192,407821,128,8,407997:2:0:0:0:
64,192,407997,128,8,408174:2:0:0:0:
320,192,408174,1,8,2:0:0:0:
448,192,408174,1,8,2:0:0:0:
192,192,408350,1,8,2:0:0:0:
320,192,408350,1,8,2:0:0:0:
64,192,408527,1,8,2:0:0:0:
320,192,408527,1,8,2:0:0:0:
192,192,408703,1,8,2:0:0:0:
448,192,408703,1,8,2:0:0:0:
320,192,408880,1,8,2:0:0:0:
192,192,408880,1,8,2:0:0:0:
64,192,409056,1,8,2:0:0:0:
448,192,409056,1,8,2:0:0:0:
192,192,409232,1,8,2:0:0:0:
448,192,409232,1,8,2:0:0:0:
192,192,409409,1,8,2:0:0:0:
64,192,409409,1,8,2:0:0:0:
192,192,409585,1,8,2:0:0:0:
448,192,409585,1,8,2:0:0:0:
192,192,409762,128,8,419732:2:0:0:0:
320,192,409762,128,8,419732:2:0:0:0:
