osu file format v14

[General]
AudioFilename: audio.mp3
AudioLeadIn: 0
PreviewTime: 95333
Countdown: 0
SampleSet: Soft
StackLeniency: 0.7
Mode: 3
LetterboxInBreaks: 0
SpecialStyle: 0
WidescreenStoryboard: 0

[Editor]
DistanceSpacing: 0.8
BeatDivisor: 7
GridSize: 16
TimelineZoom: 1.3

[Metadata]
Title:Hole Dwelling
TitleUnicode:あなぐらぐらし
Artist:Kikuo
ArtistUnicode:きくお
Creator:Ticle
Version:agitate me muddle muddy me
Source:
Tags:electronic japanese featured artist fa hatsune miku 初音ミク きくおみく6 anagura gurashi hole-dwelling vocaloid ボーカロイド
BeatmapID:2793616
BeatmapSetID:1349241

[Difficulty]
HPDrainRate:7.2
CircleSize:4
OverallDifficulty:5.5
ApproachRate:5
SliderMultiplier:1.4
SliderTickRate:1

[Events]
//Background and Video events
0,0,"Dwellers.jpg",0,0
//Break Periods
//Storyboard Layer 0 (Background)
//Storyboard Layer 1 (Fail)
//Storyboard Layer 2 (Pass)
//Storyboard Layer 3 (Foreground)
//Storyboard Layer 4 (Overlay)
//Storyboard Sound Samples

[TimingPoints]
2167.67015255906,468.75,4,2,0,0,1,0
2167.67015255906,-66.2251655629139,4,2,0,0,0,0
28183,310.880829015544,4,2,0,0,1,0
28183,-100,4,2,0,0,0,0

[HitObjects]
64,192,878,128,0,1816:0:0:0:0:
448,192,995,128,0,1894:0:0:0:0:
192,192,1933,128,0,2323:0:0:0:0:
64,192,2167,1,0,0:0:0:0:
192,192,2402,1,0,0:0:0:0:
64,192,2441,128,0,2558:0:0:0:0:
192,192,2558,128,0,2675:0:0:0:0:
448,192,2636,1,0,0:0:0:0:
64,192,2675,128,0,2831:0:0:0:0:
320,192,2870,1,0,0:0:0:0:
448,192,2909,128,0,2948:0:0:0:0:
192,192,3027,128,0,3105:0:0:0:0:
320,192,3105,128,0,3300:0:0:0:0:
64,192,3339,128,0,3534:0:0:0:0:
192,192,3573,128,0,3769:0:0:0:0:
448,192,4042,128,0,4198:0:0:0:0:
64,192,4042,1,0,0:0:0:0:
320,192,4277,1,0,0:0:0:0:
448,192,4316,128,0,4433:0:0:0:0:
320,192,4511,1,0,0:0:0:0:
192,192,4550,128,0,4667:0:0:0:0:
192,192,4745,1,0,0:0:0:0:
448,192,4784,128,0,4823:0:0:0:0:
64,192,4823,128,0,4941:0:0:0:0:
64,192,5058,128,0,5136:0:0:0:0:
192,192,5175,128,0,5292:0:0:0:0:
320,192,5448,128,0,5527:0:0:0:0:
448,192,5722,128,0,5839:0:0:0:0:
192,192,5917,1,0,0:0:0:0:
320,192,6152,1,0,0:0:0:0:
64,192,6191,128,0,6347:0:0:0:0:
320,192,6347,128,0,6503:0:0:0:0:
448,192,6386,1,0,0:0:0:0:
448,192,6620,128,0,6659:0:0:0:0:
320,192,6698,1,0,0:0:0:0:
64,192,6855,128,0,6933:0:0:0:0:
192,192,6894,128,0,7011:0:0:0:0:
64,192,7050,128,0,7284:0:0:0:0:
192,192,7245,128,0,7362:0:0:0:0:
320,192,7323,128,0,7402:0:0:0:0:
448,192,7558,128,0,7636:0:0:0:0:
320,192,7753,128,0,7870:0:0:0:0:
192,192,7792,1,0,0:0:0:0:
320,192,7987,128,0,8105:0:0:0:0:
448,192,8027,128,0,8105:0:0:0:0:
64,192,8183,128,0,8300:0:0:0:0:
192,192,8261,128,0,8300:0:0:0:0:
64,192,8417,128,0,8495:0:0:0:0:
320,192,8495,128,0,8573:0:0:0:0:
320,192,8691,128,0,8808:0:0:0:0:
448,192,8730,128,0,8808:0:0:0:0:
320,192,8964,128,0,9042:0:0:0:0:
192,192,9159,128,0,9277:0:0:0:0:
64,192,9433,128,0,9550:0:0:0:0:
448,192,9433,128,0,9550:0:0:0:0:
192,192,9667,128,0,9745:0:0:0:0:
192,192,9823,128,0,10019:0:0:0:0:
64,192,9862,128,0,9941:0:0:0:0:
320,192,10097,128,0,10214:0:0:0:0:
448,192,10136,1,0,0:0:0:0:
320,192,10370,1,0,0:0:0:0:
448,192,10409,128,0,10448:0:0:0:0:
192,192,10605,128,0,10722:0:0:0:0:
192,192,10800,128,0,10995:0:0:0:0:
64,192,10839,128,0,10917:0:0:0:0:
320,192,11073,128,0,11152:0:0:0:0:
320,192,11230,1,0,0:0:0:0:
448,192,11308,128,0,11386:0:0:0:0:
192,192,11542,128,0,11659:0:0:0:0:
192,192,11777,128,0,11933:0:0:0:0:
192,192,12011,128,0,12128:0:0:0:0:
64,192,12050,128,0,12206:0:0:0:0:
192,192,12245,128,0,12323:0:0:0:0:
320,192,12284,128,0,12441:0:0:0:0:
448,192,12480,128,0,12597:0:0:0:0:
320,192,12675,128,0,12831:0:0:0:0:
448,192,12792,128,0,12909:0:0:0:0:
320,192,12948,128,0,13027:0:0:0:0:
448,192,13027,128,0,13144:0:0:0:0:
320,192,13105,128,0,13222:0:0:0:0:
192,192,13183,128,0,13847:0:0:0:0:
64,192,13417,128,0,13534:0:0:0:0:
64,192,13652,128,0,13808:0:0:0:0:
320,192,13886,128,0,14003:0:0:0:0:
448,192,14120,128,0,14159:0:0:0:0:
320,192,14198,128,0,14511:0:0:0:0:
64,192,14355,128,0,14472:0:0:0:0:
192,192,14550,128,0,14862:0:0:0:0:
64,192,14589,128,0,14823:0:0:0:0:
320,192,14823,128,0,14902:0:0:0:0:
192,192,14980,128,0,15136:0:0:0:0:
448,192,15058,128,0,15136:0:0:0:0:
320,192,15097,128,0,15331:0:0:0:0:
64,192,15292,128,0,15448:0:0:0:0:
192,192,15527,128,0,15683:0:0:0:0:
64,192,15761,128,0,15917:0:0:0:0:
192,192,15956,1,0,0:0:0:0:
64,192,15995,128,0,16191:0:0:0:0:
448,192,15995,128,0,16034:0:0:0:0:
192,192,16464,128,0,16620:0:0:0:0:
320,192,16581,128,0,16737:0:0:0:0:
192,192,16698,128,0,16777:0:0:0:0:
320,192,16816,128,0,16894:0:0:0:0:
448,192,16933,128,0,17011:0:0:0:0:
320,192,16972,128,0,17480:0:0:0:0:
64,192,17167,1,0,0:0:0:0:
192,192,17441,128,0,17558:0:0:0:0:
320,192,17597,128,0,17714:0:0:0:0:
448,192,17636,1,0,0:0:0:0:
192,192,17675,128,0,17792:0:0:0:0:
320,192,17870,1,0,0:0:0:0:
448,192,17909,128,0,17948:0:0:0:0:
320,192,18105,128,0,18183:0:0:0:0:
192,192,18339,1,0,0:0:0:0:
64,192,18573,1,0,0:0:0:0:
320,192,18573,128,0,18652:0:0:0:0:
320,192,18730,1,0,0:0:0:0:
448,192,18808,128,0,18886:0:0:0:0:
192,192,19042,128,0,19198:0:0:0:0:
192,192,19277,128,0,19433:0:0:0:0:
448,192,19511,1,0,0:0:0:0:
192,192,19550,128,0,19628:0:0:0:0:
64,192,19745,1,0,0:0:0:0:
320,192,19784,128,0,19823:0:0:0:0:
320,192,19980,1,0,0:0:0:0:
448,192,20019,128,0,20097:0:0:0:0:
320,192,20097,128,0,20214:0:0:0:0:
192,192,20214,1,0,0:0:0:0:
448,192,20253,128,0,20370:0:0:0:0:
64,192,20448,1,0,0:0:0:0:
448,192,20448,128,0,20566:0:0:0:0:
192,192,20644,128,0,20761:0:0:0:0:
64,192,20683,1,0,0:0:0:0:
320,192,20878,128,0,21034:0:0:0:0:
320,192,21152,128,0,21269:0:0:0:0:
320,192,21347,128,0,21620:0:0:0:0:
448,192,21386,128,0,21542:0:0:0:0:
448,192,21620,1,0,0:0:0:0:
320,192,21698,128,0,21737:0:0:0:0:
320,192,21855,128,0,22050:0:0:0:0:
192,192,21894,128,0,21972:0:0:0:0:
192,192,22089,1,0,0:0:0:0:
448,192,22128,128,0,22284:0:0:0:0:
64,192,22323,1,0,0:0:0:0:
320,192,22362,128,0,22597:0:0:0:0:
192,192,22558,128,0,22636:0:0:0:0:
64,192,22753,128,0,22870:0:0:0:0:
192,192,22792,128,0,23066:0:0:0:0:
320,192,23027,1,0,0:0:0:0:
192,192,23261,128,0,23378:0:0:0:0:
320,192,23300,128,0,23417:0:0:0:0:
448,192,23339,128,0,23417:0:0:0:0:
448,192,23495,128,0,23612:0:0:0:0:
320,192,23573,128,0,23691:0:0:0:0:
192,192,23730,128,0,23847:0:0:0:0:
192,192,23964,128,0,24081:0:0:0:0:
192,192,24198,128,0,24394:0:0:0:0:
64,192,24433,128,0,24862:0:0:0:0:
192,192,24511,128,0,24823:0:0:0:0:
320,192,24667,1,0,0:0:0:0:
192,192,24902,1,0,0:0:0:0:
320,192,25136,128,0,25292:0:0:0:0:
192,192,25370,128,0,25448:0:0:0:0:
320,192,25409,128,0,25800:0:0:0:0:
448,192,25605,128,0,25761:0:0:0:0:
192,192,25839,128,0,25995:0:0:0:0:
448,192,25878,128,0,25995:0:0:0:0:
192,192,26073,128,0,26230:0:0:0:0:
64,192,26112,128,0,26230:0:0:0:0:
320,192,26308,128,0,26855:0:0:0:0:
448,192,26542,128,0,26659:0:0:0:0:
448,192,26777,128,0,26894:0:0:0:0:
320,192,26933,128,0,27206:0:0:0:0:
64,192,27011,128,0,27167:0:0:0:0:
448,192,27245,128,0,28144:0:0:0:0:
64,192,27284,128,0,27362:0:0:0:0:
320,192,27323,128,0,27362:0:0:0:0:
320,192,27480,128,0,27597:0:0:0:0:
192,192,27714,128,0,27831:0:0:0:0:
64,192,27948,128,0,28027:0:0:0:0:
64,192,28144,128,0,28286:0:0:0:0:
192,192,28260,128,0,28377:0:0:0:0:
320,192,28299,128,0,28377:0:0:0:0:
448,192,28390,1,0,0:0:0:0:
192,192,28459,1,0,0:0:0:0:
320,192,28528,1,0,0:0:0:0:
192,192,28571,128,0,28649:0:0:0:0:
64,192,28623,1,0,0:0:0:0:
320,192,28701,128,0,28752:0:0:0:0:
64,192,29115,1,0,0:0:0:0:
64,192,29737,1,0,0:0:0:0:
64,192,30203,1,0,0:0:0:0:
64,192,30670,5,0,0:0:0:0:
64,192,31136,1,0,0:0:0:0:
64,192,31602,1,0,0:0:0:0:
64,192,32224,1,0,0:0:0:0:
64,192,32690,1,0,0:0:0:0:
64,192,33157,1,0,0:0:0:0:
192,192,33467,128,0,33545:0:0:0:0:
64,192,33623,1,0,0:0:0:0:
320,192,33934,128,0,34012:0:0:0:0:
320,192,34089,1,0,0:0:0:0:
192,192,34245,1,0,0:0:0:0:
448,192,34556,128,0,34633:0:0:0:0:
448,192,34711,1,0,0:0:0:0:
320,192,34866,1,0,0:0:0:0:
448,192,35177,128,0,35566:0:0:0:0:
448,192,35644,1,0,0:0:0:0:
320,192,35955,128,0,36032:0:0:0:0:
448,192,36110,1,0,0:0:0:0:
192,192,36421,128,0,36499:0:0:0:0:
192,192,36576,1,0,0:0:0:0:
320,192,36732,1,0,0:0:0:0:
64,192,37043,128,0,37120:0:0:0:0:
64,192,37198,1,0,0:0:0:0:
448,192,37353,1,0,0:0:0:0:
192,192,37664,128,0,38131:0:0:0:0:
64,192,38131,1,0,0:0:0:0:
192,192,38442,128,0,38519:0:0:0:0:
448,192,38442,128,0,38519:0:0:0:0:
64,192,38597,1,0,0:0:0:0:
320,192,38908,128,0,38986:0:0:0:0:
448,192,38908,128,0,38986:0:0:0:0:
320,192,39063,1,0,0:0:0:0:
192,192,39219,1,0,0:0:0:0:
448,192,39530,128,0,39607:0:0:0:0:
448,192,39685,1,0,0:0:0:0:
320,192,39841,1,0,0:0:0:0:
448,192,40151,128,0,40385:0:0:0:0:
448,192,40462,128,0,40540:0:0:0:0:
448,192,40618,1,0,0:0:0:0:
320,192,40929,128,0,41006:0:0:0:0:
64,192,40929,128,0,41006:0:0:0:0:
448,192,41084,1,0,0:0:0:0:
64,192,41239,1,0,0:0:0:0:
192,192,41395,128,0,41473:0:0:0:0:
320,192,41395,128,0,41473:0:0:0:0:
64,192,41550,1,0,0:0:0:0:
320,192,41706,1,0,0:0:0:0:
192,192,41861,1,0,0:0:0:0:
64,192,42017,128,0,42094:0:0:0:0:
192,192,42069,1,0,0:0:0:0:
192,192,42276,1,0,0:0:0:0:
448,192,42328,128,0,42483:0:0:0:0:
64,192,42328,128,0,42483:0:0:0:0:
192,192,42483,128,0,42613:0:0:0:0:
320,192,42483,128,0,42613:0:0:0:0:
448,192,42638,1,0,0:0:0:0:
448,192,42794,1,0,0:0:0:0:
64,192,42794,128,0,42833:0:0:0:0:
320,192,42949,1,0,0:0:0:0:
64,192,42949,128,0,42988:0:0:0:0:
64,192,43105,128,0,43163:0:0:0:0:
192,192,43105,128,0,43157:0:0:0:0:
320,192,43105,128,0,43157:0:0:0:0:
448,192,43105,128,0,43163:0:0:0:0:
64,192,43260,1,0,0:0:0:0:
320,192,43260,1,0,0:0:0:0:
192,192,43416,128,0,43493:0:0:0:0:
448,192,43416,128,0,43493:0:0:0:0:
64,192,43571,1,0,0:0:0:0:
448,192,43727,1,0,0:0:0:0:
64,192,43727,128,0,43856:0:0:0:0:
192,192,43727,128,0,43856:0:0:0:0:
320,192,43882,128,0,43960:0:0:0:0:
448,192,43882,128,0,43960:0:0:0:0:
448,192,44037,1,0,0:0:0:0:
192,192,44193,1,0,0:0:0:0:
320,192,44193,1,0,0:0:0:0:
64,192,44348,1,0,0:0:0:0:
448,192,44504,128,0,44581:0:0:0:0:
192,192,44504,1,0,0:0:0:0:
192,192,44659,1,0,0:0:0:0:
320,192,44815,1,0,0:0:0:0:
448,192,44892,1,0,0:0:0:0:
320,192,44970,1,0,0:0:0:0:
64,192,44970,128,0,45100:0:0:0:0:
192,192,44970,128,0,45100:0:0:0:0:
448,192,45126,128,0,45359:0:0:0:0:
192,192,45126,1,0,0:0:0:0:
64,192,45281,1,0,0:0:0:0:
448,192,45436,128,0,45514:0:0:0:0:
64,192,45436,1,0,0:0:0:0:
448,192,45592,1,0,0:0:0:0:
320,192,45592,1,0,0:0:0:0:
448,192,45747,1,0,0:0:0:0:
192,192,45747,1,0,0:0:0:0:
320,192,45903,128,0,45980:0:0:0:0:
64,192,45903,128,0,45980:0:0:0:0:
448,192,46058,1,0,0:0:0:0:
64,192,46214,1,0,0:0:0:0:
320,192,46214,128,0,46343:0:0:0:0:
448,192,46214,128,0,46343:0:0:0:0:
192,192,46369,128,0,46447:0:0:0:0:
320,192,46369,128,0,46447:0:0:0:0:
64,192,46524,1,0,0:0:0:0:
320,192,46680,1,0,0:0:0:0:
64,192,46680,1,0,0:0:0:0:
448,192,46835,1,0,0:0:0:0:
64,192,46991,128,0,47069:0:0:0:0:
320,192,46991,128,0,47250:0:0:0:0:
192,192,47146,1,0,0:0:0:0:
192,192,47302,1,0,0:0:0:0:
320,192,47302,1,0,0:0:0:0:
64,192,47457,1,0,0:0:0:0:
320,192,47457,128,0,47587:0:0:0:0:
448,192,47457,128,0,47587:0:0:0:0:
192,192,47613,128,0,47846:0:0:0:0:
320,192,47768,1,0,0:0:0:0:
192,192,47923,128,0,48001:0:0:0:0:
64,192,48079,1,0,0:0:0:0:
448,192,48079,1,0,0:0:0:0:
64,192,48234,1,0,0:0:0:0:
320,192,48234,1,0,0:0:0:0:
192,192,48390,128,0,48467:0:0:0:0:
448,192,48390,128,0,48467:0:0:0:0:
64,192,48545,1,0,0:0:0:0:
448,192,48701,1,0,0:0:0:0:
64,192,48701,128,0,48830:0:0:0:0:
192,192,48701,128,0,48830:0:0:0:0:
320,192,48856,128,0,48934:0:0:0:0:
448,192,48856,128,0,48934:0:0:0:0:
448,192,49012,1,0,0:0:0:0:
192,192,49167,1,0,0:0:0:0:
320,192,49167,1,0,0:0:0:0:
64,192,49322,1,0,0:0:0:0:
448,192,49478,128,0,49556:0:0:0:0:
192,192,49478,1,0,0:0:0:0:
192,192,49633,1,0,0:0:0:0:
320,192,49789,1,0,0:0:0:0:
64,192,49789,1,0,0:0:0:0:
448,192,49866,1,0,0:0:0:0:
320,192,49944,1,0,0:0:0:0:
192,192,49944,128,0,50074:0:0:0:0:
64,192,49944,128,0,50074:0:0:0:0:
448,192,50100,128,0,50333:0:0:0:0:
192,192,50100,128,0,50359:0:0:0:0:
64,192,50255,1,0,0:0:0:0:
448,192,50410,128,0,50488:0:0:0:0:
192,192,50410,1,0,0:0:0:0:
448,192,50566,1,0,0:0:0:0:
320,192,50566,1,0,0:0:0:0:
448,192,50721,1,0,0:0:0:0:
192,192,50721,1,0,0:0:0:0:
320,192,50877,128,0,50955:0:0:0:0:
64,192,50877,128,0,50955:0:0:0:0:
448,192,51032,1,0,0:0:0:0:
64,192,51188,1,0,0:0:0:0:
320,192,51188,128,0,51277:0:0:0:0:
448,192,51188,128,0,51277:0:0:0:0:
192,192,51343,128,0,51421:0:0:0:0:
320,192,51343,128,0,51602:0:0:0:0:
64,192,51499,1,0,0:0:0:0:
320,192,51654,1,0,0:0:0:0:
64,192,51654,1,0,0:0:0:0:
448,192,51809,1,0,0:0:0:0:
64,192,51965,128,0,52043:0:0:0:0:
320,192,51965,128,0,52224:0:0:0:0:
192,192,52120,1,0,0:0:0:0:
192,192,52276,1,0,0:0:0:0:
320,192,52276,1,0,0:0:0:0:
64,192,52431,1,0,0:0:0:0:
320,192,52431,128,0,52561:0:0:0:0:
448,192,52431,128,0,52561:0:0:0:0:
192,192,52587,128,0,52820:0:0:0:0:
320,192,52742,1,0,0:0:0:0:
64,192,52742,1,0,0:0:0:0:
192,192,52898,128,0,52975:0:0:0:0:
64,192,53053,128,0,53111:0:0:0:0:
192,192,53053,128,0,53105:0:0:0:0:
320,192,53053,128,0,53105:0:0:0:0:
448,192,53053,128,0,53111:0:0:0:0:
64,192,53208,1,0,0:0:0:0:
320,192,53208,1,0,0:0:0:0:
192,192,53364,128,0,53442:0:0:0:0:
448,192,53364,128,0,53442:0:0:0:0:
64,192,53519,1,0,0:0:0:0:
448,192,53675,1,0,0:0:0:0:
64,192,53675,128,0,53804:0:0:0:0:
192,192,53675,128,0,53804:0:0:0:0:
320,192,53830,128,0,53908:0:0:0:0:
448,192,53830,128,0,53908:0:0:0:0:
448,192,53986,1,0,0:0:0:0:
192,192,54141,1,0,0:0:0:0:
320,192,54141,1,0,0:0:0:0:
64,192,54296,1,0,0:0:0:0:
448,192,54452,128,0,54530:0:0:0:0:
192,192,54452,1,0,0:0:0:0:
192,192,54607,1,0,0:0:0:0:
320,192,54763,1,0,0:0:0:0:
448,192,54841,1,0,0:0:0:0:
320,192,54918,1,0,0:0:0:0:
64,192,54918,128,0,55048:0:0:0:0:
192,192,54918,128,0,55048:0:0:0:0:
448,192,55074,128,0,55307:0:0:0:0:
192,192,55074,1,0,0:0:0:0:
64,192,55229,1,0,0:0:0:0:
448,192,55385,128,0,55462:0:0:0:0:
64,192,55385,1,0,0:0:0:0:
448,192,55540,1,0,0:0:0:0:
320,192,55540,1,0,0:0:0:0:
448,192,55695,1,0,0:0:0:0:
192,192,55695,1,0,0:0:0:0:
320,192,55851,128,0,55929:0:0:0:0:
64,192,55851,128,0,55929:0:0:0:0:
448,192,56006,1,0,0:0:0:0:
64,192,56162,1,0,0:0:0:0:
320,192,56162,128,0,56291:0:0:0:0:
448,192,56162,128,0,56291:0:0:0:0:
192,192,56317,128,0,56395:0:0:0:0:
320,192,56317,128,0,56395:0:0:0:0:
64,192,56473,1,0,0:0:0:0:
320,192,56628,1,0,0:0:0:0:
64,192,56628,1,0,0:0:0:0:
448,192,56784,1,0,0:0:0:0:
64,192,56939,128,0,57017:0:0:0:0:
320,192,56939,128,0,57198:0:0:0:0:
192,192,57094,1,0,0:0:0:0:
192,192,57250,1,0,0:0:0:0:
320,192,57250,1,0,0:0:0:0:
64,192,57405,1,0,0:0:0:0:
320,192,57405,128,0,57535:0:0:0:0:
448,192,57405,128,0,57535:0:0:0:0:
192,192,57561,128,0,57794:0:0:0:0:
320,192,57627,128,0,57672:0:0:0:0:
448,192,57672,128,0,57716:0:0:0:0:
64,192,57716,1,0,0:0:0:0:
320,192,57761,128,0,57894:0:0:0:0:
192,192,57872,128,0,57949:0:0:0:0:
64,192,58027,1,0,0:0:0:0:
448,192,58027,1,0,0:0:0:0:
64,192,58183,1,0,0:0:0:0:
320,192,58183,1,0,0:0:0:0:
192,192,58338,128,0,58416:0:0:0:0:
448,192,58338,128,0,58416:0:0:0:0:
64,192,58493,1,0,0:0:0:0:
448,192,58649,1,0,0:0:0:0:
64,192,58649,128,0,58778:0:0:0:0:
192,192,58649,128,0,58778:0:0:0:0:
320,192,58804,128,0,58882:0:0:0:0:
448,192,58804,128,0,58882:0:0:0:0:
448,192,58960,1,0,0:0:0:0:
192,192,59115,1,0,0:0:0:0:
320,192,59115,1,0,0:0:0:0:
64,192,59271,1,0,0:0:0:0:
448,192,59426,128,0,59504:0:0:0:0:
192,192,59426,1,0,0:0:0:0:
192,192,59581,1,0,0:0:0:0:
320,192,59737,1,0,0:0:0:0:
64,192,59737,1,0,0:0:0:0:
448,192,59815,1,0,0:0:0:0:
320,192,59892,1,0,0:0:0:0:
192,192,59892,128,0,60022:0:0:0:0:
64,192,59892,128,0,60022:0:0:0:0:
448,192,60048,128,0,60281:0:0:0:0:
192,192,60048,128,0,60307:0:0:0:0:
64,192,60203,1,0,0:0:0:0:
448,192,60359,128,0,60436:0:0:0:0:
192,192,60359,1,0,0:0:0:0:
448,192,60514,1,0,0:0:0:0:
320,192,60514,1,0,0:0:0:0:
448,192,60670,1,0,0:0:0:0:
192,192,60670,1,0,0:0:0:0:
320,192,60825,128,0,60903:0:0:0:0:
64,192,60825,128,0,60903:0:0:0:0:
448,192,60980,1,0,0:0:0:0:
64,192,61136,1,0,0:0:0:0:
320,192,61136,128,0,61225:0:0:0:0:
448,192,61136,128,0,61225:0:0:0:0:
192,192,61291,128,0,61369:0:0:0:0:
320,192,61291,128,0,61550:0:0:0:0:
64,192,61447,1,0,0:0:0:0:
320,192,61602,1,0,0:0:0:0:
64,192,61602,1,0,0:0:0:0:
448,192,61758,1,0,0:0:0:0:
64,192,61913,128,0,61991:0:0:0:0:
320,192,61913,128,0,62172:0:0:0:0:
192,192,62069,1,0,0:0:0:0:
192,192,62224,1,0,0:0:0:0:
320,192,62224,1,0,0:0:0:0:
64,192,62379,1,0,0:0:0:0:
320,192,62379,128,0,62509:0:0:0:0:
448,192,62379,128,0,62509:0:0:0:0:
192,192,62535,128,0,62768:0:0:0:0:
64,192,62690,1,0,0:0:0:0:
320,192,62690,128,0,62898:0:0:0:0:
192,192,62846,128,0,62949:0:0:0:0:
320,192,62975,128,0,63027:0:0:0:0:
64,192,63001,1,0,0:0:0:0:
448,192,63027,128,0,65980:0:0:0:0:
64,192,63312,1,0,0:0:0:0:
64,192,63467,1,0,0:0:0:0:
64,192,63778,1,0,0:0:0:0:
64,192,64089,1,0,0:0:0:0:
64,192,64400,1,0,0:0:0:0:
64,192,64711,1,0,0:0:0:0:
64,192,64866,1,0,0:0:0:0:
64,192,65177,1,0,0:0:0:0:
64,192,65488,1,0,0:0:0:0:
64,192,65799,1,0,0:0:0:0:
64,192,65955,1,0,0:0:0:0:
64,192,66265,1,0,0:0:0:0:
64,192,66576,1,0,0:0:0:0:
192,192,66654,1,0,0:0:0:0:
320,192,66706,1,0,0:0:0:0:
448,192,66732,1,0,0:0:0:0:
192,192,66784,1,0,0:0:0:0:
320,192,66835,1,0,0:0:0:0:
64,192,66887,1,0,0:0:0:0:
320,192,67043,1,0,0:0:0:0:
448,192,67094,1,0,0:0:0:0:
192,192,67146,1,0,0:0:0:0:
64,192,67198,1,0,0:0:0:0:
320,192,67224,1,0,0:0:0:0:
448,192,67250,1,0,0:0:0:0:
192,192,67276,1,0,0:0:0:0:
320,192,67302,1,0,0:0:0:0:
448,192,67328,1,0,0:0:0:0:
64,192,67353,1,0,0:0:0:0:
64,192,67664,128,0,67820:0:0:0:0:
192,192,67975,128,0,68338:0:0:0:0:
448,192,68027,128,0,68364:0:0:0:0:
448,192,68442,128,0,68571:0:0:0:0:
320,192,68597,128,0,68701:0:0:0:0:
64,192,68597,128,0,68649:0:0:0:0:
192,192,68649,128,0,68727:0:0:0:0:
64,192,68908,128,0,69193:0:0:0:0:
192,192,69219,128,0,69607:0:0:0:0:
448,192,69271,128,0,69633:0:0:0:0:
448,192,69711,128,0,69789:0:0:0:0:
64,192,69841,128,0,69892:0:0:0:0:
448,192,69866,128,0,70203:0:0:0:0:
192,192,69892,128,0,70151:0:0:0:0:
448,192,70462,128,0,70592:0:0:0:0:
320,192,70566,128,0,70721:0:0:0:0:
64,192,70618,128,0,70721:0:0:0:0:
64,192,70799,128,0,70903:0:0:0:0:
192,192,70929,128,0,71058:0:0:0:0:
320,192,71006,128,0,71162:0:0:0:0:
64,192,71084,128,0,71136:0:0:0:0:
448,192,71110,1,0,0:0:0:0:
448,192,71239,128,0,71317:0:0:0:0:
320,192,71395,128,0,71499:0:0:0:0:
192,192,71550,128,0,71784:0:0:0:0:
64,192,71628,128,0,71732:0:0:0:0:
320,192,71809,128,0,71965:0:0:0:0:
448,192,71861,128,0,71939:0:0:0:0:
192,192,71991,128,0,72146:0:0:0:0:
320,192,72172,128,0,72302:0:0:0:0:
192,192,72276,128,0,72405:0:0:0:0:
448,192,72328,128,0,72379:0:0:0:0:
64,192,72353,1,0,0:0:0:0:
64,192,72483,128,0,72561:0:0:0:0:
192,192,72638,128,0,72716:0:0:0:0:
320,192,72690,128,0,72898:0:0:0:0:
448,192,72742,128,0,72820:0:0:0:0:
192,192,72949,128,0,73079:0:0:0:0:
448,192,73105,128,0,73234:0:0:0:0:
448,192,73416,128,0,73519:0:0:0:0:
448,192,73571,128,0,73623:0:0:0:0:
320,192,73623,128,0,73752:0:0:0:0:
64,192,73649,128,0,73856:0:0:0:0:
448,192,73727,128,0,73856:0:0:0:0:
320,192,73882,128,0,74012:0:0:0:0:
192,192,74037,128,0,74115:0:0:0:0:
320,192,74193,128,0,74322:0:0:0:0:
64,192,74348,128,0,74478:0:0:0:0:
64,192,74659,128,0,74737:0:0:0:0:
64,192,74815,128,0,74866:0:0:0:0:
192,192,74866,128,0,74996:0:0:0:0:
448,192,74892,128,0,75100:0:0:0:0:
64,192,74970,128,0,75100:0:0:0:0:
192,192,75126,128,0,75255:0:0:0:0:
320,192,75281,128,0,75359:0:0:0:0:
64,192,75436,128,0,75592:0:0:0:0:
320,192,75488,128,0,75618:0:0:0:0:
448,192,75514,128,0,75695:0:0:0:0:
64,192,75721,128,0,75825:0:0:0:0:
192,192,75903,128,0,76006:0:0:0:0:
448,192,76058,128,0,76110:0:0:0:0:
64,192,76084,1,0,0:0:0:0:
448,192,76214,128,0,76291:0:0:0:0:
448,192,76395,128,0,76550:0:0:0:0:
320,192,76524,128,0,76628:0:0:0:0:
192,192,76576,128,0,76654:0:0:0:0:
64,192,76680,128,0,76809:0:0:0:0:
320,192,76784,128,0,76861:0:0:0:0:
448,192,76835,128,0,77017:0:0:0:0:
192,192,76887,128,0,77017:0:0:0:0:
192,192,77146,128,0,77302:0:0:0:0:
64,192,77302,128,0,77353:0:0:0:0:
448,192,77328,1,0,0:0:0:0:
64,192,77457,128,0,77535:0:0:0:0:
64,192,77638,128,0,77794:0:0:0:0:
320,192,77923,128,0,77986:0:0:0:0:
448,192,77923,128,0,78208:0:0:0:0:
192,192,77923,1,0,0:0:0:0:
320,192,78079,1,0,0:0:0:0:
192,192,78234,128,0,78338:0:0:0:0:
320,192,78390,128,0,78519:0:0:0:0:
64,192,78545,128,0,78675:0:0:0:0:
448,192,78571,128,0,78675:0:0:0:0:
192,192,78727,128,0,78830:0:0:0:0:
64,192,78882,128,0,78986:0:0:0:0:
192,192,79012,128,0,79141:0:0:0:0:
448,192,79322,128,0,79530:0:0:0:0:
320,192,79504,128,0,79659:0:0:0:0:
192,192,79607,128,0,79685:0:0:0:0:
64,192,79633,1,0,0:0:0:0:
448,192,79789,128,0,79918:0:0:0:0:
64,192,79815,128,0,79918:0:0:0:0:
320,192,79970,128,0,80074:0:0:0:0:
448,192,80126,128,0,80229:0:0:0:0:
320,192,80255,128,0,80385:0:0:0:0:
64,192,80255,1,0,0:0:0:0:
192,192,80410,1,0,0:0:0:0:
320,192,80566,1,0,0:0:0:0:
192,192,80721,128,0,80851:0:0:0:0:
320,192,80877,128,0,80980:0:0:0:0:
64,192,81032,128,0,81162:0:0:0:0:
448,192,81058,128,0,81162:0:0:0:0:
192,192,81214,128,0,81317:0:0:0:0:
64,192,81369,128,0,81473:0:0:0:0:
192,192,81499,128,0,81628:0:0:0:0:
448,192,81654,128,0,81784:0:0:0:0:
320,192,81809,128,0,81939:0:0:0:0:
192,192,81965,128,0,82146:0:0:0:0:
320,192,82094,128,0,82224:0:0:0:0:
64,192,82120,1,0,0:0:0:0:
448,192,82276,128,0,82405:0:0:0:0:
64,192,82302,128,0,82405:0:0:0:0:
320,192,82457,128,0,82561:0:0:0:0:
448,192,82613,128,0,82716:0:0:0:0:
64,192,82742,1,0,0:0:0:0:
320,192,82742,128,0,82872:0:0:0:0:
64,192,82898,128,0,83027:0:0:0:0:
192,192,82975,128,0,83183:0:0:0:0:
320,192,83053,128,0,83131:0:0:0:0:
64,192,83234,128,0,83442:0:0:0:0:
320,192,83364,1,0,0:0:0:0:
64,192,83519,128,0,83649:0:0:0:0:
448,192,83545,128,0,83649:0:0:0:0:
192,192,83701,128,0,83804:0:0:0:0:
64,192,83856,128,0,83960:0:0:0:0:
192,192,83986,128,0,84115:0:0:0:0:
448,192,84141,128,0,84271:0:0:0:0:
64,192,84271,128,0,84426:0:0:0:0:
192,192,84452,128,0,84556:0:0:0:0:
64,192,84607,1,0,0:0:0:0:
320,192,84659,128,0,84815:0:0:0:0:
448,192,84763,128,0,84892:0:0:0:0:
64,192,84789,128,0,84892:0:0:0:0:
192,192,84944,128,0,85048:0:0:0:0:
320,192,85074,128,0,85203:0:0:0:0:
64,192,85229,1,0,0:0:0:0:
192,192,85385,128,0,85514:0:0:0:0:
320,192,85540,128,0,85670:0:0:0:0:
448,192,85695,128,0,85877:0:0:0:0:
320,192,85799,128,0,85903:0:0:0:0:
192,192,85851,128,0,85980:0:0:0:0:
320,192,86006,128,0,86136:0:0:0:0:
448,192,86032,128,0,86136:0:0:0:0:
192,192,86473,128,0,86809:0:0:0:0:
64,192,86784,128,0,86887:0:0:0:0:
192,192,86939,128,0,87069:0:0:0:0:
64,192,87094,128,0,87198:0:0:0:0:
192,192,87250,128,0,87379:0:0:0:0:
64,192,87276,128,0,87664:0:0:0:0:
320,192,87405,128,0,87483:0:0:0:0:
448,192,87457,128,0,87561:0:0:0:0:
320,192,87587,128,0,87690:0:0:0:0:
64,192,87742,128,0,87846:0:0:0:0:
192,192,87872,128,0,88079:0:0:0:0:
64,192,87975,128,0,88105:0:0:0:0:
320,192,88027,128,0,88105:0:0:0:0:
448,192,88079,128,0,88208:0:0:0:0:
192,192,88183,128,0,88260:0:0:0:0:
320,192,88234,1,0,0:0:0:0:
192,192,88338,128,0,88467:0:0:0:0:
320,192,88493,128,0,88675:0:0:0:0:
448,192,88519,128,0,88623:0:0:0:0:
192,192,88649,128,0,88856:0:0:0:0:
448,192,88804,1,0,0:0:0:0:
192,192,88960,128,0,89167:0:0:0:0:
64,192,89115,1,0,0:0:0:0:
64,192,89219,128,0,89348:0:0:0:0:
192,192,89271,128,0,89478:0:0:0:0:
448,192,89271,128,0,89348:0:0:0:0:
320,192,89322,128,0,89426:0:0:0:0:
448,192,89426,1,0,0:0:0:0:
192,192,89581,128,0,89659:0:0:0:0:
192,192,89737,128,0,89944:0:0:0:0:
64,192,89763,128,0,89866:0:0:0:0:
192,192,90048,128,0,90255:0:0:0:0:
448,192,90126,1,0,0:0:0:0:
192,192,90359,128,0,90566:0:0:0:0:
64,192,90462,128,0,90592:0:0:0:0:
320,192,90514,128,0,90592:0:0:0:0:
448,192,90566,128,0,90695:0:0:0:0:
192,192,90670,128,0,90747:0:0:0:0:
320,192,90721,1,0,0:0:0:0:
192,192,90825,128,0,91032:0:0:0:0:
320,192,90980,128,0,91110:0:0:0:0:
448,192,91006,128,0,91084:0:0:0:0:
64,192,91084,128,0,91188:0:0:0:0:
192,192,91136,128,0,91265:0:0:0:0:
448,192,91265,1,0,0:0:0:0:
64,192,91317,128,0,91421:0:0:0:0:
192,192,91447,128,0,91654:0:0:0:0:
64,192,91602,1,0,0:0:0:0:
64,192,91706,128,0,91835:0:0:0:0:
192,192,91758,128,0,91965:0:0:0:0:
448,192,91758,128,0,91835:0:0:0:0:
320,192,91809,128,0,91913:0:0:0:0:
448,192,91913,1,0,0:0:0:0:
192,192,92069,128,0,92146:0:0:0:0:
192,192,92224,128,0,92431:0:0:0:0:
64,192,92250,128,0,92353:0:0:0:0:
320,192,92379,1,0,0:0:0:0:
64,192,92457,1,0,0:0:0:0:
192,192,92535,128,0,92742:0:0:0:0:
448,192,92613,1,0,0:0:0:0:
192,192,92846,128,0,93053:0:0:0:0:
64,192,92949,128,0,93079:0:0:0:0:
320,192,93001,128,0,93079:0:0:0:0:
448,192,93053,128,0,93183:0:0:0:0:
192,192,93157,128,0,93234:0:0:0:0:
320,192,93208,1,0,0:0:0:0:
192,192,93312,128,0,93519:0:0:0:0:
320,192,93467,128,0,93597:0:0:0:0:
448,192,93493,128,0,93571:0:0:0:0:
64,192,93571,128,0,93675:0:0:0:0:
192,192,93623,128,0,93752:0:0:0:0:
448,192,93752,1,0,0:0:0:0:
64,192,93804,128,0,93908:0:0:0:0:
192,192,93934,128,0,94193:0:0:0:0:
64,192,94063,128,0,94219:0:0:0:0:
192,192,94296,128,0,94374:0:0:0:0:
448,192,94348,128,0,94478:0:0:0:0:
192,192,94504,128,0,94607:0:0:0:0:
320,192,94556,128,0,94659:0:0:0:0:
192,192,94711,128,0,94841:0:0:0:0:
320,192,94763,128,0,94841:0:0:0:0:
192,192,94918,128,0,95074:0:0:0:0:
64,192,94944,128,0,95048:0:0:0:0:
192,192,95126,128,0,95307:0:0:0:0:
448,192,95177,128,0,95307:0:0:0:0:
192,192,95333,5,0,0:0:0:0:
320,192,95422,128,0,95599:0:0:0:0:
192,192,95466,128,0,96731:0:0:0:0:
64,192,95599,1,0,0:0:0:0:
320,192,95713,128,0,96542:0:0:0:0:
64,192,96576,5,0,0:0:0:0:
64,192,97172,128,0,97276:0:0:0:0:
192,192,97198,128,0,97276:0:0:0:0:
320,192,97198,128,0,97250:0:0:0:0:
448,192,97198,128,0,97405:0:0:0:0:
192,192,97353,1,0,0:0:0:0:
320,192,97379,128,0,97509:0:0:0:0:
192,192,97483,128,0,97587:0:0:0:0:
64,192,97561,128,0,97638:0:0:0:0:
192,192,97664,1,0,0:0:0:0:
64,192,97716,1,0,0:0:0:0:
64,192,97794,128,0,97898:0:0:0:0:
192,192,97820,128,0,97898:0:0:0:0:
320,192,97820,128,0,97898:0:0:0:0:
448,192,97820,128,0,98105:0:0:0:0:
320,192,97975,128,0,98182:0:0:0:0:
192,192,98131,128,0,98208:0:0:0:0:
448,192,98234,128,0,98390:0:0:0:0:
320,192,98286,1,0,0:0:0:0:
192,192,98312,128,0,98416:0:0:0:0:
64,192,98338,128,0,98416:0:0:0:0:
320,192,98442,128,0,98519:0:0:0:0:
448,192,98442,128,0,98571:0:0:0:0:
64,192,98597,128,0,98830:0:0:0:0:
448,192,98701,128,0,98856:0:0:0:0:
192,192,98752,128,0,98804:0:0:0:0:
320,192,98778,128,0,98882:0:0:0:0:
192,192,98908,1,0,0:0:0:0:
64,192,98934,128,0,99115:0:0:0:0:
192,192,99012,128,0,99141:0:0:0:0:
320,192,99063,128,0,99167:0:0:0:0:
448,192,99089,128,0,99193:0:0:0:0:
320,192,99219,128,0,99296:0:0:0:0:
448,192,99322,128,0,99504:0:0:0:0:
64,192,99374,128,0,99452:0:0:0:0:
64,192,99530,1,0,0:0:0:0:
192,192,99556,128,0,99659:0:0:0:0:
320,192,99581,128,0,99659:0:0:0:0:
448,192,99607,128,0,99659:0:0:0:0:
192,192,99685,128,0,99815:0:0:0:0:
64,192,99685,128,0,99763:0:0:0:0:
320,192,99841,128,0,100100:0:0:0:0:
448,192,99866,128,0,99970:0:0:0:0:
192,192,99996,128,0,100229:0:0:0:0:
64,192,100151,1,0,0:0:0:0:
64,192,100281,128,0,100540:0:0:0:0:
448,192,100307,128,0,100592:0:0:0:0:
192,192,100307,128,0,100385:0:0:0:0:
320,192,100307,128,0,100385:0:0:0:0:
320,192,100462,128,0,100670:0:0:0:0:
64,192,100618,128,0,100695:0:0:0:0:
448,192,100721,128,0,100877:0:0:0:0:
320,192,100773,1,0,0:0:0:0:
64,192,100799,128,0,100903:0:0:0:0:
192,192,100825,128,0,100903:0:0:0:0:
320,192,100929,128,0,101032:0:0:0:0:
448,192,100929,128,0,101058:0:0:0:0:
192,192,101084,128,0,101291:0:0:0:0:
448,192,101188,128,0,101680:0:0:0:0:
64,192,101239,128,0,101343:0:0:0:0:
192,192,101395,1,0,0:0:0:0:
64,192,101447,128,0,101602:0:0:0:0:
192,192,101499,128,0,101602:0:0:0:0:
320,192,101524,128,0,101628:0:0:0:0:
320,192,101706,128,0,101965:0:0:0:0:
448,192,101809,128,0,101991:0:0:0:0:
192,192,101861,128,0,101991:0:0:0:0:
64,192,102017,1,0,0:0:0:0:
448,192,102120,128,0,102457:0:0:0:0:
64,192,102172,128,0,102483:0:0:0:0:
320,192,102172,128,0,102302:0:0:0:0:
192,192,102198,128,0,102431:0:0:0:0:
320,192,102483,128,0,102872:0:0:0:0:
64,192,102638,1,0,0:0:0:0:
64,192,102768,128,0,102872:0:0:0:0:
192,192,102794,128,0,102872:0:0:0:0:
448,192,102794,128,0,103079:0:0:0:0:
320,192,102949,128,0,103157:0:0:0:0:
192,192,103105,128,0,103182:0:0:0:0:
448,192,103208,128,0,103364:0:0:0:0:
320,192,103260,1,0,0:0:0:0:
192,192,103286,128,0,103390:0:0:0:0:
64,192,103312,128,0,103390:0:0:0:0:
320,192,103416,128,0,103493:0:0:0:0:
448,192,103416,128,0,103545:0:0:0:0:
64,192,103571,128,0,103804:0:0:0:0:
448,192,103675,128,0,103830:0:0:0:0:
192,192,103727,128,0,103778:0:0:0:0:
320,192,103752,128,0,103856:0:0:0:0:
192,192,103882,1,0,0:0:0:0:
64,192,103908,128,0,104089:0:0:0:0:
192,192,103986,128,0,104115:0:0:0:0:
320,192,104037,128,0,104141:0:0:0:0:
448,192,104063,128,0,104167:0:0:0:0:
320,192,104193,128,0,104271:0:0:0:0:
448,192,104296,128,0,104478:0:0:0:0:
64,192,104348,128,0,104426:0:0:0:0:
64,192,104504,1,0,0:0:0:0:
192,192,104530,128,0,104633:0:0:0:0:
320,192,104556,128,0,104633:0:0:0:0:
448,192,104581,128,0,104633:0:0:0:0:
192,192,104659,128,0,104789:0:0:0:0:
64,192,104659,128,0,104737:0:0:0:0:
320,192,104815,128,0,105074:0:0:0:0:
448,192,104841,128,0,104944:0:0:0:0:
192,192,104970,128,0,105203:0:0:0:0:
64,192,105126,1,0,0:0:0:0:
64,192,105255,128,0,105359:0:0:0:0:
448,192,105281,128,0,105566:0:0:0:0:
192,192,105281,128,0,105359:0:0:0:0:
320,192,105281,128,0,105359:0:0:0:0:
320,192,105436,128,0,105644:0:0:0:0:
64,192,105592,128,0,105670:0:0:0:0:
448,192,105695,128,0,105851:0:0:0:0:
320,192,105747,1,0,0:0:0:0:
64,192,105773,128,0,105877:0:0:0:0:
192,192,105799,128,0,105877:0:0:0:0:
320,192,105903,128,0,105980:0:0:0:0:
448,192,105903,128,0,106032:0:0:0:0:
192,192,106058,128,0,106265:0:0:0:0:
320,192,106058,128,0,106214:0:0:0:0:
448,192,106162,128,0,106473:0:0:0:0:
64,192,106214,128,0,106291:0:0:0:0:
192,192,106369,1,0,0:0:0:0:
64,192,106395,128,0,106576:0:0:0:0:
320,192,106499,128,0,106602:0:0:0:0:
448,192,106524,128,0,106654:0:0:0:0:
320,192,106680,128,0,106939:0:0:0:0:
64,192,106680,128,0,106887:0:0:0:0:
448,192,106784,128,0,106965:0:0:0:0:
192,192,106835,128,0,106965:0:0:0:0:
64,192,106991,1,0,0:0:0:0:
448,192,107094,128,0,107431:0:0:0:0:
64,192,107146,128,0,107457:0:0:0:0:
320,192,107146,128,0,107276:0:0:0:0:
192,192,107172,128,0,107405:0:0:0:0:
320,192,107457,128,0,107820:0:0:0:0:
192,192,107483,128,0,107561:0:0:0:0:
64,192,107613,1,0,0:0:0:0:
192,192,107768,128,0,107820:0:0:0:0:
448,192,107768,128,0,107975:0:0:0:0:
64,192,107768,128,0,108182:0:0:0:0:
320,192,107923,128,0,108131:0:0:0:0:
192,192,108053,128,0,108157:0:0:0:0:
448,192,108079,128,0,108157:0:0:0:0:
320,192,108234,1,0,0:0:0:0:
192,192,108260,128,0,108338:0:0:0:0:
64,192,108390,128,0,108778:0:0:0:0:
192,192,108390,128,0,108519:0:0:0:0:
448,192,108545,128,0,108623:0:0:0:0:
192,192,108675,128,0,108752:0:0:0:0:
448,192,108701,128,0,108804:0:0:0:0:
320,192,108830,128,0,109063:0:0:0:0:
192,192,108856,1,0,0:0:0:0:
192,192,109012,128,0,109089:0:0:0:0:
64,192,109037,128,0,109271:0:0:0:0:
448,192,109167,128,0,109245:0:0:0:0:
320,192,109167,128,0,109271:0:0:0:0:
192,192,109322,128,0,109426:0:0:0:0:
64,192,109348,128,0,109426:0:0:0:0:
192,192,109478,1,0,0:0:0:0:
448,192,109478,128,0,109556:0:0:0:0:
320,192,109556,128,0,109659:0:0:0:0:
448,192,109633,128,0,109763:0:0:0:0:
64,192,109633,128,0,109815:0:0:0:0:
192,192,109633,128,0,109711:0:0:0:0:
192,192,109789,128,0,109892:0:0:0:0:
320,192,109841,128,0,110022:0:0:0:0:
448,192,109892,128,0,109970:0:0:0:0:
64,192,110048,128,0,110177:0:0:0:0:
192,192,110100,1,0,0:0:0:0:
64,192,110255,128,0,110333:0:0:0:0:
192,192,110255,128,0,110359:0:0:0:0:
320,192,110255,128,0,110359:0:0:0:0:
64,192,110410,128,0,110527:0:0:0:0:
192,192,110546,128,0,110682:0:0:0:0:
320,192,110566,128,0,110644:0:0:0:0:
64,192,110721,1,0,0:0:0:0:
320,192,110877,128,0,111006:0:0:0:0:
64,192,110877,128,0,110980:0:0:0:0:
448,192,110903,128,0,111006:0:0:0:0:
320,192,111032,128,0,111110:0:0:0:0:
192,192,111188,128,0,111473:0:0:0:0:
64,192,111343,1,0,0:0:0:0:
320,192,111343,128,0,111499:0:0:0:0:
448,192,111447,128,0,111524:0:0:0:0:
64,192,111550,128,0,111680:0:0:0:0:
192,192,111602,128,0,111809:0:0:0:0:
320,192,111654,128,0,111732:0:0:0:0:
64,192,111784,128,0,111887:0:0:0:0:
320,192,111965,128,0,112043:0:0:0:0:
192,192,111965,1,0,0:0:0:0:
448,192,112069,128,0,112120:0:0:0:0:
192,192,112120,128,0,112483:0:0:0:0:
320,192,112120,128,0,112250:0:0:0:0:
64,192,112146,128,0,112405:0:0:0:0:
320,192,112379,128,0,112457:0:0:0:0:
448,192,112431,128,0,112561:0:0:0:0:
64,192,112587,1,0,0:0:0:0:
192,192,112742,128,0,112872:0:0:0:0:
64,192,112742,128,0,113157:0:0:0:0:
320,192,112742,128,0,112820:0:0:0:0:
320,192,112898,128,0,113105:0:0:0:0:
192,192,113027,128,0,113131:0:0:0:0:
448,192,113053,128,0,113131:0:0:0:0:
320,192,113208,1,0,0:0:0:0:
192,192,113234,128,0,113312:0:0:0:0:
64,192,113364,128,0,113752:0:0:0:0:
192,192,113364,128,0,113493:0:0:0:0:
448,192,113519,128,0,113597:0:0:0:0:
192,192,113649,128,0,113727:0:0:0:0:
448,192,113675,128,0,113778:0:0:0:0:
320,192,113804,128,0,114037:0:0:0:0:
192,192,113830,1,0,0:0:0:0:
192,192,113986,128,0,114063:0:0:0:0:
64,192,114012,128,0,114245:0:0:0:0:
448,192,114141,128,0,114219:0:0:0:0:
320,192,114141,128,0,114245:0:0:0:0:
192,192,114296,128,0,114400:0:0:0:0:
64,192,114322,128,0,114400:0:0:0:0:
192,192,114452,1,0,0:0:0:0:
448,192,114452,128,0,114530:0:0:0:0:
320,192,114530,128,0,114633:0:0:0:0:
448,192,114607,128,0,114737:0:0:0:0:
64,192,114607,128,0,114789:0:0:0:0:
192,192,114607,128,0,114685:0:0:0:0:
192,192,114763,128,0,114866:0:0:0:0:
320,192,114815,128,0,114996:0:0:0:0:
448,192,114866,128,0,114944:0:0:0:0:
64,192,115022,128,0,115203:0:0:0:0:
192,192,115074,128,0,115177:0:0:0:0:
192,192,115385,1,0,0:0:0:0:
192,192,115540,1,0,0:0:0:0:
64,192,115851,1,0,0:0:0:0:
192,192,116006,1,0,0:0:0:0:
192,192,116162,128,0,116239:0:0:0:0:
320,192,116473,128,0,116576:0:0:0:0:
320,192,116628,1,0,0:0:0:0:
448,192,116784,128,0,116913:0:0:0:0:
320,192,117094,128,0,117198:0:0:0:0:
320,192,117250,1,0,0:0:0:0:
448,192,117405,128,0,118312:0:0:0:0:
448,192,118416,1,0,0:0:0:0:
448,192,118545,1,0,0:0:0:0:
448,192,118675,1,0,0:0:0:0:
448,192,118804,128,0,118882:0:0:0:0:
448,192,118986,128,0,119089:0:0:0:0:
320,192,119581,128,0,119711:0:0:0:0:
448,192,119581,128,0,119711:0:0:0:0:
64,192,119607,128,0,120126:0:0:0:0:
64,192,120177,128,0,120281:0:0:0:0:
192,192,120203,128,0,120281:0:0:0:0:
320,192,120203,128,0,120281:0:0:0:0:
448,192,120203,128,0,120488:0:0:0:0:
320,192,120359,128,0,120566:0:0:0:0:
192,192,120514,128,0,120592:0:0:0:0:
448,192,120618,128,0,120773:0:0:0:0:
320,192,120670,1,0,0:0:0:0:
192,192,120695,128,0,120799:0:0:0:0:
64,192,120721,128,0,120799:0:0:0:0:
320,192,120825,128,0,120903:0:0:0:0:
448,192,120825,128,0,120955:0:0:0:0:
64,192,120980,128,0,121214:0:0:0:0:
448,192,121084,128,0,121239:0:0:0:0:
192,192,121136,128,0,121188:0:0:0:0:
320,192,121162,128,0,121265:0:0:0:0:
192,192,121291,1,0,0:0:0:0:
64,192,121317,128,0,121499:0:0:0:0:
192,192,121395,128,0,121524:0:0:0:0:
320,192,121447,128,0,121550:0:0:0:0:
448,192,121473,128,0,121576:0:0:0:0:
320,192,121602,128,0,121680:0:0:0:0:
448,192,121706,128,0,121887:0:0:0:0:
64,192,121758,128,0,121835:0:0:0:0:
64,192,121913,1,0,0:0:0:0:
192,192,121939,128,0,122043:0:0:0:0:
320,192,121965,128,0,122043:0:0:0:0:
448,192,121991,128,0,122043:0:0:0:0:
192,192,122069,128,0,122198:0:0:0:0:
64,192,122069,128,0,122146:0:0:0:0:
320,192,122224,128,0,122483:0:0:0:0:
448,192,122250,128,0,122353:0:0:0:0:
192,192,122379,128,0,122613:0:0:0:0:
64,192,122535,1,0,0:0:0:0:
64,192,122664,128,0,122768:0:0:0:0:
448,192,122690,128,0,122975:0:0:0:0:
192,192,122690,128,0,122768:0:0:0:0:
320,192,122690,128,0,122820:0:0:0:0:
192,192,122846,128,0,122975:0:0:0:0:
64,192,122872,128,0,123105:0:0:0:0:
448,192,123105,128,0,123260:0:0:0:0:
320,192,123157,1,0,0:0:0:0:
64,192,123182,128,0,123286:0:0:0:0:
448,192,123312,128,0,123442:0:0:0:0:
320,192,123312,128,0,123545:0:0:0:0:
64,192,123467,128,0,123545:0:0:0:0:
192,192,123519,128,0,123675:0:0:0:0:
448,192,123571,128,0,123882:0:0:0:0:
64,192,123623,128,0,123727:0:0:0:0:
192,192,123778,1,0,0:0:0:0:
320,192,123830,128,0,123960:0:0:0:0:
192,192,123908,128,0,124037:0:0:0:0:
64,192,123934,128,0,124012:0:0:0:0:
320,192,124063,128,0,124193:0:0:0:0:
448,192,124089,128,0,124167:0:0:0:0:
64,192,124219,128,0,124322:0:0:0:0:
448,192,124245,128,0,124374:0:0:0:0:
320,192,124271,128,0,124348:0:0:0:0:
192,192,124296,128,0,124374:0:0:0:0:
64,192,124400,1,0,0:0:0:0:
448,192,124504,128,0,124841:0:0:0:0:
192,192,124556,128,0,124633:0:0:0:0:
320,192,124556,128,0,124685:0:0:0:0:
64,192,124607,128,0,124685:0:0:0:0:
192,192,124711,128,0,124789:0:0:0:0:
64,192,124763,128,0,124841:0:0:0:0:
320,192,124815,128,0,124892:0:0:0:0:
192,192,124866,128,0,124944:0:0:0:0:
320,192,124970,128,0,125255:0:0:0:0:
64,192,125022,1,0,0:0:0:0:
448,192,125048,128,0,125462:0:0:0:0:
64,192,125151,128,0,125255:0:0:0:0:
192,192,125177,128,0,125255:0:0:0:0:
320,192,125333,128,0,125540:0:0:0:0:
192,192,125488,128,0,125566:0:0:0:0:
448,192,125592,128,0,125747:0:0:0:0:
320,192,125644,1,0,0:0:0:0:
192,192,125670,128,0,125773:0:0:0:0:
64,192,125695,128,0,125773:0:0:0:0:
320,192,125799,128,0,125877:0:0:0:0:
448,192,125799,128,0,125929:0:0:0:0:
64,192,125955,128,0,126188:0:0:0:0:
448,192,126058,128,0,126214:0:0:0:0:
192,192,126110,128,0,126162:0:0:0:0:
320,192,126136,128,0,126239:0:0:0:0:
192,192,126265,1,0,0:0:0:0:
64,192,126291,128,0,126473:0:0:0:0:
192,192,126369,128,0,126499:0:0:0:0:
320,192,126421,128,0,126524:0:0:0:0:
448,192,126447,128,0,126550:0:0:0:0:
320,192,126576,128,0,126654:0:0:0:0:
448,192,126680,128,0,126861:0:0:0:0:
64,192,126732,128,0,126809:0:0:0:0:
64,192,126887,1,0,0:0:0:0:
192,192,126913,128,0,127017:0:0:0:0:
320,192,126939,128,0,127017:0:0:0:0:
448,192,126965,128,0,127017:0:0:0:0:
192,192,127043,128,0,127172:0:0:0:0:
64,192,127043,128,0,127120:0:0:0:0:
320,192,127198,128,0,127457:0:0:0:0:
448,192,127224,128,0,127328:0:0:0:0:
192,192,127353,128,0,127587:0:0:0:0:
64,192,127509,1,0,0:0:0:0:
64,192,127638,128,0,127742:0:0:0:0:
448,192,127664,128,0,127949:0:0:0:0:
192,192,127664,128,0,127742:0:0:0:0:
320,192,127664,128,0,127794:0:0:0:0:
192,192,127820,128,0,128027:0:0:0:0:
64,192,127846,128,0,127949:0:0:0:0:
320,192,127975,128,0,128053:0:0:0:0:
448,192,128079,128,0,128234:0:0:0:0:
320,192,128131,1,0,0:0:0:0:
192,192,128182,128,0,128312:0:0:0:0:
64,192,128234,128,0,128312:0:0:0:0:
320,192,128286,128,0,128390:0:0:0:0:
448,192,128286,128,0,128416:0:0:0:0:
192,192,128442,128,0,128545:0:0:0:0:
320,192,128493,128,0,128701:0:0:0:0:
448,192,128545,128,0,128649:0:0:0:0:
192,192,128752,1,0,0:0:0:0:
64,192,128778,128,0,128986:0:0:0:0:
192,192,128908,128,0,129012:0:0:0:0:
320,192,129037,128,0,129115:0:0:0:0:
448,192,129063,128,0,129348:0:0:0:0:
64,192,129063,128,0,129296:0:0:0:0:
320,192,129219,128,0,129322:0:0:0:0:
192,192,129271,128,0,129348:0:0:0:0:
64,192,129374,1,0,0:0:0:0:
448,192,129478,128,0,129815:0:0:0:0:
64,192,129530,128,0,129659:0:0:0:0:
320,192,129530,128,0,129659:0:0:0:0:
192,192,129556,128,0,129789:0:0:0:0:
320,192,129841,128,0,130203:0:0:0:0:
192,192,129866,128,0,129944:0:0:0:0:
64,192,129996,1,0,0:0:0:0:
64,192,130151,128,0,130566:0:0:0:0:
448,192,130151,128,0,130359:0:0:0:0:
192,192,130151,128,0,130203:0:0:0:0:
320,192,130307,128,0,130514:0:0:0:0:
192,192,130436,128,0,130540:0:0:0:0:
448,192,130462,128,0,130540:0:0:0:0:
320,192,130618,1,0,0:0:0:0:
192,192,130644,128,0,130721:0:0:0:0:
192,192,130773,128,0,130903:0:0:0:0:
64,192,130773,128,0,131162:0:0:0:0:
448,192,130929,128,0,131006:0:0:0:0:
192,192,131058,128,0,131136:0:0:0:0:
448,192,131084,128,0,131188:0:0:0:0:
320,192,131214,128,0,131447:0:0:0:0:
192,192,131239,1,0,0:0:0:0:
192,192,131395,128,0,131473:0:0:0:0:
64,192,131421,128,0,131654:0:0:0:0:
320,192,131550,128,0,131654:0:0:0:0:
448,192,131550,128,0,131628:0:0:0:0:
192,192,131706,128,0,131809:0:0:0:0:
64,192,131732,128,0,131809:0:0:0:0:
448,192,131861,128,0,131939:0:0:0:0:
192,192,131861,1,0,0:0:0:0:
320,192,131939,128,0,132043:0:0:0:0:
192,192,132017,128,0,132094:0:0:0:0:
64,192,132017,128,0,132198:0:0:0:0:
448,192,132017,128,0,132146:0:0:0:0:
192,192,132172,128,0,132276:0:0:0:0:
320,192,132224,128,0,132405:0:0:0:0:
448,192,132276,128,0,132353:0:0:0:0:
64,192,132431,128,0,132561:0:0:0:0:
192,192,132483,1,0,0:0:0:0:
64,192,132613,128,0,132716:0:0:0:0:
448,192,132638,128,0,132923:0:0:0:0:
192,192,132638,128,0,132716:0:0:0:0:
320,192,132638,128,0,132768:0:0:0:0:
192,192,132794,128,0,132923:0:0:0:0:
64,192,132820,128,0,133027:0:0:0:0:
320,192,132949,128,0,133027:0:0:0:0:
64,192,133105,128,0,133208:0:0:0:0:
320,192,133260,128,0,133364:0:0:0:0:
192,192,133260,128,0,133390:0:0:0:0:
320,192,133416,128,0,133493:0:0:0:0:
448,192,133467,128,0,133701:0:0:0:0:
64,192,133519,128,0,133649:0:0:0:0:
192,192,133571,128,0,133752:0:0:0:0:
320,192,133623,128,0,133752:0:0:0:0:
64,192,133727,1,0,0:0:0:0:
448,192,133778,128,0,133856:0:0:0:0:
64,192,133882,128,0,134037:0:0:0:0:
192,192,133986,128,0,134219:0:0:0:0:
320,192,134037,128,0,134115:0:0:0:0:
64,192,134193,128,0,134296:0:0:0:0:
192,192,134348,1,0,0:0:0:0:
320,192,134348,128,0,134426:0:0:0:0:
448,192,134452,128,0,134789:0:0:0:0:
192,192,134504,128,0,134581:0:0:0:0:
320,192,134504,128,0,134633:0:0:0:0:
64,192,134556,128,0,134633:0:0:0:0:
192,192,134659,128,0,134737:0:0:0:0:
64,192,134711,128,0,134789:0:0:0:0:
320,192,134763,128,0,134841:0:0:0:0:
192,192,134815,128,0,134892:0:0:0:0:
448,192,134918,128,0,135385:0:0:0:0:
64,192,134970,1,0,0:0:0:0:
320,192,134996,128,0,135229:0:0:0:0:
192,192,135126,128,0,135203:0:0:0:0:
64,192,135126,128,0,135540:0:0:0:0:
320,192,135281,128,0,135488:0:0:0:0:
192,192,135410,128,0,135514:0:0:0:0:
448,192,135436,128,0,135514:0:0:0:0:
320,192,135592,1,0,0:0:0:0:
192,192,135618,128,0,135695:0:0:0:0:
64,192,135747,128,0,136136:0:0:0:0:
192,192,135747,128,0,135877:0:0:0:0:
448,192,135903,128,0,135980:0:0:0:0:
192,192,136032,128,0,136110:0:0:0:0:
448,192,136058,128,0,136162:0:0:0:0:
320,192,136188,128,0,136421:0:0:0:0:
192,192,136214,1,0,0:0:0:0:
192,192,136369,128,0,136447:0:0:0:0:
64,192,136395,128,0,136628:0:0:0:0:
448,192,136524,128,0,136602:0:0:0:0:
320,192,136524,128,0,136628:0:0:0:0:
192,192,136680,128,0,136784:0:0:0:0:
64,192,136706,128,0,136784:0:0:0:0:
192,192,136835,1,0,0:0:0:0:
448,192,136835,128,0,136913:0:0:0:0:
320,192,136913,128,0,137017:0:0:0:0:
448,192,136991,128,0,137120:0:0:0:0:
64,192,136991,128,0,137172:0:0:0:0:
192,192,136991,128,0,137069:0:0:0:0:
192,192,137146,128,0,137250:0:0:0:0:
320,192,137198,128,0,137379:0:0:0:0:
448,192,137250,128,0,137328:0:0:0:0:
64,192,137405,128,0,137587:0:0:0:0:
192,192,137457,128,0,137561:0:0:0:0:
192,192,137768,1,0,0:0:0:0:
192,192,137923,1,0,0:0:0:0:
64,192,138234,1,0,0:0:0:0:
192,192,138390,1,0,0:0:0:0:
192,192,138545,128,0,138623:0:0:0:0:
320,192,138856,128,0,138960:0:0:0:0:
320,192,139012,1,0,0:0:0:0:
448,192,139167,128,0,139296:0:0:0:0:
64,192,139322,1,0,0:0:0:0:
320,192,139478,128,0,139581:0:0:0:0:
320,192,139633,1,0,0:0:0:0:
448,192,139789,128,0,140333:0:0:0:0:
64,192,139944,1,0,0:0:0:0:
192,192,140100,1,0,0:0:0:0:
320,192,140255,1,0,0:0:0:0:
448,192,140410,1,0,0:0:0:0:
320,192,140566,1,0,0:0:0:0:
448,192,140877,1,0,0:0:0:0:
192,192,141188,1,0,0:0:0:0:
320,192,141299,1,0,0:0:0:0:
320,192,141432,1,0,0:0:0:0:
448,192,141499,1,0,0:0:0:0:
320,192,141565,1,0,0:0:0:0:
64,192,141809,1,0,0:0:0:0:
448,192,142120,1,0,0:0:0:0:
64,192,142431,1,0,0:0:0:0:
192,192,142587,128,0,143623:0:0:0:0:
320,192,142742,1,0,0:0:0:0:
448,192,142898,1,0,0:0:0:0:
320,192,143053,1,0,0:0:0:0:
448,192,143364,1,0,0:0:0:0:
192,192,143675,128,0,145022:0:0:0:0:
448,192,143986,1,0,0:0:0:0:
64,192,144296,1,0,0:0:0:0:
448,192,144607,1,0,0:0:0:0:
64,192,144918,1,0,0:0:0:0:
192,192,145074,128,0,145462:0:0:0:0:
448,192,145163,1,0,0:0:0:0:
320,192,145229,1,0,0:0:0:0:
448,192,145251,1,0,0:0:0:0:
64,192,145340,1,0,0:0:0:0:
448,192,145385,1,0,0:0:0:0:
320,192,145540,128,0,145825:0:0:0:0:
448,192,145851,128,0,146136:0:0:0:0:
192,192,146162,128,0,146317:0:0:0:0:
448,192,146214,1,0,0:0:0:0:
320,192,146265,1,0,0:0:0:0:
64,192,146291,1,0,0:0:0:0:
192,192,146369,1,0,0:0:0:0:
320,192,146421,1,0,0:0:0:0:
448,192,146473,1,0,0:0:0:0:
192,192,146524,1,0,0:0:0:0:
320,192,146576,1,0,0:0:0:0:
320,192,146706,1,0,0:0:0:0:
192,192,146758,1,0,0:0:0:0:
64,192,146784,1,0,0:0:0:0:
320,192,146809,1,0,0:0:0:0:
448,192,146835,1,0,0:0:0:0:
192,192,146861,1,0,0:0:0:0:
320,192,146887,1,0,0:0:0:0:
64,192,146913,1,0,0:0:0:0:
448,192,146939,1,0,0:0:0:0:
448,192,147094,128,0,147250:0:0:0:0:
320,192,147276,128,0,147405:0:0:0:0:
448,192,147328,128,0,147379:0:0:0:0:
64,192,147405,1,0,0:0:0:0:
192,192,147431,128,0,147535:0:0:0:0:
64,192,147561,128,0,148027:0:0:0:0:
192,192,147664,128,0,147794:0:0:0:0:
448,192,147716,128,0,147794:0:0:0:0:
448,192,147872,128,0,147975:0:0:0:0:
192,192,148183,128,0,148234:0:0:0:0:
64,192,148208,128,0,148312:0:0:0:0:
192,192,148286,128,0,148416:0:0:0:0:
448,192,148338,128,0,148416:0:0:0:0:
448,192,148493,128,0,148597:0:0:0:0:
192,192,148804,128,0,148934:0:0:0:0:
64,192,148960,128,0,149089:0:0:0:0:
192,192,149115,128,0,149245:0:0:0:0:
320,192,149271,128,0,149452:0:0:0:0:
448,192,149322,128,0,149426:0:0:0:0:
192,192,149426,128,0,149478:0:0:0:0:
64,192,149452,128,0,149556:0:0:0:0:
192,192,149581,128,0,149711:0:0:0:0:
320,192,149737,128,0,149815:0:0:0:0:
448,192,150048,128,0,150177:0:0:0:0:
320,192,150151,128,0,150281:0:0:0:0:
64,192,150203,128,0,150281:0:0:0:0:
64,192,150359,128,0,150462:0:0:0:0:
320,192,150670,128,0,150721:0:0:0:0:
448,192,150695,128,0,150799:0:0:0:0:
320,192,150773,128,0,150903:0:0:0:0:
64,192,150825,128,0,150903:0:0:0:0:
64,192,150980,128,0,151084:0:0:0:0:
448,192,151291,128,0,151395:0:0:0:0:
192,192,151395,128,0,151473:0:0:0:0:
64,192,151447,128,0,151602:0:0:0:0:
320,192,151602,128,0,151732:0:0:0:0:
192,192,151758,128,0,151887:0:0:0:0:
320,192,151913,128,0,151965:0:0:0:0:
448,192,151939,128,0,152017:0:0:0:0:
448,192,152094,128,0,152172:0:0:0:0:
448,192,152250,128,0,152353:0:0:0:0:
320,192,152405,128,0,152509:0:0:0:0:
192,192,152561,128,0,152664:0:0:0:0:
64,192,152690,128,0,152794:0:0:0:0:
192,192,152846,128,0,152923:0:0:0:0:
192,192,153001,128,0,153079:0:0:0:0:
192,192,153157,128,0,153208:0:0:0:0:
64,192,153183,128,0,153260:0:0:0:0:
192,192,153312,128,0,153442:0:0:0:0:
320,192,153467,128,0,153597:0:0:0:0:
448,192,153493,128,0,153597:0:0:0:0:
320,192,153778,128,0,153908:0:0:0:0:
192,192,153830,128,0,153934:0:0:0:0:
64,192,153882,128,0,154037:0:0:0:0:
64,192,154115,128,0,154167:0:0:0:0:
192,192,154245,128,0,154322:0:0:0:0:
192,192,154400,128,0,154452:0:0:0:0:
64,192,154426,128,0,154530:0:0:0:0:
320,192,154711,128,0,154789:0:0:0:0:
448,192,154866,128,0,154944:0:0:0:0:
320,192,155022,128,0,155126:0:0:0:0:
448,192,155177,128,0,155255:0:0:0:0:
448,192,155333,128,0,155410:0:0:0:0:
448,192,155488,128,0,155566:0:0:0:0:
320,192,155644,128,0,155695:0:0:0:0:
448,192,155670,128,0,155773:0:0:0:0:
320,192,155799,128,0,155877:0:0:0:0:
192,192,155851,128,0,155955:0:0:0:0:
64,192,155903,128,0,156136:0:0:0:0:
192,192,156110,128,0,156291:0:0:0:0:
320,192,156265,128,0,156395:0:0:0:0:
448,192,156343,128,0,156499:0:0:0:0:
448,192,156576,128,0,156680:0:0:0:0:
320,192,156732,128,0,156809:0:0:0:0:
320,192,156887,128,0,156939:0:0:0:0:
448,192,156913,128,0,157017:0:0:0:0:
320,192,157353,128,0,157431:0:0:0:0:
448,192,157509,128,0,157587:0:0:0:0:
64,192,157509,1,0,0:0:0:0:
320,192,157613,128,0,157742:0:0:0:0:
64,192,157664,128,0,157768:0:0:0:0:
192,192,157716,128,0,157820:0:0:0:0:
64,192,157846,128,0,158001:0:0:0:0:
192,192,157975,128,0,158157:0:0:0:0:
320,192,158131,128,0,158312:0:0:0:0:
448,192,158157,128,0,158260:0:0:0:0:
64,192,158286,1,0,0:0:0:0:
448,192,158597,128,0,158675:0:0:0:0:
192,192,158597,1,0,0:0:0:0:
320,192,158752,128,0,158882:0:0:0:0:
192,192,158856,128,0,158986:0:0:0:0:
64,192,158908,1,0,0:0:0:0:
320,192,158960,128,0,159063:0:0:0:0:
448,192,159089,128,0,159245:0:0:0:0:
320,192,159219,128,0,159400:0:0:0:0:
192,192,159374,128,0,159556:0:0:0:0:
64,192,159400,128,0,159504:0:0:0:0:
64,192,159685,1,0,0:0:0:0:
448,192,159841,128,0,159918:0:0:0:0:
192,192,159996,128,0,160074:0:0:0:0:
448,192,159996,128,0,160074:0:0:0:0:
320,192,160100,128,0,160229:0:0:0:0:
64,192,160151,128,0,160255:0:0:0:0:
192,192,160203,128,0,160307:0:0:0:0:
64,192,160333,128,0,160488:0:0:0:0:
192,192,160462,128,0,160644:0:0:0:0:
320,192,160618,128,0,160799:0:0:0:0:
448,192,160644,128,0,160747:0:0:0:0:
64,192,160773,128,0,160877:0:0:0:0:
192,192,160929,128,0,161032:0:0:0:0:
448,192,160980,128,0,161110:0:0:0:0:
320,192,161084,128,0,161162:0:0:0:0:
192,192,161136,128,0,161343:0:0:0:0:
64,192,161162,128,0,161265:0:0:0:0:
448,192,161239,128,0,161317:0:0:0:0:
64,192,161395,1,0,0:0:0:0:
320,192,161395,128,0,161524:0:0:0:0:
448,192,161550,128,0,161628:0:0:0:0:
448,192,161706,128,0,161835:0:0:0:0:
320,192,161861,128,0,161939:0:0:0:0:
192,192,161887,128,0,161991:0:0:0:0:
448,192,161965,128,0,162120:0:0:0:0:
320,192,162069,128,0,162250:0:0:0:0:
64,192,162172,1,0,0:0:0:0:
448,192,162224,128,0,162379:0:0:0:0:
320,192,162353,128,0,162457:0:0:0:0:
192,192,162483,128,0,162561:0:0:0:0:
320,192,162638,128,0,162794:0:0:0:0:
64,192,162794,128,0,162923:0:0:0:0:
192,192,162949,128,0,163053:0:0:0:0:
192,192,163105,128,0,163157:0:0:0:0:
448,192,163131,128,0,163234:0:0:0:0:
64,192,163260,128,0,163364:0:0:0:0:
192,192,163416,128,0,163493:0:0:0:0:
64,192,163467,128,0,163545:0:0:0:0:
192,192,163571,128,0,163701:0:0:0:0:
320,192,163675,128,0,163752:0:0:0:0:
448,192,163727,128,0,163856:0:0:0:0:
320,192,163882,128,0,163986:0:0:0:0:
192,192,164037,128,0,164193:0:0:0:0:
64,192,164115,128,0,164374:0:0:0:0:
192,192,164348,128,0,164400:0:0:0:0:
448,192,164374,128,0,164530:0:0:0:0:
320,192,164504,128,0,164607:0:0:0:0:
192,192,164581,128,0,164711:0:0:0:0:
64,192,164659,1,0,0:0:0:0:
320,192,164685,128,0,164763:0:0:0:0:
192,192,164970,128,0,165039:0:0:0:0:
192,192,165177,128,0,165246:0:0:0:0:
64,192,165385,128,0,165454:0:0:0:0:
320,192,165592,128,0,165661:0:0:0:0:
320,192,165799,128,0,165868:0:0:0:0:
192,192,166006,128,0,166075:0:0:0:0:
448,192,166214,128,0,166283:0:0:0:0:
448,192,166421,128,0,166490:0:0:0:0:
320,192,166628,128,0,166697:0:0:0:0:
192,192,166835,128,0,166904:0:0:0:0:
64,192,167043,128,0,167112:0:0:0:0:
64,192,167250,128,0,167353:0:0:0:0:
64,192,167457,128,0,167690:0:0:0:0:
448,192,167638,128,0,168675:0:0:0:0:
64,192,168701,128,0,169892:0:0:0:0:
448,192,169452,128,0,169918:0:0:0:0:
64,192,169944,1,0,0:0:0:0:
448,192,170048,128,0,170229:0:0:0:0:
64,192,170220,1,0,0:0:0:0:
448,192,170359,128,0,170540:0:0:0:0:
64,192,170531,1,0,0:0:0:0:
448,192,170670,128,0,170851:0:0:0:0:
64,192,170842,1,0,0:0:0:0:
448,192,170980,128,0,171162:0:0:0:0:
64,192,171153,128,0,171188:0:0:0:0:
320,192,171188,1,0,0:0:0:0:
448,192,171369,1,0,0:0:0:0:
448,192,171550,1,0,0:0:0:0:
320,192,171654,128,0,171706:0:0:0:0:
448,192,171732,128,0,171784:0:0:0:0:
320,192,171809,128,0,171939:0:0:0:0:
192,192,171809,128,0,171939:0:0:0:0:
320,192,171965,1,0,0:0:0:0:
192,192,172120,1,0,0:0:0:0:
64,192,172276,1,0,0:0:0:0:
64,192,172373,128,0,172489:0:0:0:0:
192,192,172431,128,0,172483:0:0:0:0:
320,192,172431,128,0,172483:0:0:0:0:
448,192,172431,128,0,172489:0:0:0:0:
64,192,172587,1,0,0:0:0:0:
192,192,172716,1,0,0:0:0:0:
448,192,172742,128,0,172794:0:0:0:0:
192,192,172872,1,0,0:0:0:0:
320,192,173053,128,0,173182:0:0:0:0:
448,192,173053,128,0,173182:0:0:0:0:
192,192,173105,1,0,0:0:0:0:
448,192,173208,128,0,173260:0:0:0:0:
192,192,173234,1,0,0:0:0:0:
192,192,173390,1,0,0:0:0:0:
64,192,173493,1,0,0:0:0:0:
320,192,173519,128,0,173623:0:0:0:0:
192,192,173597,1,0,0:0:0:0:
64,192,173675,1,0,0:0:0:0:
192,192,173778,1,0,0:0:0:0:
320,192,173830,128,0,173934:0:0:0:0:
64,192,173882,1,0,0:0:0:0:
192,192,173986,1,0,0:0:0:0:
64,192,174063,128,0,174141:0:0:0:0:
448,192,174141,1,0,0:0:0:0:
192,192,174167,1,0,0:0:0:0:
448,192,174219,1,0,0:0:0:0:
192,192,174296,128,0,174426:0:0:0:0:
64,192,174296,128,0,174426:0:0:0:0:
320,192,174296,1,0,0:0:0:0:
192,192,174452,1,0,0:0:0:0:
64,192,174530,1,0,0:0:0:0:
192,192,174607,1,0,0:0:0:0:
64,192,174711,1,0,0:0:0:0:
192,192,174815,128,0,174892:0:0:0:0:
64,192,174918,1,0,0:0:0:0:
320,192,174918,128,0,175022:0:0:0:0:
192,192,175022,1,0,0:0:0:0:
64,192,175074,1,0,0:0:0:0:
448,192,175229,128,0,175281:0:0:0:0:
64,192,175229,1,0,0:0:0:0:
192,192,175333,1,0,0:0:0:0:
64,192,175436,1,0,0:0:0:0:
320,192,175540,128,0,175670:0:0:0:0:
448,192,175540,128,0,175670:0:0:0:0:
64,192,175670,128,0,175747:0:0:0:0:
448,192,175695,128,0,175747:0:0:0:0:
448,192,175851,1,0,0:0:0:0:
64,192,175903,1,0,0:0:0:0:
192,192,176006,1,0,0:0:0:0:
320,192,176006,128,0,176110:0:0:0:0:
64,192,176162,1,0,0:0:0:0:
320,192,176317,128,0,176576:0:0:0:0:
192,192,176317,1,0,0:0:0:0:
448,192,176421,1,0,0:0:0:0:
192,192,176473,1,0,0:0:0:0:
448,192,176550,1,0,0:0:0:0:
320,192,176628,1,0,0:0:0:0:
64,192,176628,1,0,0:0:0:0:
448,192,176680,1,0,0:0:0:0:
192,192,176784,128,0,176913:0:0:0:0:
64,192,176784,128,0,176913:0:0:0:0:
320,192,176784,1,0,0:0:0:0:
320,192,176887,1,0,0:0:0:0:
192,192,176939,1,0,0:0:0:0:
320,192,176991,1,0,0:0:0:0:
64,192,177094,1,0,0:0:0:0:
448,192,177250,1,0,0:0:0:0:
192,192,177405,1,0,0:0:0:0:
448,192,177405,1,0,0:0:0:0:
192,192,177561,1,0,0:0:0:0:
448,192,177716,128,0,177768:0:0:0:0:
64,192,177716,1,0,0:0:0:0:
192,192,177872,1,0,0:0:0:0:
192,192,177949,128,0,178008:0:0:0:0:
320,192,178027,128,0,178157:0:0:0:0:
448,192,178027,128,0,178157:0:0:0:0:
448,192,178182,128,0,178234:0:0:0:0:
192,192,178234,128,0,178312:0:0:0:0:
64,192,178338,1,0,0:0:0:0:
320,192,178455,128,0,178532:0:0:0:0:
192,192,178493,1,0,0:0:0:0:
448,192,178675,128,0,178752:0:0:0:0:
192,192,178804,1,0,0:0:0:0:
320,192,178843,128,0,178921:0:0:0:0:
64,192,178960,1,0,0:0:0:0:
192,192,179115,1,0,0:0:0:0:
320,192,179115,128,0,179193:0:0:0:0:
448,192,179193,1,0,0:0:0:0:
192,192,179271,128,0,179400:0:0:0:0:
64,192,179271,128,0,179400:0:0:0:0:
320,192,179290,128,0,179368:0:0:0:0:
192,192,179426,128,0,179685:0:0:0:0:
448,192,179478,128,0,179737:0:0:0:0:
64,192,179711,128,0,179763:0:0:0:0:
320,192,179737,1,0,0:0:0:0:
320,192,179892,1,0,0:0:0:0:
192,192,179892,1,0,0:0:0:0:
192,192,179996,1,0,0:0:0:0:
448,192,180048,1,0,0:0:0:0:
192,192,180100,1,0,0:0:0:0:
448,192,180203,128,0,180255:0:0:0:0:
192,192,180307,1,0,0:0:0:0:
448,192,180359,1,0,0:0:0:0:
192,192,180514,128,0,180644:0:0:0:0:
64,192,180514,128,0,180644:0:0:0:0:
448,192,180514,1,0,0:0:0:0:
192,192,180670,128,0,180929:0:0:0:0:
448,192,180670,128,0,180721:0:0:0:0:
320,192,180721,128,0,180799:0:0:0:0:
320,192,180929,128,0,181006:0:0:0:0:
64,192,180980,1,0,0:0:0:0:
192,192,180980,1,0,0:0:0:0:
192,192,181239,128,0,181317:0:0:0:0:
64,192,181291,1,0,0:0:0:0:
320,192,181291,128,0,181524:0:0:0:0:
448,192,181343,128,0,181421:0:0:0:0:
320,192,181576,128,0,181654:0:0:0:0:
192,192,181602,1,0,0:0:0:0:
448,192,181706,1,0,0:0:0:0:
320,192,181758,128,0,181887:0:0:0:0:
192,192,181758,128,0,181887:0:0:0:0:
64,192,181861,1,0,0:0:0:0:
192,192,181913,1,0,0:0:0:0:
448,192,181965,128,0,182043:0:0:0:0:
320,192,182069,1,0,0:0:0:0:
64,192,182069,1,0,0:0:0:0:
64,192,182224,128,0,182302:0:0:0:0:
448,192,182379,1,0,0:0:0:0:
320,192,182379,128,0,182431:0:0:0:0:
192,192,182379,128,0,182431:0:0:0:0:
448,192,182483,128,0,182561:0:0:0:0:
192,192,182613,128,0,182690:0:0:0:0:
448,192,182690,128,0,182742:0:0:0:0:
64,192,182690,128,0,182768:0:0:0:0:
320,192,182846,1,0,0:0:0:0:
64,192,182898,128,0,182975:0:0:0:0:
448,192,183001,128,0,183131:0:0:0:0:
320,192,183001,128,0,183131:0:0:0:0:
448,192,183157,128,0,183208:0:0:0:0:
192,192,183208,128,0,183390:0:0:0:0:
64,192,183312,1,0,0:0:0:0:
320,192,183467,128,0,183571:0:0:0:0:
192,192,183467,1,0,0:0:0:0:
448,192,183649,128,0,183727:0:0:0:0:
192,192,183778,128,0,184012:0:0:0:0:
320,192,183830,128,0,183908:0:0:0:0:
64,192,183934,1,0,0:0:0:0:
192,192,184089,128,0,184167:0:0:0:0:
64,192,184167,1,0,0:0:0:0:
448,192,184245,128,0,184374:0:0:0:0:
320,192,184245,128,0,184374:0:0:0:0:
192,192,184271,128,0,184348:0:0:0:0:
320,192,184400,1,0,0:0:0:0:
192,192,184452,1,0,0:0:0:0:
448,192,184556,1,0,0:0:0:0:
64,192,184685,1,0,0:0:0:0:
320,192,184711,1,0,0:0:0:0:
64,192,184866,128,0,184970:0:0:0:0:
320,192,184866,128,0,184944:0:0:0:0:
192,192,184970,128,0,185022:0:0:0:0:
448,192,185177,128,0,185229:0:0:0:0:
64,192,185333,128,0,185359:0:0:0:0:
64,192,185410,128,0,185488:0:0:0:0:
192,192,185488,128,0,185618:0:0:0:0:
320,192,185488,128,0,185618:0:0:0:0:
448,192,185644,128,0,185695:0:0:0:0:
192,192,185721,128,0,185799:0:0:0:0:
64,192,185799,1,0,0:0:0:0:
192,192,185955,128,0,186162:0:0:0:0:
320,192,185955,1,0,0:0:0:0:
448,192,186110,1,0,0:0:0:0:
448,192,186265,128,0,186524:0:0:0:0:
192,192,186265,1,0,0:0:0:0:
64,192,186421,1,0,0:0:0:0:
320,192,186499,128,0,186576:0:0:0:0:
192,192,186576,1,0,0:0:0:0:
448,192,186628,1,0,0:0:0:0:
64,192,186732,128,0,186861:0:0:0:0:
192,192,186732,128,0,186861:0:0:0:0:
448,192,186732,1,0,0:0:0:0:
320,192,186835,1,0,0:0:0:0:
64,192,186887,1,0,0:0:0:0:
448,192,187043,128,0,187120:0:0:0:0:
192,192,187043,1,0,0:0:0:0:
448,192,187198,1,0,0:0:0:0:
320,192,187250,128,0,187328:0:0:0:0:
64,192,187353,1,0,0:0:0:0:
192,192,187353,1,0,0:0:0:0:
64,192,187561,1,0,0:0:0:0:
192,192,187638,1,0,0:0:0:0:
448,192,187664,128,0,187716:0:0:0:0:
64,192,187690,1,0,0:0:0:0:
64,192,187768,1,0,0:0:0:0:
192,192,187846,1,0,0:0:0:0:
192,192,187975,1,0,0:0:0:0:
64,192,187975,1,0,0:0:0:0:
64,192,188027,1,0,0:0:0:0:
320,192,188079,1,0,0:0:0:0:
448,192,188131,128,0,188182:0:0:0:0:
64,192,188131,1,0,0:0:0:0:
320,192,188157,1,0,0:0:0:0:
320,192,188286,1,0,0:0:0:0:
192,192,188442,1,0,0:0:0:0:
448,192,188442,1,0,0:0:0:0:
448,192,188597,1,0,0:0:0:0:
192,192,188752,1,0,0:0:0:0:
320,192,188752,1,0,0:0:0:0:
192,192,188856,1,0,0:0:0:0:
192,192,188960,1,0,0:0:0:0:
320,192,189063,1,0,0:0:0:0:
320,192,189167,1,0,0:0:0:0:
448,192,189219,1,0,0:0:0:0:
64,192,189219,128,0,189308:0:0:0:0:
192,192,189219,128,0,189308:0:0:0:0:
192,192,189374,128,0,189581:0:0:0:0:
320,192,189374,1,0,0:0:0:0:
64,192,189530,1,0,0:0:0:0:
192,192,189633,1,0,0:0:0:0:
320,192,189685,1,0,0:0:0:0:
448,192,189737,1,0,0:0:0:0:
320,192,189763,1,0,0:0:0:0:
448,192,190048,1,0,0:0:0:0:
448,192,190151,128,0,190203:0:0:0:0:
320,192,190307,1,0,0:0:0:0:
64,192,190462,128,0,190566:0:0:0:0:
448,192,190618,128,0,190670:0:0:0:0:
64,192,190721,1,0,0:0:0:0:
320,192,190773,128,0,190877:0:0:0:0:
64,192,190929,128,0,191032:0:0:0:0:
192,192,191084,128,0,191188:0:0:0:0:
192,192,191317,1,0,0:0:0:0:
64,192,191395,128,0,191628:0:0:0:0:
64,192,191706,128,0,191835:0:0:0:0:
192,192,191706,128,0,191835:0:0:0:0:
448,192,191706,1,0,0:0:0:0:
320,192,191809,1,0,0:0:0:0:
64,192,191913,1,0,0:0:0:0:
192,192,192017,128,0,192146:0:0:0:0:
320,192,192120,1,0,0:0:0:0:
192,192,192224,1,0,0:0:0:0:
448,192,192269,128,0,192386:0:0:0:0:
64,192,192328,128,0,192386:0:0:0:0:
192,192,192328,128,0,192379:0:0:0:0:
320,192,192328,128,0,192379:0:0:0:0:
64,192,192483,1,0,0:0:0:0:
448,192,192638,128,0,192690:0:0:0:0:
320,192,192794,1,0,0:0:0:0:
192,192,192949,128,0,193079:0:0:0:0:
320,192,192949,128,0,193079:0:0:0:0:
448,192,193105,128,0,193157:0:0:0:0:
192,192,193260,1,0,0:0:0:0:
320,192,193416,1,0,0:0:0:0:
64,192,193416,128,0,193493:0:0:0:0:
64,192,193571,1,0,0:0:0:0:
192,192,193727,1,0,0:0:0:0:
320,192,193727,1,0,0:0:0:0:
64,192,193882,128,0,193960:0:0:0:0:
320,192,194037,128,0,194089:0:0:0:0:
448,192,194115,1,0,0:0:0:0:
320,192,194193,1,0,0:0:0:0:
192,192,194193,128,0,194322:0:0:0:0:
64,192,194193,128,0,194322:0:0:0:0:
64,192,194348,1,0,0:0:0:0:
192,192,194504,1,0,0:0:0:0:
448,192,194711,128,0,194789:0:0:0:0:
320,192,194815,1,0,0:0:0:0:
64,192,194815,1,0,0:0:0:0:
64,192,194970,1,0,0:0:0:0:
192,192,195126,1,0,0:0:0:0:
448,192,195126,128,0,195177:0:0:0:0:
448,192,195333,1,0,0:0:0:0:
320,192,195436,128,0,195570:0:0:0:0:
192,192,195436,1,0,0:0:0:0:
192,192,195525,1,0,0:0:0:0:
448,192,195592,128,0,195644:0:0:0:0:
192,192,195614,1,0,0:0:0:0:
64,192,195747,1,0,0:0:0:0:
448,192,195903,1,0,0:0:0:0:
192,192,195903,1,0,0:0:0:0:
448,192,196058,1,0,0:0:0:0:
320,192,196162,128,0,196239:0:0:0:0:
192,192,196214,128,0,196473:0:0:0:0:
64,192,196214,1,0,0:0:0:0:
64,192,196473,128,0,196524:0:0:0:0:
192,192,196524,1,0,0:0:0:0:
448,192,196524,1,0,0:0:0:0:
320,192,196628,128,0,196706:0:0:0:0:
192,192,196680,128,0,196809:0:0:0:0:
64,192,196680,128,0,196809:0:0:0:0:
448,192,196732,1,0,0:0:0:0:
320,192,196784,1,0,0:0:0:0:
192,192,196913,128,0,196991:0:0:0:0:
64,192,196991,1,0,0:0:0:0:
448,192,197146,1,0,0:0:0:0:
448,192,197302,1,0,0:0:0:0:
64,192,197302,1,0,0:0:0:0:
320,192,197390,1,0,0:0:0:0:
64,192,197457,1,0,0:0:0:0:
448,192,197509,1,0,0:0:0:0:
448,192,197613,128,0,197664:0:0:0:0:
192,192,197613,1,0,0:0:0:0:
320,192,197716,1,0,0:0:0:0:
64,192,197768,1,0,0:0:0:0:
320,192,197820,1,0,0:0:0:0:
64,192,197923,128,0,198053:0:0:0:0:
192,192,197923,128,0,198053:0:0:0:0:
448,192,198079,128,0,198131:0:0:0:0:
64,192,198079,1,0,0:0:0:0:
192,192,198234,1,0,0:0:0:0:
64,192,198338,1,0,0:0:0:0:
192,192,198390,1,0,0:0:0:0:
448,192,198390,1,0,0:0:0:0:
192,192,198501,1,0,0:0:0:0:
192,192,198590,1,0,0:0:0:0:
192,192,198701,1,0,0:0:0:0:
320,192,198701,1,0,0:0:0:0:
64,192,198856,1,0,0:0:0:0:
320,192,199012,1,0,0:0:0:0:
192,192,199012,1,0,0:0:0:0:
448,192,199115,1,0,0:0:0:0:
192,192,199167,128,0,199296:0:0:0:0:
64,192,199167,128,0,199296:0:0:0:0:
448,192,199211,1,0,0:0:0:0:
448,192,199322,1,0,0:0:0:0:
192,192,199322,128,0,199581:0:0:0:0:
448,192,199426,1,0,0:0:0:0:
64,192,199478,1,0,0:0:0:0:
448,192,199522,1,0,0:0:0:0:
448,192,199633,1,0,0:0:0:0:
192,192,199633,1,0,0:0:0:0:
192,192,199789,1,0,0:0:0:0:
320,192,199789,128,0,199866:0:0:0:0:
320,192,199944,1,0,0:0:0:0:
448,192,200100,128,0,200151:0:0:0:0:
192,192,200100,1,0,0:0:0:0:
64,192,200229,128,0,200307:0:0:0:0:
192,192,200410,128,0,200499:0:0:0:0:
64,192,200410,128,0,200499:0:0:0:0:
320,192,200410,128,0,200514:0:0:0:0:
448,192,200566,128,0,200618:0:0:0:0:
192,192,200566,128,0,200825:0:0:0:0:
320,192,200618,128,0,200695:0:0:0:0:
64,192,200721,1,0,0:0:0:0:
320,192,200877,1,0,0:0:0:0:
192,192,200877,128,0,200955:0:0:0:0:
64,192,201077,128,0,201165:0:0:0:0:
192,192,201188,1,0,0:0:0:0:
448,192,201188,128,0,201447:0:0:0:0:
320,192,201239,128,0,201317:0:0:0:0:
64,192,201476,128,0,201565:0:0:0:0:
320,192,201499,1,0,0:0:0:0:
448,192,201499,128,0,201576:0:0:0:0:
192,192,201654,128,0,201784:0:0:0:0:
320,192,201654,128,0,201784:0:0:0:0:
192,192,201809,1,0,0:0:0:0:
320,192,201861,128,0,201939:0:0:0:0:
64,192,201965,1,0,0:0:0:0:
448,192,202094,128,0,202172:0:0:0:0:
320,192,202276,128,0,202328:0:0:0:0:
192,192,202276,128,0,202328:0:0:0:0:
448,192,202276,1,0,0:0:0:0:
192,192,202457,128,0,202535:0:0:0:0:
320,192,202483,128,0,202535:0:0:0:0:
64,192,202587,1,0,0:0:0:0:
192,192,202742,128,0,202794:0:0:0:0:
448,192,202742,128,0,202820:0:0:0:0:
64,192,202898,128,0,203027:0:0:0:0:
192,192,202898,128,0,203027:0:0:0:0:
320,192,202898,128,0,203105:0:0:0:0:
192,192,203131,128,0,203182:0:0:0:0:
64,192,203208,1,0,0:0:0:0:
320,192,203312,128,0,203390:0:0:0:0:
192,192,203364,1,0,0:0:0:0:
448,192,203519,1,0,0:0:0:0:
192,192,203675,1,0,0:0:0:0:
448,192,203727,128,0,203804:0:0:0:0:
64,192,203830,1,0,0:0:0:0:
448,192,203986,128,0,204012:0:0:0:0:
448,192,204063,1,0,0:0:0:0:
320,192,204141,128,0,204271:0:0:0:0:
192,192,204141,128,0,204271:0:0:0:0:
448,192,204296,128,0,204374:0:0:0:0:
64,192,204296,1,0,0:0:0:0:
448,192,204452,1,0,0:0:0:0:
192,192,204607,128,0,204659:0:0:0:0:
192,192,204763,128,0,204841:0:0:0:0:
448,192,204763,1,0,0:0:0:0:
320,192,204970,128,0,205100:0:0:0:0:
64,192,205074,1,0,0:0:0:0:
192,192,205229,128,0,205307:0:0:0:0:
320,192,205385,128,0,205514:0:0:0:0:
448,192,205385,128,0,205514:0:0:0:0:
320,192,205540,1,0,0:0:0:0:
64,192,205592,128,0,205670:0:0:0:0:
448,192,205695,1,0,0:0:0:0:
192,192,205799,128,0,205877:0:0:0:0:
320,192,205851,1,0,0:0:0:0:
192,192,206058,128,0,206136:0:0:0:0:
320,192,206162,1,0,0:0:0:0:
64,192,206162,128,0,206421:0:0:0:0:
448,192,206214,128,0,206291:0:0:0:0:
192,192,206421,128,0,206499:0:0:0:0:
320,192,206473,1,0,0:0:0:0:
192,192,206628,128,0,206706:0:0:0:0:
320,192,206628,128,0,206758:0:0:0:0:
448,192,206628,128,0,206758:0:0:0:0:
320,192,206784,1,0,0:0:0:0:
192,192,206835,128,0,206913:0:0:0:0:
448,192,206939,1,0,0:0:0:0:
192,192,207043,128,0,207120:0:0:0:0:
320,192,207094,1,0,0:0:0:0:
64,192,207250,1,0,0:0:0:0:
320,192,207250,1,0,0:0:0:0:
320,192,207457,128,0,207509:0:0:0:0:
448,192,207509,128,0,207561:0:0:0:0:
320,192,207561,128,0,207690:0:0:0:0:
64,192,207716,128,0,207846:0:0:0:0:
192,192,207794,128,0,207898:0:0:0:0:
320,192,207872,128,0,208001:0:0:0:0:
448,192,207872,128,0,208001:0:0:0:0:
64,192,207949,1,0,0:0:0:0:
192,192,208079,128,0,208157:0:0:0:0:
64,192,208182,1,0,0:0:0:0:
320,192,208338,128,0,208416:0:0:0:0:
192,192,208493,1,0,0:0:0:0:
64,192,208545,128,0,208623:0:0:0:0:
448,192,208571,128,0,208830:0:0:0:0:
320,192,208649,1,0,0:0:0:0:
192,192,208701,128,0,208778:0:0:0:0:
64,192,208804,1,0,0:0:0:0:
320,192,208960,128,0,209037:0:0:0:0:
448,192,209037,1,0,0:0:0:0:
192,192,209115,128,0,209245:0:0:0:0:
64,192,209115,128,0,209245:0:0:0:0:
320,192,209115,1,0,0:0:0:0:
192,192,209271,128,0,209530:0:0:0:0:
320,192,209322,128,0,209400:0:0:0:0:
64,192,209426,1,0,0:0:0:0:
192,192,209581,128,0,209659:0:0:0:0:
64,192,209737,1,0,0:0:0:0:
320,192,209944,128,0,209996:0:0:0:0:
448,192,209996,128,0,210048:0:0:0:0:
64,192,210048,128,0,210177:0:0:0:0:
320,192,210203,1,0,0:0:0:0:
192,192,210255,128,0,210333:0:0:0:0:
320,192,210385,128,0,210488:0:0:0:0:
320,192,210566,128,0,210618:0:0:0:0:
448,192,210799,128,0,210877:0:0:0:0:
64,192,210825,1,0,0:0:0:0:
64,192,210980,128,0,211265:0:0:0:0:
448,192,211006,128,0,211058:0:0:0:0:
192,192,211188,128,0,211317:0:0:0:0:
64,192,211395,128,0,211524:0:0:0:0:
192,192,211447,1,0,0:0:0:0:
192,192,211602,128,0,211654:0:0:0:0:
320,192,211809,128,0,211887:0:0:0:0:
448,192,212069,128,0,212120:0:0:0:0:
192,192,212224,1,0,0:0:0:0:
448,192,212276,128,0,212587:0:0:0:0:
320,192,212638,1,0,0:0:0:0:
64,192,212690,1,0,0:0:0:0:
320,192,212742,1,0,0:0:0:0:
64,192,212794,1,0,0:0:0:0:
448,192,212794,128,0,212820:0:0:0:0:
320,192,212846,128,0,212898:0:0:0:0:
448,192,213312,1,0,0:0:0:0:
192,192,213364,1,0,0:0:0:0:
448,192,213416,128,0,213442:0:0:0:0:
192,192,213467,128,0,213519:0:0:0:0:
64,192,213986,1,0,0:0:0:0:
320,192,214037,128,0,214063:0:0:0:0:
64,192,214089,128,0,214141:0:0:0:0:
192,192,214296,128,0,214426:0:0:0:0:
64,192,214530,128,0,214659:0:0:0:0:
320,192,214763,128,0,215100:0:0:0:0:
448,192,214841,128,0,215074:0:0:0:0:
192,192,215126,128,0,215229:0:0:0:0:
448,192,215177,128,0,215229:0:0:0:0:
320,192,215177,128,0,215592:0:0:0:0:
448,192,215851,128,0,216421:0:0:0:0:
320,192,215903,128,0,215980:0:0:0:0:
192,192,215903,128,0,216032:0:0:0:0:
448,192,216499,128,0,216576:0:0:0:0:
192,192,216576,128,0,216887:0:0:0:0:
320,192,216784,128,0,216939:0:0:0:0:
192,192,216991,128,0,217094:0:0:0:0:
192,192,217198,128,0,217561:0:0:0:0:
64,192,217198,128,0,217379:0:0:0:0:
64,192,217509,128,0,217613:0:0:0:0:
192,192,217664,128,0,217768:0:0:0:0:
320,192,217820,128,0,217872:0:0:0:0:
448,192,217846,128,0,217949:0:0:0:0:
320,192,217975,128,0,218157:0:0:0:0:
192,192,218131,128,0,218312:0:0:0:0:
64,192,218286,128,0,218649:0:0:0:0:
192,192,218442,128,0,218571:0:0:0:0:
192,192,218752,128,0,218934:0:0:0:0:
64,192,218908,128,0,219037:0:0:0:0:
192,192,219063,128,0,219115:0:0:0:0:
448,192,219089,128,0,219193:0:0:0:0:
64,192,219374,128,0,219452:0:0:0:0:
192,192,219685,128,0,219763:0:0:0:0:
320,192,219996,128,0,220100:0:0:0:0:
192,192,220151,128,0,220229:0:0:0:0:
192,192,220307,128,0,220359:0:0:0:0:
64,192,220333,128,0,220436:0:0:0:0:
192,192,220462,128,0,220592:0:0:0:0:
320,192,220618,128,0,220695:0:0:0:0:
320,192,220773,128,0,220877:0:0:0:0:
448,192,220929,128,0,221032:0:0:0:0:
320,192,221084,128,0,221214:0:0:0:0:
448,192,221239,128,0,221343:0:0:0:0:
192,192,221395,128,0,221499:0:0:0:0:
320,192,221550,128,0,221602:0:0:0:0:
64,192,221576,128,0,221680:0:0:0:0:
448,192,221654,128,0,221809:0:0:0:0:
320,192,221732,128,0,221887:0:0:0:0:
448,192,221913,128,0,222069:0:0:0:0:
320,192,222017,128,0,222146:0:0:0:0:
192,192,222120,128,0,222224:0:0:0:0:
64,192,222172,128,0,222276:0:0:0:0:
448,192,222328,128,0,222405:0:0:0:0:
448,192,222483,128,0,222587:0:0:0:0:
320,192,222638,128,0,222716:0:0:0:0:
320,192,222794,128,0,222846:0:0:0:0:
64,192,222820,128,0,222923:0:0:0:0:
448,192,222949,128,0,223027:0:0:0:0:
448,192,223105,128,0,223208:0:0:0:0:
320,192,223260,128,0,223364:0:0:0:0:
192,192,223312,128,0,223519:0:0:0:0:
448,192,223571,128,0,223701:0:0:0:0:
320,192,223727,128,0,223856:0:0:0:0:
448,192,223882,128,0,224063:0:0:0:0:
320,192,224037,128,0,224219:0:0:0:0:
64,192,224063,128,0,224167:0:0:0:0:
448,192,224167,128,0,224478:0:0:0:0:
320,192,224374,128,0,224556:0:0:0:0:
192,192,224504,128,0,224607:0:0:0:0:
64,192,224659,128,0,224789:0:0:0:0:
320,192,224815,128,0,224892:0:0:0:0:
320,192,224970,128,0,225074:0:0:0:0:
192,192,225126,128,0,225203:0:0:0:0:
64,192,225281,128,0,225385:0:0:0:0:
320,192,225436,128,0,225514:0:0:0:0:
320,192,225592,128,0,225695:0:0:0:0:
192,192,225747,128,0,225825:0:0:0:0:
64,192,225799,128,0,226032:0:0:0:0:
192,192,226058,128,0,226188:0:0:0:0:
64,192,226214,128,0,226343:0:0:0:0:
192,192,226369,128,0,226499:0:0:0:0:
64,192,226550,128,0,227120:0:0:0:0:
192,192,227146,128,0,227276:0:0:0:0:
192,192,227457,128,0,227587:0:0:0:0:
64,192,227613,128,0,227690:0:0:0:0:
64,192,227768,128,0,227898:0:0:0:0:
448,192,227794,128,0,227898:0:0:0:0:
192,192,227949,128,0,228053:0:0:0:0:
64,192,228105,128,0,228208:0:0:0:0:
192,192,228234,128,0,228364:0:0:0:0:
448,192,228545,128,0,228649:0:0:0:0:
320,192,228701,128,0,228830:0:0:0:0:
448,192,228856,128,0,228934:0:0:0:0:
448,192,229012,128,0,229141:0:0:0:0:
64,192,229037,128,0,229141:0:0:0:0:
320,192,229193,128,0,229296:0:0:0:0:
448,192,229348,128,0,229452:0:0:0:0:
320,192,229478,128,0,229607:0:0:0:0:
320,192,229789,128,0,229918:0:0:0:0:
192,192,229944,128,0,230074:0:0:0:0:
320,192,230100,128,0,230203:0:0:0:0:
64,192,230255,128,0,230385:0:0:0:0:
448,192,230281,128,0,230385:0:0:0:0:
192,192,230436,128,0,230540:0:0:0:0:
64,192,230592,128,0,230695:0:0:0:0:
192,192,230721,128,0,230851:0:0:0:0:
448,192,230877,128,0,231006:0:0:0:0:
320,192,231032,128,0,231162:0:0:0:0:
192,192,231188,128,0,231317:0:0:0:0:
320,192,231343,128,0,231447:0:0:0:0:
448,192,231499,128,0,231576:0:0:0:0:
64,192,231524,128,0,231628:0:0:0:0:
448,192,231654,128,0,231784:0:0:0:0:
320,192,231758,128,0,231939:0:0:0:0:
448,192,231887,128,0,232043:0:0:0:0:
320,192,232017,128,0,232146:0:0:0:0:
64,192,232120,128,0,232250:0:0:0:0:
192,192,232198,128,0,232405:0:0:0:0:
320,192,232276,128,0,232353:0:0:0:0:
64,192,232457,128,0,232664:0:0:0:0:
64,192,232742,128,0,232872:0:0:0:0:
448,192,232768,128,0,232872:0:0:0:0:
192,192,232923,128,0,233027:0:0:0:0:
64,192,233079,128,0,233182:0:0:0:0:
192,192,233208,128,0,233338:0:0:0:0:
448,192,233364,128,0,233493:0:0:0:0:
64,192,233493,128,0,233649:0:0:0:0:
192,192,233675,128,0,233778:0:0:0:0:
64,192,233830,128,0,233908:0:0:0:0:
320,192,233882,128,0,234037:0:0:0:0:
448,192,233986,128,0,234115:0:0:0:0:
64,192,234012,128,0,234115:0:0:0:0:
192,192,234167,128,0,234245:0:0:0:0:
320,192,234296,128,0,234426:0:0:0:0:
64,192,234452,128,0,234581:0:0:0:0:
192,192,234607,128,0,234711:0:0:0:0:
320,192,234763,128,0,234866:0:0:0:0:
448,192,234918,128,0,235100:0:0:0:0:
320,192,235022,128,0,235126:0:0:0:0:
192,192,235074,128,0,235255:0:0:0:0:
320,192,235229,128,0,235307:0:0:0:0:
448,192,235281,128,0,235514:0:0:0:0:
192,192,236006,128,0,236214:0:0:0:0:
320,192,236265,128,0,236421:0:0:0:0:
448,192,236317,128,0,236395:0:0:0:0:
192,192,236473,128,0,236576:0:0:0:0:
64,192,236524,128,0,236654:0:0:0:0:
192,192,236758,128,0,236861:0:0:0:0:
192,192,236965,128,0,237069:0:0:0:0:
64,192,237094,128,0,237146:0:0:0:0:
320,192,237198,128,0,237328:0:0:0:0:
64,192,237250,128,0,237353:0:0:0:0:
192,192,237302,128,0,237405:0:0:0:0:
64,192,237431,128,0,237587:0:0:0:0:
192,192,237561,128,0,237742:0:0:0:0:
320,192,237716,128,0,237898:0:0:0:0:
448,192,237742,128,0,237846:0:0:0:0:
320,192,238338,128,0,238416:0:0:0:0:
192,192,238442,128,0,238571:0:0:0:0:
64,192,238493,128,0,238571:0:0:0:0:
320,192,238545,128,0,238649:0:0:0:0:
448,192,238675,128,0,238830:0:0:0:0:
320,192,238804,128,0,238986:0:0:0:0:
192,192,238960,128,0,239141:0:0:0:0:
64,192,238986,128,0,239089:0:0:0:0:
192,192,239581,128,0,239659:0:0:0:0:
320,192,239685,128,0,239815:0:0:0:0:
64,192,239737,128,0,239841:0:0:0:0:
192,192,239789,128,0,239892:0:0:0:0:
64,192,239918,128,0,240074:0:0:0:0:
192,192,240048,128,0,240229:0:0:0:0:
320,192,240203,128,0,240385:0:0:0:0:
448,192,240229,128,0,240333:0:0:0:0:
64,192,240359,128,0,240462:0:0:0:0:
192,192,240514,128,0,240618:0:0:0:0:
448,192,240566,128,0,240695:0:0:0:0:
320,192,240670,128,0,240747:0:0:0:0:
192,192,240721,128,0,240825:0:0:0:0:
64,192,240747,128,0,241343:0:0:0:0:
448,192,240825,128,0,240903:0:0:0:0:
320,192,240980,128,0,241110:0:0:0:0:
448,192,241136,128,0,241214:0:0:0:0:
448,192,241291,128,0,241421:0:0:0:0:
192,192,241317,1,0,0:0:0:0:
192,192,241395,128,0,241473:0:0:0:0:
64,192,241421,128,0,241447:0:0:0:0:
320,192,241447,128,0,241524:0:0:0:0:
448,192,241499,128,0,241628:0:0:0:0:
320,192,242069,128,0,242146:0:0:0:0:
192,192,242172,128,0,242302:0:0:0:0:
448,192,242224,128,0,242328:0:0:0:0:
320,192,242276,128,0,242379:0:0:0:0:
448,192,242405,128,0,242561:0:0:0:0:
320,192,242535,128,0,242716:0:0:0:0:
192,192,242690,128,0,242872:0:0:0:0:
64,192,242716,128,0,242820:0:0:0:0:
448,192,242846,128,0,242949:0:0:0:0:
320,192,243001,128,0,243105:0:0:0:0:
64,192,243053,128,0,243182:0:0:0:0:
192,192,243157,128,0,243260:0:0:0:0:
320,192,243208,128,0,243338:0:0:0:0:
448,192,243234,128,0,243312:0:0:0:0:
64,192,243364,128,0,243623:0:0:0:0:
448,192,243519,128,0,243597:0:0:0:0:
192,192,243571,128,0,243675:0:0:0:0:
320,192,243727,128,0,243830:0:0:0:0:
448,192,243778,128,0,243908:0:0:0:0:
192,192,243934,128,0,244012:0:0:0:0:
320,192,243986,128,0,244089:0:0:0:0:
192,192,244089,128,0,244141:0:0:0:0:
64,192,244141,128,0,244245:0:0:0:0:
192,192,244322,128,0,244452:0:0:0:0:
448,192,244374,128,0,244504:0:0:0:0:
64,192,244556,128,0,244659:0:0:0:0:
192,192,244711,128,0,244866:0:0:0:0:
64,192,244763,128,0,244841:0:0:0:0:
192,192,244970,128,0,245048:0:0:0:0:
192,192,245177,128,0,245281:0:0:0:0:
320,192,245229,128,0,245307:0:0:0:0:
64,192,245385,128,0,245488:0:0:0:0:
192,192,245436,128,0,245514:0:0:0:0:
64,192,245592,128,0,245721:0:0:0:0:
192,192,245799,128,0,245903:0:0:0:0:
64,192,245851,128,0,245929:0:0:0:0:
320,192,245955,128,0,246110:0:0:0:0:
192,192,246006,128,0,246084:0:0:0:0:
320,192,246214,128,0,246291:0:0:0:0:
320,192,246421,128,0,246524:0:0:0:0:
448,192,246473,128,0,246550:0:0:0:0:
192,192,246628,128,0,246732:0:0:0:0:
320,192,246680,128,0,246758:0:0:0:0:
192,192,246835,128,0,246965:0:0:0:0:
448,192,247043,128,0,247146:0:0:0:0:
192,192,247198,128,0,247276:0:0:0:0:
320,192,247250,128,0,247379:0:0:0:0:
192,192,247457,128,0,247587:0:0:0:0:
64,192,247509,128,0,247587:0:0:0:0:
448,192,247664,128,0,247768:0:0:0:0:
192,192,247820,128,0,247898:0:0:0:0:
320,192,247872,128,0,248001:0:0:0:0:
192,192,248079,128,0,248208:0:0:0:0:
64,192,248131,128,0,248208:0:0:0:0:
320,192,248286,128,0,248390:0:0:0:0:
448,192,248338,128,0,248416:0:0:0:0:
192,192,248442,128,0,248519:0:0:0:0:
64,192,248493,128,0,248649:0:0:0:0:
192,192,248701,128,0,248882:0:0:0:0:
320,192,248908,128,0,249012:0:0:0:0:
448,192,248960,128,0,249037:0:0:0:0:
192,192,249063,128,0,249141:0:0:0:0:
64,192,249115,128,0,249271:0:0:0:0:
192,192,249322,128,0,249452:0:0:0:0:
320,192,249530,128,0,249659:0:0:0:0:
448,192,249737,128,0,249866:0:0:0:0:
320,192,249944,128,0,250074:0:0:0:0:
192,192,250151,128,0,250281:0:0:0:0:
448,192,250359,128,0,250488:0:0:0:0:
320,192,250566,128,0,250695:0:0:0:0:
192,192,250773,128,0,250903:0:0:0:0:
320,192,250980,128,0,251110:0:0:0:0:
192,192,251188,128,0,251317:0:0:0:0:
64,192,251395,128,0,251524:0:0:0:0:
192,192,251395,128,0,251447:0:0:0:0:
192,192,251602,128,0,251732:0:0:0:0:
64,192,251809,128,0,251939:0:0:0:0:
448,192,252017,128,0,252094:0:0:0:0:
64,192,252043,128,0,253597:0:0:0:0:
448,192,252224,128,0,252276:0:0:0:0:
320,192,252431,128,0,252457:0:0:0:0:
448,192,252638,1,0,0:0:0:0:
320,192,252846,1,0,0:0:0:0:
192,192,253053,1,0,0:0:0:0:
320,192,253260,1,0,0:0:0:0:
192,192,253467,1,0,0:0:0:0:
64,192,253675,1,0,0:0:0:0:
192,192,253882,128,0,254478:0:0:0:0:
64,192,254089,128,0,254322:0:0:0:0:
320,192,255747,128,0,255773:0:0:0:0:
192,192,255782,1,0,0:0:0:0:
448,192,255799,128,0,255825:0:0:0:0:
320,192,255851,128,0,255877:0:0:0:0:
192,192,255903,128,0,255929:0:0:0:0:
448,192,255955,128,0,256291:0:0:0:0:
64,192,255955,1,0,0:0:0:0:
320,192,256006,128,0,256188:0:0:0:0:
64,192,256032,128,0,256291:0:0:0:0:
192,192,256162,128,0,256291:0:0:0:0:
320,192,256265,128,0,256291:0:0:0:0:
64,192,256369,128,0,256706:0:0:0:0:
192,192,256369,128,0,256499:0:0:0:0:
448,192,256369,128,0,256784:0:0:0:0:
320,192,256369,128,0,256576:0:0:0:0:
192,192,256576,1,0,0:0:0:0:
64,192,256784,1,0,0:0:0:0:
192,192,256835,128,0,256965:0:0:0:0:
320,192,256887,128,0,256965:0:0:0:0:
448,192,256913,128,0,256965:0:0:0:0:
64,192,256991,1,0,0:0:0:0:
320,192,256991,128,0,257080:0:0:0:0:
448,192,256991,128,0,257124:0:0:0:0:
64,192,257080,128,0,257168:0:0:0:0:
192,192,257124,128,0,257213:0:0:0:0:
320,192,257168,128,0,257257:0:0:0:0:
448,192,257213,128,0,257302:0:0:0:0:
192,192,257302,1,0,0:0:0:0:
320,192,257346,1,0,0:0:0:0:
64,192,257390,128,0,257568:0:0:0:0:
448,192,257390,128,0,257524:0:0:0:0:
192,192,257435,128,0,257568:0:0:0:0:
320,192,257479,128,0,257657:0:0:0:0:
192,192,257613,128,0,257690:0:0:0:0:
448,192,257613,1,0,0:0:0:0:
64,192,257613,128,0,257742:0:0:0:0:
448,192,257746,128,0,257835:0:0:0:0:
320,192,257790,128,0,257879:0:0:0:0:
192,192,257835,1,0,0:0:0:0:
64,192,257879,128,0,258012:0:0:0:0:
448,192,257923,1,0,0:0:0:0:
192,192,257968,128,0,258057:0:0:0:0:
320,192,258012,128,0,258101:0:0:0:0:
448,192,258057,128,0,258145:0:0:0:0:
64,192,258101,1,0,0:0:0:0:
192,192,258145,128,0,258234:0:0:0:0:
320,192,258190,1,0,0:0:0:0:
64,192,258234,128,0,258279:0:0:0:0:
64,192,258368,128,0,258501:0:0:0:0:
192,192,258412,128,0,258590:0:0:0:0:
320,192,258456,128,0,258545:0:0:0:0:
448,192,258501,1,0,0:0:0:0:
448,192,258590,128,0,258678:0:0:0:0:
320,192,258634,128,0,258723:0:0:0:0:
192,192,258678,1,0,0:0:0:0:
448,192,258767,1,0,0:0:0:0:
192,192,258856,128,0,258989:0:0:0:0:
64,192,258856,128,0,258989:0:0:0:0:
320,192,258856,1,0,0:0:0:0:
448,192,258900,128,0,259034:0:0:0:0:
320,192,259012,128,0,259063:0:0:0:0:
448,192,259123,128,0,259345:0:0:0:0:
192,192,259167,128,0,259219:0:0:0:0:
320,192,259211,128,0,259389:0:0:0:0:
64,192,259322,128,0,259374:0:0:0:0:
192,192,259345,128,0,259433:0:0:0:0:
320,192,259478,128,0,259567:0:0:0:0:
448,192,259478,128,0,259655:0:0:0:0:
64,192,259522,128,0,259655:0:0:0:0:
192,192,259567,128,0,259700:0:0:0:0:
320,192,259655,128,0,259744:0:0:0:0:
448,192,259744,128,0,259789:0:0:0:0:
192,192,259789,1,0,0:0:0:0:
320,192,259833,128,0,260011:0:0:0:0:
448,192,259878,128,0,259966:0:0:0:0:
192,192,259944,1,0,0:0:0:0:
192,192,260055,128,0,260100:0:0:0:0:
64,192,260100,128,0,260188:0:0:0:0:
448,192,260100,128,0,260277:0:0:0:0:
320,192,260100,128,0,260144:0:0:0:0:
320,192,260233,128,0,260410:0:0:0:0:
64,192,260277,128,0,260322:0:0:0:0:
192,192,260322,128,0,260499:0:0:0:0:
448,192,260366,128,0,260455:0:0:0:0:
64,192,260455,128,0,260588:0:0:0:0:
320,192,260544,128,0,260721:0:0:0:0:
448,192,260588,1,0,0:0:0:0:
192,192,260633,128,0,260766:0:0:0:0:
64,192,260721,128,0,260943:0:0:0:0:
320,192,260810,1,0,0:0:0:0:
448,192,260855,1,0,0:0:0:0:
192,192,260899,128,0,261032:0:0:0:0:
320,192,260943,128,0,261032:0:0:0:0:
64,192,261077,128,0,261121:0:0:0:0:
448,192,261188,1,0,0:0:0:0:
192,192,261188,1,0,0:0:0:0:
320,192,261210,128,0,261254:0:0:0:0:
64,192,261343,128,0,261473:0:0:0:0:
192,192,261343,128,0,261473:0:0:0:0:
192,192,261654,128,0,261743:0:0:0:0:
320,192,261698,128,0,261832:0:0:0:0:
448,192,261743,128,0,261920:0:0:0:0:
192,192,261887,1,0,0:0:0:0:
320,192,261965,1,0,0:0:0:0:
192,192,261991,128,0,262043:0:0:0:0:
64,192,262009,128,0,262098:0:0:0:0:
448,192,262009,128,0,262231:0:0:0:0:
320,192,262098,128,0,262276:0:0:0:0:
192,192,262187,128,0,262320:0:0:0:0:
64,192,262276,128,0,262453:0:0:0:0:
448,192,262320,1,0,0:0:0:0:
320,192,262365,128,0,262453:0:0:0:0:
192,192,262409,128,0,262498:0:0:0:0:
448,192,262498,128,0,262631:0:0:0:0:
320,192,262542,128,0,262764:0:0:0:0:
64,192,262587,128,0,262720:0:0:0:0:
192,192,262587,128,0,262720:0:0:0:0:
448,192,262720,128,0,262809:0:0:0:0:
192,192,262809,128,0,262898:0:0:0:0:
320,192,262853,128,0,262942:0:0:0:0:
448,192,262898,128,0,262986:0:0:0:0:
64,192,262942,128,0,263120:0:0:0:0:
192,192,262986,128,0,263075:0:0:0:0:
320,192,263031,1,0,0:0:0:0:
192,192,263164,128,0,263253:0:0:0:0:
64,192,263208,128,0,263297:0:0:0:0:
320,192,263297,128,0,263386:0:0:0:0:
192,192,263342,128,0,263519:0:0:0:0:
64,192,263386,128,0,263475:0:0:0:0:
320,192,263475,128,0,263564:0:0:0:0:
448,192,263519,128,0,263608:0:0:0:0:
192,192,263653,128,0,263741:0:0:0:0:
320,192,263697,128,0,263741:0:0:0:0:
448,192,263741,1,0,0:0:0:0:
192,192,263830,128,0,263963:0:0:0:0:
64,192,263830,128,0,263963:0:0:0:0:
320,192,263830,1,0,0:0:0:0:
448,192,263875,128,0,264008:0:0:0:0:
320,192,263986,128,0,264037:0:0:0:0:
448,192,264097,128,0,264319:0:0:0:0:
192,192,264141,128,0,264193:0:0:0:0:
320,192,264185,128,0,264363:0:0:0:0:
64,192,264296,128,0,264348:0:0:0:0:
192,192,264319,128,0,264408:0:0:0:0:
448,192,264452,128,0,264585:0:0:0:0:
320,192,264452,128,0,264630:0:0:0:0:
192,192,264541,128,0,264674:0:0:0:0:
64,192,264630,128,0,264718:0:0:0:0:
320,192,264718,128,0,264763:0:0:0:0:
192,192,264763,1,0,0:0:0:0:
448,192,264807,128,0,264985:0:0:0:0:
320,192,264852,128,0,264940:0:0:0:0:
192,192,264918,1,0,0:0:0:0:
192,192,265029,128,0,265074:0:0:0:0:
320,192,265074,128,0,265163:0:0:0:0:
448,192,265074,128,0,265163:0:0:0:0:
64,192,265118,128,0,265207:0:0:0:0:
320,192,265229,128,0,265436:0:0:0:0:
192,192,265229,128,0,265359:0:0:0:0:
64,192,265340,128,0,265473:0:0:0:0:
192,192,265429,128,0,265562:0:0:0:0:
320,192,265518,128,0,265607:0:0:0:0:
320,192,265695,128,0,265747:0:0:0:0:
448,192,265799,128,0,265851:0:0:0:0:
192,192,265851,128,0,266058:0:0:0:0:
320,192,266032,128,0,266084:0:0:0:0:
192,192,266162,128,0,266214:0:0:0:0:
320,192,266273,128,0,266406:0:0:0:0:
192,192,266317,128,0,266447:0:0:0:0:
64,192,266317,128,0,266406:0:0:0:0:
448,192,266362,128,0,266584:0:0:0:0:
320,192,266539,128,0,266628:0:0:0:0:
192,192,266584,128,0,266628:0:0:0:0:
64,192,266628,1,0,0:0:0:0:
192,192,266717,128,0,266850:0:0:0:0:
448,192,266761,128,0,266850:0:0:0:0:
320,192,266784,1,0,0:0:0:0:
64,192,266939,128,0,267072:0:0:0:0:
192,192,266939,128,0,267028:0:0:0:0:
448,192,266939,128,0,266983:0:0:0:0:
320,192,266939,128,0,267161:0:0:0:0:
192,192,267117,128,0,267205:0:0:0:0:
64,192,267161,128,0,267383:0:0:0:0:
320,192,267250,128,0,267294:0:0:0:0:
192,192,267294,128,0,267472:0:0:0:0:
448,192,267339,1,0,0:0:0:0:
320,192,267383,128,0,267516:0:0:0:0:
448,192,267405,128,0,267483:0:0:0:0:
192,192,267561,128,0,267650:0:0:0:0:
64,192,267561,128,0,267694:0:0:0:0:
320,192,267605,128,0,267694:0:0:0:0:
448,192,267650,128,0,267738:0:0:0:0:
192,192,267738,128,0,267827:0:0:0:0:
320,192,267783,128,0,267872:0:0:0:0:
64,192,267827,128,0,267872:0:0:0:0:
192,192,267916,1,0,0:0:0:0:
320,192,267960,128,0,268094:0:0:0:0:
448,192,268027,1,0,0:0:0:0:
192,192,268049,128,0,268138:0:0:0:0:
64,192,268271,1,0,0:0:0:0:
448,192,268338,1,0,0:0:0:0:
64,192,268360,1,0,0:0:0:0:
64,192,268449,1,0,0:0:0:0:
320,192,268582,1,0,0:0:0:0:
192,192,268627,1,0,0:0:0:0:
320,192,268671,128,0,268715:0:0:0:0:
448,192,268715,1,0,0:0:0:0:
192,192,268804,128,0,268982:0:0:0:0:
64,192,268804,128,0,269026:0:0:0:0:
320,192,268804,1,0,0:0:0:0:
448,192,268893,128,0,269071:0:0:0:0:
320,192,268937,128,0,269026:0:0:0:0:
192,192,269071,128,0,269160:0:0:0:0:
320,192,269115,128,0,269293:0:0:0:0:
448,192,269160,128,0,269204:0:0:0:0:
64,192,269204,128,0,269337:0:0:0:0:
192,192,269248,128,0,269382:0:0:0:0:
320,192,269426,128,0,269470:0:0:0:0:
448,192,269426,128,0,269515:0:0:0:0:
192,192,269470,128,0,269559:0:0:0:0:
64,192,269515,128,0,269692:0:0:0:0:
320,192,269559,1,0,0:0:0:0:
448,192,269604,128,0,269648:0:0:0:0:
192,192,269648,128,0,269737:0:0:0:0:
320,192,269692,128,0,269781:0:0:0:0:
448,192,269737,128,0,269915:0:0:0:0:
192,192,269841,1,0,0:0:0:0:
320,192,269892,128,0,269944:0:0:0:0:
448,192,270048,128,0,270181:0:0:0:0:
64,192,270048,128,0,270137:0:0:0:0:
320,192,270048,128,0,270225:0:0:0:0:
192,192,270092,128,0,270137:0:0:0:0:
192,192,270270,128,0,270359:0:0:0:0:
64,192,270314,1,0,0:0:0:0:
320,192,270359,128,0,270403:0:0:0:0:
320,192,270514,128,0,270721:0:0:0:0:
192,192,270536,128,0,270714:0:0:0:0:
64,192,270670,128,0,270847:0:0:0:0:
192,192,270803,128,0,270892:0:0:0:0:
448,192,270825,128,0,270929:0:0:0:0:
320,192,270847,128,0,270980:0:0:0:0:
64,192,270980,128,0,271025:0:0:0:0:
192,192,271136,1,0,0:0:0:0:
320,192,271158,128,0,271247:0:0:0:0:
64,192,271291,128,0,271425:0:0:0:0:
192,192,271291,128,0,271425:0:0:0:0:
448,192,271336,128,0,271469:0:0:0:0:
192,192,271513,128,0,271602:0:0:0:0:
320,192,271558,128,0,271647:0:0:0:0:
448,192,271602,1,0,0:0:0:0:
64,192,271691,128,0,271780:0:0:0:0:
320,192,271706,1,0,0:0:0:0:
192,192,271809,1,0,0:0:0:0:
64,192,271913,128,0,272091:0:0:0:0:
192,192,271913,128,0,272002:0:0:0:0:
320,192,271957,128,0,272180:0:0:0:0:
448,192,272002,128,0,272135:0:0:0:0:
192,192,272135,128,0,272224:0:0:0:0:
64,192,272180,128,0,272357:0:0:0:0:
448,192,272313,1,0,0:0:0:0:
192,192,272313,128,0,272446:0:0:0:0:
448,192,272379,1,0,0:0:0:0:
448,192,272446,1,0,0:0:0:0:
320,192,272490,128,0,272579:0:0:0:0:
64,192,272535,128,0,272712:0:0:0:0:
192,192,272535,128,0,272668:0:0:0:0:
448,192,272624,128,0,272801:0:0:0:0:
320,192,272712,1,0,0:0:0:0:
192,192,272757,128,0,272846:0:0:0:0:
64,192,272801,128,0,272890:0:0:0:0:
320,192,272890,128,0,273023:0:0:0:0:
192,192,272935,128,0,273112:0:0:0:0:
448,192,273001,1,0,0:0:0:0:
64,192,273245,1,0,0:0:0:0:
64,192,273312,1,0,0:0:0:0:
64,192,273379,1,0,0:0:0:0:
448,192,273556,1,0,0:0:0:0:
448,192,273623,1,0,0:0:0:0:
448,192,273690,1,0,0:0:0:0:
192,192,273778,128,0,273956:0:0:0:0:
320,192,273778,128,0,273856:0:0:0:0:
64,192,273778,128,0,273912:0:0:0:0:
320,192,273934,128,0,274115:0:0:0:0:
448,192,274000,1,0,0:0:0:0:
192,192,274045,128,0,274222:0:0:0:0:
64,192,274089,128,0,274178:0:0:0:0:
320,192,274178,128,0,274267:0:0:0:0:
448,192,274222,128,0,274356:0:0:0:0:
192,192,274400,128,0,274533:0:0:0:0:
320,192,274400,128,0,274578:0:0:0:0:
448,192,274533,128,0,275510:0:0:0:0:
320,192,274667,128,0,274733:0:0:0:0:
192,192,274711,128,0,274889:0:0:0:0:
64,192,274755,128,0,274844:0:0:0:0:
320,192,274844,128,0,274977:0:0:0:0:
64,192,275022,128,0,275111:0:0:0:0:
192,192,275022,128,0,275111:0:0:0:0:
320,192,275066,128,0,275132:0:0:0:0:
64,192,275177,128,0,275436:0:0:0:0:
320,192,275332,128,0,275399:0:0:0:0:
64,192,275488,1,0,0:0:0:0:
320,192,275554,128,0,275621:0:0:0:0:
192,192,275644,128,0,275777:0:0:0:0:
64,192,275688,128,0,275999:0:0:0:0:
320,192,275732,128,0,275798:0:0:0:0:
320,192,275909,128,0,275976:0:0:0:0:
448,192,276006,128,0,276084:0:0:0:0:
320,192,276087,128,0,276154:0:0:0:0:
64,192,276132,128,0,276265:0:0:0:0:
320,192,276265,128,0,276331:0:0:0:0:
448,192,276265,128,0,276399:0:0:0:0:
192,192,276317,128,0,276421:0:0:0:0:
64,192,276354,128,0,276443:0:0:0:0:
320,192,276443,128,0,276509:0:0:0:0:
64,192,276576,1,0,0:0:0:0:
320,192,276620,128,0,276687:0:0:0:0:
64,192,276861,128,0,276965:0:0:0:0:
192,192,276887,128,0,276965:0:0:0:0:
320,192,276887,128,0,276965:0:0:0:0:
448,192,276887,128,0,277172:0:0:0:0:
320,192,277043,128,0,277250:0:0:0:0:
192,192,277198,128,0,277276:0:0:0:0:
448,192,277302,128,0,277457:0:0:0:0:
320,192,277353,1,0,0:0:0:0:
192,192,277379,128,0,277483:0:0:0:0:
64,192,277405,128,0,277483:0:0:0:0:
320,192,277509,128,0,277587:0:0:0:0:
448,192,277509,128,0,277638:0:0:0:0:
64,192,277664,128,0,277898:0:0:0:0:
448,192,277768,128,0,277923:0:0:0:0:
192,192,277820,128,0,277872:0:0:0:0:
320,192,277846,128,0,277949:0:0:0:0:
192,192,277975,1,0,0:0:0:0:
64,192,278001,128,0,278183:0:0:0:0:
192,192,278079,128,0,278208:0:0:0:0:
320,192,278131,128,0,278234:0:0:0:0:
448,192,278157,128,0,278260:0:0:0:0:
320,192,278286,128,0,278364:0:0:0:0:
448,192,278390,128,0,278571:0:0:0:0:
64,192,278442,128,0,278519:0:0:0:0:
64,192,278597,1,0,0:0:0:0:
192,192,278623,128,0,278727:0:0:0:0:
320,192,278649,128,0,278727:0:0:0:0:
448,192,278675,128,0,278727:0:0:0:0:
192,192,278752,128,0,278882:0:0:0:0:
64,192,278752,128,0,278830:0:0:0:0:
320,192,278908,128,0,279167:0:0:0:0:
448,192,278934,128,0,279037:0:0:0:0:
192,192,279063,128,0,279296:0:0:0:0:
64,192,279219,1,0,0:0:0:0:
64,192,279348,128,0,279607:0:0:0:0:
448,192,279374,128,0,279659:0:0:0:0:
192,192,279374,128,0,279452:0:0:0:0:
320,192,279374,128,0,279452:0:0:0:0:
320,192,279530,128,0,279737:0:0:0:0:
64,192,279685,128,0,279763:0:0:0:0:
448,192,279789,128,0,279944:0:0:0:0:
320,192,279841,1,0,0:0:0:0:
64,192,279866,128,0,279970:0:0:0:0:
192,192,279892,128,0,279970:0:0:0:0:
320,192,279996,128,0,280100:0:0:0:0:
448,192,279996,128,0,280126:0:0:0:0:
192,192,280151,128,0,280359:0:0:0:0:
448,192,280255,128,0,280747:0:0:0:0:
64,192,280307,128,0,280410:0:0:0:0:
192,192,280462,1,0,0:0:0:0:
64,192,280514,128,0,280670:0:0:0:0:
192,192,280566,128,0,280670:0:0:0:0:
320,192,280592,128,0,280695:0:0:0:0:
320,192,280773,128,0,281032:0:0:0:0:
448,192,280877,128,0,281058:0:0:0:0:
192,192,280929,128,0,281058:0:0:0:0:
64,192,281084,1,0,0:0:0:0:
448,192,281188,128,0,281524:0:0:0:0:
64,192,281239,128,0,281550:0:0:0:0:
320,192,281239,128,0,281369:0:0:0:0:
192,192,281265,128,0,281499:0:0:0:0:
320,192,281550,128,0,281939:0:0:0:0:
64,192,281706,1,0,0:0:0:0:
64,192,281835,128,0,281939:0:0:0:0:
192,192,281861,128,0,281939:0:0:0:0:
448,192,281861,128,0,282146:0:0:0:0:
320,192,282017,128,0,282224:0:0:0:0:
192,192,282172,128,0,282250:0:0:0:0:
448,192,282276,128,0,282431:0:0:0:0:
320,192,282328,1,0,0:0:0:0:
192,192,282353,128,0,282457:0:0:0:0:
64,192,282379,128,0,282457:0:0:0:0:
320,192,282483,128,0,282561:0:0:0:0:
448,192,282483,128,0,282613:0:0:0:0:
64,192,282638,128,0,282872:0:0:0:0:
448,192,282742,128,0,282898:0:0:0:0:
192,192,282794,128,0,282846:0:0:0:0:
320,192,282820,128,0,282923:0:0:0:0:
192,192,282949,1,0,0:0:0:0:
64,192,282975,128,0,283157:0:0:0:0:
192,192,283053,128,0,283183:0:0:0:0:
320,192,283105,128,0,283208:0:0:0:0:
448,192,283131,128,0,283234:0:0:0:0:
320,192,283260,128,0,283338:0:0:0:0:
448,192,283364,128,0,283545:0:0:0:0:
64,192,283416,128,0,283493:0:0:0:0:
64,192,283571,1,0,0:0:0:0:
192,192,283597,128,0,283701:0:0:0:0:
320,192,283623,128,0,283701:0:0:0:0:
448,192,283649,128,0,283701:0:0:0:0:
192,192,283727,128,0,283856:0:0:0:0:
64,192,283727,128,0,283804:0:0:0:0:
320,192,283882,128,0,284141:0:0:0:0:
448,192,283908,128,0,284012:0:0:0:0:
192,192,284037,128,0,284271:0:0:0:0:
64,192,284193,1,0,0:0:0:0:
64,192,284322,128,0,284426:0:0:0:0:
448,192,284348,128,0,284633:0:0:0:0:
192,192,284348,128,0,284426:0:0:0:0:
320,192,284348,128,0,284426:0:0:0:0:
320,192,284504,128,0,284711:0:0:0:0:
64,192,284659,128,0,284737:0:0:0:0:
448,192,284763,128,0,284918:0:0:0:0:
320,192,284815,1,0,0:0:0:0:
64,192,284841,128,0,284944:0:0:0:0:
192,192,284866,128,0,284944:0:0:0:0:
320,192,284970,128,0,285048:0:0:0:0:
448,192,284970,128,0,285100:0:0:0:0:
192,192,285126,128,0,285333:0:0:0:0:
320,192,285126,128,0,285281:0:0:0:0:
448,192,285229,128,0,285540:0:0:0:0:
64,192,285281,128,0,285359:0:0:0:0:
192,192,285436,1,0,0:0:0:0:
64,192,285462,128,0,285644:0:0:0:0:
320,192,285566,128,0,285670:0:0:0:0:
448,192,285592,128,0,285721:0:0:0:0:
320,192,285747,128,0,286006:0:0:0:0:
64,192,285747,128,0,285955:0:0:0:0:
448,192,285851,128,0,286032:0:0:0:0:
192,192,285903,128,0,286032:0:0:0:0:
64,192,286058,1,0,0:0:0:0:
448,192,286162,128,0,286499:0:0:0:0:
64,192,286214,128,0,286524:0:0:0:0:
320,192,286214,128,0,286343:0:0:0:0:
192,192,286239,128,0,286473:0:0:0:0:
320,192,286524,128,0,286887:0:0:0:0:
192,192,286550,128,0,286628:0:0:0:0:
64,192,286680,1,0,0:0:0:0:
192,192,286835,128,0,286887:0:0:0:0:
448,192,286835,128,0,287043:0:0:0:0:
64,192,286835,128,0,287250:0:0:0:0:
320,192,286991,128,0,287198:0:0:0:0:
192,192,287120,128,0,287224:0:0:0:0:
448,192,287146,128,0,287224:0:0:0:0:
320,192,287302,1,0,0:0:0:0:
192,192,287328,128,0,287405:0:0:0:0:
64,192,287457,128,0,287846:0:0:0:0:
192,192,287457,128,0,287587:0:0:0:0:
448,192,287613,128,0,287690:0:0:0:0:
192,192,287742,128,0,287820:0:0:0:0:
448,192,287768,128,0,287872:0:0:0:0:
320,192,287898,128,0,288131:0:0:0:0:
192,192,287923,1,0,0:0:0:0:
192,192,288079,128,0,288157:0:0:0:0:
64,192,288105,128,0,288338:0:0:0:0:
448,192,288234,128,0,288312:0:0:0:0:
320,192,288234,128,0,288338:0:0:0:0:
192,192,288390,128,0,288493:0:0:0:0:
64,192,288416,128,0,288493:0:0:0:0:
192,192,288545,1,0,0:0:0:0:
448,192,288545,128,0,288623:0:0:0:0:
320,192,288623,128,0,288727:0:0:0:0:
448,192,288701,128,0,288830:0:0:0:0:
64,192,288701,128,0,288882:0:0:0:0:
192,192,288701,128,0,288778:0:0:0:0:
192,192,288856,128,0,288960:0:0:0:0:
320,192,288908,128,0,289089:0:0:0:0:
448,192,288960,128,0,289037:0:0:0:0:
64,192,289115,128,0,289245:0:0:0:0:
192,192,289167,1,0,0:0:0:0:
64,192,289322,128,0,289400:0:0:0:0:
192,192,289322,128,0,289426:0:0:0:0:
320,192,289322,128,0,289426:0:0:0:0:
64,192,289478,128,0,289594:0:0:0:0:
192,192,289614,128,0,289750:0:0:0:0:
320,192,289633,128,0,289711:0:0:0:0:
64,192,289789,1,0,0:0:0:0:
320,192,289944,128,0,290074:0:0:0:0:
64,192,289944,128,0,290048:0:0:0:0:
448,192,289970,128,0,290074:0:0:0:0:
320,192,290100,128,0,290177:0:0:0:0:
192,192,290255,128,0,290540:0:0:0:0:
64,192,290410,1,0,0:0:0:0:
320,192,290410,128,0,290566:0:0:0:0:
448,192,290514,128,0,290592:0:0:0:0:
64,192,290618,128,0,290747:0:0:0:0:
192,192,290670,128,0,290877:0:0:0:0:
320,192,290721,128,0,290799:0:0:0:0:
64,192,290851,128,0,290955:0:0:0:0:
320,192,291032,128,0,291110:0:0:0:0:
192,192,291032,1,0,0:0:0:0:
448,192,291136,128,0,291188:0:0:0:0:
192,192,291188,128,0,291550:0:0:0:0:
320,192,291188,128,0,291317:0:0:0:0:
64,192,291214,128,0,291473:0:0:0:0:
320,192,291447,128,0,291524:0:0:0:0:
448,192,291499,128,0,291628:0:0:0:0:
64,192,291654,1,0,0:0:0:0:
192,192,291809,128,0,291939:0:0:0:0:
64,192,291809,128,0,292224:0:0:0:0:
320,192,291809,128,0,291887:0:0:0:0:
320,192,291965,128,0,292172:0:0:0:0:
192,192,292094,128,0,292198:0:0:0:0:
448,192,292120,128,0,292198:0:0:0:0:
320,192,292276,1,0,0:0:0:0:
192,192,292302,128,0,292379:0:0:0:0:
64,192,292431,128,0,292820:0:0:0:0:
192,192,292431,128,0,292561:0:0:0:0:
448,192,292587,128,0,292664:0:0:0:0:
192,192,292716,128,0,292794:0:0:0:0:
448,192,292742,128,0,292846:0:0:0:0:
320,192,292872,128,0,293105:0:0:0:0:
192,192,292898,1,0,0:0:0:0:
192,192,293053,128,0,293131:0:0:0:0:
64,192,293079,128,0,293312:0:0:0:0:
448,192,293208,128,0,293286:0:0:0:0:
320,192,293208,128,0,293312:0:0:0:0:
192,192,293364,128,0,293467:0:0:0:0:
64,192,293390,128,0,293467:0:0:0:0:
192,192,293519,1,0,0:0:0:0:
448,192,293519,128,0,293597:0:0:0:0:
320,192,293597,128,0,293701:0:0:0:0:
448,192,293675,128,0,293804:0:0:0:0:
64,192,293675,128,0,293856:0:0:0:0:
192,192,293675,128,0,293752:0:0:0:0:
192,192,293830,128,0,293934:0:0:0:0:
320,192,293882,128,0,294063:0:0:0:0:
448,192,293934,128,0,294012:0:0:0:0:
64,192,294089,128,0,294245:0:0:0:0:
192,192,294141,128,0,294245:0:0:0:0:
320,192,294296,1,0,0:0:0:0:
64,192,294296,1,0,0:0:0:0:
192,192,294452,1,0,0:0:0:0:
192,192,294607,1,0,0:0:0:0:
448,192,294607,1,0,0:0:0:0:
320,192,294763,1,0,0:0:0:0:
64,192,294918,1,0,0:0:0:0:
448,192,294918,128,0,295007:0:0:0:0:
320,192,294918,128,0,295007:0:0:0:0:
192,192,295074,1,0,0:0:0:0:
320,192,295074,128,0,295333:0:0:0:0:
192,192,295229,128,0,295307:0:0:0:0:
320,192,295385,1,0,0:0:0:0:
64,192,295385,1,0,0:0:0:0:
320,192,295540,128,0,295644:0:0:0:0:
320,192,295695,1,0,0:0:0:0:
64,192,295695,128,0,295955:0:0:0:0:
448,192,295851,128,0,295980:0:0:0:0:
64,192,296006,1,0,0:0:0:0:
320,192,296162,128,0,296265:0:0:0:0:
192,192,296162,128,0,296291:0:0:0:0:
320,192,296317,1,0,0:0:0:0:
448,192,296473,128,0,297069:0:0:0:0:
64,192,296473,128,0,296602:0:0:0:0:
64,192,296758,128,0,296861:0:0:0:0:
192,192,296784,128,0,296861:0:0:0:0:
320,192,296784,128,0,296861:0:0:0:0:
320,192,296939,128,0,297146:0:0:0:0:
192,192,297094,128,0,297172:0:0:0:0:
448,192,297198,128,0,297353:0:0:0:0:
320,192,297250,1,0,0:0:0:0:
192,192,297276,128,0,297379:0:0:0:0:
64,192,297302,128,0,297379:0:0:0:0:
320,192,297405,128,0,297483:0:0:0:0:
448,192,297405,128,0,297535:0:0:0:0:
64,192,297561,128,0,297794:0:0:0:0:
448,192,297664,128,0,297820:0:0:0:0:
192,192,297716,128,0,297768:0:0:0:0:
320,192,297742,128,0,297846:0:0:0:0:
192,192,297872,1,0,0:0:0:0:
64,192,297898,128,0,298079:0:0:0:0:
192,192,297975,128,0,298105:0:0:0:0:
320,192,298027,128,0,298131:0:0:0:0:
448,192,298053,128,0,298157:0:0:0:0:
320,192,298183,128,0,298260:0:0:0:0:
448,192,298286,128,0,298467:0:0:0:0:
64,192,298338,128,0,298416:0:0:0:0:
64,192,298493,1,0,0:0:0:0:
192,192,298519,128,0,298623:0:0:0:0:
320,192,298545,128,0,298623:0:0:0:0:
448,192,298571,128,0,298623:0:0:0:0:
192,192,298649,128,0,298778:0:0:0:0:
64,192,298649,128,0,298727:0:0:0:0:
320,192,298804,128,0,299063:0:0:0:0:
448,192,298830,128,0,298934:0:0:0:0:
192,192,298960,128,0,299193:0:0:0:0:
64,192,299115,1,0,0:0:0:0:
64,192,299245,128,0,299504:0:0:0:0:
448,192,299271,128,0,299400:0:0:0:0:
192,192,299271,128,0,299348:0:0:0:0:
320,192,299271,128,0,299348:0:0:0:0:
320,192,299426,128,0,299685:0:0:0:0:
448,192,299452,128,0,299581:0:0:0:0:
448,192,299685,128,0,299866:0:0:0:0:
320,192,299763,128,0,299970:0:0:0:0:
192,192,299892,128,0,299996:0:0:0:0:
64,192,299892,128,0,300022:0:0:0:0:
448,192,299918,128,0,300022:0:0:0:0:
192,192,300074,128,0,300255:0:0:0:0:
320,192,300100,128,0,300333:0:0:0:0:
64,192,300359,128,0,300462:0:0:0:0:
192,192,300385,128,0,300462:0:0:0:0:
448,192,300514,128,0,300644:0:0:0:0:
192,192,300540,128,0,300644:0:0:0:0:
64,192,300670,128,0,300877:0:0:0:0:
192,192,300747,128,0,300955:0:0:0:0:
448,192,300773,128,0,300955:0:0:0:0:
320,192,300825,128,0,300929:0:0:0:0:
64,192,300980,1,0,0:0:0:0:
448,192,301084,128,0,301421:0:0:0:0:
192,192,301136,128,0,301214:0:0:0:0:
320,192,301136,128,0,301265:0:0:0:0:
64,192,301188,128,0,301265:0:0:0:0:
192,192,301291,128,0,301369:0:0:0:0:
64,192,301343,128,0,301421:0:0:0:0:
320,192,301395,128,0,301473:0:0:0:0:
192,192,301447,128,0,301524:0:0:0:0:
320,192,301550,128,0,301835:0:0:0:0:
448,192,301602,128,0,302017:0:0:0:0:
64,192,301602,1,0,0:0:0:0:
64,192,301732,128,0,301835:0:0:0:0:
192,192,301758,128,0,301835:0:0:0:0:
320,192,301913,128,0,302120:0:0:0:0:
192,192,302069,128,0,302146:0:0:0:0:
448,192,302172,128,0,302328:0:0:0:0:
320,192,302224,1,0,0:0:0:0:
192,192,302250,128,0,302353:0:0:0:0:
64,192,302276,128,0,302353:0:0:0:0:
320,192,302379,128,0,302457:0:0:0:0:
448,192,302379,128,0,302509:0:0:0:0:
64,192,302535,128,0,302768:0:0:0:0:
448,192,302638,128,0,302794:0:0:0:0:
192,192,302690,128,0,302742:0:0:0:0:
320,192,302716,128,0,302820:0:0:0:0:
192,192,302846,1,0,0:0:0:0:
64,192,302872,128,0,303053:0:0:0:0:
192,192,302949,128,0,303079:0:0:0:0:
320,192,303001,128,0,303105:0:0:0:0:
448,192,303027,128,0,303131:0:0:0:0:
320,192,303157,128,0,303234:0:0:0:0:
448,192,303260,128,0,303442:0:0:0:0:
64,192,303312,128,0,303390:0:0:0:0:
64,192,303467,1,0,0:0:0:0:
192,192,303493,128,0,303597:0:0:0:0:
320,192,303519,128,0,303597:0:0:0:0:
448,192,303545,128,0,303597:0:0:0:0:
192,192,303623,128,0,303752:0:0:0:0:
64,192,303623,128,0,303701:0:0:0:0:
320,192,303778,128,0,304037:0:0:0:0:
448,192,303804,128,0,303908:0:0:0:0:
192,192,303934,128,0,304167:0:0:0:0:
64,192,304089,1,0,0:0:0:0:
64,192,304219,128,0,304322:0:0:0:0:
192,192,304245,128,0,304322:0:0:0:0:
320,192,304245,128,0,304374:0:0:0:0:
448,192,304245,128,0,304296:0:0:0:0:
448,192,304400,128,0,304633:0:0:0:0:
320,192,304452,128,0,304530:0:0:0:0:
64,192,304556,128,0,304737:0:0:0:0:
320,192,304711,128,0,304815:0:0:0:0:
448,192,304737,128,0,304996:0:0:0:0:
192,192,304866,128,0,304955:0:0:0:0:
64,192,304866,128,0,304955:0:0:0:0:
192,192,305022,128,0,305281:0:0:0:0:
320,192,305074,128,0,305255:0:0:0:0:
192,192,305333,1,0,0:0:0:0:
64,192,305359,128,0,305436:0:0:0:0:
192,192,305462,128,0,305566:0:0:0:0:
448,192,305488,128,0,305618:0:0:0:0:
192,192,305644,128,0,305721:0:0:0:0:
320,192,305695,128,0,305799:0:0:0:0:
448,192,305747,128,0,305929:0:0:0:0:
320,192,305851,128,0,305980:0:0:0:0:
192,192,305929,128,0,306032:0:0:0:0:
64,192,305955,128,0,306032:0:0:0:0:
448,192,306032,128,0,306136:0:0:0:0:
192,192,306110,128,0,306188:0:0:0:0:
64,192,306110,128,0,306239:0:0:0:0:
320,192,306162,128,0,306239:0:0:0:0:
448,192,306214,128,0,306291:0:0:0:0:
192,192,306265,128,0,306343:0:0:0:0:
320,192,306317,128,0,306395:0:0:0:0:
64,192,306369,128,0,306447:0:0:0:0:
192,192,306421,128,0,306524:0:0:0:0:
64,192,306576,1,0,0:0:0:0:
64,192,306732,128,0,307146:0:0:0:0:
448,192,306732,128,0,306939:0:0:0:0:
192,192,306732,128,0,306784:0:0:0:0:
320,192,306732,128,0,306809:0:0:0:0:
320,192,306887,128,0,307094:0:0:0:0:
192,192,307017,128,0,307120:0:0:0:0:
448,192,307043,128,0,307120:0:0:0:0:
320,192,307198,1,0,0:0:0:0:
192,192,307224,128,0,307302:0:0:0:0:
192,192,307353,128,0,307483:0:0:0:0:
64,192,307353,128,0,307742:0:0:0:0:
448,192,307509,128,0,307587:0:0:0:0:
192,192,307638,128,0,307716:0:0:0:0:
448,192,307664,128,0,307768:0:0:0:0:
320,192,307794,128,0,308027:0:0:0:0:
192,192,307820,1,0,0:0:0:0:
192,192,307975,128,0,308053:0:0:0:0:
64,192,308001,128,0,308234:0:0:0:0:
320,192,308131,128,0,308234:0:0:0:0:
448,192,308131,128,0,308208:0:0:0:0:
192,192,308286,128,0,308390:0:0:0:0:
64,192,308312,128,0,308390:0:0:0:0:
448,192,308442,128,0,308519:0:0:0:0:
192,192,308442,1,0,0:0:0:0:
320,192,308519,128,0,308623:0:0:0:0:
192,192,308597,128,0,308675:0:0:0:0:
64,192,308597,128,0,308778:0:0:0:0:
448,192,308597,128,0,308727:0:0:0:0:
192,192,308752,128,0,308856:0:0:0:0:
320,192,308804,128,0,308986:0:0:0:0:
448,192,308856,128,0,308934:0:0:0:0:
64,192,309012,128,0,309141:0:0:0:0:
192,192,309063,1,0,0:0:0:0:
64,192,309193,128,0,309296:0:0:0:0:
448,192,309219,128,0,309504:0:0:0:0:
192,192,309219,128,0,309296:0:0:0:0:
320,192,309219,128,0,309348:0:0:0:0:
192,192,309374,128,0,309478:0:0:0:0:
64,192,309426,128,0,309581:0:0:0:0:
320,192,309530,128,0,309607:0:0:0:0:
448,192,309685,128,0,309789:0:0:0:0:
64,192,309685,128,0,309763:0:0:0:0:
192,192,309841,128,0,309970:0:0:0:0:
64,192,309841,128,0,309970:0:0:0:0:
448,192,309866,128,0,309970:0:0:0:0:
320,192,309996,128,0,310074:0:0:0:0:
448,192,310048,128,0,310177:0:0:0:0:
320,192,310151,128,0,310255:0:0:0:0:
192,192,310307,128,0,310410:0:0:0:0:
320,192,310385,128,0,310566:0:0:0:0:
448,192,310462,128,0,310540:0:0:0:0:
320,192,310618,128,0,310695:0:0:0:0:
192,192,310695,128,0,310825:0:0:0:0:
64,192,310747,128,0,310903:0:0:0:0:
448,192,310799,128,0,310903:0:0:0:0:
320,192,310929,128,0,311006:0:0:0:0:
192,192,310929,128,0,311006:0:0:0:0:
448,192,310980,128,0,311084:0:0:0:0:
192,192,311084,128,0,311214:0:0:0:0:
64,192,311084,128,0,311214:0:0:0:0:
320,192,311136,128,0,311239:0:0:0:0:
448,192,311188,128,0,311369:0:0:0:0:
192,192,311291,128,0,311369:0:0:0:0:
320,192,311343,128,0,311447:0:0:0:0:
64,192,311550,1,0,0:0:0:0:
192,192,311706,128,0,311784:0:0:0:0:
64,192,311706,128,0,312120:0:0:0:0:
320,192,311706,128,0,311784:0:0:0:0:
320,192,311861,128,0,312069:0:0:0:0:
192,192,311991,128,0,312094:0:0:0:0:
448,192,312017,128,0,312094:0:0:0:0:
320,192,312172,1,0,0:0:0:0:
192,192,312198,128,0,312276:0:0:0:0:
64,192,312328,128,0,312716:0:0:0:0:
192,192,312328,128,0,312457:0:0:0:0:
448,192,312483,128,0,312561:0:0:0:0:
192,192,312613,128,0,312690:0:0:0:0:
448,192,312638,128,0,312742:0:0:0:0:
320,192,312768,128,0,313001:0:0:0:0:
192,192,312794,1,0,0:0:0:0:
192,192,312949,128,0,313027:0:0:0:0:
64,192,312975,128,0,313208:0:0:0:0:
448,192,313105,128,0,313182:0:0:0:0:
320,192,313105,128,0,313208:0:0:0:0:
192,192,313260,128,0,313364:0:0:0:0:
64,192,313286,128,0,313364:0:0:0:0:
192,192,313416,1,0,0:0:0:0:
448,192,313416,128,0,313493:0:0:0:0:
320,192,313493,128,0,313597:0:0:0:0:
448,192,313571,128,0,313701:0:0:0:0:
64,192,313571,128,0,313752:0:0:0:0:
192,192,313571,128,0,313649:0:0:0:0:
192,192,313727,128,0,313830:0:0:0:0:
320,192,313778,128,0,313960:0:0:0:0:
448,192,313830,128,0,313908:0:0:0:0:
64,192,313986,128,0,314141:0:0:0:0:
192,192,314037,128,0,314141:0:0:0:0:
320,192,314193,1,0,0:0:0:0:
64,192,314193,1,0,0:0:0:0:
192,192,314348,1,0,0:0:0:0:
192,192,314504,1,0,0:0:0:0:
448,192,314504,1,0,0:0:0:0:
320,192,314659,1,0,0:0:0:0:
64,192,314815,1,0,0:0:0:0:
448,192,314815,128,0,314903:0:0:0:0:
320,192,314815,128,0,314903:0:0:0:0:
192,192,314970,1,0,0:0:0:0:
320,192,314970,128,0,315229:0:0:0:0:
192,192,315126,128,0,315203:0:0:0:0:
320,192,315281,1,0,0:0:0:0:
64,192,315281,1,0,0:0:0:0:
320,192,315436,128,0,315540:0:0:0:0:
320,192,315592,1,0,0:0:0:0:
64,192,315592,128,0,315851:0:0:0:0:
448,192,315747,128,0,315877:0:0:0:0:
64,192,315903,1,0,0:0:0:0:
320,192,316058,128,0,316162:0:0:0:0:
192,192,316058,128,0,316188:0:0:0:0:
320,192,316214,1,0,0:0:0:0:
64,192,316369,128,0,316499:0:0:0:0:
448,192,316369,128,0,316913:0:0:0:0:
64,192,316680,128,0,316738:0:0:0:0:
192,192,316680,128,0,316732:0:0:0:0:
320,192,316680,128,0,316732:0:0:0:0:
64,192,316835,1,0,0:0:0:0:
320,192,316835,1,0,0:0:0:0:
192,192,316991,128,0,317069:0:0:0:0:
448,192,316991,128,0,317069:0:0:0:0:
64,192,317146,1,0,0:0:0:0:
64,192,317302,128,0,317561:0:0:0:0:
192,192,317302,128,0,317431:0:0:0:0:
448,192,317302,128,0,317431:0:0:0:0:
320,192,317457,128,0,317535:0:0:0:0:
448,192,317457,128,0,317535:0:0:0:0:
448,192,317613,1,0,0:0:0:0:
192,192,317768,1,0,0:0:0:0:
320,192,317768,1,0,0:0:0:0:
64,192,317923,1,0,0:0:0:0:
448,192,318079,128,0,318157:0:0:0:0:
192,192,318079,1,0,0:0:0:0:
192,192,318234,1,0,0:0:0:0:
320,192,318390,1,0,0:0:0:0:
448,192,318467,1,0,0:0:0:0:
64,192,318545,128,0,318804:0:0:0:0:
192,192,318545,128,0,318675:0:0:0:0:
320,192,318545,128,0,318675:0:0:0:0:
448,192,318701,128,0,318934:0:0:0:0:
192,192,318701,1,0,0:0:0:0:
64,192,318856,1,0,0:0:0:0:
448,192,319012,128,0,319089:0:0:0:0:
64,192,319012,1,0,0:0:0:0:
448,192,319167,1,0,0:0:0:0:
320,192,319167,1,0,0:0:0:0:
448,192,319322,1,0,0:0:0:0:
192,192,319322,1,0,0:0:0:0:
320,192,319478,128,0,319556:0:0:0:0:
64,192,319478,128,0,319556:0:0:0:0:
448,192,319633,1,0,0:0:0:0:
320,192,319789,128,0,319918:0:0:0:0:
448,192,319789,128,0,319918:0:0:0:0:
64,192,319789,128,0,320048:0:0:0:0:
192,192,319944,128,0,320022:0:0:0:0:
320,192,319944,128,0,320022:0:0:0:0:
64,192,320100,1,0,0:0:0:0:
320,192,320255,1,0,0:0:0:0:
64,192,320255,1,0,0:0:0:0:
448,192,320410,1,0,0:0:0:0:
64,192,320566,128,0,320644:0:0:0:0:
320,192,320566,128,0,320825:0:0:0:0:
192,192,320721,1,0,0:0:0:0:
192,192,320877,1,0,0:0:0:0:
320,192,320877,1,0,0:0:0:0:
320,192,321032,128,0,321291:0:0:0:0:
448,192,321032,128,0,321162:0:0:0:0:
64,192,321032,128,0,321162:0:0:0:0:
192,192,321188,128,0,321421:0:0:0:0:
320,192,321343,1,0,0:0:0:0:
192,192,321499,128,0,321576:0:0:0:0:
64,192,321654,1,0,0:0:0:0:
448,192,321654,1,0,0:0:0:0:
64,192,321809,1,0,0:0:0:0:
320,192,321809,1,0,0:0:0:0:
192,192,321965,128,0,322043:0:0:0:0:
448,192,321965,128,0,322043:0:0:0:0:
64,192,322120,1,0,0:0:0:0:
64,192,322276,128,0,322535:0:0:0:0:
192,192,322276,128,0,322405:0:0:0:0:
448,192,322276,128,0,322405:0:0:0:0:
320,192,322431,128,0,322509:0:0:0:0:
448,192,322431,128,0,322509:0:0:0:0:
448,192,322587,1,0,0:0:0:0:
192,192,322742,1,0,0:0:0:0:
320,192,322742,1,0,0:0:0:0:
64,192,322898,1,0,0:0:0:0:
448,192,323053,128,0,323131:0:0:0:0:
192,192,323053,1,0,0:0:0:0:
192,192,323208,1,0,0:0:0:0:
320,192,323364,1,0,0:0:0:0:
64,192,323364,1,0,0:0:0:0:
448,192,323442,1,0,0:0:0:0:
192,192,323519,128,0,323649:0:0:0:0:
64,192,323519,128,0,323649:0:0:0:0:
320,192,323519,128,0,323778:0:0:0:0:
448,192,323675,128,0,323908:0:0:0:0:
192,192,323675,128,0,323934:0:0:0:0:
64,192,323830,1,0,0:0:0:0:
448,192,323986,128,0,324063:0:0:0:0:
192,192,323986,1,0,0:0:0:0:
448,192,324141,1,0,0:0:0:0:
320,192,324141,1,0,0:0:0:0:
448,192,324296,1,0,0:0:0:0:
192,192,324296,1,0,0:0:0:0:
320,192,324452,128,0,324530:0:0:0:0:
64,192,324452,128,0,324530:0:0:0:0:
448,192,324607,1,0,0:0:0:0:
64,192,324763,1,0,0:0:0:0:
320,192,324763,128,0,324852:0:0:0:0:
448,192,324763,128,0,324852:0:0:0:0:
192,192,324918,128,0,324996:0:0:0:0:
320,192,324918,128,0,325177:0:0:0:0:
64,192,325074,1,0,0:0:0:0:
320,192,325229,1,0,0:0:0:0:
64,192,325229,1,0,0:0:0:0:
448,192,325385,1,0,0:0:0:0:
64,192,325540,128,0,325618:0:0:0:0:
320,192,325540,128,0,325799:0:0:0:0:
192,192,325695,1,0,0:0:0:0:
192,192,325851,1,0,0:0:0:0:
320,192,325851,1,0,0:0:0:0:
320,192,326006,128,0,326136:0:0:0:0:
448,192,326006,128,0,326265:0:0:0:0:
64,192,326006,128,0,326136:0:0:0:0:
192,192,326162,128,0,326395:0:0:0:0:
320,192,326317,1,0,0:0:0:0:
64,192,326317,1,0,0:0:0:0:
192,192,326473,128,0,326550:0:0:0:0:
64,192,326628,128,0,326686:0:0:0:0:
192,192,326628,128,0,326680:0:0:0:0:
320,192,326628,128,0,326680:0:0:0:0:
448,192,326628,128,0,326686:0:0:0:0:
64,192,326784,1,0,0:0:0:0:
320,192,326784,1,0,0:0:0:0:
192,192,326939,128,0,327017:0:0:0:0:
448,192,326939,128,0,327017:0:0:0:0:
64,192,327094,1,0,0:0:0:0:
64,192,327250,128,0,327509:0:0:0:0:
192,192,327250,128,0,327379:0:0:0:0:
448,192,327250,128,0,327379:0:0:0:0:
320,192,327405,128,0,327483:0:0:0:0:
448,192,327405,128,0,327483:0:0:0:0:
448,192,327561,1,0,0:0:0:0:
192,192,327716,1,0,0:0:0:0:
320,192,327716,1,0,0:0:0:0:
64,192,327872,1,0,0:0:0:0:
448,192,328027,128,0,328105:0:0:0:0:
192,192,328027,1,0,0:0:0:0:
192,192,328182,1,0,0:0:0:0:
448,192,328338,128,0,328416:0:0:0:0:
320,192,328416,1,0,0:0:0:0:
64,192,328493,128,0,328752:0:0:0:0:
192,192,328493,128,0,328623:0:0:0:0:
448,192,328493,128,0,328623:0:0:0:0:
192,192,328649,1,0,0:0:0:0:
320,192,328649,128,0,328882:0:0:0:0:
64,192,328804,1,0,0:0:0:0:
448,192,328804,128,0,328882:0:0:0:0:
64,192,328960,1,0,0:0:0:0:
320,192,328960,1,0,0:0:0:0:
448,192,329115,1,0,0:0:0:0:
320,192,329115,1,0,0:0:0:0:
448,192,329271,1,0,0:0:0:0:
192,192,329271,1,0,0:0:0:0:
320,192,329426,128,0,329504:0:0:0:0:
64,192,329426,128,0,329504:0:0:0:0:
448,192,329581,1,0,0:0:0:0:
320,192,329737,128,0,329866:0:0:0:0:
448,192,329737,128,0,329866:0:0:0:0:
64,192,329737,128,0,329996:0:0:0:0:
192,192,329892,128,0,329970:0:0:0:0:
320,192,329892,128,0,329970:0:0:0:0:
64,192,330048,1,0,0:0:0:0:
320,192,330203,1,0,0:0:0:0:
64,192,330203,1,0,0:0:0:0:
448,192,330359,1,0,0:0:0:0:
64,192,330514,128,0,330592:0:0:0:0:
320,192,330514,128,0,330773:0:0:0:0:
192,192,330670,1,0,0:0:0:0:
192,192,330825,1,0,0:0:0:0:
320,192,330825,128,0,330903:0:0:0:0:
320,192,330980,128,0,331110:0:0:0:0:
448,192,330980,128,0,331239:0:0:0:0:
64,192,330980,128,0,331110:0:0:0:0:
192,192,331136,128,0,331369:0:0:0:0:
320,192,331291,128,0,331369:0:0:0:0:
192,192,331447,1,0,0:0:0:0:
64,192,331602,1,0,0:0:0:0:
448,192,331602,1,0,0:0:0:0:
64,192,331758,1,0,0:0:0:0:
320,192,331758,1,0,0:0:0:0:
192,192,331913,128,0,331991:0:0:0:0:
448,192,331913,128,0,331991:0:0:0:0:
64,192,332069,1,0,0:0:0:0:
64,192,332224,128,0,332483:0:0:0:0:
192,192,332224,128,0,332353:0:0:0:0:
448,192,332224,128,0,332353:0:0:0:0:
320,192,332379,128,0,332457:0:0:0:0:
448,192,332379,128,0,332457:0:0:0:0:
448,192,332535,1,0,0:0:0:0:
192,192,332690,1,0,0:0:0:0:
320,192,332690,1,0,0:0:0:0:
64,192,332846,1,0,0:0:0:0:
448,192,333001,128,0,333079:0:0:0:0:
192,192,333001,1,0,0:0:0:0:
192,192,333157,1,0,0:0:0:0:
64,192,333312,1,0,0:0:0:0:
448,192,333312,128,0,333390:0:0:0:0:
320,192,333390,1,0,0:0:0:0:
192,192,333467,128,0,333597:0:0:0:0:
64,192,333467,128,0,333597:0:0:0:0:
448,192,333467,128,0,333727:0:0:0:0:
320,192,333623,128,0,333856:0:0:0:0:
192,192,333623,128,0,333882:0:0:0:0:
64,192,333778,1,0,0:0:0:0:
448,192,333778,128,0,333856:0:0:0:0:
320,192,333934,1,0,0:0:0:0:
448,192,334089,1,0,0:0:0:0:
320,192,334089,1,0,0:0:0:0:
448,192,334245,1,0,0:0:0:0:
192,192,334245,1,0,0:0:0:0:
320,192,334400,128,0,334478:0:0:0:0:
64,192,334400,128,0,334478:0:0:0:0:
448,192,334556,1,0,0:0:0:0:
64,192,334711,1,0,0:0:0:0:
320,192,334711,128,0,334800:0:0:0:0:
448,192,334711,128,0,334800:0:0:0:0:
192,192,334866,128,0,334944:0:0:0:0:
320,192,334866,128,0,335126:0:0:0:0:
64,192,335022,1,0,0:0:0:0:
320,192,335177,1,0,0:0:0:0:
64,192,335177,1,0,0:0:0:0:
448,192,335333,1,0,0:0:0:0:
64,192,335488,128,0,335566:0:0:0:0:
320,192,335488,128,0,335747:0:0:0:0:
192,192,335644,1,0,0:0:0:0:
192,192,335799,1,0,0:0:0:0:
320,192,335799,128,0,335877:0:0:0:0:
320,192,335955,128,0,336084:0:0:0:0:
448,192,335955,128,0,336214:0:0:0:0:
64,192,335955,128,0,336084:0:0:0:0:
192,192,336110,128,0,336343:0:0:0:0:
64,192,336265,1,0,0:0:0:0:
320,192,336265,128,0,336473:0:0:0:0:
192,192,336421,1,0,0:0:0:0:
64,192,336576,1,0,0:0:0:0:
448,192,336576,1,0,0:0:0:0:
192,192,336576,128,0,336602:0:0:0:0:
320,192,336576,128,0,336628:0:0:0:0:
320,192,336732,1,0,0:0:0:0:
448,192,336887,1,0,0:0:0:0:
320,192,337043,1,0,0:0:0:0:
192,192,337198,128,0,337328:0:0:0:0:
64,192,337198,128,0,337328:0:0:0:0:
448,192,337353,1,0,0:0:0:0:
192,192,337664,1,0,0:0:0:0:
320,192,337664,1,0,0:0:0:0:
448,192,337975,1,0,0:0:0:0:
192,192,337975,1,0,0:0:0:0:
64,192,338286,128,0,338403:0:0:0:0:
320,192,338442,128,0,338571:0:0:0:0:
448,192,338442,128,0,338571:0:0:0:0:
448,192,338597,1,0,0:0:0:0:
64,192,338908,1,0,0:0:0:0:
64,192,339063,1,0,0:0:0:0:
320,192,339063,1,0,0:0:0:0:
320,192,339219,1,0,0:0:0:0:
448,192,339374,1,0,0:0:0:0:
192,192,339530,1,0,0:0:0:0:
320,192,339685,128,0,339815:0:0:0:0:
448,192,339685,128,0,339815:0:0:0:0:
320,192,339841,1,0,0:0:0:0:
64,192,340151,1,0,0:0:0:0:
320,192,340151,128,0,340268:0:0:0:0:
320,192,340462,128,0,340721:0:0:0:0:
192,192,340462,1,0,0:0:0:0:
192,192,340773,1,0,0:0:0:0:
320,192,340773,1,0,0:0:0:0:
192,192,340929,128,0,341058:0:0:0:0:
64,192,340929,128,0,341058:0:0:0:0:
320,192,341084,1,0,0:0:0:0:
192,192,341395,1,0,0:0:0:0:
64,192,341550,1,0,0:0:0:0:
192,192,341550,1,0,0:0:0:0:
320,192,341706,1,0,0:0:0:0:
448,192,341861,1,0,0:0:0:0:
320,192,342017,1,0,0:0:0:0:
192,192,342172,128,0,342302:0:0:0:0:
64,192,342172,128,0,342302:0:0:0:0:
448,192,342328,1,0,0:0:0:0:
192,192,342638,1,0,0:0:0:0:
320,192,342638,1,0,0:0:0:0:
448,192,342949,1,0,0:0:0:0:
192,192,342949,1,0,0:0:0:0:
64,192,343260,128,0,343377:0:0:0:0:
320,192,343260,128,0,343364:0:0:0:0:
320,192,343416,128,0,343545:0:0:0:0:
448,192,343416,128,0,343545:0:0:0:0:
192,192,343571,128,0,343668:0:0:0:0:
448,192,343571,128,0,343830:0:0:0:0:
192,192,343727,1,0,0:0:0:0:
64,192,343882,1,0,0:0:0:0:
64,192,344037,1,0,0:0:0:0:
320,192,344037,1,0,0:0:0:0:
320,192,344193,1,0,0:0:0:0:
64,192,344348,128,0,344482:0:0:0:0:
448,192,344348,128,0,344437:0:0:0:0:
192,192,344504,1,0,0:0:0:0:
320,192,344659,128,0,344748:0:0:0:0:
448,192,344659,128,0,344748:0:0:0:0:
320,192,344815,128,0,345074:0:0:0:0:
64,192,345126,1,0,0:0:0:0:
320,192,345126,128,0,345242:0:0:0:0:
320,192,345436,128,0,345695:0:0:0:0:
192,192,345436,1,0,0:0:0:0:
320,192,345747,1,0,0:0:0:0:
192,192,345747,128,0,345851:0:0:0:0:
192,192,345903,128,0,345992:0:0:0:0:
64,192,345903,128,0,346032:0:0:0:0:
320,192,346058,1,0,0:0:0:0:
64,192,346214,1,0,0:0:0:0:
320,192,346214,1,0,0:0:0:0:
192,192,346369,1,0,0:0:0:0:
64,192,346524,1,0,0:0:0:0:
192,192,346524,1,0,0:0:0:0:
320,192,346680,1,0,0:0:0:0:
448,192,346835,1,0,0:0:0:0:
320,192,346991,1,0,0:0:0:0:
192,192,347146,128,0,347276:0:0:0:0:
64,192,347146,128,0,347276:0:0:0:0:
448,192,347302,1,0,0:0:0:0:
192,192,347613,1,0,0:0:0:0:
320,192,347613,1,0,0:0:0:0:
448,192,347923,1,0,0:0:0:0:
192,192,347923,1,0,0:0:0:0:
64,192,348234,128,0,348351:0:0:0:0:
320,192,348390,128,0,348519:0:0:0:0:
448,192,348390,128,0,348519:0:0:0:0:
448,192,348545,1,0,0:0:0:0:
64,192,348856,1,0,0:0:0:0:
64,192,349012,1,0,0:0:0:0:
320,192,349012,1,0,0:0:0:0:
320,192,349167,1,0,0:0:0:0:
448,192,349322,1,0,0:0:0:0:
192,192,349478,1,0,0:0:0:0:
320,192,349633,128,0,349763:0:0:0:0:
448,192,349633,128,0,349763:0:0:0:0:
320,192,349789,1,0,0:0:0:0:
64,192,350100,1,0,0:0:0:0:
320,192,350100,128,0,350216:0:0:0:0:
320,192,350410,128,0,350670:0:0:0:0:
192,192,350410,1,0,0:0:0:0:
192,192,350721,1,0,0:0:0:0:
320,192,350721,1,0,0:0:0:0:
192,192,350877,128,0,351006:0:0:0:0:
64,192,350877,128,0,351006:0:0:0:0:
320,192,351032,1,0,0:0:0:0:
192,192,351343,1,0,0:0:0:0:
64,192,351499,1,0,0:0:0:0:
192,192,351499,1,0,0:0:0:0:
320,192,351654,1,0,0:0:0:0:
448,192,351809,1,0,0:0:0:0:
320,192,351965,128,0,352017:0:0:0:0:
192,192,352120,128,0,352250:0:0:0:0:
64,192,352120,128,0,352250:0:0:0:0:
448,192,352276,1,0,0:0:0:0:
320,192,352587,1,0,0:0:0:0:
192,192,352587,128,0,352638:0:0:0:0:
448,192,352898,1,0,0:0:0:0:
192,192,352898,1,0,0:0:0:0:
64,192,353208,128,0,353325:0:0:0:0:
320,192,353364,128,0,353493:0:0:0:0:
448,192,353364,128,0,353493:0:0:0:0:
192,192,353519,128,0,353616:0:0:0:0:
448,192,353519,128,0,353778:0:0:0:0:
192,192,353675,1,0,0:0:0:0:
64,192,353830,1,0,0:0:0:0:
192,192,354048,128,0,354172:0:0:0:0:
64,192,354110,128,0,354234:0:0:0:0:
192,192,354245,128,0,354296:0:0:0:0:
320,192,354374,1,0,0:0:0:0:
64,192,354504,128,0,354607:0:0:0:0:
320,192,354607,128,0,354685:0:0:0:0:
448,192,354763,128,0,355203:0:0:0:0:
