osu file format v14

[General]
AudioFilename: audio.mp3
AudioLeadIn: 0
PreviewTime: 196843
Countdown: 0
SampleSet: Normal
StackLeniency: 0.7
Mode: 1
LetterboxInBreaks: 0
WidescreenStoryboard: 1

[Editor]
Bookmarks: 20645,30468,40286,50104,63195,73014,79013,105195,118286,131377,147194,179921,197380,231738
DistanceSpacing: 1
BeatDivisor: 12
GridSize: 32
TimelineZoom: 1.5

[Metadata]
Title:Histrionic (Vocaloid ver.)
TitleUnicode:舞台性ナニカ (Vocaloid ver.)
Artist:Kikuo
ArtistUnicode:きくお
Creator:Alchyr
Version:Oni
Source:
Tags:butaisei nanika Kikuo Miku 6 Hatsune 初音ミク vocaloid electronic japanese
BeatmapID:2410969
BeatmapSetID:1151081

[Difficulty]
HPDrainRate:5.5
CircleSize:5
OverallDifficulty:5
ApproachRate:5
SliderMultiplier:1.4
SliderTickRate:1

[Events]
//Background and Video events
0,0,"bg.jpg",0,120
//Break Periods
//Storyboard Layer 0 (Background)
//Storyboard Layer 1 (Fail)
//Storyboard Layer 2 (Pass)
//Storyboard Layer 3 (Foreground)
//Storyboard Layer 4 (Overlay)
//Storyboard Sound Samples

[TimingPoints]
1039,272.727272727273,6,1,0,45,1,0
1039,-120.481927710843,3,1,0,45,0,0
2675,-120.481927710843,3,1,0,40,0,0
4266,-106.382978723404,3,1,0,80,0,0
4448,-116.279069767442,3,1,0,60,0,0
5084,-100,3,1,0,90,0,0
5266,-111.111111111111,3,1,0,60,0,0
5857,-105.263157894737,3,1,0,60,0,0
5948,-106.382978723404,3,1,0,60,0,0
6129,-108.695652173913,3,1,0,60,0,0
6220,-109.89010989011,3,1,0,60,0,0
6402,-112.359550561798,3,1,0,60,0,0
6493,-113.507377979569,3,1,0,60,0,0
6584,-114.942528735632,3,1,0,60,0,0
6675,-116.279069767442,3,1,0,60,0,0
6766,-117.647058823529,3,1,0,60,0,0
7220,-111.111111111111,3,1,0,60,0,0
7311,-113.636363636364,3,1,0,60,0,0
7493,-117.647058823529,3,1,0,60,0,0
7584,-120.481927710843,3,1,0,60,0,0
14129,-100,3,1,0,60,0,0
14402,-120.481927710843,3,1,0,60,0,0
19493,-111.111111111111,3,1,0,60,0,0
19766,-120.481927710843,3,1,0,60,0,0
19857,-100,3,1,0,60,0,0
20311,-120.481927710843,3,1,0,40,0,0
30629,-133.333333333333,3,1,0,30,0,0
33766,-120.481927710843,3,1,0,30,0,0
33948,-120.481927710843,3,1,0,35,0,0
37039,-133.333333333333,3,1,0,35,0,0
37857,-116.279069767442,3,1,0,35,0,0
38675,-125,3,1,0,35,0,0
39220,-121.951219512195,3,1,0,35,0,0
39493,-119.047619047619,3,1,0,35,0,0
40311,-111.111111111111,3,1,0,20,0,0
43584,-107.52688172043,3,1,0,20,0,0
44402,-111.111111111111,3,1,0,20,0,0
45220,-108.695652173913,3,1,0,20,0,0
46857,-100,3,1,0,20,0,0
46993,-101.010101010101,3,1,0,20,0,0
47129,-102.040816326531,3,1,0,20,0,0
47266,-103.092783505155,3,1,0,20,0,0
47402,-104.166666666667,3,1,0,20,0,0
47539,-105.263157894737,3,1,0,20,0,0
47675,-106.382978723404,3,1,0,20,0,0
47811,-108.695652173913,3,1,0,20,0,0
47948,-109.89010989011,3,1,0,20,0,0
48084,-111.111111111111,3,1,0,20,0,0
48220,-112.359550561798,3,1,0,20,0,0
48357,-113.636363636364,3,1,0,20,0,0
48493,-114.942528735632,3,1,0,20,0,0
48629,-116.504899613553,3,1,0,20,0,0
48766,-117.647058823529,3,1,0,20,0,0
48902,-119.047619047619,3,1,0,20,0,0
49039,-120.481927710843,3,1,0,20,0,0
49175,-121.951219512195,3,1,0,20,0,0
49311,-123.456790123457,3,1,0,20,0,0
49516,-100,3,1,0,80,0,0
49925,-120.481927710843,3,1,0,40,0,0
72175,-87.719298245614,3,1,0,70,0,0
73039,272.727272727273,5,1,0,25,1,0
73039,-120.481927710843,5,1,0,25,0,0
73493,-116.279069767442,5,1,0,25,0,0
73857,-112.359550561798,5,1,0,25,0,0
74402,-108.695652173913,5,1,0,25,0,0
74857,-105.263157894737,5,1,0,25,0,0
75220,-102.040816326531,5,1,0,25,0,0
75425,-93.4579439252336,5,1,0,40,0,0
75766,272.727272727273,6,1,0,60,1,0
77402,-100,3,1,0,40,0,0
77538,-97.7199015374272,3,1,0,40,0,0
77606,-96.6183574879227,3,1,0,40,0,0
77675,-95.5413708466972,3,1,0,40,0,0
77811,-93.4579439252336,3,1,0,40,0,0
77947,-91.4634425193422,3,1,0,40,0,0
78016,-90.4977375565611,3,1,0,40,0,0
78084,-89.5522120739665,3,1,0,40,0,0
78220,-87.719298245614,3,1,0,60,0,0
78493,-90.9090909090909,3,1,0,60,0,0
78561,-91.533180778032,3,1,0,60,0,0
78629,-92.1658986175115,3,1,0,60,0,0
78697,-92.8074245939675,3,1,0,60,0,0
78766,-93.4579439252336,3,1,0,60,0,0
78947,-95.2380952380952,3,1,0,60,0,0
79038,-87.719298245614,3,1,0,60,0,1
79175,-100,3,1,0,60,0,1
85538,-87.719298245614,3,1,0,60,0,1
85652,-100,3,1,0,60,0,1
88766,-100,3,1,0,50,0,1
91266,-100,3,1,0,55,0,1
92129,-87.719298245614,3,1,0,60,0,1
92266,-100,3,1,0,60,0,1
98675,-87.719298245614,3,1,0,60,0,1
98811,-100,3,1,0,60,0,1
103584,-87.719298245614,3,1,0,60,0,1
103720,-100,3,1,0,40,0,1
104038,-97.0873786407767,3,1,0,40,0,1
104129,-95.2380952380952,3,1,0,40,0,1
104220,-92.5925925925926,3,1,0,40,0,1
104311,-90.0900900900901,3,1,0,40,0,1
104402,-87.719298245614,3,1,0,40,0,1
104675,-100,3,1,0,60,0,1
105220,-87.719298245614,3,1,0,60,0,0
105402,-100,3,1,0,60,0,0
119129,-120.481927710843,3,1,0,40,0,0
122266,-120.481927710843,3,1,0,25,0,0
122379,-120.481927710843,3,1,0,40,0,0
131402,-133.333333333333,3,1,0,30,0,0
141220,272.727272727273,5,1,0,20,1,0
141220,-120.481927710843,5,1,0,20,0,0
141720,-114.942528735632,5,1,0,20,0,0
142038,-109.89010989011,5,1,0,20,0,0
142583,-117.647058823529,5,1,0,20,0,0
143083,-111.111111111111,5,1,0,20,0,0
143401,-106.382978723404,5,1,0,20,0,0
143947,272.727272727273,6,1,0,80,1,0
143947,-50,3,1,0,80,0,0
145583,-100,3,1,0,40,0,0
146401,-100,3,1,0,70,0,0
146810,-120.481927710843,3,1,0,60,0,0
147219,272.727272727273,5,1,0,60,1,0
147219,-120.481927710843,5,1,0,60,0,0
189491,-100,5,1,0,60,0,0
189673,-120.481927710843,5,1,0,55,0,0
189764,-118.621992042837,5,1,0,54,0,0
189855,-116.818472271383,5,1,0,53,0,0
189946,-115.069104750858,5,1,0,52,0,0
190037,-113.371358086836,5,1,0,51,0,0
190128,-111.722855814951,5,1,0,50,0,0
190219,-110.121728558749,5,1,0,49,0,0
190309,-108.565845185105,5,1,0,48,0,0
190400,-107.053200087784,5,1,0,47,0,0
190491,-105.582238533505,5,1,0,46,0,0
190582,-104.151044010065,5,1,0,45,0,0
190673,-102.758236586454,5,1,0,44,0,0
190764,-101.402189476075,5,1,0,43,0,0
190855,-100.08136615068,5,1,0,42,0,0
191059,-100,5,1,0,39,0,0
191264,-100,5,1,0,36,0,0
191469,-100,5,1,0,33,0,0
191656,-100,5,1,0,30,0,0
191844,-100,5,1,0,27,0,0
192037,-100,5,1,0,24,0,0
192218,-133.333333333333,5,1,0,20,0,0
192491,-133.333333333333,5,1,0,15,0,0
192764,-133.333333333333,5,1,0,14,0,0
193037,-133.333333333333,5,1,0,13,0,0
193309,-133.333333333333,5,1,0,12,0,0
193582,-153.846153846154,5,1,0,11,0,0
193855,-153.846153846154,5,1,0,10,0,0
194128,-153.846153846154,5,1,0,8,0,0
194400,-153.846153846154,5,1,0,6,0,0
194673,-153.846153846154,5,1,0,5,0,0
194912,-166.666666666667,5,1,0,5,0,0
196309,272.727272727273,5,1,0,5,1,8
196309,-181.818181818182,5,1,0,5,0,0
196855,-181.818181818182,5,1,0,25,0,0
197400,272.727272727273,6,1,0,25,1,0
197400,-200,3,1,0,25,0,0
222763,-222.222222222222,3,1,0,25,0,0
223036,-229.357798165138,3,1,0,25,0,0
223581,-250,3,1,0,25,0,0
224400,-285.714285714286,3,1,0,25,0,0
224809,-120.481927710843,3,1,0,60,0,0
225218,-100,3,1,0,70,0,0
225354,-120.481927710843,3,1,0,60,0,0
226786,-111.111111111111,3,1,0,60,0,0
226922,-120.481927710843,3,1,0,60,0,0
228490,-100,3,1,0,75,0,0
228627,-108.108108108108,3,1,0,60,0,0
230127,-87.719298245614,3,1,0,40,0,0
230263,-89.5522120739665,3,1,0,40,0,0
230331,-90.4977375565611,3,1,0,40,0,0
230400,-91.4634425193422,3,1,0,40,0,0
230536,-93.4579439252336,3,1,0,40,0,0
230672,-95.5413708466972,3,1,0,40,0,0
230740,-96.6183574879227,3,1,0,40,0,0
230809,-97.7199015374272,3,1,0,40,0,0
230945,-100,3,1,0,60,0,0
231115,-111.111111111111,3,1,0,60,0,0
231400,-117.647058823529,3,1,0,60,0,0
231490,-120.481927710843,3,1,0,60,0,0
231763,-87.719298245614,3,1,0,60,0,1
231900,-100,3,1,0,60,0,1
238263,-87.719298245614,3,1,0,60,0,1
238400,-100,3,1,0,60,0,1
241491,-100,3,1,0,40,0,1
243991,-100,3,1,0,50,0,1
244854,-87.719298245614,3,1,0,60,0,1
244991,-100,3,1,0,60,0,1
251400,-87.719298245614,3,1,0,60,0,1
251536,-100,3,1,0,60,0,1
256309,-87.719298245614,3,1,0,60,0,1
256445,-100,3,1,0,40,0,1
256854,-95.2380952380952,3,1,0,40,0,1
256945,-92.5925925925926,3,1,0,40,0,1
257036,-90.0900900900901,3,1,0,40,0,1
257127,-87.719298245614,3,1,0,40,0,1
257400,-93.4579439252336,3,1,0,60,0,1
257672,-100,3,1,0,60,0,1
257945,-87.719298245614,3,1,0,60,0,1
258081,-100,3,1,0,60,0,1
264445,-87.719298245614,3,1,0,60,0,1
264581,-100,3,1,0,60,0,1
267672,-100,3,1,0,40,0,1
270172,-100,3,1,0,50,0,1
271035,-87.719298245614,3,1,0,60,0,1
271172,-100,3,1,0,60,0,1
277581,-87.719298245614,3,1,0,60,0,1
277717,-100,3,1,0,60,0,1
281672,-96.1538461538461,3,1,0,60,0,1
282490,-92.5925925925926,3,1,0,60,0,1
283309,-89.2857142857143,3,1,0,60,0,1
284127,-86.2068965517241,3,1,0,60,0,1
285763,-94.3396226415094,3,1,0,60,0,1
285854,-92.9751681920793,3,1,0,60,0,1
285945,-91.6497038339821,3,1,0,60,0,1
286036,-90.3614185658378,3,1,0,60,0,1
286127,-89.1089285364215,3,1,0,60,0,1
286218,-87.8906078338657,3,1,0,60,0,1
286309,-86.705227371453,3,1,0,60,0,1
286400,-85.5513226662241,3,1,0,60,0,1
286490,-84.4277990348214,3,1,0,60,0,1
286581,-83.3333333333333,3,1,0,60,0,1
286854,-100,3,1,0,60,0,1
287400,-87.719298245614,3,1,0,60,0,0
287581,-100,3,1,0,60,0,0
297218,-87.719298245614,3,1,0,60,0,0
297672,-100,3,1,0,60,0,0
297763,-101.437058812192,3,1,0,60,0,0
297945,-104.43864229765,3,1,0,60,0,0
298036,-106.00710459615,3,1,0,60,0,0
298218,-109.289617486339,3,1,0,60,0,0
298309,-111.008366700598,3,1,0,60,0,0
298400,-112.781912488003,3,1,0,60,0,0
298490,-114.41647597254,3,1,0,60,0,0
298581,-116.279069767442,3,1,0,60,0,0
298763,-120.481927710843,3,1,0,60,0,0
298854,-87.719298245614,3,1,0,60,0,0

[HitObjects]
64,64,1039,5,0,0:0:0:0:
320,64,1220,1,8,0:0:0:0:
64,64,1493,1,0,0:0:0:0:
320,64,1584,1,8,0:0:0:0:
64,64,1857,1,0,0:0:0:0:
320,64,2039,1,8,0:0:0:0:
320,64,2129,1,8,0:0:0:0:
64,64,2311,1,0,0:0:0:0:
64,64,2402,1,0,0:0:0:0:
64,64,2675,1,0,0:0:0:0:
320,64,2857,1,8,0:0:0:0:
64,64,3129,1,0,0:0:0:0:
320,64,3220,1,8,0:0:0:0:
64,64,3493,1,0,0:0:0:0:
320,64,3675,1,8,0:0:0:0:
320,64,3766,1,8,0:0:0:0:
64,64,3948,1,0,0:0:0:0:
64,64,4039,1,0,0:0:0:0:
320,64,4311,1,12,0:0:0:0:
64,64,4493,1,0,0:0:0:0:
320,64,4584,1,8,0:0:0:0:
64,64,4675,1,0,0:0:0:0:
64,64,4766,1,0,0:0:0:0:
320,64,4857,1,8,0:0:0:0:
320,64,5129,1,12,0:0:0:0:
64,64,5311,1,0,0:0:0:0:
320,64,5402,1,8,0:0:0:0:
320,64,5493,1,8,0:0:0:0:
64,64,5584,1,0,0:0:0:0:
320,64,5675,1,8,0:0:0:0:
64,64,5948,1,0,0:0:0:0:
64,64,6129,1,0,0:0:0:0:
320,64,6220,1,8,0:0:0:0:
320,64,6402,1,8,0:0:0:0:
64,64,6493,1,0,0:0:0:0:
320,64,6675,1,8,0:0:0:0:
64,64,6766,1,0,0:0:0:0:
320,64,7220,1,8,0:0:0:0:
320,64,7311,1,8,0:0:0:0:
320,64,7493,1,8,0:0:0:0:
64,64,7584,1,4,0:0:0:0:
64,64,8039,1,0,0:0:0:0:
320,64,8402,1,8,0:0:0:0:
64,64,8675,1,0,0:0:0:0:
320,64,8766,1,8,0:0:0:0:
320,64,8857,1,8,0:0:0:0:
64,64,8948,1,0,0:0:0:0:
320,64,9220,1,8,0:0:0:0:
64,64,9675,1,0,0:0:0:0:
64,64,9766,1,0,0:0:0:0:
320,64,10039,1,8,0:0:0:0:
64,64,10311,1,0,0:0:0:0:
320,64,10493,1,8,0:0:0:0:
64,64,10766,1,0,0:0:0:0:
320,64,10857,1,8,0:0:0:0:
64,64,11129,1,0,0:0:0:0:
320,64,11311,1,8,0:0:0:0:
320,64,11675,1,8,0:0:0:0:
320,64,11948,1,8,0:0:0:0:
64,64,12129,1,0,0:0:0:0:
320,64,12493,1,8,0:0:0:0:
64,64,12766,1,0,0:0:0:0:
64,64,12948,1,0,0:0:0:0:
64,64,13220,1,0,0:0:0:0:
320,64,13311,1,8,0:0:0:0:
64,64,13584,1,0,0:0:0:0:
64,64,13766,1,0,0:0:0:0:
320,64,13857,1,8,0:0:0:0:
320,64,14129,1,12,0:0:0:0:
64,64,14402,1,0,0:0:0:0:
320,64,14584,1,8,0:0:0:0:
64,64,14675,1,0,0:0:0:0:
320,64,14948,1,8,0:0:0:0:
320,64,15493,1,8,0:0:0:0:
64,64,15766,1,0,0:0:0:0:
320,64,16175,1,8,0:0:0:0:
320,64,16243,1,8,0:0:0:0:
64,64,16311,1,0,0:0:0:0:
64,64,16493,1,0,0:0:0:0:
320,64,16584,1,8,0:0:0:0:
64,64,16857,1,0,0:0:0:0:
320,64,17129,1,8,0:0:0:0:
320,64,17220,1,8,0:0:0:0:
320,64,17311,1,8,0:0:0:0:
64,64,17402,1,0,0:0:0:0:
64,64,17584,1,0,0:0:0:0:
320,64,17675,1,8,0:0:0:0:
320,64,17857,1,8,0:0:0:0:
64,64,17948,1,0,0:0:0:0:
320,64,18220,1,8,0:0:0:0:
64,64,18402,1,0,0:0:0:0:
320,64,18493,1,8,0:0:0:0:
64,64,18675,1,0,0:0:0:0:
320,64,18766,1,8,0:0:0:0:
320,64,18948,1,8,0:0:0:0:
64,64,19039,1,0,0:0:0:0:
320,64,19493,1,8,0:0:0:0:
64,64,19766,1,0,0:0:0:0:
320,64,19857,1,12,0:0:0:0:
64,64,20402,1,0,0:0:0:0:
320,64,20675,1,8,0:0:0:0:
64,64,20857,1,0,0:0:0:0:
320,64,20948,1,8,0:0:0:0:
64,64,21129,1,0,0:0:0:0:
320,64,21220,1,8,0:0:0:0:
64,64,21402,1,0,0:0:0:0:
320,64,21493,1,8,0:0:0:0:
320,64,21675,1,8,0:0:0:0:
64,64,21948,1,0,0:0:0:0:
64,64,22220,1,0,0:0:0:0:
320,64,22311,1,8,0:0:0:0:
64,64,22493,1,0,0:0:0:0:
320,64,22584,1,8,0:0:0:0:
64,64,22766,1,0,0:0:0:0:
320,64,22857,1,8,0:0:0:0:
64,64,23039,1,0,0:0:0:0:
320,64,23129,1,8,0:0:0:0:
320,64,23311,1,8,0:0:0:0:
320,64,23402,1,8,0:0:0:0:
320,64,23675,1,8,0:0:0:0:
64,64,23766,1,0,0:0:0:0:
64,64,23857,1,0,0:0:0:0:
320,64,23948,1,8,0:0:0:0:
64,64,24129,1,0,0:0:0:0:
320,64,24220,1,8,0:0:0:0:
64,64,24402,1,0,0:0:0:0:
320,64,24493,1,8,0:0:0:0:
64,64,24675,1,0,0:0:0:0:
320,64,24766,1,8,0:0:0:0:
64,64,24948,1,0,0:0:0:0:
320,64,25039,1,8,0:0:0:0:
64,64,25220,1,0,0:0:0:0:
320,64,25311,1,8,0:0:0:0:
64,64,25584,1,0,0:0:0:0:
320,64,25766,1,8,0:0:0:0:
64,64,25857,1,0,0:0:0:0:
320,64,26039,1,8,0:0:0:0:
64,64,26129,1,0,0:0:0:0:
320,64,26402,1,8,0:0:0:0:
64,64,26584,1,0,0:0:0:0:
320,64,26675,1,8,0:0:0:0:
64,64,26857,1,0,0:0:0:0:
320,64,26948,1,8,0:0:0:0:
320,64,27220,1,8,0:0:0:0:
64,64,27402,1,0,0:0:0:0:
320,64,27493,1,8,0:0:0:0:
64,64,27675,1,0,0:0:0:0:
320,64,27766,1,8,0:0:0:0:
320,64,28039,1,8,0:0:0:0:
64,64,28220,1,0,0:0:0:0:
64,64,28311,1,0,0:0:0:0:
64,64,28493,1,0,0:0:0:0:
64,64,28584,1,0,0:0:0:0:
320,64,28857,1,8,0:0:0:0:
64,64,29039,1,0,0:0:0:0:
320,64,29129,1,8,0:0:0:0:
64,64,29311,1,0,0:0:0:0:
320,64,29402,1,8,0:0:0:0:
320,64,29675,1,8,0:0:0:0:
320,64,29857,1,8,0:0:0:0:
320,64,29948,1,8,0:0:0:0:
320,64,30129,1,8,0:0:0:0:
320,64,30220,1,8,0:0:0:0:
320,64,30493,1,8,0:0:0:0:
64,64,30766,1,0,0:0:0:0:
64,64,31039,1,0,0:0:0:0:
64,64,31766,1,0,0:0:0:0:
64,64,32402,1,0,0:0:0:0:
64,64,32675,1,0,0:0:0:0:
320,64,32948,1,8,0:0:0:0:
64,64,33402,1,0,0:0:0:0:
320,64,33766,1,8,0:0:0:0:
64,64,34584,1,0,0:0:0:0:
64,64,35402,1,0,0:0:0:0:
64,64,35675,1,0,0:0:0:0:
320,64,35948,1,8,0:0:0:0:
64,64,36220,1,0,0:0:0:0:
64,64,37039,1,0,0:0:0:0:
64,64,37311,1,0,0:0:0:0:
320,64,37584,1,8,0:0:0:0:
64,64,37857,1,0,0:0:0:0:
64,64,38129,1,0,0:0:0:0:
320,64,38402,1,8,0:0:0:0:
64,64,38675,1,0,0:0:0:0:
64,64,39220,1,0,0:0:0:0:
320,64,39493,1,8,0:0:0:0:
64,64,39948,1,0,0:0:0:0:
320,64,40311,1,8,0:0:0:0:
64,64,40584,1,0,0:0:0:0:
320,64,40720,1,8,0:0:0:0:
64,64,40857,1,0,0:0:0:0:
320,64,41129,1,8,0:0:0:0:
64,64,41948,1,0,0:0:0:0:
64,64,42220,1,0,0:0:0:0:
64,64,42357,1,0,0:0:0:0:
320,64,42493,1,8,0:0:0:0:
64,64,42766,1,0,0:0:0:0:
320,64,43584,1,8,0:0:0:0:
320,64,43857,1,8,0:0:0:0:
64,64,44129,1,0,0:0:0:0:
320,64,44402,1,8,0:0:0:0:
64,64,44675,1,0,0:0:0:0:
320,64,44948,1,8,0:0:0:0:
64,64,45220,1,0,0:0:0:0:
64,64,45493,1,0,0:0:0:0:
64,64,45629,1,0,0:0:0:0:
320,64,45766,1,8,0:0:0:0:
320,64,46039,1,8,0:0:0:0:
320,64,46857,1,8,0:0:0:0:
320,64,46993,1,8,0:0:0:0:
64,64,47129,1,0,0:0:0:0:
64,64,47266,1,0,0:0:0:0:
320,64,47402,1,8,0:0:0:0:
320,64,47539,1,8,0:0:0:0:
64,64,47675,1,0,0:0:0:0:
320,64,47948,1,8,0:0:0:0:
320,64,48084,1,8,0:0:0:0:
64,64,48220,1,0,0:0:0:0:
320,64,48357,1,8,0:0:0:0:
64,64,48493,1,0,0:0:0:0:
64,64,48766,1,0,0:0:0:0:
64,64,48902,1,0,0:0:0:0:
320,64,49039,1,8,0:0:0:0:
320,64,49175,1,8,0:0:0:0:
64,64,49311,1,0,0:0:0:0:
256,384,49584,2,8,L|256:224,1,140
64,64,50129,1,0,0:0:0:0:
320,64,50584,1,8,0:0:0:0:
64,64,50675,1,0,0:0:0:0:
320,64,50948,1,8,0:0:0:0:
64,64,51493,1,0,0:0:0:0:
320,64,51766,1,8,0:0:0:0:
64,64,52220,1,0,0:0:0:0:
64,64,52311,1,0,0:0:0:0:
320,64,52584,1,8,0:0:0:0:
320,64,53129,1,8,0:0:0:0:
320,64,53402,1,8,0:0:0:0:
64,64,53857,1,0,0:0:0:0:
64,64,53948,1,0,0:0:0:0:
320,64,54220,1,8,0:0:0:0:
64,64,54766,1,0,0:0:0:0:
320,64,55039,1,8,0:0:0:0:
64,64,55493,1,0,0:0:0:0:
64,64,55584,1,0,0:0:0:0:
320,64,55857,1,8,0:0:0:0:
64,64,56402,1,0,0:0:0:0:
320,64,56675,1,8,0:0:0:0:
320,64,57129,1,8,0:0:0:0:
64,64,57220,1,0,0:0:0:0:
320,64,57493,1,8,0:0:0:0:
64,64,58039,1,0,0:0:0:0:
320,64,58311,1,8,0:0:0:0:
320,64,58584,1,8,0:0:0:0:
64,64,58857,1,0,0:0:0:0:
320,64,59129,1,8,0:0:0:0:
320,64,59675,1,8,0:0:0:0:
64,64,59948,1,0,0:0:0:0:
64,64,60402,1,0,0:0:0:0:
64,64,60493,1,0,0:0:0:0:
320,64,60766,1,8,0:0:0:0:
64,64,61311,1,0,0:0:0:0:
320,64,61493,1,8,0:0:0:0:
64,64,61584,1,0,0:0:0:0:
320,64,62039,1,8,0:0:0:0:
320,64,62402,1,8,0:0:0:0:
320,64,62675,1,8,0:0:0:0:
320,64,62857,1,8,0:0:0:0:
64,64,62948,1,0,0:0:0:0:
320,64,63220,1,8,0:0:0:0:
64,64,63675,1,0,0:0:0:0:
64,64,63766,1,0,0:0:0:0:
320,64,64039,1,8,0:0:0:0:
64,64,64311,1,0,0:0:0:0:
320,64,64493,1,8,0:0:0:0:
64,64,64584,1,0,0:0:0:0:
320,64,64857,1,8,0:0:0:0:
64,64,65129,1,0,0:0:0:0:
64,64,65311,1,0,0:0:0:0:
64,64,65584,1,0,0:0:0:0:
320,64,65675,1,8,0:0:0:0:
64,64,66220,1,0,0:0:0:0:
320,64,66493,1,8,0:0:0:0:
64,64,66948,1,0,0:0:0:0:
64,64,67039,1,0,0:0:0:0:
320,64,67311,1,8,0:0:0:0:
64,64,67584,1,0,0:0:0:0:
320,64,67766,1,8,0:0:0:0:
64,64,67857,1,0,0:0:0:0:
320,64,68129,1,8,0:0:0:0:
320,64,68402,1,8,0:0:0:0:
64,64,68584,1,0,0:0:0:0:
64,64,68857,1,0,0:0:0:0:
320,64,68948,1,8,0:0:0:0:
64,64,69220,1,0,0:0:0:0:
320,64,69402,1,8,0:0:0:0:
64,64,69493,1,0,0:0:0:0:
64,64,69766,1,0,0:0:0:0:
320,64,70039,1,8,0:0:0:0:
64,64,70220,1,0,0:0:0:0:
64,64,70493,1,0,0:0:0:0:
320,64,70584,1,8,0:0:0:0:
64,64,71129,1,0,0:0:0:0:
320,64,71402,1,8,0:0:0:0:
320,64,71675,1,8,0:0:0:0:
64,64,71948,1,0,0:0:0:0:
64,64,72129,1,0,0:0:0:0:
320,64,72220,1,12,0:0:0:0:
320,64,73039,1,8,0:0:0:0:
320,64,73084,1,8,0:0:0:0:
64,64,73129,1,0,0:0:0:0:
320,64,73493,1,8,0:0:0:0:
320,64,73539,1,8,0:0:0:0:
64,64,73584,1,0,0:0:0:0:
320,64,73857,1,8,0:0:0:0:
320,64,73902,1,8,0:0:0:0:
64,64,73948,1,0,0:0:0:0:
320,64,74402,1,8,0:0:0:0:
320,64,74448,1,8,0:0:0:0:
64,64,74493,1,0,0:0:0:0:
320,64,74857,1,8,0:0:0:0:
320,64,74902,1,8,0:0:0:0:
64,64,74948,1,0,0:0:0:0:
320,64,75220,1,8,0:0:0:0:
320,64,75266,1,8,0:0:0:0:
64,64,75311,1,0,0:0:0:0:
320,64,75493,1,8,0:0:0:0:
64,64,75766,1,4,0:0:0:0:
320,64,76220,1,8,0:0:0:0:
64,64,76311,1,0,0:0:0:0:
320,64,76584,1,8,0:0:0:0:
64,64,77038,1,0,0:0:0:0:
320,64,77129,1,8,0:0:0:0:
64,64,77402,1,0,0:0:0:0:
64,64,77538,1,0,0:0:0:0:
64,64,77606,1,0,0:0:0:0:
320,64,77675,1,8,0:0:0:0:
64,64,77811,1,0,0:0:0:0:
320,64,77947,1,8,0:0:0:0:
320,64,78016,1,8,0:0:0:0:
64,64,78084,1,0,0:0:0:0:
320,64,78220,1,12,0:0:0:0:
320,64,78493,1,8,0:0:0:0:
320,64,78561,1,8,0:0:0:0:
64,64,78629,1,0,0:0:0:0:
64,64,78697,1,0,0:0:0:0:
320,64,78766,1,8,0:0:0:0:
320,64,78947,1,8,0:0:0:0:
64,64,79038,1,4,0:0:0:0:
320,64,79311,1,8,0:0:0:0:
64,64,79493,1,0,0:0:0:0:
64,64,79766,1,0,0:0:0:0:
320,64,79856,1,8,0:0:0:0:
320,64,80129,1,8,0:0:0:0:
320,64,80402,1,8,0:0:0:0:
64,64,80675,1,0,0:0:0:0:
64,64,80947,1,0,0:0:0:0:
320,64,81129,1,8,0:0:0:0:
320,64,81493,1,8,0:0:0:0:
64,64,81766,1,0,0:0:0:0:
64,64,81947,1,0,0:0:0:0:
320,64,82038,1,8,0:0:0:0:
64,64,82311,1,0,0:0:0:0:
320,64,82584,1,8,0:0:0:0:
64,64,82766,1,0,0:0:0:0:
320,64,83129,1,8,0:0:0:0:
64,64,83311,1,0,0:0:0:0:
64,64,83402,1,0,0:0:0:0:
320,64,83584,1,8,0:0:0:0:
64,64,83947,1,0,0:0:0:0:
320,64,84220,1,8,0:0:0:0:
64,64,84402,1,0,0:0:0:0:
320,64,84766,1,8,0:0:0:0:
64,64,85038,1,0,0:0:0:0:
64,64,85220,1,0,0:0:0:0:
320,64,85311,1,8,0:0:0:0:
320,64,85584,1,12,0:0:0:0:
64,64,85856,1,0,0:0:0:0:
320,64,86038,1,8,0:0:0:0:
320,64,86402,1,8,0:0:0:0:
64,64,86675,1,0,0:0:0:0:
64,64,86856,1,0,0:0:0:0:
320,64,86947,1,8,0:0:0:0:
320,64,87220,1,8,0:0:0:0:
320,64,87493,1,8,0:0:0:0:
64,64,87675,1,0,0:0:0:0:
64,64,87947,1,0,0:0:0:0:
320,64,88038,1,8,0:0:0:0:
64,64,88311,1,0,0:0:0:0:
64,64,88493,1,0,0:0:0:0:
320,64,88584,1,8,0:0:0:0:
64,64,88856,1,0,0:0:0:0:
64,64,89311,1,0,0:0:0:0:
64,64,89402,1,0,0:0:0:0:
64,64,89675,1,0,0:0:0:0:
64,64,90129,1,0,0:0:0:0:
64,64,90220,1,0,0:0:0:0:
64,64,90493,1,0,0:0:0:0:
64,64,90766,1,0,0:0:0:0:
64,64,90947,1,0,0:0:0:0:
64,64,91038,1,0,0:0:0:0:
64,64,91220,1,0,0:0:0:0:
320,64,91311,1,8,0:0:0:0:
320,64,91493,1,8,0:0:0:0:
64,64,91766,1,0,0:0:0:0:
320,64,91856,1,8,0:0:0:0:
320,64,92129,1,12,0:0:0:0:
64,64,92402,1,0,0:0:0:0:
64,64,92584,1,0,0:0:0:0:
64,64,92856,1,0,0:0:0:0:
320,64,92947,1,8,0:0:0:0:
64,64,93220,1,0,0:0:0:0:
64,64,93493,1,0,0:0:0:0:
320,64,93766,1,8,0:0:0:0:
64,64,94038,1,0,0:0:0:0:
320,64,94220,1,8,0:0:0:0:
320,64,94584,1,8,0:0:0:0:
64,64,94856,1,0,0:0:0:0:
64,64,95038,1,0,0:0:0:0:
320,64,95129,1,8,0:0:0:0:
64,64,95402,1,0,0:0:0:0:
320,64,95675,1,8,0:0:0:0:
64,64,95856,1,0,0:0:0:0:
320,64,96220,1,8,0:0:0:0:
64,64,96402,1,0,0:0:0:0:
64,64,96493,1,0,0:0:0:0:
320,64,96675,1,8,0:0:0:0:
64,64,97038,1,0,0:0:0:0:
320,64,97311,1,8,0:0:0:0:
64,64,97493,1,0,0:0:0:0:
320,64,97856,1,8,0:0:0:0:
64,64,98129,1,0,0:0:0:0:
64,64,98311,1,0,0:0:0:0:
320,64,98402,1,8,0:0:0:0:
64,64,98675,1,4,0:0:0:0:
64,64,98947,1,0,0:0:0:0:
320,64,99129,1,8,0:0:0:0:
320,64,99493,1,8,0:0:0:0:
64,64,99766,1,0,0:0:0:0:
64,64,99947,1,0,0:0:0:0:
320,64,100038,1,8,0:0:0:0:
320,64,100311,1,8,0:0:0:0:
320,64,100584,1,8,0:0:0:0:
64,64,100766,1,0,0:0:0:0:
320,64,101129,1,8,0:0:0:0:
64,64,101402,1,0,0:0:0:0:
64,64,101584,1,0,0:0:0:0:
320,64,101675,1,8,0:0:0:0:
64,64,101947,1,0,0:0:0:0:
320,64,102129,1,8,0:0:0:0:
64,64,102402,1,0,0:0:0:0:
320,64,102493,1,8,0:0:0:0:
64,64,102766,1,0,0:0:0:0:
320,64,102947,1,8,0:0:0:0:
64,64,103220,1,0,0:0:0:0:
320,64,103311,1,8,0:0:0:0:
64,64,103584,1,4,0:0:0:0:
64,64,104038,1,0,0:0:0:0:
320,64,104129,1,8,0:0:0:0:
64,64,104220,1,0,0:0:0:0:
64,64,104311,1,0,0:0:0:0:
320,64,104402,1,8,0:0:0:0:
64,64,104675,1,0,0:0:0:0:
320,64,105220,1,12,0:0:0:0:
64,64,105402,1,0,0:0:0:0:
320,64,105493,1,8,0:0:0:0:
64,64,105675,1,0,0:0:0:0:
320,64,105766,1,8,0:0:0:0:
320,64,106038,1,8,0:0:0:0:
320,64,106220,1,8,0:0:0:0:
64,64,106493,1,0,0:0:0:0:
64,64,106766,1,0,0:0:0:0:
320,64,106856,1,8,0:0:0:0:
64,64,107038,1,0,0:0:0:0:
320,64,107129,1,8,0:0:0:0:
64,64,107311,1,0,0:0:0:0:
320,64,107402,1,8,0:0:0:0:
320,64,107675,1,8,0:0:0:0:
320,64,107856,1,8,0:0:0:0:
320,64,107947,1,8,0:0:0:0:
320,64,108220,1,8,0:0:0:0:
320,64,108311,1,8,0:0:0:0:
320,64,108402,1,8,0:0:0:0:
64,64,108493,1,0,0:0:0:0:
320,64,108766,1,8,0:0:0:0:
64,64,108947,1,0,0:0:0:0:
64,64,109038,1,0,0:0:0:0:
320,64,109311,1,8,0:0:0:0:
320,64,109493,1,8,0:0:0:0:
320,64,109766,1,8,0:0:0:0:
64,64,110038,1,0,0:0:0:0:
320,64,110129,1,8,0:0:0:0:
64,64,110402,1,0,0:0:0:0:
320,64,110675,1,8,0:0:0:0:
320,64,110947,1,8,0:0:0:0:
64,64,111129,1,0,0:0:0:0:
320,64,111402,1,8,0:0:0:0:
320,64,111493,1,8,0:0:0:0:
64,64,111584,1,0,0:0:0:0:
64,64,111675,1,0,0:0:0:0:
320,64,111766,1,8,0:0:0:0:
320,64,112038,1,8,0:0:0:0:
64,64,112220,1,0,0:0:0:0:
320,64,112311,1,8,0:0:0:0:
320,64,112493,1,8,0:0:0:0:
64,64,112584,1,0,0:0:0:0:
320,64,112766,1,8,0:0:0:0:
64,64,113038,1,0,0:0:0:0:
64,64,113311,1,0,0:0:0:0:
320,64,113402,1,8,0:0:0:0:
64,64,113584,1,0,0:0:0:0:
320,64,113675,1,8,0:0:0:0:
64,64,113856,1,0,0:0:0:0:
320,64,113947,1,8,0:0:0:0:
320,64,114220,1,8,0:0:0:0:
320,64,114402,1,8,0:0:0:0:
320,64,114493,1,8,0:0:0:0:
64,64,114584,1,0,0:0:0:0:
64,64,114675,1,0,0:0:0:0:
320,64,114766,1,8,0:0:0:0:
320,64,114947,1,8,0:0:0:0:
64,64,115038,1,0,0:0:0:0:
320,64,115311,1,8,0:0:0:0:
64,64,115493,1,0,0:0:0:0:
320,64,115584,1,8,0:0:0:0:
64,64,115766,1,0,0:0:0:0:
320,64,115856,1,8,0:0:0:0:
64,64,116038,1,0,0:0:0:0:
320,64,116129,1,8,0:0:0:0:
64,64,116311,1,0,0:0:0:0:
320,64,116402,1,8,0:0:0:0:
320,64,116675,1,8,0:0:0:0:
320,64,116856,1,8,0:0:0:0:
64,64,116947,1,0,0:0:0:0:
320,64,117129,1,8,0:0:0:0:
64,64,117220,1,0,0:0:0:0:
320,64,117493,1,8,0:0:0:0:
64,64,117675,1,0,0:0:0:0:
320,64,117766,1,8,0:0:0:0:
64,64,117947,1,0,0:0:0:0:
64,64,118038,1,0,0:0:0:0:
320,64,118129,1,8,0:0:0:0:
320,64,118220,1,8,0:0:0:0:
64,64,118311,1,0,0:0:0:0:
320,64,120220,1,8,0:0:0:0:
64,64,120493,1,0,0:0:0:0:
64,64,120766,1,0,0:0:0:0:
320,64,121038,1,8,0:0:0:0:
320,64,121311,1,8,0:0:0:0:
64,64,121584,1,0,0:0:0:0:
64,64,122402,1,0,0:0:0:0:
320,64,123220,1,8,0:0:0:0:
64,64,124038,1,0,0:0:0:0:
320,64,124856,1,8,0:0:0:0:
320,64,125856,1,8,0:0:0:0:
64,64,126220,1,0,0:0:0:0:
320,64,126675,1,8,0:0:0:0:
320,64,126766,1,8,0:0:0:0:
64,64,126856,1,0,0:0:0:0:
320,64,126947,1,8,0:0:0:0:
320,64,127038,1,8,0:0:0:0:
64,64,127129,1,0,0:0:0:0:
320,64,127220,1,8,0:0:0:0:
320,64,127311,1,8,0:0:0:0:
64,64,127766,1,0,0:0:0:0:
320,64,128129,1,8,0:0:0:0:
64,64,128493,1,0,0:0:0:0:
64,64,128584,1,0,0:0:0:0:
320,64,128675,1,8,0:0:0:0:
64,64,128856,1,0,0:0:0:0:
320,64,128947,1,8,0:0:0:0:
64,64,129220,1,0,0:0:0:0:
320,64,129675,1,8,0:0:0:0:
320,64,129970,1,8,0:0:0:0:
320,64,130243,1,8,0:0:0:0:
64,64,130584,1,0,0:0:0:0:
64,64,130856,1,0,0:0:0:0:
64,64,134402,1,0,0:0:0:0:
320,64,134675,1,8,0:0:0:0:
320,64,135493,1,8,0:0:0:0:
64,64,136175,1,0,0:0:0:0:
320,64,136311,1,8,0:0:0:0:
320,64,137129,1,8,0:0:0:0:
64,64,137947,1,0,0:0:0:0:
320,64,139584,1,8,0:0:0:0:
64,64,139856,1,0,0:0:0:0:
320,64,140402,1,8,0:0:0:0:
320,64,140947,1,8,0:0:0:0:
64,64,141220,1,0,0:0:0:0:
64,64,141720,1,0,0:0:0:0:
320,64,142038,1,8,0:0:0:0:
64,64,142583,1,0,0:0:0:0:
64,64,143083,1,0,0:0:0:0:
320,64,143401,1,8,0:0:0:0:
128,160,143947,2,0,B|354:159|354:159|263:295|263:295|128:160,3,560
320,64,146401,1,12,0:0:0:0:
320,64,146856,1,8,0:0:0:0:
320,64,146947,1,8,0:0:0:0:
320,64,147128,1,8,0:0:0:0:
64,64,147219,1,4,0:0:0:0:
64,64,147673,1,0,0:0:0:0:
320,64,148037,1,8,0:0:0:0:
64,64,148582,1,0,0:0:0:0:
64,64,149037,1,0,0:0:0:0:
320,64,149400,1,8,0:0:0:0:
320,64,149673,1,8,0:0:0:0:
64,64,149946,1,0,0:0:0:0:
64,64,150400,1,0,0:0:0:0:
320,64,150764,1,8,0:0:0:0:
320,64,151037,1,8,0:0:0:0:
64,64,151309,1,0,0:0:0:0:
64,64,151764,1,0,0:0:0:0:
320,64,152128,1,8,0:0:0:0:
320,64,152309,1,8,0:0:0:0:
64,64,152400,1,0,0:0:0:0:
64,64,152673,1,0,0:0:0:0:
320,64,152764,1,8,0:0:0:0:
64,64,153128,1,0,0:0:0:0:
64,64,153582,1,0,0:0:0:0:
64,64,153673,1,0,0:0:0:0:
64,64,153764,1,0,0:0:0:0:
320,64,153946,1,8,0:0:0:0:
64,64,154037,1,0,0:0:0:0:
320,64,154219,1,8,0:0:0:0:
320,64,154491,1,8,0:0:0:0:
64,64,154764,1,0,0:0:0:0:
320,64,154855,1,8,0:0:0:0:
64,64,155128,1,0,0:0:0:0:
64,64,155219,1,0,0:0:0:0:
320,64,155309,1,8,0:0:0:0:
320,64,155537,1,8,0:0:0:0:
64,64,155855,1,0,0:0:0:0:
64,64,155946,1,0,0:0:0:0:
320,64,156219,1,8,0:0:0:0:
64,64,156400,1,0,0:0:0:0:
320,64,156491,1,8,0:0:0:0:
320,64,156673,1,8,0:0:0:0:
64,64,156764,1,0,0:0:0:0:
320,64,156946,1,8,0:0:0:0:
320,64,157219,1,8,0:0:0:0:
320,64,157491,1,8,0:0:0:0:
320,64,157582,1,8,0:0:0:0:
64,64,157764,1,0,0:0:0:0:
64,64,157855,1,0,0:0:0:0:
320,64,158128,1,8,0:0:0:0:
64,64,158582,1,0,0:0:0:0:
320,64,158946,1,8,0:0:0:0:
64,64,159128,1,0,0:0:0:0:
320,64,159219,1,8,0:0:0:0:
320,64,159400,1,8,0:0:0:0:
64,64,159491,1,0,0:0:0:0:
320,64,159673,1,8,0:0:0:0:
64,64,159946,1,0,0:0:0:0:
320,64,160309,1,8,0:0:0:0:
320,64,160491,1,8,0:0:0:0:
64,64,160764,1,0,0:0:0:0:
320,64,160855,1,8,0:0:0:0:
320,64,161298,1,8,0:0:0:0:
320,64,161673,1,8,0:0:0:0:
64,64,161855,1,0,0:0:0:0:
320,64,161946,1,8,0:0:0:0:
64,64,162128,1,0,0:0:0:0:
320,64,162219,1,8,0:0:0:0:
320,64,162400,1,8,0:0:0:0:
64,64,162491,1,0,0:0:0:0:
64,64,162673,1,0,0:0:0:0:
320,64,162764,1,8,0:0:0:0:
320,64,162946,1,8,0:0:0:0:
64,64,163037,1,0,0:0:0:0:
64,64,163309,1,0,0:0:0:0:
64,64,163400,1,0,0:0:0:0:
64,64,163491,1,0,0:0:0:0:
320,64,163582,1,8,0:0:0:0:
320,64,163855,1,8,0:0:0:0:
320,64,163946,1,8,0:0:0:0:
320,64,164037,1,8,0:0:0:0:
64,64,164128,1,0,0:0:0:0:
320,64,164309,1,8,0:0:0:0:
64,64,164400,1,0,0:0:0:0:
320,64,164673,1,8,0:0:0:0:
64,64,164855,1,0,0:0:0:0:
320,64,164946,1,8,0:0:0:0:
320,64,165219,1,8,0:0:0:0:
320,64,165355,1,8,0:0:0:0:
64,64,165491,1,0,0:0:0:0:
64,64,165628,1,0,0:0:0:0:
320,64,165764,1,8,0:0:0:0:
320,64,165900,1,8,0:0:0:0:
64,64,166037,1,0,0:0:0:0:
64,64,166173,1,0,0:0:0:0:
256,192,166309,12,0,168764,0:0:0:0:
320,64,169037,5,12,0:0:0:0:
64,64,169400,1,0,0:0:0:0:
320,64,169855,1,8,0:0:0:0:
64,64,170400,1,0,0:0:0:0:
64,64,170719,1,0,0:0:0:0:
320,64,171082,1,8,0:0:0:0:
320,64,171219,1,8,0:0:0:0:
320,64,171355,1,8,0:0:0:0:
64,64,171491,1,0,0:0:0:0:
64,64,171673,1,0,0:0:0:0:
64,64,171764,1,0,0:0:0:0:
320,64,172037,1,8,0:0:0:0:
64,64,172219,1,0,0:0:0:0:
64,64,172309,1,0,0:0:0:0:
64,64,172582,1,0,0:0:0:0:
64,64,172764,1,0,0:0:0:0:
320,64,172855,1,8,0:0:0:0:
320,64,173037,1,8,0:0:0:0:
320,64,173219,1,8,0:0:0:0:
320,64,173400,1,8,0:0:0:0:
320,64,173582,1,8,0:0:0:0:
64,64,173855,1,0,0:0:0:0:
320,64,173946,1,8,0:0:0:0:
256,192,174219,12,0,175037,0:0:0:0:
256,192,175173,12,0,175719,0:0:0:0:
320,64,175855,5,8,0:0:0:0:
64,64,176025,1,0,0:0:0:0:
64,64,176196,1,0,0:0:0:0:
320,64,176332,1,8,0:0:0:0:
64,64,176628,1,0,0:0:0:0:
320,64,176832,1,8,0:0:0:0:
320,64,177128,1,8,0:0:0:0:
64,64,177219,1,0,0:0:0:0:
64,64,177491,1,0,0:0:0:0:
64,64,177673,1,0,0:0:0:0:
64,64,177900,1,0,0:0:0:0:
320,64,178037,1,8,0:0:0:0:
64,64,178241,1,0,0:0:0:0:
320,64,178446,1,8,0:0:0:0:
320,64,178582,1,8,0:0:0:0:
64,64,179037,1,0,0:0:0:0:
320,64,179400,1,8,0:0:0:0:
64,64,179582,1,0,0:0:0:0:
320,64,179673,1,8,0:0:0:0:
320,64,179855,1,8,0:0:0:0:
64,64,179946,1,4,0:0:0:0:
320,64,180400,1,8,0:0:0:0:
64,64,180491,1,0,0:0:0:0:
320,64,180764,1,8,0:0:0:0:
64,64,181037,1,0,0:0:0:0:
64,64,181309,1,0,0:0:0:0:
320,64,181764,1,8,0:0:0:0:
64,64,181855,1,0,0:0:0:0:
320,64,182128,1,8,0:0:0:0:
320,64,182400,1,8,0:0:0:0:
64,64,182673,1,0,0:0:0:0:
320,64,183128,1,8,0:0:0:0:
64,64,183219,1,0,0:0:0:0:
320,64,183491,1,8,0:0:0:0:
64,64,183764,1,0,0:0:0:0:
64,64,184037,1,0,0:0:0:0:
320,64,184491,1,8,0:0:0:0:
64,64,184582,1,0,0:0:0:0:
320,64,184855,1,8,0:0:0:0:
64,64,185128,1,0,0:0:0:0:
320,64,185400,1,8,0:0:0:0:
64,64,185582,1,0,0:0:0:0:
64,64,185673,1,0,0:0:0:0:
320,64,185855,1,8,0:0:0:0:
320,64,186219,1,8,0:0:0:0:
64,64,186400,1,0,0:0:0:0:
320,64,186491,1,8,0:0:0:0:
320,64,186764,1,8,0:0:0:0:
64,64,186946,1,0,0:0:0:0:
64,64,187037,1,0,0:0:0:0:
320,64,187219,1,8,0:0:0:0:
320,64,187582,1,8,0:0:0:0:
320,64,187855,1,8,0:0:0:0:
320,64,188128,1,8,0:0:0:0:
64,64,188309,1,0,0:0:0:0:
64,64,188400,1,0,0:0:0:0:
320,64,188582,1,8,0:0:0:0:
320,64,188946,1,8,0:0:0:0:
64,64,189128,1,0,0:0:0:0:
320,64,189219,1,8,0:0:0:0:
320,64,189491,1,12,0:0:0:0:
320,64,189764,1,8,0:0:0:0:
320,64,189855,1,8,0:0:0:0:
320,64,189946,1,8,0:0:0:0:
64,64,190037,1,0,0:0:0:0:
64,64,190219,1,0,0:0:0:0:
320,64,190309,1,8,0:0:0:0:
64,64,190491,1,0,0:0:0:0:
320,64,190582,1,8,0:0:0:0:
64,64,190673,1,0,0:0:0:0:
64,64,190764,1,0,0:0:0:0:
320,64,190855,1,8,0:0:0:0:
256,192,191037,12,0,193855,0:0:0:0:
64,64,197400,5,0,0:0:0:0:
64,64,197854,1,0,0:0:0:0:
320,64,198218,1,8,0:0:0:0:
320,64,198763,1,8,0:0:0:0:
64,64,199036,1,0,0:0:0:0:
64,64,199490,1,0,0:0:0:0:
320,64,199854,1,8,0:0:0:0:
64,64,200309,1,0,0:0:0:0:
320,64,200672,1,8,0:0:0:0:
320,64,201127,1,8,0:0:0:0:
64,64,201490,1,0,0:0:0:0:
64,64,201945,1,0,0:0:0:0:
320,64,202309,1,8,0:0:0:0:
320,64,203672,1,8,0:0:0:0:
64,64,203945,1,0,0:0:0:0:
64,64,204400,1,0,0:0:0:0:
320,64,204763,1,8,0:0:0:0:
320,64,205218,1,8,0:0:0:0:
64,64,205581,1,0,0:0:0:0:
320,64,206036,1,8,0:0:0:0:
64,64,206400,1,0,0:0:0:0:
320,64,206854,1,8,0:0:0:0:
64,64,207218,1,0,0:0:0:0:
320,64,207672,1,8,0:0:0:0:
64,64,208036,1,0,0:0:0:0:
320,64,208490,1,8,0:0:0:0:
320,64,208672,1,8,0:0:0:0:
64,64,208854,1,0,0:0:0:0:
64,64,209309,1,0,0:0:0:0:
320,64,209672,1,8,0:0:0:0:
320,64,210490,1,8,0:0:0:0:
64,64,211309,1,0,0:0:0:0:
64,64,211854,1,0,0:0:0:0:
320,64,212127,1,8,0:0:0:0:
64,64,212581,1,0,0:0:0:0:
320,64,212945,1,8,0:0:0:0:
320,64,213400,1,8,0:0:0:0:
64,64,213763,1,0,0:0:0:0:
64,64,214218,1,0,0:0:0:0:
320,64,214581,1,8,0:0:0:0:
64,64,215036,1,0,0:0:0:0:
320,64,215400,1,8,0:0:0:0:
64,64,216763,1,0,0:0:0:0:
320,64,217036,1,8,0:0:0:0:
64,64,217490,1,0,0:0:0:0:
320,64,217854,1,8,0:0:0:0:
320,64,218309,1,8,0:0:0:0:
64,64,218672,1,0,0:0:0:0:
64,64,219127,1,0,0:0:0:0:
320,64,219490,1,8,0:0:0:0:
64,64,220309,1,0,0:0:0:0:
320,64,220763,1,8,0:0:0:0:
64,64,221127,1,0,0:0:0:0:
320,64,221581,1,8,0:0:0:0:
64,64,221945,1,0,0:0:0:0:
64,64,223036,1,0,0:0:0:0:
320,64,224854,1,8,0:0:0:0:
64,64,224945,1,0,0:0:0:0:
320,64,225218,1,12,0:0:0:0:
64,64,225672,1,0,0:0:0:0:
64,64,225763,1,0,0:0:0:0:
64,64,226036,1,0,0:0:0:0:
320,64,226490,1,8,0:0:0:0:
64,64,226581,1,0,0:0:0:0:
320,64,226854,1,12,0:0:0:0:
64,64,227309,1,0,0:0:0:0:
64,64,227400,1,0,0:0:0:0:
64,64,227672,1,0,0:0:0:0:
64,64,228127,1,0,0:0:0:0:
64,64,228218,1,0,0:0:0:0:
320,64,228490,1,12,0:0:0:0:
320,64,228945,1,8,0:0:0:0:
64,64,229036,1,0,0:0:0:0:
320,64,229309,1,8,0:0:0:0:
64,64,229763,1,0,0:0:0:0:
320,64,229854,1,8,0:0:0:0:
320,64,230127,1,8,0:0:0:0:
64,64,230263,1,0,0:0:0:0:
64,64,230331,1,0,0:0:0:0:
320,64,230400,1,8,0:0:0:0:
64,64,230536,1,0,0:0:0:0:
320,64,230672,1,8,0:0:0:0:
320,64,230740,1,8,0:0:0:0:
64,64,230809,1,0,0:0:0:0:
64,64,230945,1,4,0:0:0:0:
320,64,231150,1,8,0:0:0:0:
320,64,231400,1,8,0:0:0:0:
64,64,231490,1,0,0:0:0:0:
320,64,231763,1,12,0:0:0:0:
320,64,232036,1,8,0:0:0:0:
64,64,232218,1,0,0:0:0:0:
64,64,232490,1,0,0:0:0:0:
320,64,232581,1,8,0:0:0:0:
320,64,232854,1,8,0:0:0:0:
320,64,233127,1,8,0:0:0:0:
64,64,233400,1,0,0:0:0:0:
64,64,233672,1,0,0:0:0:0:
320,64,233854,1,8,0:0:0:0:
320,64,234218,1,8,0:0:0:0:
64,64,234490,1,0,0:0:0:0:
64,64,234672,1,0,0:0:0:0:
320,64,234763,1,8,0:0:0:0:
64,64,235036,1,0,0:0:0:0:
320,64,235309,1,8,0:0:0:0:
64,64,235490,1,0,0:0:0:0:
320,64,235854,1,8,0:0:0:0:
64,64,236036,1,0,0:0:0:0:
64,64,236127,1,0,0:0:0:0:
320,64,236309,1,8,0:0:0:0:
64,64,236672,1,0,0:0:0:0:
320,64,236945,1,8,0:0:0:0:
64,64,237127,1,0,0:0:0:0:
64,64,237400,1,0,0:0:0:0:
320,64,237490,1,8,0:0:0:0:
64,64,237672,1,0,0:0:0:0:
320,64,237763,1,8,0:0:0:0:
64,64,237945,1,0,0:0:0:0:
320,64,238036,1,8,0:0:0:0:
320,64,238309,1,12,0:0:0:0:
64,64,238581,1,0,0:0:0:0:
320,64,238763,1,8,0:0:0:0:
320,64,239127,1,8,0:0:0:0:
64,64,239400,1,0,0:0:0:0:
64,64,239581,1,0,0:0:0:0:
320,64,239672,1,8,0:0:0:0:
320,64,239945,1,8,0:0:0:0:
320,64,240218,1,8,0:0:0:0:
64,64,240400,1,0,0:0:0:0:
320,64,240763,1,8,0:0:0:0:
320,64,241036,1,8,0:0:0:0:
320,64,241309,1,8,0:0:0:0:
64,64,241581,1,0,0:0:0:0:
64,64,242036,1,0,0:0:0:0:
64,64,242127,1,0,0:0:0:0:
64,64,242400,1,0,0:0:0:0:
64,64,242854,1,0,0:0:0:0:
64,64,242945,1,0,0:0:0:0:
64,64,243218,1,0,0:0:0:0:
64,64,243490,1,0,0:0:0:0:
64,64,243672,1,0,0:0:0:0:
64,64,243763,1,0,0:0:0:0:
64,64,243945,1,0,0:0:0:0:
320,64,244036,1,8,0:0:0:0:
64,64,244218,1,0,0:0:0:0:
320,64,244309,1,8,0:0:0:0:
320,64,244490,1,8,0:0:0:0:
64,64,244581,1,0,0:0:0:0:
64,64,244763,1,0,0:0:0:0:
320,64,244854,1,12,0:0:0:0:
64,64,245127,1,0,0:0:0:0:
64,64,245309,1,0,0:0:0:0:
64,64,245581,1,0,0:0:0:0:
320,64,245672,1,8,0:0:0:0:
64,64,245945,1,0,0:0:0:0:
64,64,246218,1,0,0:0:0:0:
320,64,246490,1,8,0:0:0:0:
64,64,246763,1,0,0:0:0:0:
320,64,246945,1,8,0:0:0:0:
320,64,247309,1,8,0:0:0:0:
64,64,247581,1,0,0:0:0:0:
64,64,247763,1,0,0:0:0:0:
320,64,247854,1,8,0:0:0:0:
64,64,248127,1,0,0:0:0:0:
320,64,248400,1,8,0:0:0:0:
64,64,248581,1,0,0:0:0:0:
320,64,248945,1,8,0:0:0:0:
64,64,249127,1,0,0:0:0:0:
64,64,249218,1,0,0:0:0:0:
320,64,249400,1,8,0:0:0:0:
64,64,249763,1,0,0:0:0:0:
320,64,250036,1,8,0:0:0:0:
64,64,250218,1,0,0:0:0:0:
64,64,250490,1,0,0:0:0:0:
320,64,250581,1,8,0:0:0:0:
64,64,250763,1,0,0:0:0:0:
320,64,250854,1,8,0:0:0:0:
64,64,251036,1,0,0:0:0:0:
320,64,251127,1,8,0:0:0:0:
64,64,251400,1,4,0:0:0:0:
64,64,251672,1,0,0:0:0:0:
320,64,251854,1,8,0:0:0:0:
320,64,252218,1,8,0:0:0:0:
64,64,252490,1,0,0:0:0:0:
64,64,252672,1,0,0:0:0:0:
320,64,252763,1,8,0:0:0:0:
320,64,253036,1,8,0:0:0:0:
320,64,253309,1,8,0:0:0:0:
64,64,253490,1,0,0:0:0:0:
320,64,253854,1,8,0:0:0:0:
320,64,254127,1,8,0:0:0:0:
320,64,254400,1,8,0:0:0:0:
64,64,254672,1,0,0:0:0:0:
320,64,254854,1,8,0:0:0:0:
64,64,255127,1,0,0:0:0:0:
320,64,255218,1,8,0:0:0:0:
64,64,255490,1,0,0:0:0:0:
320,64,255672,1,8,0:0:0:0:
64,64,255945,1,0,0:0:0:0:
320,64,256036,1,8,0:0:0:0:
320,64,256309,1,12,0:0:0:0:
64,64,256581,1,0,0:0:0:0:
320,64,256854,1,8,0:0:0:0:
64,64,256945,1,0,0:0:0:0:
64,64,257036,1,0,0:0:0:0:
320,64,257127,1,8,0:0:0:0:
64,64,257400,1,0,0:0:0:0:
64,64,257672,1,0,0:0:0:0:
320,64,257945,1,12,0:0:0:0:
320,64,258218,1,8,0:0:0:0:
64,64,258400,1,0,0:0:0:0:
64,64,258672,1,0,0:0:0:0:
320,64,258763,1,8,0:0:0:0:
320,64,259036,1,8,0:0:0:0:
64,64,259309,1,0,0:0:0:0:
320,64,259581,1,8,0:0:0:0:
320,64,259854,1,8,0:0:0:0:
64,64,260036,1,0,0:0:0:0:
320,64,260400,1,8,0:0:0:0:
64,64,260672,1,0,0:0:0:0:
64,64,260854,1,0,0:0:0:0:
320,64,260945,1,8,0:0:0:0:
64,64,261218,1,0,0:0:0:0:
320,64,261490,1,8,0:0:0:0:
64,64,261672,1,0,0:0:0:0:
320,64,262036,1,8,0:0:0:0:
320,64,262218,1,8,0:0:0:0:
64,64,262309,1,0,0:0:0:0:
320,64,262490,1,8,0:0:0:0:
320,64,262854,1,8,0:0:0:0:
320,64,263127,1,8,0:0:0:0:
64,64,263309,1,0,0:0:0:0:
64,64,263581,1,0,0:0:0:0:
320,64,263672,1,8,0:0:0:0:
64,64,263854,1,0,0:0:0:0:
320,64,263945,1,8,0:0:0:0:
64,64,264127,1,0,0:0:0:0:
320,64,264218,1,8,0:0:0:0:
320,64,264490,1,12,0:0:0:0:
64,64,264763,1,0,0:0:0:0:
320,64,264945,1,8,0:0:0:0:
320,64,265309,1,8,0:0:0:0:
64,64,265581,1,0,0:0:0:0:
64,64,265763,1,0,0:0:0:0:
320,64,265854,1,8,0:0:0:0:
320,64,266127,1,8,0:0:0:0:
320,64,266400,1,8,0:0:0:0:
64,64,266581,1,0,0:0:0:0:
320,64,266945,1,8,0:0:0:0:
320,64,267218,1,8,0:0:0:0:
320,64,267490,1,8,0:0:0:0:
64,64,267763,1,0,0:0:0:0:
320,64,268218,1,8,0:0:0:0:
320,64,268309,1,8,0:0:0:0:
64,64,268581,1,0,0:0:0:0:
320,64,269036,1,8,0:0:0:0:
320,64,269127,1,8,0:0:0:0:
64,64,269400,1,0,0:0:0:0:
64,64,269672,1,0,0:0:0:0:
320,64,269854,1,8,0:0:0:0:
320,64,269945,1,8,0:0:0:0:
320,64,270127,1,8,0:0:0:0:
64,64,270218,1,0,0:0:0:0:
64,64,270400,1,0,0:0:0:0:
320,64,270490,1,8,0:0:0:0:
64,64,270672,1,0,0:0:0:0:
320,64,270763,1,8,0:0:0:0:
64,64,270945,1,0,0:0:0:0:
320,64,271036,1,12,0:0:0:0:
64,64,271309,1,0,0:0:0:0:
64,64,271490,1,0,0:0:0:0:
64,64,271763,1,0,0:0:0:0:
320,64,271854,1,8,0:0:0:0:
64,64,272127,1,0,0:0:0:0:
64,64,272400,1,0,0:0:0:0:
320,64,272672,1,8,0:0:0:0:
64,64,272945,1,0,0:0:0:0:
320,64,273127,1,8,0:0:0:0:
320,64,273490,1,8,0:0:0:0:
64,64,273763,1,0,0:0:0:0:
64,64,273945,1,0,0:0:0:0:
320,64,274036,1,8,0:0:0:0:
64,64,274309,1,0,0:0:0:0:
64,64,274581,1,0,0:0:0:0:
320,64,274763,1,8,0:0:0:0:
320,64,275127,1,8,0:0:0:0:
320,64,275309,1,8,0:0:0:0:
64,64,275400,1,0,0:0:0:0:
320,64,275581,1,8,0:0:0:0:
320,64,275945,1,8,0:0:0:0:
320,64,276218,1,8,0:0:0:0:
64,64,276400,1,0,0:0:0:0:
64,64,276672,1,0,0:0:0:0:
320,64,276763,1,8,0:0:0:0:
64,64,276945,1,0,0:0:0:0:
320,64,277036,1,8,0:0:0:0:
64,64,277218,1,0,0:0:0:0:
320,64,277309,1,8,0:0:0:0:
320,64,277581,1,12,0:0:0:0:
64,64,277854,1,0,0:0:0:0:
320,64,278036,1,8,0:0:0:0:
320,64,278400,1,8,0:0:0:0:
64,64,278672,1,0,0:0:0:0:
64,64,278854,1,0,0:0:0:0:
320,64,278945,1,8,0:0:0:0:
320,64,279218,1,8,0:0:0:0:
320,64,279490,1,8,0:0:0:0:
64,64,279672,1,0,0:0:0:0:
320,64,280036,1,8,0:0:0:0:
320,64,280309,1,8,0:0:0:0:
320,64,280581,1,8,0:0:0:0:
64,64,280854,1,0,0:0:0:0:
320,64,281036,1,8,0:0:0:0:
64,64,281309,1,0,0:0:0:0:
320,64,281400,1,8,0:0:0:0:
64,64,281672,1,0,0:0:0:0:
320,64,281854,1,8,0:0:0:0:
64,64,282127,1,0,0:0:0:0:
320,64,282218,1,8,0:0:0:0:
64,64,282490,1,0,0:0:0:0:
320,64,282672,1,8,0:0:0:0:
64,64,282945,1,0,0:0:0:0:
320,64,283036,1,8,0:0:0:0:
64,64,283309,1,0,0:0:0:0:
320,64,283490,1,8,0:0:0:0:
64,64,283763,1,0,0:0:0:0:
320,64,283854,1,8,0:0:0:0:
64,64,284127,1,0,0:0:0:0:
320,64,284309,1,8,0:0:0:0:
64,64,284581,1,0,0:0:0:0:
320,64,284672,1,8,0:0:0:0:
64,64,284945,1,0,0:0:0:0:
320,64,285127,1,8,0:0:0:0:
64,64,285400,1,0,0:0:0:0:
320,64,285490,1,8,0:0:0:0:
320,64,285763,1,8,0:0:0:0:
64,64,285854,1,0,0:0:0:0:
64,64,285945,1,0,0:0:0:0:
320,64,286036,1,8,0:0:0:0:
64,64,286218,1,0,0:0:0:0:
320,64,286309,1,8,0:0:0:0:
64,64,286400,1,0,0:0:0:0:
64,64,286490,1,0,0:0:0:0:
320,64,286581,1,8,0:0:0:0:
64,64,286854,1,0,0:0:0:0:
320,64,287400,1,12,0:0:0:0:
64,64,287581,1,0,0:0:0:0:
320,64,287672,1,8,0:0:0:0:
64,64,287854,1,0,0:0:0:0:
320,64,287945,1,8,0:0:0:0:
320,64,288218,1,8,0:0:0:0:
320,64,288400,1,8,0:0:0:0:
64,64,288672,1,0,0:0:0:0:
64,64,288945,1,0,0:0:0:0:
320,64,289036,1,8,0:0:0:0:
64,64,289218,1,0,0:0:0:0:
320,64,289309,1,8,0:0:0:0:
64,64,289490,1,0,0:0:0:0:
320,64,289581,1,8,0:0:0:0:
320,64,289854,1,8,0:0:0:0:
320,64,290036,1,8,0:0:0:0:
320,64,290127,1,8,0:0:0:0:
320,64,290400,1,8,0:0:0:0:
320,64,290490,1,8,0:0:0:0:
320,64,290581,1,8,0:0:0:0:
64,64,290672,1,0,0:0:0:0:
320,64,290945,1,8,0:0:0:0:
64,64,291127,1,0,0:0:0:0:
64,64,291218,1,0,0:0:0:0:
320,64,291490,1,8,0:0:0:0:
320,64,291672,1,8,0:0:0:0:
320,64,291945,1,8,0:0:0:0:
64,64,292218,1,0,0:0:0:0:
320,64,292309,1,8,0:0:0:0:
64,64,292581,1,0,0:0:0:0:
320,64,292854,1,8,0:0:0:0:
320,64,293127,1,8,0:0:0:0:
64,64,293309,1,0,0:0:0:0:
320,64,293581,1,8,0:0:0:0:
320,64,293672,1,8,0:0:0:0:
64,64,293763,1,0,0:0:0:0:
64,64,293854,1,0,0:0:0:0:
320,64,293945,1,8,0:0:0:0:
320,64,294218,1,8,0:0:0:0:
64,64,294400,1,0,0:0:0:0:
320,64,294490,1,8,0:0:0:0:
320,64,294672,1,8,0:0:0:0:
64,64,294763,1,0,0:0:0:0:
320,64,294945,1,8,0:0:0:0:
64,64,295218,1,0,0:0:0:0:
64,64,295490,1,0,0:0:0:0:
320,64,295581,1,8,0:0:0:0:
64,64,295763,1,0,0:0:0:0:
320,64,295854,1,8,0:0:0:0:
64,64,296036,1,0,0:0:0:0:
320,64,296127,1,8,0:0:0:0:
320,64,296400,1,8,0:0:0:0:
320,64,296581,1,8,0:0:0:0:
320,64,296672,1,8,0:0:0:0:
64,64,296763,1,0,0:0:0:0:
64,64,296854,1,0,0:0:0:0:
320,64,296945,1,8,0:0:0:0:
320,64,297127,1,8,0:0:0:0:
64,64,297218,1,4,0:0:0:0:
320,64,297672,1,8,0:0:0:0:
320,64,297763,1,8,0:0:0:0:
64,64,297945,1,0,0:0:0:0:
320,64,298036,1,8,0:0:0:0:
64,64,298218,1,0,0:0:0:0:
320,64,298309,1,8,0:0:0:0:
320,64,298400,1,8,0:0:0:0:
320,64,298490,1,8,0:0:0:0:
64,64,298581,1,0,0:0:0:0:
64,64,298763,1,0,0:0:0:0:
320,64,298854,1,8,0:0:0:0:
