osu file format v14

[General]
AudioFilename: Kikuo - Gomennne gomennne.mp3
AudioLeadIn: 0
PreviewTime: -1
Countdown: 0
SampleSet: None
StackLeniency: 0.7
Mode: 0
LetterboxInBreaks: 0
WidescreenStoryboard: 0

[Editor]
Bookmarks: 56238,73692,91147,128238,145692,163147,180601,200238,219874,224238
DistanceSpacing: 0.6
BeatDivisor: 4
GridSize: 4
TimelineZoom: 3.300002

[Metadata]
Title:Gomennne gomennne
TitleUnicode:ごめんね ごめんね
Artist:Kikuo
ArtistUnicode:Kikuo
Creator:Kagami Yuki
Version:KR10
Source:
Tags:
BeatmapID:1289510
BeatmapSetID:610751

[Difficulty]
HPDrainRate:5
CircleSize:4
OverallDifficulty:8
ApproachRate:10
SliderMultiplier:2.1
SliderTickRate:1

[Events]
//Background and Video events
//Break Periods
//Storyboard Layer 0 (Background)
//Storyboard Layer 1 (Fail)
//Storyboard Layer 2 (Pass)
//Storyboard Layer 3 (Foreground)
//Storyboard Sound Samples

[TimingPoints]
47511,272.727272727273,4,2,0,50,1,0
47511,-200,4,2,0,50,0,0
49692,-166.666666666667,4,2,0,50,0,0
50783,-142.857142857143,4,2,0,50,0,0
51874,-125,4,2,0,50,0,0
52965,-111.111111111111,4,2,0,50,0,0
56238,-100,4,2,0,50,0,0
70420,-83.3333333333333,4,2,0,50,0,0
73692,-66.6666666666667,4,2,0,50,0,0
91147,-133.333333333333,4,2,0,50,0,0
107511,-100,4,2,0,50,0,0
108056,-66.6666666666667,4,2,0,50,0,0
163147,-133.333333333333,4,2,0,50,0,0
169147,-76.3358778625954,4,2,0,50,0,0
169420,-133.333333333333,4,2,0,50,0,0
171874,-100,4,2,0,50,0,0
176238,-66.6666666666667,4,2,0,50,0,0

[HitObjects]
256,192,38783,12,0,47238,0:0:0:0:
152,92,47511,6,0,P|224:100|272:116,1,105
360,292,48056,2,0,P|288:284|240:268,1,105
152,80,48601,2,0,P|224:88|272:104,1,105
360,304,49146,2,0,P|288:296|240:280,1,105
416,80,49692,6,0,P|424:160|416:220,1,125.999996154785
288,344,50238,2,0,P|276:260|288:200,1,125.999996154785
152,60,50783,2,0,P|168:140|148:208,1,146.999995513916
36,328,51329,2,0,P|16:260|40:172,1,146.999995513916
356,44,51874,6,0,P|296:68|240:72,1,84
152,44,52147,2,0,P|212:68|268:72,1,84
392,136,52420,6,0,P|332:160|276:164,1,84
120,136,52693,2,0,P|180:160|236:164,1,84
76,320,52965,6,0,P|128:288|192:280,1,94.499997116089
360,240,53238,2,0,P|320:300|280:328,1,94.499997116089
176,136,53511,2,0,P|132:108|92:52,1,94.499997116089
284,44,53783,2,0,P|332:60|372:92,1,94.499997116089
448,56,54056,6,0,P|256:316|48:48,1,755.999976928712
72,256,55692,6,0,B|72:320|72:320|368:228|244:272|256:328,1,330.749989906311
256,352,56238,5,0,0:0:0:0:
256,32,56511,1,0,0:0:0:0:
72,256,56783,6,0,P|172:192|272:160,1,210
288,168,57192,1,0,0:0:0:0:
424,252,57329,5,0,0:0:0:0:
432,92,57465,1,0,0:0:0:0:
288,168,57601,1,0,0:0:0:0:
424,252,57738,1,0,0:0:0:0:
176,328,57874,1,0,0:0:0:0:
176,328,58011,2,0,P|232:336|304:320,1,105
180,40,58283,2,0,P|140:80|80:108,1,105
416,164,58692,6,0,L|416:88,1,70
352,212,58829,2,0,L|352:300,1,70
292,164,58965,2,0,P|228:152|172:152,3,105,0|0|0|0,0:0|0:0|0:0|0:0,0:0:0:0:
120,324,59511,6,0,P|24:268|24:136,1,210
332,72,59920,1,0,0:0:0:0:
168,152,60056,1,0,0:0:0:0:
312,264,60192,1,0,0:0:0:0:
236,72,60329,1,0,0:0:0:0:
216,240,60465,1,0,0:0:0:0:
332,72,60601,6,0,P|436:56|488:164,1,210
140,304,61147,6,0,P|216:328|248:368,1,105
140,48,61420,2,0,P|128:104|88:148,1,105
368,172,61692,5,0,0:0:0:0:
392,336,61829,1,0,0:0:0:0:
452,240,61965,1,0,0:0:0:0:
256,276,62101,1,0,0:0:0:0:
176,192,62238,5,0,0:0:0:0:
136,304,62374,1,0,0:0:0:0:
256,276,62511,1,0,0:0:0:0:
176,192,62647,1,0,0:0:0:0:
128,84,62783,6,0,L|168:32,1,52.5
252,88,62920,2,0,L|296:32,1,52.5
340,176,63056,2,0,L|384:116,1,52.5
256,276,63192,2,0,L|300:216,1,52.5
376,328,63329,6,0,P|420:288|464:264,1,105
372,52,63601,2,0,P|400:96|400:176,1,105
220,200,63874,6,0,P|100:208|20:272,1,210
28,188,64238,1,0,0:0:0:0:
52,120,64329,1,0,0:0:0:0:
116,88,64420,2,0,P|188:68|224:40,1,105
328,296,64692,2,0,P|272:320|232:352,1,105
376,40,64965,5,0,0:0:0:0:
136,344,65238,1,0,0:0:0:0:
160,32,65511,6,0,P|192:156|248:244,1,210
328,176,65920,1,0,0:0:0:0:
428,276,66056,5,0,0:0:0:0:
328,176,66192,1,0,0:0:0:0:
376,40,66329,1,0,0:0:0:0:
328,176,66465,1,0,0:0:0:0:
200,224,66601,1,0,0:0:0:0:
328,176,66738,1,0,0:0:0:0:
328,176,66874,1,0,0:0:0:0:
124,36,67147,6,0,B|124:60|124:60|136:48|136:48|136:72|136:72|148:36|148:36|148:80|148:80|236:76,1,210
36,124,67556,1,0,0:0:0:0:
128,312,67692,1,0,0:0:0:0:
80,212,67829,1,0,0:0:0:0:
200,224,67965,1,0,0:0:0:0:
16,300,68101,1,0,0:0:0:0:
248,324,68238,5,0,0:0:0:0:
456,192,68420,1,0,0:0:0:0:
240,76,68601,1,0,0:0:0:0:
400,40,68783,2,0,B|376:48|376:48|404:60|404:60|376:68|376:68|392:76|392:76|392:120|320:160,1,210
400,348,69192,1,0,0:0:0:0:
400,348,69329,6,0,P|316:272|196:272,1,210
80,140,69874,2,0,P|172:72|292:72,1,210
400,40,70283,1,0,0:0:0:0:
348,160,70420,2,0,P|392:208|420:276,2,125.999996154785,0|0|0,0:0|0:0|0:0,0:0:0:0:
80,248,70829,1,0,0:0:0:0:
224,232,70965,2,0,P|204:292|200:360,2,125.999996154785,0|0|0,0:0|0:0|0:0,0:0:0:0:
116,56,71374,1,0,0:0:0:0:
116,56,71511,6,0,P|216:68|272:104,1,167.999994873047
240,180,71783,1,0,0:0:0:0:
264,260,71874,1,0,0:0:0:0:
340,292,71965,1,0,0:0:0:0:
420,264,72056,6,0,P|492:216|512:56,1,251.999992309571
360,104,72465,1,0,0:0:0:0:
244,28,72601,6,0,P|208:88|160:128,1,125.999996154785
116,297,72874,2,0,P|151:274|180:244,1,83.9999974365235
324,196,73056,2,0,P|352:164|388:144,1,83.9999974365235
128,68,73692,5,0,0:0:0:0:
240,332,73965,1,0,0:0:0:0:
420,112,74238,1,0,0:0:0:0:
68,248,74511,5,0,0:0:0:0:
68,248,74647,1,0,0:0:0:0:
288,24,74920,5,0,0:0:0:0:
288,24,75056,1,0,0:0:0:0:
288,24,75192,1,0,0:0:0:0:
368,340,75329,2,0,P|320:264|248:208,1,157.500006008148
144,100,75601,1,0,0:0:0:0:
444,288,75874,5,0,0:0:0:0:
88,332,76147,5,0,0:0:0:0:
116,276,76215,1,0,0:0:0:0:
168,240,76283,1,0,0:0:0:0:
232,240,76351,1,0,0:0:0:0:
288,272,76420,1,0,0:0:0:0:
440,104,76692,5,0,0:0:0:0:
440,104,76829,1,0,0:0:0:0:
144,100,76965,2,0,P|228:112|324:100,1,157.500006008148
196,312,77238,5,0,0:0:0:0:
196,312,77374,1,0,0:0:0:0:
376,220,77511,1,0,0:0:0:0:
68,224,77783,1,0,0:0:0:0:
440,340,78056,6,0,P|344:216|344:52,1,315.000012016297
312,328,78601,1,0,0:0:0:0:
88,56,78874,5,0,0:0:0:0:
221,139,79011,1,0,0:0:0:0:
82,213,79147,1,0,0:0:0:0:
220,140,79283,1,0,0:0:0:0:
358,65,79420,1,0,0:0:0:0:
353,222,79556,1,0,0:0:0:0:
221,139,79692,1,0,0:0:0:0:
212,296,79829,1,0,0:0:0:0:
212,296,79965,1,0,0:0:0:0:
496,148,80238,6,0,L|440:76,1,78.7500030040742
384,144,80374,2,0,L|304:140,1,78.7500030040742
260,224,80511,2,0,L|168:216,1,78.7500030040742
124,280,80647,2,0,L|48:332,1,78.7500030040742
96,48,80783,1,0,0:0:0:0:
392,296,81056,5,0,0:0:0:0:
440,28,81192,1,0,0:0:0:0:
176,136,81329,1,0,0:0:0:0:
380,152,81511,5,0,0:0:0:0:
380,152,81601,2,0,P|428:124|480:116,3,105.000004005432,0|0|0|0,0:0|0:0|0:0|0:0,0:0:0:0:
256,316,82056,1,0,0:0:0:0:
232,320,82238,1,0,0:0:0:0:
208,328,82420,6,0,P|184:328|64:108,1,315.000012016297
432,120,82965,1,0,0:0:0:0:
164,32,83238,5,0,0:0:0:0:
112,192,83374,1,0,0:0:0:0:
256,120,83511,1,0,0:0:0:0:
400,192,83647,5,0,0:0:0:0:
348,32,83783,1,0,0:0:0:0:
348,32,83920,1,0,0:0:0:0:
256,192,84056,1,0,0:0:0:0:
164,32,84192,1,0,0:0:0:0:
164,32,84329,1,0,0:0:0:0:
252,312,84601,6,0,P|160:264|368:244,1,630.000024032594
256,192,85420,5,0,0:0:0:0:
200,96,85556,1,0,0:0:0:0:
312,96,85692,1,0,0:0:0:0:
136,192,85829,1,0,0:0:0:0:
256,312,85965,1,0,2:0:0:0:
136,192,86101,1,0,0:0:0:0:
376,192,86238,1,0,0:0:0:0:
24,192,86511,1,0,0:0:0:0:
488,192,86783,6,0,B|460:124|460:124|300:52|300:52|240:80,1,315.000012016297
24,191,87329,6,0,B|52:260|52:260|212:332|212:332|272:304,1,315.000012016297
172,192,87738,1,0,0:0:0:0:
340,192,87874,1,0,0:0:0:0:
80,48,88011,1,0,0:0:0:0:
172,192,88147,1,0,0:0:0:0:
256,336,88283,2,0,B|312:280|312:280|368:336,1,157.500006008148
256,48,88556,2,0,B|312:104|312:104|368:48,1,157.500006008148
28,192,88965,5,0,0:0:0:0:
172,332,89101,1,0,0:0:0:0:
344,192,89238,1,0,0:0:0:0:
312,136,89307,1,0,0:0:0:0:
256,108,89375,1,0,0:0:0:0:
200,136,89443,1,0,0:0:0:0:
172,192,89511,1,0,0:0:0:0:
344,332,89783,5,0,0:0:0:0:
172,332,89920,1,0,0:0:0:0:
160,332,89988,1,0,0:0:0:0:
152,332,90056,1,0,0:0:0:0:
344,332,90192,5,0,0:0:0:0:
256,192,90329,1,0,0:0:0:0:
320,152,90420,1,0,0:0:0:0:
348,84,90511,1,0,0:0:0:0:
348,12,90601,5,0,0:0:0:0:
76,100,90738,1,0,0:0:0:0:
176,280,90874,1,0,0:0:0:0:
448,192,91011,1,0,0:0:0:0:
344,332,91147,6,0,P|328:248|276:184,1,157.500006008148
168,168,91692,1,0,0:0:0:0:
180,52,91965,1,0,0:0:0:0:
404,176,92238,6,0,P|376:96|324:48,1,157.500006008148
276,140,92783,1,0,0:0:0:0:
248,240,93056,6,0,P|240:280|212:328,1,78.7500030040742
372,336,93329,2,0,P|440:280|464:192,1,157.500006008148
136,332,93874,6,0,P|92:308|76:272,3,78.7500030040742,0|0|0|0,0:0|0:0|0:0|0:0,0:0:0:0:
132,148,94420,1,0,0:0:0:0:
312,56,94692,1,0,0:0:0:0:
312,56,94965,6,0,P|356:80|404:88,1,78.7500030040742
436,168,95238,2,0,P|428:216|432:268,1,78.7500030040742
344,176,95511,2,0,P|312:252|256:304,1,157.500006008148
148,256,96056,5,0,0:0:0:0:
176,48,96329,1,0,0:0:0:0:
108,144,96601,1,0,0:0:0:0:
304,68,96874,6,0,P|388:92|468:72,1,157.500006008148
367,286,97420,5,0,0:0:0:0:
368,208,97556,1,0,0:0:0:0:
436,247,97692,1,0,0:0:0:0:
112,312,97965,6,0,P|156:296|196:296,1,78.7500030040742
316,208,98238,2,0,P|316:252|308:288,1,78.7500030040742
184,132,98511,2,0,P|140:116|104:84,1,78.7500030040742
320,48,98783,5,0,0:0:0:0:
96,204,99056,1,0,0:0:0:0:
340,312,99329,6,0,P|392:296|432:260,1,78.7500030040742
412,200,99601,2,0,P|436:148|436:108,1,78.7500030040742
412,44,99874,1,0,0:0:0:0:
88,332,100284,5,0,0:0:0:0:
32,212,100420,1,0,0:0:0:0:
472,144,100692,5,0,0:0:0:0:
328,160,100829,1,0,0:0:0:0:
344,316,100965,1,0,0:0:0:0:
496,304,101101,1,0,0:0:0:0:
72,36,101511,6,0,P|120:56|168:56,1,78.7500030040742
148,256,101783,2,0,P|184:212|224:184,1,78.7500030040742
16,176,102056,1,0,0:0:0:0:
376,40,102465,5,0,0:0:0:0:
468,152,102601,1,0,0:0:0:0:
308,360,102874,5,0,0:0:0:0:
368,272,103011,1,0,0:0:0:0:
256,264,103147,2,0,P|200:300|160:312,1,78.7500030040742
60,88,103420,1,0,0:0:0:0:
60,88,103556,2,0,P|108:116|128:144,1,78.7500030040742
312,80,103965,5,0,0:0:0:0:
440,56,104101,1,0,0:0:0:0:
400,188,104238,1,0,0:0:0:0:
324,200,104374,1,0,0:0:0:0:
264,252,104511,1,0,0:0:0:0:
264,332,104647,1,0,0:0:0:0:
264,252,104783,5,0,0:0:0:0:
212,192,104920,1,0,0:0:0:0:
136,180,105056,1,0,0:0:0:0:
72,224,105192,1,0,0:0:0:0:
136,180,105329,5,0,0:0:0:0:
188,120,105465,1,0,0:0:0:0:
200,44,105601,1,0,0:0:0:0:
276,20,105738,1,0,0:0:0:0:
200,44,105874,5,0,0:0:0:0:
260,96,106011,1,0,0:0:0:0:
340,92,106147,1,0,0:0:0:0:
404,48,106283,1,0,0:0:0:0:
412,124,106420,5,0,0:0:0:0:
420,140,106488,1,0,0:0:0:0:
424,156,106556,1,0,0:0:0:0:
424,172,106624,1,0,0:0:0:0:
424,188,106692,1,0,0:0:0:0:
420,204,106761,1,0,0:0:0:0:
416,220,106829,1,0,0:0:0:0:
408,232,106897,1,0,0:0:0:0:
400,244,106965,1,0,0:0:0:0:
388,256,107033,1,0,0:0:0:0:
376,268,107101,1,0,0:0:0:0:
364,280,107170,1,0,0:0:0:0:
352,292,107238,1,0,0:0:0:0:
340,300,107306,1,0,0:0:0:0:
328,308,107374,1,0,0:0:0:0:
316,316,107442,1,0,0:0:0:0:
304,324,107511,2,0,L|200:324,2,105,0|0|0,0:0|0:0|0:0,0:0:0:0:
440,328,108056,6,0,P|440:240|104:336,1,630.000024032594
264,52,108874,5,0,0:0:0:0:
376,180,109011,1,0,0:0:0:0:
424,24,109147,1,0,0:0:0:0:
212,328,109283,2,0,P|176:224|132:184,1,157.500006008148
352,88,109556,1,0,0:0:0:0:
352,88,109692,6,0,P|208:180|64:152,1,315.000012016297
212,328,110101,1,0,0:0:0:0:
296,256,110238,1,0,0:0:0:0:
376,180,110374,6,0,P|432:112|488:64,1,157.500006008148
128,68,110647,2,0,P|112:160|64:232,1,157.500006008148
428,28,111056,1,0,0:0:0:0:
240,76,111329,6,0,P|276:152|344:224,1,157.500006008148
444,152,111601,1,0,0:0:0:0:
264,308,111738,1,0,0:0:0:0:
256,320,111874,5,0,0:0:0:0:
64,32,112147,1,0,0:0:0:0:
448,32,112419,1,0,0:0:0:0:
64,320,112692,1,0,0:0:0:0:
64,320,112965,6,0,B|144:192|144:192|184:272|340:272,1,315.000012016297
256,36,113511,5,0,0:0:0:0:
368,92,113647,1,0,0:0:0:0:
420,208,113783,1,0,0:0:0:0:
384,328,113920,1,0,0:0:0:0:
384,328,114056,2,0,B|216:332|216:332|364:264|212:220,1,315.000012016297
64,64,114601,5,0,0:0:0:0:
180,160,114738,1,0,0:0:0:0:
64,64,114874,1,0,0:0:0:0:
180,160,115011,1,0,0:0:0:0:
44,208,115147,6,0,B|44:320|44:320|128:208|208:320,1,315.000012016297
324,108,115556,1,0,0:0:0:0:
300,28,115692,2,0,P|412:116|272:176,1,315.000012016297
212,292,116101,1,0,0:0:0:0:
448,352,116238,5,0,0:0:0:0:
384,32,116511,1,0,0:0:0:0:
32,160,116783,1,0,0:0:0:0:
160,320,117056,1,0,0:0:0:0:
384,256,117329,6,0,B|480:192|480:192|344:188|344:40,1,315.000012016297
440,32,117874,1,0,0:0:0:0:
80,288,118147,1,0,0:0:0:0:
152,224,118420,6,0,B|68:164|68:164|196:140|196:140|128:32|128:32|240:60,1,472.500018024445
344,204,118965,1,0,0:0:0:0:
424,136,119101,1,0,0:0:0:0:
440,236,119238,1,0,0:0:0:0:
344,204,119374,1,0,0:0:0:0:
256,340,119511,6,0,B|144:296|144:296|292:272|240:168,1,315.000012016297
76,32,119920,1,0,0:0:0:0:
68,120,120056,6,0,P|156:88|168:32,1,157.500006008148
160,332,120329,2,0,P|204:260|280:256,1,157.500006008148
256,344,120601,5,0,0:0:0:0:
316,144,120783,1,0,0:0:0:0:
388,264,120965,1,0,0:0:0:0:
460,148,121147,2,0,P|420:72|464:20,2,157.500006008148,0|0|0,0:0|0:0|0:0,0:0:0:0:
256,240,121556,1,0,0:0:0:0:
256,240,121692,6,0,B|128:304|128:304|176:200|64:152,1,315.000012016297
36,256,122101,1,0,0:0:0:0:
140,64,122238,1,0,0:0:0:0:
400,344,122511,6,0,P|420:264|472:212,1,157.500006008148
328,32,122783,2,0,B|424:48|424:48|440:116,2,157.500006008148,0|0|0,0:0|0:0|0:0,0:0:0:0:
72,160,123192,1,0,0:0:0:0:
232,44,123329,1,0,0:0:0:0:
480,216,123465,2,0,B|404:284|404:284|352:156|200:232,1,315.000012016297
288,324,123874,5,0,0:0:0:0:
448,44,124147,1,0,0:0:0:0:
152,268,124420,1,0,0:0:0:0:
232,44,124692,5,0,0:0:0:0:
192,156,124829,1,0,0:0:0:0:
152,268,124965,1,0,0:0:0:0:
48,48,125238,1,0,0:0:0:0:
248,348,125511,1,0,0:0:0:0:
312,124,125783,5,0,0:0:0:0:
408,208,125920,1,0,0:0:0:0:
436,80,126056,1,0,0:0:0:0:
256,192,126124,12,0,127692,0:0:0:0:
428,40,128238,5,0,0:0:0:0:
256,328,128511,1,0,0:0:0:0:
64,176,128783,2,0,B|120:220|120:220|104:68|272:60,1,315.000012016297
256,192,129192,1,0,0:0:0:0:
416,208,129329,5,0,0:0:0:0:
352,64,129465,1,0,0:0:0:0:
256,192,129601,1,0,0:0:0:0:
416,208,129738,1,0,0:0:0:0:
112,336,129874,2,0,P|256:284|408:344,1,315.000012016297
80,48,130420,5,0,0:0:0:0:
420,60,130692,5,0,0:0:0:0:
404,112,130761,1,0,0:0:0:0:
356,140,130829,1,0,0:0:0:0:
300,136,130897,1,0,0:0:0:0:
260,96,130965,1,0,0:0:0:0:
140,320,131238,5,0,0:0:0:0:
140,320,131374,1,0,0:0:0:0:
384,312,131511,5,0,0:0:0:0:
268,216,131647,1,0,0:0:0:0:
472,156,131783,1,0,0:0:0:0:
340,40,131920,1,0,0:0:0:0:
144,72,132056,1,0,0:0:0:0:
432,232,132329,1,0,0:0:0:0:
72,240,132601,5,0,0:0:0:0:
244,56,132874,1,0,0:0:0:0:
264,320,133147,1,0,0:0:0:0:
408,96,133420,5,0,0:0:0:0:
408,96,133556,1,0,0:0:0:0:
112,156,133829,5,0,0:0:0:0:
112,156,133965,1,0,0:0:0:0:
112,156,134101,1,0,0:0:0:0:
344,216,134238,1,0,0:0:0:0:
344,216,134374,1,0,0:0:0:0:
344,216,134511,1,0,0:0:0:0:
228,28,134783,6,0,L|312:40,1,78.7500030040742
264,124,134920,2,0,L|316:184,1,78.7500030040742
224,224,135056,2,0,L|228:328,1,78.7500030040742
128,248,135192,2,0,L|88:320,1,78.7500030040742
48,192,135329,5,0,0:0:0:0:
228,28,135465,1,0,0:0:0:0:
128,248,135601,1,0,0:0:0:0:
308,80,135738,1,0,0:0:0:0:
392,128,135874,5,0,0:0:0:0:
392,128,136011,1,0,0:0:0:0:
316,340,136147,5,0,0:0:0:0:
328,288,136215,1,0,0:0:0:0:
372,252,136283,1,0,0:0:0:0:
428,252,136351,1,0,0:0:0:0:
476,280,136420,1,0,0:0:0:0:
392,128,136556,1,0,0:0:0:0:
220,192,136692,2,0,P|132:288|32:176,1,315.000012016297
436,48,137238,5,0,0:0:0:0:
124,188,137511,1,0,0:0:0:0:
480,128,137783,1,0,0:0:0:0:
480,128,137920,1,0,0:0:0:0:
176,108,138056,5,0,0:0:0:0:
232,32,138192,1,0,0:0:0:0:
176,108,138329,1,0,0:0:0:0:
220,192,138465,1,0,0:0:0:0:
124,188,138601,1,0,0:0:0:0:
312,200,138738,1,0,0:0:0:0:
232,32,138874,1,0,0:0:0:0:
40,36,139147,6,0,B|40:176|40:176|176:176|176:176|176:308|176:308|320:308,1,551.25002102852
348,308,139692,5,0,0:0:0:0:
136,36,139965,1,0,0:0:0:0:
268,116,140101,1,0,0:0:0:0:
400,28,140238,5,0,0:0:0:0:
124,248,140420,1,0,0:0:0:0:
104,264,140601,1,0,0:0:0:0:
84,280,140783,6,0,P|184:284|232:312,1,157.500006008148
428,104,141056,2,0,P|328:100|280:72,1,157.500006008148
460,308,141329,6,0,L|180:148,1,315.000012016297
464,180,141874,6,0,P|292:216|172:324,1,315.000012016297
324,304,142283,1,0,0:0:0:0:
184,12,142420,5,0,0:0:0:0:
304,56,142556,1,0,0:0:0:0:
56,292,142692,1,0,0:0:0:0:
120,152,142829,1,0,0:0:0:0:
292,164,142965,1,0,0:0:0:0:
464,180,143101,1,0,0:0:0:0:
392,24,143238,1,0,0:0:0:0:
184,296,143511,5,0,0:0:0:0:
396,240,143647,1,0,0:0:0:0:
192,88,143783,5,0,0:0:0:0:
188,144,143851,1,0,0:0:0:0:
164,196,143920,1,0,0:0:0:0:
120,228,143988,1,0,0:0:0:0:
64,228,144056,1,0,0:0:0:0:
424,100,144329,5,0,0:0:0:0:
424,100,144465,1,0,0:0:0:0:
292,268,144601,1,0,0:0:0:0:
292,268,144738,1,0,0:0:0:0:
64,228,144874,1,0,3:0:0:0:
68,172,144942,1,0,3:0:0:0:
92,120,145011,1,0,3:0:0:0:
136,88,145079,1,0,3:0:0:0:
192,88,145147,2,0,P|336:128|496:88,1,315.000012016297
176,248,145692,6,0,B|200:256|200:256|272:104|324:20|324:20|344:32,1,315.000012016297
408,280,146238,1,0,0:0:0:0:
136,88,146511,5,0,0:0:0:0:
296,128,146647,1,0,0:0:0:0:
176,248,146783,1,0,0:0:0:0:
168,48,146920,1,0,0:0:0:0:
296,180,147056,1,0,0:0:0:0:
132,220,147192,1,0,0:0:0:0:
220,40,147329,1,0,0:0:0:0:
276,228,147465,1,0,0:0:0:0:
108,176,147601,1,0,0:0:0:0:
484,80,147874,1,0,0:0:0:0:
228,252,148147,5,0,0:0:0:0:
256,300,148215,1,0,0:0:0:0:
308,320,148283,1,0,0:0:0:0:
360,300,148351,1,0,0:0:0:0:
396,256,148420,1,0,0:0:0:0:
116,40,148692,5,0,0:0:0:0:
0,104,148829,1,0,0:0:0:0:
172,148,148965,2,0,P|240:80|308:56,1,157.500006008148
116,248,149238,2,0,P|66:190|86:117,1,157.500006008148
228,252,149511,2,0,P|356:168|480:280,1,315.000012016297
68,340,150056,5,0,0:0:0:0:
224,56,150329,1,0,0:0:0:0:
384,144,150465,1,0,0:0:0:0:
304,308,150601,1,0,0:0:0:0:
252,64,150874,5,0,0:0:0:0:
284,72,151011,1,0,0:0:0:0:
384,176,151147,1,0,0:0:0:0:
384,208,151283,1,0,0:0:0:0:
384,244,151420,1,0,0:0:0:0:
384,272,151556,1,0,0:0:0:0:
148,301,151692,2,0,P|226:316|304:308,2,157.500006008148,0|0|0,0:0|0:0|0:0,0:0:0:0:
76,48,152238,6,0,L|132:108,1,78.7500030040742
208,64,152374,2,0,L|264:128,1,78.7500030040742
388,144,152511,2,0,L|388:236,1,78.7500030040742
268,220,152647,2,0,L|268:312,1,78.7500030040742
148,304,152783,1,0,0:0:0:0:
392,20,153056,5,0,0:0:0:0:
328,184,153192,1,0,0:0:0:0:
140,56,153329,1,0,0:0:0:0:
140,184,153465,1,0,0:0:0:0:
212,272,153601,2,0,P|252:312|328:324,3,105.000004005432,0|0|0|0,0:0|0:0|0:0|0:0,0:0:0:0:
364,104,154056,1,0,0:0:0:0:
32,132,154238,1,0,0:0:0:0:
440,348,154420,6,0,P|380:248|444:64,1,315.000012016297
256,192,154965,2,0,B|256:328|256:328|184:232|96:280,1,315.000012016297
156,352,155374,1,0,0:0:0:0:
140,164,155511,5,0,0:0:0:0:
472,20,155647,1,0,0:0:0:0:
256,192,155783,1,0,0:0:0:0:
436,116,155920,1,0,0:0:0:0:
380,212,156056,2,0,P|424:288|424:368,1,157.500006008148
208,272,156329,1,0,0:0:0:0:
332,272,156601,6,0,P|372:120|180:272,1,630.000024032594
304,272,157420,5,0,0:0:0:0:
256,192,157556,1,0,0:0:0:0:
304,272,157692,1,0,0:0:0:0:
312,116,157829,1,0,0:0:0:0:
304,272,157965,1,0,0:0:0:0:
368,40,158101,1,0,0:0:0:0:
368,40,158238,1,0,0:0:0:0:
400,276,158511,1,0,0:0:0:0:
64,328,158783,6,0,B|136:252|136:252|164:368|376:348,1,315.000012016297,0|0,0:0|0:0,0:0:0:0:
440,40,159329,2,0,B|415:141|415:141|333:55|159:178,1,315.000012016297,0|0,0:0|0:0,0:0:0:0:
280,224,159738,1,0,0:0:0:0:
168,48,159874,6,0,P|196:132|192:212,1,157.500006008148
368,240,160147,2,0,P|416:164|476:120,1,157.500006008148
304,100,160420,2,0,L|256:256,1,157.500006008148
256,344,160692,1,0,0:0:0:0:
104,336,160965,5,0,0:0:0:0:
256,64,161101,1,0,0:0:0:0:
408,336,161238,1,0,0:0:0:0:
408,280,161306,1,0,0:0:0:0:
408,224,161374,1,0,0:0:0:0:
408,168,161442,1,0,0:0:0:0:
408,112,161511,1,0,0:0:0:0:
104,112,161783,5,0,0:0:0:0:
104,168,161852,1,0,0:0:0:0:
104,224,161920,1,0,0:0:0:0:
104,280,161988,1,0,0:0:0:0:
104,336,162056,1,0,0:0:0:0:
256,64,162192,5,0,0:0:0:0:
256,120,162261,1,0,0:0:0:0:
256,176,162329,1,0,0:0:0:0:
256,248,162420,1,0,0:0:0:0:
256,320,162511,1,0,0:0:0:0:
256,320,162601,1,0,0:0:0:0:
372,48,163147,6,0,P|436:128|456:184,1,157.500006008148
212,340,163692,2,0,P|260:264|280:184,1,157.500006008148
76,36,164238,2,0,P|176:52|248:32,1,157.500006008148
440,244,164783,1,0,0:0:0:0:
436,248,165056,5,0,0:0:0:0:
352,348,165192,1,0,0:0:0:0:
208,340,165329,2,0,P|136:292|56:272,1,157.500006008148
204,48,165874,6,0,P|192:96|172:136,1,78.7500030040742
324,136,166147,2,0,P|336:184|356:224,1,78.7500030040742,0|0,0:0|0:0,0:0:0:0:
452,44,166420,1,0,0:0:0:0:
328,132,166692,1,0,0:0:0:0:
204,48,166965,5,0,0:0:0:0:
256,108,167101,1,0,0:0:0:0:
328,132,167238,1,0,0:0:0:0:
336,212,167374,1,0,0:0:0:0:
376,280,167511,1,0,0:0:0:0:
60,188,167783,1,0,0:0:0:0:
60,188,168056,6,0,P|112:272|184:288,1,157.500006008148
180,60,168465,1,0,0:0:0:0:
180,60,168601,2,0,B|292:60|316:116|316:116|416:96,1,236.250009012223
344,32,169147,2,0,P|468:72|392:184,1,275.100005037232
32,128,169692,2,0,P|64:208|64:292,1,157.500006008148
252,324,170238,2,0,P|300:304|348:296,1,78.7500030040742
264,56,170511,2,0,P|244:103|236:151,1,78.7500030040742
428,152,170783,2,0,P|472:240|480:304,1,157.500006008148
92,108,171329,2,0,P|60:156|52:180,1,78.7500030040742
216,220,171601,2,0,P|280:280|356:304,1,157.500006008148
316,40,172283,1,0,0:0:0:0:
432,156,172419,1,0,0:0:0:0:
48,196,172692,1,0,0:0:0:0:
48,196,172829,2,0,L|92:296,1,105
220,312,173101,1,0,0:0:0:0:
140,44,173374,1,0,0:0:0:0:
316,40,173511,2,0,L|432:76,1,105
376,296,173783,2,0,L|352:180,1,105
180,172,174056,1,0,0:0:0:0:
480,348,174329,1,0,0:0:0:0:
480,348,174465,1,0,0:0:0:0:
272,240,174601,1,0,0:0:0:0:
464,112,174874,1,0,0:0:0:0:
64,116,175147,1,0,0:0:0:0:
252,56,175283,1,0,0:0:0:0:
172,352,175556,1,0,0:0:0:0:
272,240,175692,1,0,0:0:0:0:
416,228,175829,1,0,0:0:0:0:
272,240,175965,1,0,0:0:0:0:
172,128,176101,1,0,0:0:0:0:
48,40,176238,1,0,0:0:0:0:
172,128,176374,1,0,0:0:0:0:
332,124,176511,1,0,0:0:0:0:
460,32,176647,1,0,0:0:0:0:
460,32,176783,1,0,0:0:0:0:
332,124,176920,1,0,0:0:0:0:
428,248,177056,1,0,0:0:0:0:
300,336,177192,1,0,0:0:0:0:
300,336,177329,1,0,0:0:0:0:
244,284,177465,1,0,0:0:0:0:
168,268,177601,1,0,0:0:0:0:
92,296,177738,1,0,0:0:0:0:
92,296,177874,1,0,0:0:0:0:
216,228,178011,1,0,0:0:0:0:
272,100,178147,1,0,0:0:0:0:
396,36,178283,1,0,0:0:0:0:
472,156,178420,1,0,0:0:0:0:
468,180,178488,1,0,0:0:0:0:
464,204,178556,1,0,0:0:0:0:
460,228,178624,1,0,0:0:0:0:
456,252,178692,1,0,0:0:0:0:
440,280,178761,1,0,0:0:0:0:
420,304,178829,1,0,0:0:0:0:
392,316,178897,1,0,0:0:0:0:
360,320,178965,1,0,0:0:0:0:
328,312,179033,1,0,0:0:0:0:
300,296,179101,1,0,0:0:0:0:
276,276,179170,1,0,0:0:0:0:
260,248,179238,1,0,0:0:0:0:
228,212,179306,1,0,0:0:0:0:
184,200,179374,1,0,0:0:0:0:
136,204,179442,1,0,0:0:0:0:
104,240,179511,2,0,P|40:148|24:92,2,157.500006008148,0|0|0,0:0|0:0|0:0,0:0:0:0:
440,292,180056,6,0,P|440:204|104:300,1,630.000024032594
396,44,180874,1,0,0:0:0:0:
292,184,181011,1,0,0:0:0:0:
216,32,181147,1,0,0:0:0:0:
420,168,181283,2,0,P|344:264|324:312,1,157.500006008148,0|0,0:0|0:0,0:0:0:0:
96,296,181556,1,0,0:0:0:0:
96,296,181692,2,0,B|56:216|56:216|92:216|112:224|200:108|120:64|96:40|72:32,1,315.000012016297
40,128,182101,1,0,0:0:0:0:
212,128,182238,2,0,P|304:128|380:108,1,157.500006008148
468,352,182511,2,0,P|388:308|288:280,1,157.500006008148
468,40,182783,1,0,0:0:0:0:
276,308,183056,1,0,0:0:0:0:
212,128,183329,1,0,0:0:0:0:
348,152,183465,1,0,0:0:0:0:
148,200,183601,1,0,0:0:0:0:
408,96,183738,1,0,0:0:0:0:
88,268,183874,1,0,0:0:0:0:
276,308,184147,1,0,0:0:0:0:
472,344,184420,1,0,0:0:0:0:
56,40,184692,1,0,0:0:0:0:
56,40,184965,2,0,B|168:88|144:120|144:120|224:224|320:136|320:136,1,315.000012016297
236,76,185374,1,0,0:0:0:0:
420,36,185511,1,0,0:0:0:0:
304,148,185647,1,0,0:0:0:0:
476,104,185783,1,0,0:0:0:0:
476,104,186056,2,0,B|380:200|380:200|456:212|456:312|440:336|396:356,1,315.000012016297
352,284,186465,1,0,0:0:0:0:
136,308,186601,1,0,0:0:0:0:
52,88,186738,1,0,0:0:0:0:
52,88,186874,2,0,P|144:140|196:160,1,157.500006008148
312,40,187147,2,0,P|348:96|400:36,1,157.500006008148,0|0,0:0|0:0,0:0:0:0:
240,264,187420,2,0,P|160:284|160:224,1,157.500006008148
476,200,187692,1,0,0:0:0:0:
332,168,187829,1,0,0:0:0:0:
432,64,187965,1,0,0:0:0:0:
476,200,188101,1,0,0:0:0:0:
232,84,188238,1,0,0:0:0:0:
412,328,188511,1,0,0:0:0:0:
88,332,188783,1,0,0:0:0:0:
88,52,189056,1,0,0:0:0:0:
88,52,189329,2,0,B|48:152|48:152|80:128|160:80|212:152|252:208,1,315.000012016297
128,232,189738,1,0,0:0:0:0:
340,176,189874,1,0,0:0:0:0:
224,180,190011,1,0,0:0:0:0:
128,232,190147,1,0,0:0:0:0:
88,332,190283,1,0,0:0:0:0:
88,332,190420,2,0,B|260:332|260:332|416:264,1,315.000012016297
484,340,190829,1,0,0:0:0:0:
340,176,190965,1,0,0:0:0:0:
392,272,191101,1,0,0:0:0:0:
340,64,191238,1,0,0:0:0:0:
340,176,191374,1,0,0:0:0:0:
444,124,191511,1,0,0:0:0:0:
444,124,191647,1,0,0:0:0:0:
128,124,191783,1,0,0:0:0:0:
128,124,191920,1,0,0:0:0:0:
288,272,192056,1,0,0:0:0:0:
288,272,192192,1,0,0:0:0:0:
24,252,192329,1,0,0:0:0:0:
24,252,192465,1,0,0:0:0:0:
224,44,192601,1,0,0:0:0:0:
256,44,192783,1,0,0:0:0:0:
288,48,192965,1,0,0:0:0:0:
316,60,193147,1,0,0:0:0:0:
