osu file format v14

[General]
AudioFilename: audio.mp3
AudioLeadIn: 0
PreviewTime: 50696
Countdown: 0
SampleSet: Normal
StackLeniency: 0.7
Mode: 1
LetterboxInBreaks: 0
WidescreenStoryboard: 1

[Editor]
Bookmarks: 2118,17348,28425,47810,53348,75502,97656,119810,125348,147502,52847
DistanceSpacing: 0.8
BeatDivisor: 4
GridSize: 32
TimelineZoom: 2.1

[Metadata]
Title:Gangu Kyou Sou Kyoku -Shuuen-
TitleUnicode:玩具狂奏曲 -終焉-
Artist:Kikuo
ArtistUnicode:きくお
Creator:Ulqui
Version:Oni
Source:CHUNITHM AIR
Tags:ALL JUSTICE COLLECTION ep.I WAVE MASTER ウェーブマスター SEGA electronic instrumental
BeatmapID:1936912
BeatmapSetID:927341

[Difficulty]
HPDrainRate:5.5
CircleSize:5
OverallDifficulty:5.5
ApproachRate:5
SliderMultiplier:1.4
SliderTickRate:1

[Events]
//Background and Video events
0,0,"1.jpg",0,0
//Break Periods
//Storyboard Layer 0 (Background)
//Storyboard Layer 1 (Fail)
//Storyboard Layer 2 (Pass)
//Storyboard Layer 3 (Foreground)
//Storyboard Layer 4 (Overlay)
//Storyboard Sound Samples

[TimingPoints]
850,461.538461538462,3,1,0,80,1,0
27850,-125,3,1,0,80,0,0
46542,-111.111111111111,3,1,0,80,0,0
46888,-105.263157894737,3,1,0,80,0,0
47234,-100,3,1,0,80,0,0
47580,-95.2380952380952,3,1,0,80,0,0
47926,-87.719298245614,3,1,0,80,0,0
48273,-84.7457627118644,3,1,0,80,0,0
48619,-81.9672131147541,3,1,0,80,0,0
48965,-79.3650793650794,3,1,0,80,0,0
49311,-76.9230769230769,3,1,0,80,0,0
49542,-87.719298245614,3,1,0,80,0,0
49773,-81.9672131147541,3,1,0,80,0,0
49888,-79.3650793650794,3,1,0,80,0,0
50003,-76.9230769230769,3,1,0,80,0,0
50234,-87.719298245614,3,1,0,80,0,0
50465,-81.9672131147541,3,1,0,80,0,0
50580,-79.3650793650794,3,1,0,80,0,0
50696,-76.9230769230769,3,1,0,80,0,0
50926,-79.3650793650794,3,1,0,80,0,0
51042,-80.6451612903226,3,1,0,80,0,0
51157,-81.9672131147541,3,1,0,80,0,0
51388,-84.7457627118644,3,1,0,80,0,0
51619,-87.719298245614,3,1,0,80,0,0
51850,-90.9090909090909,3,1,0,80,0,0
52080,-94.3396226415094,3,1,0,80,0,1
62003,-79.3650793650794,3,1,0,80,0,1
62119,-80.6451612903226,3,1,0,80,0,1
62234,-81.9672131147541,3,1,0,80,0,1
62465,-84.7457627118644,3,1,0,80,0,1
62696,-87.719298245614,3,1,0,80,0,1
62926,-90.9090909090909,3,1,0,80,0,1
63157,-94.3396226415094,3,1,0,80,0,1
74234,-90.9090909090909,3,1,0,80,0,0
74465,-111.111111111111,3,1,0,80,0,0
95926,-108.695652173913,3,1,0,80,0,0
96157,-104.166666666667,3,1,0,80,0,0
96273,-102.040816326531,3,1,0,80,0,0
96388,-100,3,1,0,80,0,0
118080,-90.9090909090909,3,1,0,80,0,0
118311,-83.3333333333333,3,1,0,80,0,0
118542,-76.9230769230769,3,1,0,80,0,0
118773,-90.9090909090909,3,1,0,80,0,0
119003,-83.3333333333333,3,1,0,80,0,0
119119,-80,3,1,0,80,0,0
119234,-76.9230769230769,3,1,0,80,0,0
119465,-90.9090909090909,3,1,0,80,0,0
119695,-83.3333333333333,3,1,0,80,0,0
119811,-80,3,1,0,80,0,0
119926,-76.9230769230769,3,1,0,80,0,0
120157,-90.9090909090909,3,1,0,80,0,0
120387,-83.3333333333333,3,1,0,80,0,0
120503,-80,3,1,0,80,0,0
120619,-76.9230769230769,3,1,0,80,0,0
120850,-90.9090909090909,3,1,0,80,0,0
121080,-83.3333333333333,3,1,0,80,0,0
121196,-80,3,1,0,80,0,0
121311,-76.9230769230769,3,1,0,80,0,0
121542,-90.9090909090909,3,1,0,80,0,0
121772,-83.3333333333333,3,1,0,80,0,0
121888,-80,3,1,0,80,0,0
122003,-76.9230769230769,3,1,0,80,0,0
122234,-90.9090909090909,3,1,0,80,0,0
122464,-83.3333333333333,3,1,0,80,0,0
122580,-80,3,1,0,80,0,0
122696,-76.9230769230769,3,1,0,80,0,0
122926,-79.3650793650794,3,1,0,80,0,0
123042,-80.6451612903226,3,1,0,80,0,0
123157,-81.9672131147541,3,1,0,80,0,0
123388,-84.7457627118644,3,1,0,80,0,0
123619,-87.719298245614,3,1,0,80,0,0
123850,-90.9090909090909,3,1,0,80,0,0
124080,-94.3396226415094,3,1,0,80,0,1
134003,-79.3650793650794,3,1,0,80,0,1
134119,-80.6451612903226,3,1,0,80,0,1
134234,-81.9672131147541,3,1,0,80,0,1
134465,-84.7457627118644,3,1,0,80,0,1
134696,-87.719298245614,3,1,0,80,0,1
134926,-90.9090909090909,3,1,0,80,0,1
135157,-94.3396226415094,3,1,0,80,0,1
146234,-100,3,1,0,80,0,0

[HitObjects]
256,192,850,12,0,5003,0:0:0:0:
192,128,5234,5,8,0:0:0:0:
192,128,5465,1,0,0:0:0:0:
192,128,5696,1,8,0:0:0:0:
192,128,5926,1,0,0:0:0:0:
192,128,6157,1,8,0:0:0:0:
192,128,6388,1,0,0:0:0:0:
192,128,6619,1,0,0:0:0:0:
160,128,6734,1,0,0:0:0:0:
160,128,6850,1,8,0:0:0:0:
160,0,7080,1,0,0:0:0:0:
160,64,7426,1,8,0:0:0:0:
160,64,7657,1,0,0:0:0:0:
160,64,7773,1,8,0:0:0:0:
224,32,8003,1,0,0:0:0:0:
160,64,8119,1,8,0:0:0:0:
160,64,8234,1,0,0:0:0:0:
160,32,8350,1,0,0:0:0:0:
160,32,8465,1,8,0:0:0:0:
160,32,8926,1,0,0:0:0:0:
192,32,9042,1,0,0:0:0:0:
192,32,9157,1,8,0:0:0:0:
192,32,9619,1,8,0:0:0:0:
160,32,9850,1,0,0:0:0:0:
160,32,9965,1,0,0:0:0:0:
160,32,10196,1,8,0:0:0:0:
160,32,10311,1,0,0:0:0:0:
160,32,10426,1,0,0:0:0:0:
160,32,10542,1,8,0:0:0:0:
160,64,10773,1,0,0:0:0:0:
160,64,11003,1,0,0:0:0:0:
160,64,11119,1,0,0:0:0:0:
160,64,11234,1,8,0:0:0:0:
192,64,11465,1,0,0:0:0:0:
160,64,11811,1,0,0:0:0:0:
192,64,11926,1,8,0:0:0:0:
160,96,12619,1,8,0:0:0:0:
160,64,13426,1,0,0:0:0:0:
160,64,13542,1,0,0:0:0:0:
160,64,13657,1,0,0:0:0:0:
160,64,13773,1,0,0:0:0:0:
160,64,13888,1,0,0:0:0:0:
160,64,14003,1,0,0:0:0:0:
160,64,14119,1,0,0:0:0:0:
160,64,14234,1,0,0:0:0:0:
160,64,14350,1,0,0:0:0:0:
160,64,14465,1,0,0:0:0:0:
160,64,14696,1,8,0:0:0:0:
192,64,15042,1,8,0:0:0:0:
192,64,15388,1,8,0:0:0:0:
192,64,15619,1,0,0:0:0:0:
192,64,15734,1,0,0:0:0:0:
192,64,15850,1,8,0:0:0:0:
192,64,16080,1,4,0:0:0:0:
192,96,16311,1,0,0:0:0:0:
192,96,16542,1,8,0:0:0:0:
192,96,16657,1,8,0:0:0:0:
160,64,16773,1,0,0:0:0:0:
192,96,17234,1,8,0:0:0:0:
192,96,17350,1,8,0:0:0:0:
160,96,17465,1,0,0:0:0:0:
192,96,17926,1,8,0:0:0:0:
192,96,18042,1,8,0:0:0:0:
192,64,18157,1,0,0:0:0:0:
192,96,18388,1,0,0:0:0:0:
192,96,18619,1,8,0:0:0:0:
192,64,18850,1,0,0:0:0:0:
192,96,19311,1,8,0:0:0:0:
192,96,19426,1,8,0:0:0:0:
192,64,19542,1,0,0:0:0:0:
192,96,20003,1,8,0:0:0:0:
192,96,20119,1,8,0:0:0:0:
192,64,20234,1,0,0:0:0:0:
192,96,20696,1,8,0:0:0:0:
192,96,20811,1,8,0:0:0:0:
192,96,20926,1,0,0:0:0:0:
160,64,21157,1,8,0:0:0:0:
128,192,21273,1,8,0:0:0:0:
128,192,21388,1,8,0:0:0:0:
128,192,21503,1,8,0:0:0:0:
160,96,21619,1,0,0:0:0:0:
160,32,21850,1,0,0:0:0:0:
160,160,22080,1,8,0:0:0:0:
160,160,22196,1,8,0:0:0:0:
160,96,22311,1,0,0:0:0:0:
160,128,22773,1,8,0:0:0:0:
160,128,22888,1,8,0:0:0:0:
160,96,23003,1,0,0:0:0:0:
160,128,23465,1,8,0:0:0:0:
160,128,23580,1,0,0:0:0:0:
160,96,23696,1,8,0:0:0:0:
160,128,23926,1,0,0:0:0:0:
160,128,24157,1,8,0:0:0:0:
160,96,24388,1,0,0:0:0:0:
160,160,24850,1,8,0:0:0:0:
160,160,24965,1,8,0:0:0:0:
160,96,25080,1,0,0:0:0:0:
160,128,25542,1,8,0:0:0:0:
160,128,25657,1,8,0:0:0:0:
160,128,25773,1,0,0:0:0:0:
160,96,26003,1,8,0:0:0:0:
160,96,26234,1,0,0:0:0:0:
160,96,26465,1,8,0:0:0:0:
160,96,26696,1,0,0:0:0:0:
160,96,26926,1,8,0:0:0:0:
160,96,27157,1,8,0:0:0:0:
192,96,27850,1,4,0:0:0:0:
192,96,28542,1,8,0:0:0:0:
192,96,29234,1,4,0:0:0:0:
192,96,29926,1,8,0:0:0:0:
192,96,30619,1,4,0:0:0:0:
192,96,31311,1,8,0:0:0:0:
160,96,32003,1,4,0:0:0:0:
160,96,32696,1,8,0:0:0:0:
160,96,33388,1,4,0:0:0:0:
160,96,34080,1,8,0:0:0:0:
160,96,34773,1,4,0:0:0:0:
160,96,35465,1,8,0:0:0:0:
160,96,36157,1,4,0:0:0:0:
160,96,36850,1,8,0:0:0:0:
160,96,37542,1,4,0:0:0:0:
128,96,38234,1,0,0:0:0:0:
160,96,38580,1,8,0:0:0:0:
160,96,38926,1,4,0:0:0:0:
160,96,39273,1,8,0:0:0:0:
160,96,39619,1,0,0:0:0:0:
160,96,39965,1,8,0:0:0:0:
160,96,40311,1,4,0:0:0:0:
160,96,40657,1,8,0:0:0:0:
160,96,41003,1,0,0:0:0:0:
160,96,41350,1,8,0:0:0:0:
192,96,41696,1,4,0:0:0:0:
192,96,42042,1,8,0:0:0:0:
192,96,42388,1,0,0:0:0:0:
192,96,42734,1,0,0:0:0:0:
192,96,43080,1,12,0:0:0:0:
192,96,43426,1,8,0:0:0:0:
192,96,43773,1,0,0:0:0:0:
192,96,44119,1,8,0:0:0:0:
192,96,44465,1,12,0:0:0:0:
192,96,44811,1,0,0:0:0:0:
192,96,45157,1,0,0:0:0:0:
192,96,45503,1,0,0:0:0:0:
192,96,45850,1,12,0:0:0:0:
192,96,46196,1,8,0:0:0:0:
192,96,46542,1,0,0:0:0:0:
160,128,46888,1,8,0:0:0:0:
160,128,47234,1,0,0:0:0:0:
192,64,47580,1,8,0:0:0:0:
192,64,47926,1,8,0:0:0:0:
192,64,48273,1,0,0:0:0:0:
192,64,48619,1,8,0:0:0:0:
192,64,48965,1,8,0:0:0:0:
192,64,49311,1,8,0:0:0:0:
192,64,49542,1,0,0:0:0:0:
192,64,49773,1,0,0:0:0:0:
192,64,49888,1,0,0:0:0:0:
192,64,50003,1,8,0:0:0:0:
192,64,50234,1,0,0:0:0:0:
192,64,50465,1,8,0:0:0:0:
192,64,50580,1,0,0:0:0:0:
192,64,50696,1,8,0:0:0:0:
160,32,50926,1,0,0:0:0:0:
160,32,51042,1,8,0:0:0:0:
160,32,51157,1,0,0:0:0:0:
160,32,51388,1,0,0:0:0:0:
160,32,51619,1,8,0:0:0:0:
160,32,51850,1,8,0:0:0:0:
160,32,52080,1,4,0:0:0:0:
160,96,52311,1,8,0:0:0:0:
160,96,52542,1,8,0:0:0:0:
160,96,52773,1,0,0:0:0:0:
160,96,53003,1,8,0:0:0:0:
192,64,53119,1,0,0:0:0:0:
160,96,53234,1,8,0:0:0:0:
160,96,53465,1,0,0:0:0:0:
160,96,53696,1,8,0:0:0:0:
160,96,53926,1,8,0:0:0:0:
160,96,54157,1,0,0:0:0:0:
160,96,54388,1,8,0:0:0:0:
192,64,54503,1,0,0:0:0:0:
160,96,54619,1,8,0:0:0:0:
160,96,54850,1,0,0:0:0:0:
160,96,55080,1,8,0:0:0:0:
160,96,55311,1,8,0:0:0:0:
160,96,55542,1,0,0:0:0:0:
160,96,55773,1,8,0:0:0:0:
160,96,56003,1,8,0:0:0:0:
160,96,56234,1,0,0:0:0:0:
191,84,56465,1,8,0:0:0:0:
160,96,56696,1,8,0:0:0:0:
160,96,56926,1,0,0:0:0:0:
160,64,57042,1,0,0:0:0:0:
128,64,57157,1,8,0:0:0:0:
192,67,57388,1,8,0:0:0:0:
160,128,57850,1,8,0:0:0:0:
160,128,58080,1,0,0:0:0:0:
160,128,58311,1,8,0:0:0:0:
160,128,58542,1,0,0:0:0:0:
192,64,58657,1,8,0:0:0:0:
160,128,58773,1,0,0:0:0:0:
160,128,59003,1,8,0:0:0:0:
160,128,59234,1,0,0:0:0:0:
160,128,59465,1,0,0:0:0:0:
160,128,59696,1,8,0:0:0:0:
160,128,59926,1,8,0:0:0:0:
160,64,60042,1,8,0:0:0:0:
160,128,60157,1,0,0:0:0:0:
160,64,60388,1,8,0:0:0:0:
160,64,60619,1,0,0:0:0:0:
192,32,60734,1,0,0:0:0:0:
160,64,60850,1,0,0:0:0:0:
160,64,61080,1,8,0:0:0:0:
160,64,61311,1,0,0:0:0:0:
160,64,61426,1,0,0:0:0:0:
160,64,61542,1,8,0:0:0:0:
192,32,61657,1,0,0:0:0:0:
192,32,61773,1,8,0:0:0:0:
160,64,62003,5,8,0:0:0:0:
192,32,62119,1,0,0:0:0:0:
160,64,62234,1,8,0:0:0:0:
160,64,62465,1,0,0:0:0:0:
160,64,62696,1,8,0:0:0:0:
160,64,62926,1,8,0:0:0:0:
160,64,63157,1,4,0:0:0:0:
192,128,63388,1,8,0:0:0:0:
192,128,63619,1,8,0:0:0:0:
192,128,63850,1,0,0:0:0:0:
192,128,64080,1,8,0:0:0:0:
224,64,64196,1,0,0:0:0:0:
192,128,64311,1,8,0:0:0:0:
192,128,64542,1,0,0:0:0:0:
192,128,64773,1,8,0:0:0:0:
192,128,65003,1,8,0:0:0:0:
192,128,65234,1,0,0:0:0:0:
192,128,65465,1,8,0:0:0:0:
192,64,65580,1,0,0:0:0:0:
192,128,65696,1,8,0:0:0:0:
192,128,65926,1,0,0:0:0:0:
192,128,66157,1,8,0:0:0:0:
192,128,66388,1,8,0:0:0:0:
192,128,66619,1,0,0:0:0:0:
192,128,66850,1,8,0:0:0:0:
192,128,67080,1,8,0:0:0:0:
192,128,67311,1,0,0:0:0:0:
192,128,67542,1,8,0:0:0:0:
128,128,67773,1,8,0:0:0:0:
128,128,68003,1,0,0:0:0:0:
206,52,68119,1,0,0:0:0:0:
128,128,68234,1,8,0:0:0:0:
128,128,68465,1,8,0:0:0:0:
160,128,68926,1,8,0:0:0:0:
160,128,69157,1,0,0:0:0:0:
160,128,69388,1,8,0:0:0:0:
160,128,69619,1,0,0:0:0:0:
192,64,69734,1,0,0:0:0:0:
160,128,69850,1,0,0:0:0:0:
160,128,70080,1,8,0:0:0:0:
160,128,70311,1,0,0:0:0:0:
160,128,70542,1,8,0:0:0:0:
160,128,70773,1,0,0:0:0:0:
160,128,71003,1,0,0:0:0:0:
160,64,71119,1,0,0:0:0:0:
160,128,71234,1,8,0:0:0:0:
160,64,71465,1,0,0:0:0:0:
160,64,71696,1,8,0:0:0:0:
160,64,71926,1,8,0:0:0:0:
160,64,72157,1,0,0:0:0:0:
160,64,72388,1,8,0:0:0:0:
160,64,72503,1,0,0:0:0:0:
160,64,72619,1,8,0:0:0:0:
192,32,72734,1,8,0:0:0:0:
192,32,72850,1,0,0:0:0:0:
160,64,73080,1,8,0:0:0:0:
160,64,73311,1,8,0:0:0:0:
160,64,73542,1,0,0:0:0:0:
160,64,73773,1,8,0:0:0:0:
160,64,74003,1,8,0:0:0:0:
160,64,74234,1,4,0:0:0:0:
128,96,74580,1,8,0:0:0:0:
128,96,74811,1,0,0:0:0:0:
128,96,74926,1,0,0:0:0:0:
128,96,75157,1,8,0:0:0:0:
160,96,75619,1,0,0:0:0:0:
160,64,75965,1,8,0:0:0:0:
160,64,76196,1,0,0:0:0:0:
160,64,76311,1,0,0:0:0:0:
160,64,76542,1,8,0:0:0:0:
160,96,77003,1,8,0:0:0:0:
224,64,77119,1,8,0:0:0:0:
160,64,77350,1,0,0:0:0:0:
160,64,77580,1,8,0:0:0:0:
160,64,77696,1,8,0:0:0:0:
160,64,77926,1,0,0:0:0:0:
224,32,78388,1,0,0:0:0:0:
192,64,78503,1,0,0:0:0:0:
160,64,78734,1,8,0:0:0:0:
160,64,78965,1,0,0:0:0:0:
160,64,79080,1,0,0:0:0:0:
160,64,79311,1,8,0:0:0:0:
192,32,79773,1,8,0:0:0:0:
160,64,79888,1,0,0:0:0:0:
192,64,80119,1,8,0:0:0:0:
192,64,80350,1,0,0:0:0:0:
192,64,80465,1,0,0:0:0:0:
192,64,80696,1,8,0:0:0:0:
160,32,81157,1,8,0:0:0:0:
160,64,81273,1,0,0:0:0:0:
160,64,81503,1,8,0:0:0:0:
160,64,81734,1,0,0:0:0:0:
160,64,81850,1,0,0:0:0:0:
160,64,82080,1,8,0:0:0:0:
192,32,82542,1,0,0:0:0:0:
160,64,82657,1,8,0:0:0:0:
192,64,82888,1,0,0:0:0:0:
192,64,83119,1,8,0:0:0:0:
192,64,83234,1,8,0:0:0:0:
160,64,83465,1,0,0:0:0:0:
192,32,83926,1,0,0:0:0:0:
192,32,84042,1,8,0:0:0:0:
160,64,84273,1,8,0:0:0:0:
160,64,84503,1,0,0:0:0:0:
160,64,84619,1,0,0:0:0:0:
160,64,84850,1,8,0:0:0:0:
160,64,85311,1,0,0:0:0:0:
160,96,85426,1,0,0:0:0:0:
160,96,85657,1,8,0:0:0:0:
160,96,85888,1,0,0:0:0:0:
160,96,86003,1,0,0:0:0:0:
160,96,86234,1,8,0:0:0:0:
192,192,86465,1,0,0:0:0:0:
192,192,86580,1,0,0:0:0:0:
192,192,86696,1,0,0:0:0:0:
192,192,86811,1,0,0:0:0:0:
160,192,87042,1,8,0:0:0:0:
160,192,87273,1,0,0:0:0:0:
160,192,87388,1,0,0:0:0:0:
160,192,87619,1,8,0:0:0:0:
192,128,87850,1,0,0:0:0:0:
192,128,87965,1,0,0:0:0:0:
192,128,88196,1,8,0:0:0:0:
192,128,88426,1,0,0:0:0:0:
192,128,88657,1,8,0:0:0:0:
192,128,88773,1,8,0:0:0:0:
192,128,89003,1,0,0:0:0:0:
192,128,89234,1,8,0:0:0:0:
192,128,89350,1,8,0:0:0:0:
192,128,89465,1,0,0:0:0:0:
192,128,89580,1,0,0:0:0:0:
192,128,89811,1,8,0:0:0:0:
192,96,90042,1,0,0:0:0:0:
192,96,90157,1,0,0:0:0:0:
192,96,90388,1,8,0:0:0:0:
160,64,90619,1,8,0:0:0:0:
160,64,90734,1,8,0:0:0:0:
160,64,90850,1,0,0:0:0:0:
160,64,90965,1,0,0:0:0:0:
160,96,91196,1,8,0:0:0:0:
160,96,91426,1,0,0:0:0:0:
160,96,91542,1,0,0:0:0:0:
160,96,91773,1,8,0:0:0:0:
160,64,92003,1,0,0:0:0:0:
160,64,92119,1,0,0:0:0:0:
160,64,92234,1,8,0:0:0:0:
160,64,92350,1,8,0:0:0:0:
160,64,92580,1,8,0:0:0:0:
160,64,92811,1,0,0:0:0:0:
160,64,92926,1,0,0:0:0:0:
160,64,93157,1,8,0:0:0:0:
192,64,93388,1,8,0:0:0:0:
192,64,93503,1,8,0:0:0:0:
192,64,93619,1,0,0:0:0:0:
192,64,93734,1,8,0:0:0:0:
128,96,93965,1,8,0:0:0:0:
128,96,94196,1,0,0:0:0:0:
128,96,94311,1,0,0:0:0:0:
128,96,94542,1,8,0:0:0:0:
128,96,94773,1,0,0:0:0:0:
128,96,94888,1,0,0:0:0:0:
128,96,95003,1,8,0:0:0:0:
128,96,95119,1,0,0:0:0:0:
160,64,95350,1,8,0:0:0:0:
160,64,95580,1,0,0:0:0:0:
160,64,95696,1,0,0:0:0:0:
160,64,95926,1,8,0:0:0:0:
160,32,96157,1,8,0:0:0:0:
160,32,96273,1,8,0:0:0:0:
160,32,96388,1,0,0:0:0:0:
192,192,96850,1,8,0:0:0:0:
160,64,97080,1,0,0:0:0:0:
128,128,97311,1,0,0:0:0:0:
128,96,97542,1,8,0:0:0:0:
128,96,97773,1,0,0:0:0:0:
128,96,98234,1,8,0:0:0:0:
128,96,98465,1,8,0:0:0:0:
160,96,98696,1,0,0:0:0:0:
160,96,98926,1,8,0:0:0:0:
160,96,99157,1,0,0:0:0:0:
160,96,99388,1,0,0:0:0:0:
160,96,99619,1,8,0:0:0:0:
160,96,99850,1,0,0:0:0:0:
187,118,100196,1,0,0:0:0:0:
160,96,100311,1,8,0:0:0:0:
160,96,100542,1,0,0:0:0:0:
160,96,100773,1,8,0:0:0:0:
128,128,101003,1,8,0:0:0:0:
128,128,101234,1,0,0:0:0:0:
160,128,101696,1,8,0:0:0:0:
160,128,101926,1,0,0:0:0:0:
160,96,102157,1,0,0:0:0:0:
160,128,102388,1,8,0:0:0:0:
160,128,102619,1,0,0:0:0:0:
160,96,102850,1,0,0:0:0:0:
160,128,103080,1,8,0:0:0:0:
160,128,103311,1,0,0:0:0:0:
160,96,103542,1,0,0:0:0:0:
160,128,103773,1,8,0:0:0:0:
160,128,104003,1,0,0:0:0:0:
160,96,104234,1,0,0:0:0:0:
160,128,104465,1,8,0:0:0:0:
160,128,104696,1,0,0:0:0:0:
160,96,104926,1,8,0:0:0:0:
160,128,105157,1,8,0:0:0:0:
160,128,105388,1,0,0:0:0:0:
160,96,105619,1,8,0:0:0:0:
160,128,105850,1,8,0:0:0:0:
160,128,106080,1,0,0:0:0:0:
160,96,106311,1,8,0:0:0:0:
160,128,106542,1,8,0:0:0:0:
160,128,106773,1,0,0:0:0:0:
160,128,107234,1,8,0:0:0:0:
192,64,107465,1,0,0:0:0:0:
160,96,107696,1,0,0:0:0:0:
160,96,107811,1,8,0:0:0:0:
160,96,108157,1,8,0:0:0:0:
160,64,108619,1,8,0:0:0:0:
160,64,108850,1,0,0:0:0:0:
160,64,109080,1,0,0:0:0:0:
160,64,109196,1,0,0:0:0:0:
160,96,109542,1,8,0:0:0:0:
160,96,110003,1,8,0:0:0:0:
160,96,110234,1,0,0:0:0:0:
160,96,110465,1,8,0:0:0:0:
160,96,110580,1,0,0:0:0:0:
160,96,110926,1,8,0:0:0:0:
160,96,111388,1,8,0:0:0:0:
160,96,111619,1,0,0:0:0:0:
160,96,111850,1,8,0:0:0:0:
160,96,111965,1,8,0:0:0:0:
160,96,112311,1,8,0:0:0:0:
160,96,112773,1,8,0:0:0:0:
160,96,113003,1,0,0:0:0:0:
160,96,113234,1,0,0:0:0:0:
160,96,113350,1,8,0:0:0:0:
192,64,113580,1,0,0:0:0:0:
160,96,113696,1,8,0:0:0:0:
160,96,114157,1,8,0:0:0:0:
160,96,114388,1,0,0:0:0:0:
160,96,114619,1,0,0:0:0:0:
160,96,114734,1,0,0:0:0:0:
160,32,114965,1,0,0:0:0:0:
160,96,115080,1,8,0:0:0:0:
160,96,115542,1,8,0:0:0:0:
160,96,115773,1,0,0:0:0:0:
160,96,116003,1,8,0:0:0:0:
160,96,116119,1,0,0:0:0:0:
192,0,116350,1,0,0:0:0:0:
160,96,116465,1,8,0:0:0:0:
160,96,116926,1,8,0:0:0:0:
160,96,117157,1,0,0:0:0:0:
160,96,117388,1,8,0:0:0:0:
160,96,117503,1,8,0:0:0:0:
192,32,117619,1,0,0:0:0:0:
192,32,117734,1,0,0:0:0:0:
160,96,117850,1,8,0:0:0:0:
192,0,118080,1,0,0:0:0:0:
160,96,118311,1,8,0:0:0:0:
160,96,118542,1,8,0:0:0:0:
192,160,118773,1,0,0:0:0:0:
192,160,119003,1,0,0:0:0:0:
192,160,119119,1,0,0:0:0:0:
128,224,119234,1,8,0:0:0:0:
160,128,119465,1,0,0:0:0:0:
160,128,119696,1,8,0:0:0:0:
160,128,119811,1,0,0:0:0:0:
128,224,119926,1,8,0:0:0:0:
160,96,120157,1,0,0:0:0:0:
160,96,120388,1,0,0:0:0:0:
160,96,120503,1,0,0:0:0:0:
160,224,120619,1,8,0:0:0:0:
160,96,120850,1,0,0:0:0:0:
160,96,121080,1,8,0:0:0:0:
160,96,121196,1,0,0:0:0:0:
160,192,121311,1,8,0:0:0:0:
160,96,121542,1,0,0:0:0:0:
160,96,121773,1,0,0:0:0:0:
160,96,121888,1,0,0:0:0:0:
160,192,122003,1,8,0:0:0:0:
160,96,122234,1,0,0:0:0:0:
160,96,122465,1,8,0:0:0:0:
160,96,122580,1,0,0:0:0:0:
160,192,122696,1,8,0:0:0:0:
160,192,122926,1,0,0:0:0:0:
192,96,123042,1,8,0:0:0:0:
160,192,123157,1,0,0:0:0:0:
160,192,123388,1,0,0:0:0:0:
160,224,123619,1,8,0:0:0:0:
160,224,123850,1,8,0:0:0:0:
160,32,124080,1,4,0:0:0:0:
160,96,124311,1,8,0:0:0:0:
160,96,124542,1,8,0:0:0:0:
160,96,124773,1,0,0:0:0:0:
160,96,125003,1,8,0:0:0:0:
192,64,125119,1,0,0:0:0:0:
160,96,125234,1,8,0:0:0:0:
160,96,125465,1,0,0:0:0:0:
160,96,125696,1,8,0:0:0:0:
160,96,125926,1,8,0:0:0:0:
160,96,126157,1,0,0:0:0:0:
160,96,126388,1,8,0:0:0:0:
192,64,126503,1,0,0:0:0:0:
160,96,126619,1,8,0:0:0:0:
160,96,126850,1,0,0:0:0:0:
160,96,127080,1,8,0:0:0:0:
160,96,127311,1,8,0:0:0:0:
160,96,127542,1,0,0:0:0:0:
160,96,127773,1,8,0:0:0:0:
160,96,128003,1,8,0:0:0:0:
160,96,128234,1,0,0:0:0:0:
160,96,128465,1,8,0:0:0:0:
160,96,128696,1,8,0:0:0:0:
160,96,128926,1,0,0:0:0:0:
160,64,129042,1,0,0:0:0:0:
128,64,129157,1,8,0:0:0:0:
160,96,129388,1,8,0:0:0:0:
160,128,129850,1,8,0:0:0:0:
160,128,130080,1,0,0:0:0:0:
160,128,130311,1,8,0:0:0:0:
160,128,130542,1,0,0:0:0:0:
192,64,130657,1,8,0:0:0:0:
160,128,130773,1,0,0:0:0:0:
160,128,131003,1,8,0:0:0:0:
160,128,131234,1,0,0:0:0:0:
160,128,131465,1,0,0:0:0:0:
160,128,131696,1,8,0:0:0:0:
160,128,131926,1,8,0:0:0:0:
160,64,132042,1,8,0:0:0:0:
160,128,132157,1,0,0:0:0:0:
160,64,132388,1,8,0:0:0:0:
160,64,132619,1,0,0:0:0:0:
192,32,132734,1,0,0:0:0:0:
160,64,132850,1,0,0:0:0:0:
160,64,133080,1,8,0:0:0:0:
160,64,133311,1,0,0:0:0:0:
160,64,133426,1,0,0:0:0:0:
160,64,133542,1,8,0:0:0:0:
192,32,133657,1,0,0:0:0:0:
192,32,133773,1,8,0:0:0:0:
160,64,134003,5,8,0:0:0:0:
192,32,134119,1,0,0:0:0:0:
160,64,134234,1,8,0:0:0:0:
160,64,134465,1,0,0:0:0:0:
160,64,134696,1,8,0:0:0:0:
160,64,134926,1,8,0:0:0:0:
160,64,135157,1,4,0:0:0:0:
192,128,135388,1,8,0:0:0:0:
192,128,135619,1,8,0:0:0:0:
192,128,135850,1,0,0:0:0:0:
192,128,136080,1,8,0:0:0:0:
224,64,136196,1,0,0:0:0:0:
192,128,136311,1,8,0:0:0:0:
192,128,136542,1,0,0:0:0:0:
192,128,136773,1,8,0:0:0:0:
192,128,137003,1,8,0:0:0:0:
192,128,137234,1,0,0:0:0:0:
192,128,137465,1,8,0:0:0:0:
192,64,137580,1,0,0:0:0:0:
192,128,137696,1,8,0:0:0:0:
192,128,137926,1,0,0:0:0:0:
192,128,138157,1,8,0:0:0:0:
192,128,138388,1,8,0:0:0:0:
192,128,138619,1,0,0:0:0:0:
192,128,138850,1,8,0:0:0:0:
192,128,139080,1,8,0:0:0:0:
192,128,139311,1,0,0:0:0:0:
192,128,139542,1,8,0:0:0:0:
128,128,139773,1,8,0:0:0:0:
128,128,140003,1,0,0:0:0:0:
192,96,140119,1,0,0:0:0:0:
128,128,140234,1,8,0:0:0:0:
128,128,140465,1,8,0:0:0:0:
160,128,140926,1,8,0:0:0:0:
160,128,141157,1,0,0:0:0:0:
160,128,141388,1,8,0:0:0:0:
160,128,141619,1,0,0:0:0:0:
192,64,141734,1,0,0:0:0:0:
160,128,141850,1,0,0:0:0:0:
160,128,142080,1,8,0:0:0:0:
160,128,142311,1,0,0:0:0:0:
160,128,142542,1,8,0:0:0:0:
160,128,142773,1,0,0:0:0:0:
160,128,143003,1,0,0:0:0:0:
160,64,143119,1,0,0:0:0:0:
160,128,143234,1,8,0:0:0:0:
160,64,143465,1,0,0:0:0:0:
160,64,143696,1,8,0:0:0:0:
160,64,143926,1,8,0:0:0:0:
160,64,144157,1,0,0:0:0:0:
160,64,144388,1,8,0:0:0:0:
160,64,144503,1,0,0:0:0:0:
160,64,144619,1,8,0:0:0:0:
192,32,144734,1,8,0:0:0:0:
192,32,144850,1,0,0:0:0:0:
160,64,145080,1,8,0:0:0:0:
160,64,145311,1,8,0:0:0:0:
160,64,145542,1,0,0:0:0:0:
160,64,145773,1,8,0:0:0:0:
160,64,146003,1,8,0:0:0:0:
256,192,146234,12,0,149003,0:0:0:0:
