osu file format v14

[General]
AudioFilename: audio.mp3
AudioLeadIn: 0
PreviewTime: 50696
Countdown: 0
SampleSet: Normal
StackLeniency: 0.7
Mode: 1
LetterboxInBreaks: 0
WidescreenStoryboard: 1

[Editor]
Bookmarks: 2118,17348,28425,47810,53348,75502,97656,119810,125348,147502
DistanceSpacing: 0.8
BeatDivisor: 4
GridSize: 32
TimelineZoom: 1.9

[Metadata]
Title:Gangu Kyou Sou Kyoku -Shuuen-
TitleUnicode:玩具狂奏曲 -終焉-
Artist:Kikuo
ArtistUnicode:きくお
Creator:Ulqui
Version:Muzukashii
Source:CHUNITHM AIR
Tags:ALL JUSTICE COLLECTION ep.I WAVE MASTER ウェーブマスター SEGA electronic instrumental
BeatmapID:1936902
BeatmapSetID:927341

[Difficulty]
HPDrainRate:6
CircleSize:5
OverallDifficulty:5
ApproachRate:5
SliderMultiplier:1.4
SliderTickRate:1

[Events]
//Background and Video events
0,0,"1.jpg",0,0
//Break Periods
2,96588,106265
//Storyboard Layer 0 (Background)
//Storyboard Layer 1 (Fail)
//Storyboard Layer 2 (Pass)
//Storyboard Layer 3 (Foreground)
//Storyboard Layer 4 (Overlay)
//Storyboard Sound Samples

[TimingPoints]
850,461.538461538462,3,1,0,80,1,0
27850,-125,3,1,0,80,0,0
46542,-111.111111111111,3,1,0,80,0,0
47234,-100,3,1,0,80,0,0
47926,-96.1538461538461,3,1,0,80,0,0
48273,-94.3396226415094,3,1,0,80,0,0
48619,-92.5925925925926,3,1,0,80,0,0
48965,-90.9090909090909,3,1,0,80,0,0
49311,-89.2857142857143,3,1,0,80,0,0
50696,-89.2857142857143,3,1,0,80,0,0
50926,-90.9090909090909,3,1,0,80,0,0
51157,-92.5925925925926,3,1,0,80,0,0
51388,-94.3396226415094,3,1,0,80,0,0
51619,-96.1538461538461,3,1,0,80,0,0
51850,-98.0392156862745,3,1,0,80,0,0
52080,-100,3,1,0,80,0,1
62234,-92.5925925925926,3,1,0,80,0,1
62465,-94.3396226415094,3,1,0,80,0,1
62696,-96.1538461538461,3,1,0,80,0,1
62926,-98.0392156862745,3,1,0,80,0,1
63157,-100,3,1,0,80,0,1
74234,-100,3,1,0,80,0,0
74465,-111.111111111111,3,1,0,80,0,0
96388,-100,3,1,0,80,0,0
118311,-94.3396226415094,3,1,0,80,0,0
118542,-89.2857142857143,3,1,0,80,0,0
122696,-89.2857142857143,3,1,0,80,0,0
122926,-90.9090909090909,3,1,0,80,0,0
123157,-92.5925925925926,3,1,0,80,0,0
123388,-94.3396226415094,3,1,0,80,0,0
123619,-96.1538461538461,3,1,0,80,0,0
123850,-98.0392156862745,3,1,0,80,0,0
124080,-100,3,1,0,80,0,1
134234,-92.5925925925926,3,1,0,80,0,1
134465,-94.3396226415094,3,1,0,80,0,1
134696,-96.1538461538461,3,1,0,80,0,1
134926,-98.0392156862745,3,1,0,80,0,1
135157,-100,3,1,0,80,0,1
146234,-100,3,1,0,80,0,0

[HitObjects]
256,192,850,12,0,5003,0:0:0:0:
160,96,5234,5,8,0:0:0:0:
160,96,5465,1,0,0:0:0:0:
160,96,5696,1,8,0:0:0:0:
160,96,5926,1,0,0:0:0:0:
160,96,6157,1,8,0:0:0:0:
160,96,6388,1,0,0:0:0:0:
160,96,6850,1,8,0:0:0:0:
160,64,8234,1,0,0:0:0:0:
160,64,8350,1,0,0:0:0:0:
160,64,8465,1,8,0:0:0:0:
192,64,9042,1,0,0:0:0:0:
192,64,9157,1,8,0:0:0:0:
160,64,10542,1,8,0:0:0:0:
160,64,10773,1,0,0:0:0:0:
160,64,11003,1,0,0:0:0:0:
160,64,11119,1,0,0:0:0:0:
160,64,11234,1,0,0:0:0:0:
160,64,11465,1,0,0:0:0:0:
160,64,11811,1,0,0:0:0:0:
160,64,11926,1,8,0:0:0:0:
160,96,12619,1,8,0:0:0:0:
192,32,13426,1,0,0:0:0:0:
96,96,13542,1,0,0:0:0:0:
192,64,13773,1,0,0:0:0:0:
96,96,14003,1,0,0:0:0:0:
96,96,14119,1,0,0:0:0:0:
160,32,14234,1,0,0:0:0:0:
96,96,14465,1,0,0:0:0:0:
128,64,14696,1,8,0:0:0:0:
128,64,15042,1,8,0:0:0:0:
128,64,15388,1,8,0:0:0:0:
128,64,15619,1,0,0:0:0:0:
128,64,15850,1,8,0:0:0:0:
128,64,16080,1,4,0:0:0:0:
160,64,16542,1,0,0:0:0:0:
160,64,16657,1,0,0:0:0:0:
160,64,16773,1,0,0:0:0:0:
160,96,17234,1,0,0:0:0:0:
160,96,17350,1,0,0:0:0:0:
160,96,17465,1,0,0:0:0:0:
160,96,17926,1,0,0:0:0:0:
160,96,18042,1,0,0:0:0:0:
160,96,18157,1,0,0:0:0:0:
128,128,18388,1,0,0:0:0:0:
160,96,18619,1,8,0:0:0:0:
160,96,18850,1,0,0:0:0:0:
160,64,19311,1,0,0:0:0:0:
160,64,19426,1,0,0:0:0:0:
160,64,19542,1,0,0:0:0:0:
160,96,20003,1,0,0:0:0:0:
160,96,20119,1,0,0:0:0:0:
160,96,20234,1,0,0:0:0:0:
160,96,20696,1,0,0:0:0:0:
160,96,20811,1,0,0:0:0:0:
160,96,20926,1,0,0:0:0:0:
160,64,21273,1,0,0:0:0:0:
160,64,21388,1,0,0:0:0:0:
160,64,21503,1,0,0:0:0:0:
160,64,21619,1,0,0:0:0:0:
160,64,22080,1,0,0:0:0:0:
160,64,22196,1,0,0:0:0:0:
160,64,22311,1,0,0:0:0:0:
160,96,22773,1,0,0:0:0:0:
160,96,22888,1,0,0:0:0:0:
160,96,23003,1,0,0:0:0:0:
160,96,23465,1,0,0:0:0:0:
160,96,23580,1,0,0:0:0:0:
160,96,23696,1,0,0:0:0:0:
160,96,23926,1,0,0:0:0:0:
160,96,24157,1,8,0:0:0:0:
160,96,24388,1,0,0:0:0:0:
160,64,24850,5,0,0:0:0:0:
160,64,24965,1,0,0:0:0:0:
160,64,25080,1,0,0:0:0:0:
160,64,25542,1,0,0:0:0:0:
160,64,25657,1,0,0:0:0:0:
160,64,25773,1,0,0:0:0:0:
160,64,26003,1,8,0:0:0:0:
160,64,26234,1,0,0:0:0:0:
160,64,26465,1,8,0:0:0:0:
160,64,26696,1,0,0:0:0:0:
160,64,26926,1,8,0:0:0:0:
160,64,27157,1,8,0:0:0:0:
192,128,27850,1,4,0:0:0:0:
160,128,28542,1,8,0:0:0:0:
160,128,29234,1,4,0:0:0:0:
160,128,29926,1,8,0:0:0:0:
160,128,30619,1,4,0:0:0:0:
160,192,31311,1,8,0:0:0:0:
160,192,32003,1,4,0:0:0:0:
160,192,32696,1,8,0:0:0:0:
160,192,33388,1,4,0:0:0:0:
160,192,34080,1,8,0:0:0:0:
160,192,34773,1,4,0:0:0:0:
160,192,35465,1,8,0:0:0:0:
160,192,36157,1,4,0:0:0:0:
160,192,36850,1,8,0:0:0:0:
160,192,37542,1,4,0:0:0:0:
160,192,38234,1,0,0:0:0:0:
160,128,38580,1,8,0:0:0:0:
160,128,38926,1,4,0:0:0:0:
160,128,39273,1,8,0:0:0:0:
160,128,39619,1,0,0:0:0:0:
160,96,39965,1,8,0:0:0:0:
160,96,40311,1,4,0:0:0:0:
160,96,40657,1,8,0:0:0:0:
160,128,41003,1,0,0:0:0:0:
160,128,41350,1,8,0:0:0:0:
160,128,41696,1,4,0:0:0:0:
160,128,42042,1,8,0:0:0:0:
160,128,42388,1,0,0:0:0:0:
160,128,42734,1,8,0:0:0:0:
160,128,43080,1,4,0:0:0:0:
160,128,43426,1,8,0:0:0:0:
160,128,43773,1,0,0:0:0:0:
160,160,44119,1,8,0:0:0:0:
160,160,44465,1,4,0:0:0:0:
160,128,44811,1,8,0:0:0:0:
160,128,45157,1,0,0:0:0:0:
160,128,45503,1,8,0:0:0:0:
160,128,45850,1,4,0:0:0:0:
160,64,46196,1,8,0:0:0:0:
160,128,46542,1,0,0:0:0:0:
192,64,47234,1,8,0:0:0:0:
192,64,47926,1,8,0:0:0:0:
192,64,48273,1,0,0:0:0:0:
160,64,48619,1,8,0:0:0:0:
160,64,48965,1,8,0:0:0:0:
160,64,49311,1,8,0:0:0:0:
209,113,49542,1,0,0:0:0:0:
192,64,49773,1,0,0:0:0:0:
160,64,50003,1,8,0:0:0:0:
209,113,50234,1,0,0:0:0:0:
192,64,50465,1,8,0:0:0:0:
160,64,50696,1,8,0:0:0:0:
128,96,50926,5,0,0:0:0:0:
128,96,51157,1,8,0:0:0:0:
128,96,51388,1,0,0:0:0:0:
128,96,51619,1,8,0:0:0:0:
128,96,51850,1,8,0:0:0:0:
128,96,52080,1,4,0:0:0:0:
160,160,52542,1,8,0:0:0:0:
160,160,52773,1,0,0:0:0:0:
160,160,53003,1,8,0:0:0:0:
181,47,53119,1,8,0:0:0:0:
160,160,53234,1,8,0:0:0:0:
160,160,53465,1,0,0:0:0:0:
160,160,53926,1,8,0:0:0:0:
160,160,54157,1,0,0:0:0:0:
160,160,54388,1,8,0:0:0:0:
181,68,54503,1,8,0:0:0:0:
160,160,54619,1,8,0:0:0:0:
160,160,54850,1,0,0:0:0:0:
160,160,55080,1,8,0:0:0:0:
160,160,55311,1,8,0:0:0:0:
160,160,55542,1,0,0:0:0:0:
160,160,55773,1,8,0:0:0:0:
160,160,56003,1,8,0:0:0:0:
160,160,56234,1,0,0:0:0:0:
160,160,56696,1,8,0:0:0:0:
160,160,56926,1,0,0:0:0:0:
160,160,57157,1,8,0:0:0:0:
177,73,57273,1,8,0:0:0:0:
160,160,57388,1,8,0:0:0:0:
160,160,57619,1,0,0:0:0:0:
192,128,57850,1,8,0:0:0:0:
192,128,58080,1,0,0:0:0:0:
192,128,58311,1,8,0:0:0:0:
206,61,58542,1,0,0:0:0:0:
192,128,58773,1,0,0:0:0:0:
128,128,59003,1,8,0:0:0:0:
128,160,59465,1,8,0:0:0:0:
160,160,59696,1,0,0:0:0:0:
160,160,59926,1,8,0:0:0:0:
160,160,60157,1,8,0:0:0:0:
160,160,60388,1,0,0:0:0:0:
181,58,60734,1,8,0:0:0:0:
160,160,60850,1,8,0:0:0:0:
160,160,61080,1,0,0:0:0:0:
160,160,61311,1,8,0:0:0:0:
160,160,61542,1,8,0:0:0:0:
160,96,61657,1,0,0:0:0:0:
160,160,61773,1,8,0:0:0:0:
160,160,62234,1,8,0:0:0:0:
160,160,62465,1,0,0:0:0:0:
160,160,62696,1,8,0:0:0:0:
160,160,62926,1,8,0:0:0:0:
160,160,63157,1,4,0:0:0:0:
160,128,63619,1,8,0:0:0:0:
192,128,63850,1,0,0:0:0:0:
202,65,64080,1,8,0:0:0:0:
183,62,64196,1,8,0:0:0:0:
224,128,64311,1,8,0:0:0:0:
192,128,64542,1,0,0:0:0:0:
192,128,65003,1,8,0:0:0:0:
192,128,65234,1,0,0:0:0:0:
192,128,65465,1,8,0:0:0:0:
196,66,65580,1,8,0:0:0:0:
192,128,65696,1,8,0:0:0:0:
192,128,65926,1,0,0:0:0:0:
192,128,66157,1,8,0:0:0:0:
192,128,66388,1,8,0:0:0:0:
192,128,66619,1,0,0:0:0:0:
192,128,66850,1,8,0:0:0:0:
192,128,67080,1,8,0:0:0:0:
192,128,67311,1,0,0:0:0:0:
192,128,67773,1,8,0:0:0:0:
192,128,68003,1,0,0:0:0:0:
192,128,68234,1,8,0:0:0:0:
192,128,68465,1,8,0:0:0:0:
224,128,68696,1,0,0:0:0:0:
192,128,68926,1,8,0:0:0:0:
192,96,69157,1,0,0:0:0:0:
192,96,69388,1,8,0:0:0:0:
192,96,69619,1,0,0:0:0:0:
192,96,69850,1,0,0:0:0:0:
192,96,70080,1,8,0:0:0:0:
192,96,70542,1,8,0:0:0:0:
192,96,70773,1,0,0:0:0:0:
192,96,71003,1,8,0:0:0:0:
192,96,71234,1,8,0:0:0:0:
192,96,71465,1,0,0:0:0:0:
192,96,71926,1,8,0:0:0:0:
192,96,72157,1,0,0:0:0:0:
170,46,72273,1,0,0:0:0:0:
192,96,72388,1,0,0:0:0:0:
192,96,72619,1,8,0:0:0:0:
192,96,72850,1,0,0:0:0:0:
192,96,73080,1,8,0:0:0:0:
192,96,73311,1,8,0:0:0:0:
192,96,73542,1,0,0:0:0:0:
192,96,73773,1,8,0:0:0:0:
192,96,74003,1,8,0:0:0:0:
192,96,74234,1,4,0:0:0:0:
192,160,74580,1,8,0:0:0:0:
160,160,74926,1,0,0:0:0:0:
160,192,75157,1,8,0:0:0:0:
192,160,75619,1,0,0:0:0:0:
192,160,75965,1,8,0:0:0:0:
192,160,76311,1,0,0:0:0:0:
160,192,76542,1,8,0:0:0:0:
160,192,77003,1,8,0:0:0:0:
160,192,77350,1,0,0:0:0:0:
128,160,77696,1,8,0:0:0:0:
128,160,77926,1,0,0:0:0:0:
128,160,78388,1,8,0:0:0:0:
128,160,78734,1,8,0:0:0:0:
128,160,79080,1,8,0:0:0:0:
128,160,79311,1,8,0:0:0:0:
128,160,79773,1,0,0:0:0:0:
160,160,80119,1,8,0:0:0:0:
160,160,80465,1,0,0:0:0:0:
160,160,80696,1,8,0:0:0:0:
160,160,81157,1,0,0:0:0:0:
160,160,81503,1,8,0:0:0:0:
160,160,81850,1,0,0:0:0:0:
160,160,82080,1,8,0:0:0:0:
160,160,82542,1,8,0:0:0:0:
160,160,82888,1,0,0:0:0:0:
160,160,83234,1,8,0:0:0:0:
160,160,83465,1,0,0:0:0:0:
160,160,83926,1,8,0:0:0:0:
160,160,84273,1,8,0:0:0:0:
160,160,84619,1,8,0:0:0:0:
160,128,84850,1,8,0:0:0:0:
160,128,85311,1,0,0:0:0:0:
160,128,85657,1,8,0:0:0:0:
160,128,85888,1,0,0:0:0:0:
160,32,86003,1,0,0:0:0:0:
160,128,86234,1,8,0:0:0:0:
128,96,86696,5,0,0:0:0:0:
128,96,87042,1,8,0:0:0:0:
128,96,87273,1,0,0:0:0:0:
128,96,87388,1,0,0:0:0:0:
128,96,87619,1,8,0:0:0:0:
128,96,88080,1,8,0:0:0:0:
128,96,88426,1,0,0:0:0:0:
128,96,88657,1,8,0:0:0:0:
128,96,88773,1,8,0:0:0:0:
128,96,89003,1,0,0:0:0:0:
160,64,89465,1,8,0:0:0:0:
160,64,89811,1,8,0:0:0:0:
160,64,90042,1,8,0:0:0:0:
160,64,90157,1,8,0:0:0:0:
160,64,90388,1,8,0:0:0:0:
160,64,90850,1,0,0:0:0:0:
160,64,91196,1,8,0:0:0:0:
160,64,91426,1,0,0:0:0:0:
160,64,91542,1,0,0:0:0:0:
160,64,91773,1,8,0:0:0:0:
160,96,92234,1,0,0:0:0:0:
160,96,92580,1,8,0:0:0:0:
160,96,92811,1,0,0:0:0:0:
160,96,92926,1,0,0:0:0:0:
160,96,93157,1,8,0:0:0:0:
160,96,93619,1,8,0:0:0:0:
160,96,93965,1,0,0:0:0:0:
160,96,94196,1,8,0:0:0:0:
160,96,94311,1,8,0:0:0:0:
160,96,94542,1,0,0:0:0:0:
160,96,95003,1,8,0:0:0:0:
160,96,95350,1,8,0:0:0:0:
160,96,95580,1,8,0:0:0:0:
160,96,95696,1,8,0:0:0:0:
160,96,95926,1,8,0:0:0:0:
186,47,96157,1,8,0:0:0:0:
160,96,96388,1,0,0:0:0:0:
192,32,107465,5,0,0:0:0:0:
160,64,107811,1,0,0:0:0:0:
160,64,108157,1,8,0:0:0:0:
192,96,108619,1,8,0:0:0:0:
160,64,108850,1,0,0:0:0:0:
160,64,109196,1,0,0:0:0:0:
128,64,109542,1,8,0:0:0:0:
128,64,110003,1,0,0:0:0:0:
192,64,110234,1,8,0:0:0:0:
192,64,110580,1,8,0:0:0:0:
192,64,110926,1,0,0:0:0:0:
192,64,111388,1,8,0:0:0:0:
192,64,111619,1,0,0:0:0:0:
192,64,111965,1,8,0:0:0:0:
192,64,112311,1,0,0:0:0:0:
192,64,112773,1,8,0:0:0:0:
192,64,113003,1,0,0:0:0:0:
192,64,113350,1,0,0:0:0:0:
192,64,113696,1,8,0:0:0:0:
192,64,114157,1,8,0:0:0:0:
192,64,114388,1,0,0:0:0:0:
192,64,114734,1,0,0:0:0:0:
192,64,115080,1,8,0:0:0:0:
192,64,115542,1,0,0:0:0:0:
192,64,115773,1,8,0:0:0:0:
192,64,116119,1,8,0:0:0:0:
192,64,116465,1,0,0:0:0:0:
192,64,116926,1,8,0:0:0:0:
192,64,117157,1,0,0:0:0:0:
192,64,117503,1,8,0:0:0:0:
192,64,117850,1,0,0:0:0:0:
192,64,118311,1,8,0:0:0:0:
192,64,118542,1,8,0:0:0:0:
223,86,118773,1,0,0:0:0:0:
160,160,119003,1,0,0:0:0:0:
160,64,119234,1,8,0:0:0:0:
199,148,119465,1,0,0:0:0:0:
192,160,119696,1,0,0:0:0:0:
160,64,119926,1,8,0:0:0:0:
192,160,120388,1,0,0:0:0:0:
192,64,120619,1,8,0:0:0:0:
199,148,120850,1,0,0:0:0:0:
192,160,121080,1,0,0:0:0:0:
192,64,121311,1,8,0:0:0:0:
192,160,121542,1,0,0:0:0:0:
160,96,121657,1,0,0:0:0:0:
160,96,121773,1,0,0:0:0:0:
192,64,122003,1,8,0:0:0:0:
160,96,122234,1,0,0:0:0:0:
160,96,122350,1,0,0:0:0:0:
192,64,122465,1,0,0:0:0:0:
192,64,122696,1,8,0:0:0:0:
192,96,122926,1,0,0:0:0:0:
192,96,123157,1,8,0:0:0:0:
192,96,123388,1,0,0:0:0:0:
192,96,123619,1,8,0:0:0:0:
192,96,123850,1,8,0:0:0:0:
128,96,124080,1,4,0:0:0:0:
160,160,124542,1,8,0:0:0:0:
160,160,124773,1,0,0:0:0:0:
160,160,125003,1,8,0:0:0:0:
169,62,125119,1,8,0:0:0:0:
160,160,125234,1,8,0:0:0:0:
160,160,125465,1,0,0:0:0:0:
160,160,125926,1,8,0:0:0:0:
160,160,126157,1,0,0:0:0:0:
160,160,126388,1,8,0:0:0:0:
182,109,126503,1,8,0:0:0:0:
160,160,126619,1,8,0:0:0:0:
160,160,126850,1,0,0:0:0:0:
160,160,127080,1,8,0:0:0:0:
160,160,127311,1,8,0:0:0:0:
160,160,127542,1,0,0:0:0:0:
160,160,127773,1,8,0:0:0:0:
160,160,128003,1,8,0:0:0:0:
160,160,128234,1,0,0:0:0:0:
160,160,128696,1,8,0:0:0:0:
160,160,128926,1,0,0:0:0:0:
160,160,129157,1,8,0:0:0:0:
160,160,129388,1,8,0:0:0:0:
160,160,129619,1,0,0:0:0:0:
192,128,129850,1,8,0:0:0:0:
192,128,130080,1,0,0:0:0:0:
192,128,130311,1,8,0:0:0:0:
192,128,130542,1,0,0:0:0:0:
192,128,130773,1,0,0:0:0:0:
128,128,131003,1,8,0:0:0:0:
128,160,131465,1,8,0:0:0:0:
160,160,131696,1,0,0:0:0:0:
160,160,131926,1,8,0:0:0:0:
160,160,132157,1,8,0:0:0:0:
160,160,132388,1,0,0:0:0:0:
160,160,132734,1,8,0:0:0:0:
160,160,132850,1,8,0:0:0:0:
160,160,133080,1,0,0:0:0:0:
160,160,133311,1,8,0:0:0:0:
160,160,133542,1,8,0:0:0:0:
160,96,133657,1,0,0:0:0:0:
160,160,133773,1,8,0:0:0:0:
160,160,134234,1,8,0:0:0:0:
160,160,134465,1,0,0:0:0:0:
160,160,134696,1,8,0:0:0:0:
160,160,134926,1,8,0:0:0:0:
160,160,135157,1,4,0:0:0:0:
160,128,135619,1,8,0:0:0:0:
192,128,135850,1,0,0:0:0:0:
224,128,136080,1,8,0:0:0:0:
179,109,136196,1,8,0:0:0:0:
224,128,136311,1,8,0:0:0:0:
192,128,136542,1,0,0:0:0:0:
192,128,137003,1,8,0:0:0:0:
192,128,137234,1,0,0:0:0:0:
192,128,137465,1,8,0:0:0:0:
179,55,137580,1,8,0:0:0:0:
192,128,137696,1,8,0:0:0:0:
192,128,137926,1,0,0:0:0:0:
192,128,138157,1,8,0:0:0:0:
192,128,138388,1,8,0:0:0:0:
192,128,138619,1,0,0:0:0:0:
192,128,138850,1,8,0:0:0:0:
192,128,139080,1,8,0:0:0:0:
192,128,139311,1,0,0:0:0:0:
192,128,139773,1,8,0:0:0:0:
192,128,140003,1,0,0:0:0:0:
192,128,140234,1,8,0:0:0:0:
192,128,140465,1,8,0:0:0:0:
224,128,140696,1,0,0:0:0:0:
192,128,140926,1,8,0:0:0:0:
192,96,141157,1,0,0:0:0:0:
192,96,141388,1,8,0:0:0:0:
192,96,141619,1,0,0:0:0:0:
192,96,141850,1,0,0:0:0:0:
192,96,142080,1,8,0:0:0:0:
192,96,142542,1,8,0:0:0:0:
192,96,142773,1,0,0:0:0:0:
192,96,143003,1,8,0:0:0:0:
192,96,143234,1,8,0:0:0:0:
192,96,143465,1,0,0:0:0:0:
192,96,143926,1,8,0:0:0:0:
192,96,144157,1,0,0:0:0:0:
197,34,144273,1,0,0:0:0:0:
192,96,144388,1,0,0:0:0:0:
192,96,144619,1,8,0:0:0:0:
192,96,144850,1,0,0:0:0:0:
192,96,145080,1,8,0:0:0:0:
192,96,145311,1,8,0:0:0:0:
192,96,145542,1,0,0:0:0:0:
192,96,145773,1,8,0:0:0:0:
192,96,146003,1,8,0:0:0:0:
256,192,146234,12,0,149003,0:0:0:0:
