osu file format v14

[General]
AudioFilename: audio.mp3
AudioLeadIn: 0
PreviewTime: 50696
Countdown: 0
SampleSet: Normal
StackLeniency: 0.7
Mode: 1
LetterboxInBreaks: 0
WidescreenStoryboard: 1

[Editor]
Bookmarks: 2118,17348,28425,47810,53348,75502,97656,119810,125348,147502
DistanceSpacing: 0.8
BeatDivisor: 8
GridSize: 32
TimelineZoom: 2.24

[Metadata]
Title:Gangu Kyou Sou Kyoku -Shuuen-
TitleUnicode:玩具狂奏曲 -終焉-
Artist:Kikuo
ArtistUnicode:きくお
Creator:Ulqui
Version:Inner Oni
Source:CHUNITHM AIR
Tags:ALL JUSTICE COLLECTION ep.I WAVE MASTER ウェーブマスター SEGA electronic instrumental
BeatmapID:1937061
BeatmapSetID:927341

[Difficulty]
HPDrainRate:6.5
CircleSize:5
OverallDifficulty:6.5
ApproachRate:5
SliderMultiplier:1.4
SliderTickRate:1

[Events]
//Background and Video events
0,0,"1.jpg",0,0
//Break Periods
//Storyboard Layer 0 (Background)
//Storyboard Layer 1 (Fail)
//Storyboard Layer 2 (Pass)
//Storyboard Layer 3 (Foreground)
//Storyboard Layer 4 (Overlay)
//Storyboard Sound Samples

[TimingPoints]
850,461.538461538462,3,1,0,80,1,0
15042,-95.2380952380952,3,1,0,80,0,0
15388,-90.9090909090909,3,1,0,80,0,0
15619,-86.9565217391304,3,1,0,80,0,0
15734,-85.4700854700855,3,1,0,80,0,0
15850,-84.0336134453781,3,1,0,80,0,0
15965,-82.6446280991736,3,1,0,80,0,0
16080,-81.3008130081301,3,1,0,80,0,0
27850,-50,3,1,0,80,0,0
28542,-166.666666666667,3,1,0,80,0,0
29234,-50,3,1,0,80,0,0
29926,-166.666666666667,3,1,0,80,0,0
30503,-50,3,1,0,80,0,0
31311,-166.666666666667,3,1,0,80,0,0
31888,-50,3,1,0,80,0,0
32580,-166.666666666667,3,1,0,80,0,0
33273,-50,3,1,0,80,0,0
33965,-166.666666666667,3,1,0,80,0,0
34657,-50,3,1,0,80,0,0
35350,-166.666666666667,3,1,0,80,0,0
36042,-50,3,1,0,80,0,0
36734,-166.666666666667,3,1,0,80,0,0
37426,-50,3,1,0,80,0,0
38119,-166.666666666667,3,1,0,80,0,0
38811,-50,3,1,0,80,0,0
39157,-166.666666666667,3,1,0,80,0,0
40196,-50,3,1,0,80,0,0
40542,-166.666666666667,3,1,0,80,0,0
41580,-50,3,1,0,80,0,0
41926,-166.666666666667,3,1,0,80,0,0
42965,-50,3,1,0,80,0,0
43311,-166.666666666667,3,1,0,80,0,0
44350,-50,3,1,0,80,0,0
44696,-166.666666666667,3,1,0,80,0,0
45734,-50,3,1,0,80,0,0
46080,-166.666666666667,3,1,0,80,0,0
46542,-125,3,1,0,80,0,0
46888,-111.111111111111,3,1,0,80,0,0
47234,-100,3,1,0,80,0,0
47580,-90.9090909090909,3,1,0,80,0,0
47926,-83.3333333333333,3,1,0,80,0,0
48273,-76.9230769230769,3,1,0,80,0,0
48619,-71.4285714285714,3,1,0,80,0,0
48965,-66.6666666666667,3,1,0,80,0,0
49311,-62.5,3,1,0,80,0,0
49542,-83.3333333333333,3,1,0,80,0,0
49657,-76.9230769230769,3,1,0,80,0,0
49773,-71.4285714285714,3,1,0,80,0,0
49888,-66.6666666666667,3,1,0,80,0,0
50003,-62.5,3,1,0,80,0,0
50234,-83.3333333333333,3,1,0,80,0,0
50350,-76.9230769230769,3,1,0,80,0,0
50465,-71.4285714285714,3,1,0,80,0,0
50580,-66.6666666666667,3,1,0,80,0,0
50696,-62.5,3,1,0,80,0,0
50926,-66.6666666666667,3,1,0,80,0,0
51003,-67.7966101694915,3,1,0,80,0,0
51080,-69.6864111498258,3,1,0,80,0,0
51157,-71.4285714285714,3,1,0,80,0,0
51388,-76.9230769230769,3,1,0,80,0,0
51619,-83.3333333333333,3,1,0,80,0,0
51850,-86.9565217391304,3,1,0,80,0,0
52080,-90.9090909090909,3,1,0,80,0,1
62003,-66.6666666666667,3,1,0,80,0,1
62080,-67.7966101694915,3,1,0,80,0,1
62157,-69.6864111498258,3,1,0,80,0,1
62234,-71.4285714285714,3,1,0,80,0,1
62465,-76.9230769230769,3,1,0,80,0,1
62696,-83.3333333333333,3,1,0,80,0,1
62926,-86.9565217391304,3,1,0,80,0,1
63157,-90.9090909090909,3,1,0,80,0,1
74234,-90.9090909090909,3,1,0,80,0,0
74465,-125,3,1,0,80,0,0
95350,-121.951219512195,3,1,0,80,0,0
95580,-116.279069767442,3,1,0,80,0,0
95696,-113.636363636364,3,1,0,80,0,0
95926,-108.695652173913,3,1,0,80,0,0
96157,-104.166666666667,3,1,0,80,0,0
96273,-102.040816326531,3,1,0,80,0,0
96388,-100,3,1,0,80,0,0
107465,-90.9090909090909,3,1,0,80,0,0
118080,-83.3333333333333,3,1,0,80,0,0
118311,-71.4285714285714,3,1,0,80,0,0
118542,-62.5,3,1,0,80,0,0
118773,-83.3333333333333,3,1,0,80,0,0
118888,-76.9230769230769,3,1,0,80,0,0
119003,-71.4285714285714,3,1,0,80,0,0
119119,-66.6666666666667,3,1,0,80,0,0
119234,-62.5,3,1,0,80,0,0
119465,-83.3333333333333,3,1,0,80,0,0
119580,-76.9230769230769,3,1,0,80,0,0
119696,-71.4285714285714,3,1,0,80,0,0
119811,-66.6666666666667,3,1,0,80,0,0
119926,-62.5,3,1,0,80,0,0
120157,-83.3333333333333,3,1,0,80,0,0
120273,-76.9230769230769,3,1,0,80,0,0
120388,-71.4285714285714,3,1,0,80,0,0
120503,-66.6666666666667,3,1,0,80,0,0
120619,-62.5,3,1,0,80,0,0
120850,-83.3333333333333,3,1,0,80,0,0
120965,-76.9230769230769,3,1,0,80,0,0
121080,-71.4285714285714,3,1,0,80,0,0
121196,-66.6666666666667,3,1,0,80,0,0
121311,-62.5,3,1,0,80,0,0
121542,-83.3333333333333,3,1,0,80,0,0
121657,-76.9230769230769,3,1,0,80,0,0
121773,-71.4285714285714,3,1,0,80,0,0
121888,-66.6666666666667,3,1,0,80,0,0
122003,-62.5,3,1,0,80,0,0
122234,-83.3333333333333,3,1,0,80,0,0
122350,-76.9230769230769,3,1,0,80,0,0
122465,-71.4285714285714,3,1,0,80,0,0
122580,-66.6666666666667,3,1,0,80,0,0
122696,-62.5,3,1,0,80,0,0
122926,-66.6666666666667,3,1,0,80,0,0
123003,-67.7966101694915,3,1,0,80,0,0
123080,-69.6864111498258,3,1,0,80,0,0
123157,-71.4285714285714,3,1,0,80,0,0
123388,-76.9230769230769,3,1,0,80,0,0
123619,-83.3333333333333,3,1,0,80,0,0
123850,-86.9565217391304,3,1,0,80,0,0
124080,-90.9090909090909,3,1,0,80,0,1
134003,-66.6666666666667,3,1,0,80,0,1
134080,-67.7966101694915,3,1,0,80,0,1
134157,-69.6864111498258,3,1,0,80,0,1
134234,-71.4285714285714,3,1,0,80,0,1
134465,-76.9230769230769,3,1,0,80,0,1
134696,-83.3333333333333,3,1,0,80,0,1
134926,-86.9565217391304,3,1,0,80,0,1
135157,-90.9090909090909,3,1,0,80,0,1
146234,-66.6666666666667,3,1,0,80,0,0

[HitObjects]
256,192,850,12,0,5003,0:0:0:0:
151,108,5234,5,8,0:0:0:0:
151,108,5465,1,0,0:0:0:0:
151,108,5696,1,8,0:0:0:0:
151,108,5926,1,0,0:0:0:0:
151,108,6157,1,8,0:0:0:0:
151,108,6388,1,0,0:0:0:0:
141,85,6619,1,0,0:0:0:0:
141,85,6734,1,0,0:0:0:0:
141,85,6850,1,8,0:0:0:0:
159,85,6965,1,8,0:0:0:0:
159,85,7080,1,0,0:0:0:0:
159,85,7311,1,0,0:0:0:0:
158,62,7426,1,8,0:0:0:0:
171,91,7657,1,0,0:0:0:0:
171,91,7773,1,8,0:0:0:0:
176,52,8003,1,0,0:0:0:0:
176,52,8119,1,8,0:0:0:0:
176,52,8234,1,0,0:0:0:0:
224,103,8311,1,0,0:0:0:0:
224,103,8388,1,0,0:0:0:0:
224,103,8465,1,8,0:0:0:0:
209,83,8696,1,0,0:0:0:0:
209,83,8811,1,8,0:0:0:0:
209,83,8926,1,0,0:0:0:0:
209,83,9042,1,0,0:0:0:0:
209,83,9157,1,8,0:0:0:0:
177,64,9503,1,0,0:0:0:0:
177,64,9619,1,8,0:0:0:0:
177,64,9850,1,0,0:0:0:0:
177,64,9965,1,0,0:0:0:0:
177,64,10196,1,8,0:0:0:0:
177,64,10311,1,0,0:0:0:0:
177,64,10426,1,0,0:0:0:0:
177,64,10542,1,8,0:0:0:0:
158,83,10773,1,0,0:0:0:0:
158,83,11003,1,0,0:0:0:0:
158,119,11080,1,0,0:0:0:0:
158,119,11157,1,0,0:0:0:0:
158,83,11234,1,0,0:0:0:0:
162,93,11465,1,0,0:0:0:0:
175,57,11696,1,0,0:0:0:0:
177,86,11811,1,0,0:0:0:0:
177,86,11926,1,8,0:0:0:0:
189,58,12273,1,8,0:0:0:0:
189,58,12503,1,0,0:0:0:0:
189,58,12619,1,8,0:0:0:0:
167,115,12850,1,0,0:0:0:0:
146,37,12965,1,0,0:0:0:0:
172,67,13080,1,8,0:0:0:0:
157,57,13311,1,0,0:0:0:0:
164,68,13426,1,0,0:0:0:0:
164,68,13542,1,8,0:0:0:0:
164,68,13657,1,0,0:0:0:0:
158,66,13773,1,8,0:0:0:0:
158,66,13888,1,0,0:0:0:0:
158,66,14003,1,8,0:0:0:0:
158,66,14119,1,0,0:0:0:0:
158,66,14234,1,8,0:0:0:0:
158,66,14350,1,0,0:0:0:0:
158,66,14465,1,8,0:0:0:0:
158,66,14580,1,0,0:0:0:0:
201,46,14696,1,8,0:0:0:0:
172,77,15042,1,8,0:0:0:0:
172,77,15388,1,8,0:0:0:0:
172,77,15619,1,0,0:0:0:0:
172,77,15734,1,0,0:0:0:0:
172,77,15850,1,8,0:0:0:0:
172,77,15965,1,8,0:0:0:0:
172,77,16080,1,4,0:0:0:0:
173,121,16311,1,0,0:0:0:0:
173,121,16542,1,8,0:0:0:0:
173,121,16657,1,8,0:0:0:0:
173,121,16773,1,0,0:0:0:0:
170,62,17003,1,0,0:0:0:0:
176,83,17234,1,8,0:0:0:0:
156,67,17350,1,8,0:0:0:0:
156,67,17407,1,8,0:0:0:0:
156,67,17465,1,0,0:0:0:0:
199,67,17696,1,0,0:0:0:0:
199,67,17926,1,8,0:0:0:0:
161,153,18003,1,8,0:0:0:0:
161,153,18080,1,8,0:0:0:0:
161,153,18157,1,0,0:0:0:0:
166,77,18388,1,0,0:0:0:0:
166,77,18619,1,8,0:0:0:0:
166,77,18850,1,0,0:0:0:0:
156,130,19080,1,0,0:0:0:0:
180,135,19196,1,0,0:0:0:0:
156,130,19311,1,8,0:0:0:0:
180,135,19426,1,8,0:0:0:0:
157,92,19542,1,0,0:0:0:0:
155,139,19773,1,0,0:0:0:0:
155,139,20003,1,8,0:0:0:0:
155,139,20119,1,8,0:0:0:0:
166,42,20176,1,8,0:0:0:0:
155,139,20234,1,0,0:0:0:0:
125,104,20465,1,0,0:0:0:0:
125,104,20696,1,8,0:0:0:0:
125,104,20773,1,8,0:0:0:0:
125,104,20850,1,8,0:0:0:0:
125,104,20926,1,0,0:0:0:0:
148,58,21157,1,0,0:0:0:0:
182,116,21273,1,8,0:0:0:0:
182,116,21388,1,8,0:0:0:0:
178,89,21503,1,8,0:0:0:0:
148,58,21619,1,0,0:0:0:0:
180,94,21850,1,0,0:0:0:0:
180,94,22080,1,8,0:0:0:0:
155,90,22196,1,8,0:0:0:0:
155,90,22311,1,0,0:0:0:0:
132,81,22542,1,0,0:0:0:0:
132,81,22773,1,8,0:0:0:0:
162,92,22888,1,8,0:0:0:0:
162,92,22946,1,8,0:0:0:0:
135,80,23003,1,0,0:0:0:0:
156,107,23234,1,0,0:0:0:0:
156,107,23465,1,8,0:0:0:0:
215,81,23542,1,8,0:0:0:0:
215,81,23619,1,8,0:0:0:0:
156,107,23696,1,0,0:0:0:0:
136,107,23926,1,0,0:0:0:0:
136,107,24157,1,8,0:0:0:0:
152,97,24273,1,8,0:0:0:0:
136,107,24388,1,0,0:0:0:0:
152,97,24619,1,0,0:0:0:0:
152,97,24734,1,0,0:0:0:0:
152,97,24850,1,8,0:0:0:0:
139,72,24965,1,8,0:0:0:0:
139,72,25080,1,0,0:0:0:0:
138,76,25311,1,0,0:0:0:0:
138,76,25542,1,8,0:0:0:0:
166,34,25657,1,8,0:0:0:0:
166,34,25715,1,8,0:0:0:0:
138,76,25773,1,0,0:0:0:0:
131,103,26003,1,0,0:0:0:0:
131,103,26234,1,8,0:0:0:0:
131,103,26465,1,0,0:0:0:0:
159,82,26580,1,0,0:0:0:0:
140,84,26696,1,0,0:0:0:0:
159,82,26811,1,0,0:0:0:0:
140,84,26926,1,8,0:0:0:0:
140,84,27157,1,8,0:0:0:0:
156,65,27850,1,4,0:0:0:0:
156,65,28542,1,8,0:0:0:0:
156,65,29234,1,4,0:0:0:0:
156,65,29926,1,8,0:0:0:0:
156,65,30619,1,4,0:0:0:0:
156,65,31311,1,8,0:0:0:0:
156,65,32003,1,4,0:0:0:0:
156,65,32696,1,8,0:0:0:0:
156,65,33388,1,4,0:0:0:0:
156,65,34080,1,8,0:0:0:0:
156,65,34773,1,4,0:0:0:0:
156,65,35465,1,8,0:0:0:0:
156,65,36157,1,4,0:0:0:0:
161,76,36850,1,8,0:0:0:0:
161,76,37542,1,4,0:0:0:0:
166,69,38234,1,0,0:0:0:0:
145,118,38580,1,8,0:0:0:0:
159,108,38926,1,4,0:0:0:0:
159,108,39273,1,8,0:0:0:0:
158,109,39619,1,0,0:0:0:0:
159,108,39965,1,8,0:0:0:0:
159,108,40311,1,4,0:0:0:0:
158,109,40657,1,8,0:0:0:0:
159,108,41003,1,0,0:0:0:0:
159,108,41350,1,8,0:0:0:0:
158,109,41696,1,4,0:0:0:0:
159,108,42042,1,8,0:0:0:0:
158,109,42388,1,0,0:0:0:0:
158,109,42734,1,0,0:0:0:0:
148,104,43080,1,12,0:0:0:0:
148,105,43426,1,8,0:0:0:0:
148,105,43773,1,0,0:0:0:0:
148,104,44119,1,8,0:0:0:0:
148,105,44465,1,12,0:0:0:0:
148,105,44811,1,0,0:0:0:0:
148,104,45157,1,0,0:0:0:0:
148,105,45503,1,0,0:0:0:0:
148,105,45850,1,12,0:0:0:0:
148,104,46196,1,8,0:0:0:0:
148,105,46542,1,0,0:0:0:0:
175,69,46888,1,8,0:0:0:0:
175,69,47234,1,0,0:0:0:0:
175,69,47580,1,8,0:0:0:0:
140,51,47926,1,8,0:0:0:0:
121,74,48273,1,8,0:0:0:0:
121,74,48619,1,0,0:0:0:0:
121,74,48965,1,8,0:0:0:0:
169,66,49311,1,8,0:0:0:0:
151,116,49542,1,0,0:0:0:0:
151,116,49657,1,0,0:0:0:0:
151,116,49773,1,0,0:0:0:0:
151,116,49888,1,0,0:0:0:0:
151,116,50003,1,8,0:0:0:0:
151,116,50234,1,0,0:0:0:0:
151,116,50350,1,0,0:0:0:0:
151,116,50465,1,8,0:0:0:0:
151,116,50580,1,0,0:0:0:0:
151,116,50696,1,8,0:0:0:0:
180,54,50926,1,0,0:0:0:0:
253,89,51003,1,8,0:0:0:0:
253,89,51080,1,8,0:0:0:0:
180,54,51157,1,0,0:0:0:0:
151,86,51388,1,0,0:0:0:0:
151,86,51619,1,8,0:0:0:0:
151,86,51850,1,8,0:0:0:0:
171,68,52080,1,4,0:0:0:0:
156,181,52311,1,8,0:0:0:0:
161,141,52426,1,0,0:0:0:0:
156,181,52542,1,8,0:0:0:0:
139,140,52773,1,0,0:0:0:0:
139,140,53003,1,8,0:0:0:0:
198,37,53119,1,0,0:0:0:0:
139,140,53234,1,8,0:0:0:0:
163,115,53350,1,8,0:0:0:0:
163,115,53465,1,0,0:0:0:0:
167,91,53696,1,8,0:0:0:0:
167,91,53926,1,8,0:0:0:0:
167,91,54157,1,0,0:0:0:0:
167,91,54388,1,8,0:0:0:0:
178,64,54503,1,0,0:0:0:0:
167,91,54619,1,8,0:0:0:0:
149,65,54850,1,0,0:0:0:0:
181,25,54965,1,0,0:0:0:0:
149,65,55080,1,8,0:0:0:0:
149,65,55311,1,8,0:0:0:0:
152,81,55542,1,0,0:0:0:0:
152,81,55773,1,8,0:0:0:0:
150,87,55888,1,0,0:0:0:0:
152,81,56003,1,8,0:0:0:0:
151,89,56234,1,0,0:0:0:0:
151,89,56465,1,8,0:0:0:0:
151,89,56696,1,8,0:0:0:0:
184,32,56811,1,8,0:0:0:0:
154,120,56926,1,0,0:0:0:0:
154,120,57157,1,8,0:0:0:0:
154,120,57388,1,8,0:0:0:0:
128,128,57619,1,0,0:0:0:0:
160,128,57850,1,8,0:0:0:0:
154,87,57965,1,0,0:0:0:0:
160,128,58080,1,0,0:0:0:0:
242,17,58196,1,0,0:0:0:0:
160,128,58311,1,8,0:0:0:0:
160,128,58542,1,0,0:0:0:0:
192,64,58657,1,8,0:0:0:0:
160,128,58773,1,0,0:0:0:0:
160,128,59003,1,8,0:0:0:0:
160,128,59234,1,0,0:0:0:0:
171,86,59350,1,0,0:0:0:0:
160,128,59465,1,0,0:0:0:0:
160,128,59696,1,8,0:0:0:0:
160,128,59926,1,8,0:0:0:0:
160,64,60042,1,8,0:0:0:0:
160,128,60157,1,0,0:0:0:0:
160,64,60388,1,8,0:0:0:0:
160,64,60619,1,0,0:0:0:0:
192,32,60734,1,8,0:0:0:0:
160,64,60850,1,8,0:0:0:0:
166,79,60965,1,0,0:0:0:0:
160,64,61080,1,8,0:0:0:0:
160,64,61311,1,0,0:0:0:0:
160,64,61426,1,0,0:0:0:0:
160,64,61542,1,8,0:0:0:0:
192,32,61657,1,0,0:0:0:0:
192,32,61773,1,8,0:0:0:0:
160,64,62003,5,8,0:0:0:0:
184,34,62080,1,0,0:0:0:0:
192,32,62157,1,0,0:0:0:0:
160,64,62234,1,8,0:0:0:0:
160,64,62465,1,0,0:0:0:0:
160,64,62696,1,8,0:0:0:0:
160,64,62926,1,8,0:0:0:0:
171,68,63157,1,4,0:0:0:0:
156,181,63388,1,8,0:0:0:0:
161,141,63503,1,0,0:0:0:0:
156,181,63619,1,8,0:0:0:0:
139,140,63850,1,0,0:0:0:0:
139,140,64080,1,8,0:0:0:0:
198,37,64196,1,0,0:0:0:0:
139,140,64311,1,8,0:0:0:0:
163,115,64426,1,8,0:0:0:0:
163,115,64542,1,0,0:0:0:0:
167,91,64773,1,8,0:0:0:0:
167,91,65003,1,8,0:0:0:0:
167,91,65234,1,0,0:0:0:0:
167,91,65465,1,8,0:0:0:0:
178,64,65580,1,0,0:0:0:0:
167,91,65696,1,8,0:0:0:0:
149,65,65926,1,0,0:0:0:0:
181,25,66042,1,0,0:0:0:0:
149,65,66157,1,8,0:0:0:0:
149,65,66388,1,8,0:0:0:0:
152,81,66619,1,0,0:0:0:0:
152,81,66850,1,8,0:0:0:0:
150,87,66965,1,0,0:0:0:0:
152,81,67080,1,8,0:0:0:0:
151,89,67311,1,0,0:0:0:0:
151,89,67542,1,8,0:0:0:0:
151,89,67773,1,8,0:0:0:0:
184,32,67888,1,8,0:0:0:0:
154,120,68003,1,0,0:0:0:0:
241,56,68119,1,0,0:0:0:0:
154,120,68234,1,8,0:0:0:0:
154,120,68465,1,8,0:0:0:0:
128,128,68696,1,0,0:0:0:0:
160,128,68926,1,8,0:0:0:0:
173,22,69042,1,0,0:0:0:0:
160,128,69157,1,0,0:0:0:0:
173,22,69273,1,0,0:0:0:0:
160,128,69388,1,8,0:0:0:0:
160,128,69619,1,0,0:0:0:0:
192,64,69734,1,0,0:0:0:0:
160,128,69850,1,0,0:0:0:0:
160,128,70080,1,8,0:0:0:0:
160,128,70311,1,0,0:0:0:0:
160,128,70542,1,8,0:0:0:0:
160,128,70773,1,0,0:0:0:0:
160,128,71003,1,8,0:0:0:0:
160,64,71119,1,0,0:0:0:0:
160,128,71234,1,8,0:0:0:0:
171,32,71350,1,8,0:0:0:0:
160,64,71465,1,0,0:0:0:0:
160,64,71696,1,8,0:0:0:0:
160,64,71926,1,8,0:0:0:0:
160,64,72157,1,0,0:0:0:0:
160,64,72273,1,0,0:0:0:0:
160,64,72388,1,8,0:0:0:0:
160,64,72503,1,0,0:0:0:0:
160,64,72619,1,8,0:0:0:0:
192,32,72734,1,8,0:0:0:0:
192,32,72850,1,0,0:0:0:0:
160,64,73080,1,8,0:0:0:0:
171,36,73196,1,0,0:0:0:0:
160,64,73311,1,8,0:0:0:0:
160,64,73542,1,0,0:0:0:0:
211,42,73657,1,0,0:0:0:0:
160,64,73773,1,8,0:0:0:0:
160,64,74003,1,8,0:0:0:0:
160,64,74234,1,4,0:0:0:0:
181,125,74580,1,8,0:0:0:0:
181,125,74811,1,0,0:0:0:0:
181,125,74926,1,0,0:0:0:0:
181,125,75157,1,8,0:0:0:0:
175,87,75388,1,0,0:0:0:0:
175,87,75503,1,8,0:0:0:0:
175,87,75619,1,0,0:0:0:0:
163,93,75965,1,8,0:0:0:0:
159,69,76196,1,0,0:0:0:0:
159,69,76311,1,0,0:0:0:0:
159,69,76542,1,8,0:0:0:0:
159,69,76773,1,8,0:0:0:0:
159,69,76888,1,0,0:0:0:0:
159,69,77003,1,0,0:0:0:0:
159,69,77119,1,8,0:0:0:0:
159,69,77350,1,0,0:0:0:0:
159,69,77580,1,8,0:0:0:0:
159,69,77696,1,8,0:0:0:0:
159,69,77926,1,0,0:0:0:0:
159,69,78157,1,8,0:0:0:0:
159,69,78273,1,8,0:0:0:0:
159,69,78388,1,0,0:0:0:0:
159,69,78503,1,8,0:0:0:0:
159,69,78734,1,8,0:0:0:0:
159,69,78965,1,0,0:0:0:0:
159,69,79080,1,0,0:0:0:0:
159,69,79311,1,8,0:0:0:0:
159,69,79542,1,8,0:0:0:0:
159,69,79657,1,8,0:0:0:0:
146,57,79888,1,0,0:0:0:0:
146,57,80119,1,8,0:0:0:0:
151,70,80350,1,0,0:0:0:0:
151,70,80465,1,0,0:0:0:0:
151,70,80696,1,8,0:0:0:0:
152,70,80926,1,0,0:0:0:0:
153,70,81042,1,8,0:0:0:0:
153,70,81157,1,0,0:0:0:0:
151,70,81273,1,0,0:0:0:0:
151,70,81503,1,8,0:0:0:0:
152,70,81734,1,0,0:0:0:0:
152,70,81850,1,0,0:0:0:0:
153,70,82080,1,8,0:0:0:0:
155,82,82311,1,0,0:0:0:0:
155,83,82426,1,0,0:0:0:0:
155,83,82542,1,0,0:0:0:0:
155,83,82657,1,8,0:0:0:0:
153,87,82888,1,0,0:0:0:0:
153,87,83119,1,8,0:0:0:0:
153,87,83234,1,8,0:0:0:0:
153,87,83465,1,0,0:0:0:0:
153,87,83696,1,0,0:0:0:0:
153,87,83811,1,8,0:0:0:0:
153,87,83926,1,8,0:0:0:0:
153,87,84042,1,0,0:0:0:0:
153,87,84273,1,8,0:0:0:0:
153,87,84503,1,0,0:0:0:0:
153,87,84619,1,0,0:0:0:0:
153,87,84850,1,8,0:0:0:0:
161,93,85080,1,0,0:0:0:0:
161,93,85196,1,0,0:0:0:0:
161,93,85311,1,8,0:0:0:0:
161,93,85426,1,0,0:0:0:0:
162,92,85657,1,8,0:0:0:0:
185,22,85773,1,8,0:0:0:0:
162,92,85888,1,0,0:0:0:0:
161,93,86003,1,0,0:0:0:0:
161,93,86234,1,8,0:0:0:0:
161,93,86465,1,0,0:0:0:0:
162,92,86580,1,0,0:0:0:0:
162,92,86696,1,8,0:0:0:0:
155,101,86811,1,0,0:0:0:0:
161,93,87042,1,8,0:0:0:0:
181,30,87157,1,8,0:0:0:0:
169,101,87273,1,0,0:0:0:0:
169,101,87388,1,0,0:0:0:0:
171,101,87619,1,8,0:0:0:0:
177,99,87850,1,0,0:0:0:0:
177,99,87965,1,0,0:0:0:0:
177,99,88196,1,8,0:0:0:0:
177,99,88426,1,0,0:0:0:0:
181,30,88542,1,0,0:0:0:0:
177,99,88657,1,8,0:0:0:0:
177,99,88773,1,8,0:0:0:0:
177,99,89003,1,0,0:0:0:0:
177,99,89234,1,8,0:0:0:0:
177,99,89350,1,8,0:0:0:0:
177,99,89465,1,8,0:0:0:0:
177,99,89580,1,0,0:0:0:0:
177,99,89811,1,8,0:0:0:0:
177,99,90042,1,0,0:0:0:0:
177,99,90157,1,0,0:0:0:0:
177,99,90388,1,8,0:0:0:0:
177,99,90619,1,0,0:0:0:0:
177,99,90734,1,8,0:0:0:0:
177,99,90850,1,0,0:0:0:0:
177,99,90965,1,0,0:0:0:0:
177,99,91196,1,8,0:0:0:0:
170,30,91311,1,8,0:0:0:0:
177,99,91426,1,0,0:0:0:0:
177,99,91542,1,0,0:0:0:0:
177,99,91773,1,8,0:0:0:0:
177,99,92003,1,0,0:0:0:0:
177,99,92119,1,0,0:0:0:0:
177,99,92234,1,8,0:0:0:0:
177,99,92350,1,0,0:0:0:0:
177,99,92580,1,8,0:0:0:0:
170,30,92696,1,8,0:0:0:0:
177,99,92811,1,0,0:0:0:0:
177,99,92926,1,8,0:0:0:0:
177,99,93157,1,8,0:0:0:0:
177,99,93388,1,8,0:0:0:0:
177,99,93503,1,8,0:0:0:0:
177,99,93619,1,8,0:0:0:0:
177,99,93734,1,0,0:0:0:0:
177,99,93965,1,0,0:0:0:0:
171,30,94080,1,0,0:0:0:0:
177,99,94196,1,8,0:0:0:0:
177,99,94311,1,8,0:0:0:0:
177,99,94542,1,0,0:0:0:0:
177,99,94773,1,0,0:0:0:0:
177,99,94888,1,0,0:0:0:0:
177,99,95003,1,8,0:0:0:0:
177,99,95119,1,0,0:0:0:0:
177,99,95350,1,8,0:0:0:0:
177,99,95580,1,0,0:0:0:0:
177,99,95696,1,0,0:0:0:0:
177,99,95926,1,8,0:0:0:0:
177,99,96157,1,8,0:0:0:0:
177,99,96273,1,8,0:0:0:0:
198,28,96388,1,0,0:0:0:0:
160,140,96619,1,0,0:0:0:0:
160,140,96850,1,8,0:0:0:0:
160,140,96965,1,0,0:0:0:0:
160,140,97080,1,8,0:0:0:0:
173,67,97311,1,0,0:0:0:0:
173,67,97542,1,8,0:0:0:0:
173,67,97773,1,8,0:0:0:0:
212,32,97888,1,0,0:0:0:0:
169,80,98003,1,0,0:0:0:0:
169,80,98119,1,0,0:0:0:0:
169,80,98234,1,8,0:0:0:0:
169,80,98465,1,0,0:0:0:0:
251,87,98542,1,8,0:0:0:0:
251,87,98619,1,8,0:0:0:0:
203,82,98696,1,0,0:0:0:0:
156,31,98811,1,0,0:0:0:0:
156,31,98926,1,8,0:0:0:0:
166,25,99042,1,8,0:0:0:0:
166,25,99157,1,0,0:0:0:0:
172,50,99388,1,0,0:0:0:0:
172,50,99619,1,8,0:0:0:0:
176,36,99734,1,0,0:0:0:0:
174,43,99850,1,8,0:0:0:0:
170,50,100196,1,0,0:0:0:0:
172,50,100311,1,0,0:0:0:0:
172,50,100542,1,8,0:0:0:0:
166,54,100773,1,0,0:0:0:0:
166,54,101003,1,0,0:0:0:0:
188,54,101234,1,0,0:0:0:0:
188,54,101465,1,8,0:0:0:0:
151,82,101696,1,0,0:0:0:0:
151,82,101811,1,0,0:0:0:0:
151,82,101926,1,8,0:0:0:0:
160,42,102157,1,0,0:0:0:0:
160,42,102273,1,0,0:0:0:0:
160,42,102388,1,0,0:0:0:0:
160,42,102619,1,8,0:0:0:0:
160,42,102850,1,0,0:0:0:0:
160,42,102965,1,0,0:0:0:0:
160,42,103080,1,8,0:0:0:0:
170,57,103311,1,0,0:0:0:0:
170,57,103542,1,0,0:0:0:0:
170,57,103657,1,8,0:0:0:0:
170,57,103773,1,0,0:0:0:0:
182,26,104003,1,8,0:0:0:0:
180,31,104119,1,0,0:0:0:0:
182,26,104234,1,0,0:0:0:0:
182,26,104350,1,0,0:0:0:0:
182,26,104465,1,8,0:0:0:0:
170,57,104696,1,8,0:0:0:0:
170,57,104926,1,0,0:0:0:0:
170,57,105042,1,0,0:0:0:0:
170,57,105157,1,8,0:0:0:0:
156,49,105388,1,8,0:0:0:0:
156,49,105619,1,0,0:0:0:0:
156,49,105734,1,8,0:0:0:0:
156,49,105850,1,8,0:0:0:0:
161,38,106080,1,0,0:0:0:0:
253,97,106157,1,8,0:0:0:0:
253,97,106234,1,8,0:0:0:0:
161,38,106311,1,0,0:0:0:0:
161,38,106426,1,8,0:0:0:0:
158,40,106542,1,0,0:0:0:0:
168,27,106657,1,8,0:0:0:0:
168,27,106773,1,8,0:0:0:0:
131,76,107465,1,8,0:0:0:0:
131,76,107696,1,0,0:0:0:0:
131,76,107811,1,0,0:0:0:0:
178,42,107926,1,8,0:0:0:0:
178,42,108042,1,0,0:0:0:0:
178,42,108157,1,8,0:0:0:0:
175,49,108388,1,0,0:0:0:0:
175,49,108503,1,0,0:0:0:0:
175,49,108619,1,8,0:0:0:0:
158,65,108850,1,8,0:0:0:0:
158,65,109080,1,0,0:0:0:0:
158,65,109196,1,8,0:0:0:0:
158,65,109311,1,8,0:0:0:0:
174,21,109426,1,0,0:0:0:0:
159,65,109542,1,8,0:0:0:0:
281,84,109619,1,8,0:0:0:0:
281,84,109696,1,8,0:0:0:0:
158,65,109773,1,0,0:0:0:0:
158,65,109888,1,0,0:0:0:0:
158,65,110003,1,8,0:0:0:0:
156,37,110234,1,0,0:0:0:0:
172,42,110465,1,0,0:0:0:0:
172,42,110580,1,8,0:0:0:0:
172,42,110696,1,0,0:0:0:0:
156,52,110926,1,8,0:0:0:0:
147,47,111273,1,0,0:0:0:0:
147,49,111388,1,0,0:0:0:0:
160,74,111619,1,8,0:0:0:0:
141,75,111850,1,0,0:0:0:0:
141,75,111965,1,0,0:0:0:0:
141,75,112311,1,8,0:0:0:0:
159,76,112773,1,0,0:0:0:0:
159,76,112888,1,0,0:0:0:0:
159,76,113003,1,8,0:0:0:0:
161,62,113234,1,0,0:0:0:0:
162,70,113350,1,0,0:0:0:0:
176,70,113465,1,8,0:0:0:0:
162,70,113580,1,0,0:0:0:0:
162,70,113696,1,8,0:0:0:0:
176,30,113926,1,0,0:0:0:0:
176,30,114157,1,8,0:0:0:0:
177,44,114388,1,0,0:0:0:0:
177,44,114619,1,0,0:0:0:0:
178,44,114734,1,8,0:0:0:0:
178,44,114850,1,0,0:0:0:0:
173,38,114965,1,0,0:0:0:0:
169,42,115080,1,8,0:0:0:0:
184,51,115311,1,0,0:0:0:0:
184,52,115542,1,8,0:0:0:0:
170,53,115773,1,8,0:0:0:0:
171,37,115888,1,0,0:0:0:0:
170,53,116003,1,0,0:0:0:0:
170,53,116119,1,0,0:0:0:0:
170,53,116234,1,8,0:0:0:0:
170,53,116465,1,8,0:0:0:0:
171,33,116696,1,0,0:0:0:0:
171,33,116811,1,0,0:0:0:0:
171,33,116926,1,8,0:0:0:0:
171,35,117157,1,0,0:0:0:0:
171,35,117388,1,0,0:0:0:0:
171,35,117503,1,0,0:0:0:0:
171,33,117619,1,8,0:0:0:0:
191,34,117734,1,8,0:0:0:0:
194,29,117850,1,0,0:0:0:0:
176,24,118080,1,8,0:0:0:0:
170,53,118311,1,8,0:0:0:0:
187,52,118542,1,8,0:0:0:0:
185,118,118773,1,0,0:0:0:0:
185,118,118888,1,0,0:0:0:0:
185,118,119003,1,0,0:0:0:0:
185,118,119119,1,0,0:0:0:0:
185,118,119234,1,8,0:0:0:0:
185,118,119465,1,0,0:0:0:0:
185,118,119580,1,0,0:0:0:0:
185,118,119696,1,8,0:0:0:0:
185,118,119811,1,0,0:0:0:0:
185,118,119926,1,8,0:0:0:0:
185,118,120157,1,0,0:0:0:0:
185,118,120273,1,8,0:0:0:0:
185,118,120388,1,8,0:0:0:0:
185,118,120503,1,0,0:0:0:0:
185,118,120619,1,8,0:0:0:0:
185,118,120850,1,0,0:0:0:0:
185,118,120965,1,0,0:0:0:0:
185,118,121080,1,8,0:0:0:0:
185,118,121196,1,0,0:0:0:0:
185,118,121311,1,8,0:0:0:0:
186,132,121542,1,0,0:0:0:0:
186,132,121657,1,8,0:0:0:0:
186,132,121773,1,0,0:0:0:0:
186,132,121888,1,0,0:0:0:0:
186,132,122003,1,8,0:0:0:0:
188,129,122234,1,0,0:0:0:0:
188,129,122350,1,0,0:0:0:0:
186,132,122465,1,8,0:0:0:0:
186,132,122580,1,0,0:0:0:0:
186,132,122696,1,8,0:0:0:0:
186,132,122926,1,0,0:0:0:0:
286,89,123003,1,8,0:0:0:0:
315,69,123080,1,8,0:0:0:0:
188,129,123157,1,0,0:0:0:0:
186,132,123388,1,0,0:0:0:0:
186,132,123619,1,8,0:0:0:0:
186,132,123850,1,8,0:0:0:0:
171,68,124080,1,4,0:0:0:0:
156,181,124311,1,8,0:0:0:0:
161,141,124426,1,0,0:0:0:0:
156,181,124542,1,8,0:0:0:0:
139,140,124773,1,0,0:0:0:0:
139,140,125003,1,8,0:0:0:0:
198,37,125119,1,0,0:0:0:0:
139,140,125234,1,8,0:0:0:0:
163,115,125350,1,8,0:0:0:0:
163,115,125465,1,0,0:0:0:0:
167,91,125696,1,8,0:0:0:0:
167,91,125926,1,8,0:0:0:0:
167,91,126157,1,0,0:0:0:0:
167,91,126388,1,8,0:0:0:0:
178,64,126503,1,0,0:0:0:0:
167,91,126619,1,8,0:0:0:0:
149,65,126850,1,0,0:0:0:0:
181,25,126965,1,0,0:0:0:0:
149,65,127080,1,8,0:0:0:0:
149,65,127311,1,8,0:0:0:0:
152,81,127542,1,0,0:0:0:0:
152,81,127773,1,8,0:0:0:0:
150,87,127888,1,0,0:0:0:0:
152,81,128003,1,8,0:0:0:0:
151,89,128234,1,0,0:0:0:0:
151,89,128465,1,8,0:0:0:0:
151,89,128696,1,8,0:0:0:0:
184,32,128811,1,8,0:0:0:0:
154,120,128926,1,0,0:0:0:0:
154,120,129157,1,8,0:0:0:0:
154,120,129388,1,8,0:0:0:0:
128,128,129619,1,0,0:0:0:0:
160,128,129850,1,8,0:0:0:0:
154,87,129965,1,0,0:0:0:0:
160,128,130080,1,0,0:0:0:0:
232,17,130196,1,0,0:0:0:0:
160,128,130311,1,8,0:0:0:0:
160,128,130542,1,0,0:0:0:0:
192,64,130657,1,8,0:0:0:0:
160,128,130773,1,0,0:0:0:0:
160,128,131003,1,8,0:0:0:0:
160,128,131234,1,0,0:0:0:0:
171,86,131350,1,0,0:0:0:0:
160,128,131465,1,0,0:0:0:0:
160,128,131696,1,8,0:0:0:0:
160,128,131926,1,8,0:0:0:0:
160,64,132042,1,8,0:0:0:0:
160,128,132157,1,0,0:0:0:0:
160,64,132388,1,8,0:0:0:0:
160,64,132619,1,0,0:0:0:0:
192,32,132734,1,8,0:0:0:0:
160,64,132850,1,8,0:0:0:0:
166,79,132965,1,0,0:0:0:0:
160,64,133080,1,8,0:0:0:0:
160,64,133311,1,0,0:0:0:0:
160,64,133426,1,0,0:0:0:0:
160,64,133542,1,8,0:0:0:0:
192,32,133657,1,0,0:0:0:0:
192,32,133773,1,8,0:0:0:0:
160,64,134003,5,8,0:0:0:0:
184,34,134080,1,0,0:0:0:0:
192,32,134157,1,0,0:0:0:0:
160,64,134234,1,8,0:0:0:0:
160,64,134465,1,0,0:0:0:0:
160,64,134696,1,8,0:0:0:0:
160,64,134926,1,8,0:0:0:0:
171,68,135157,1,4,0:0:0:0:
156,181,135388,1,8,0:0:0:0:
161,141,135503,1,0,0:0:0:0:
156,181,135619,1,8,0:0:0:0:
139,140,135850,1,0,0:0:0:0:
139,140,136080,1,8,0:0:0:0:
198,37,136196,1,0,0:0:0:0:
139,140,136311,1,8,0:0:0:0:
163,115,136426,1,8,0:0:0:0:
163,115,136542,1,0,0:0:0:0:
167,91,136773,1,8,0:0:0:0:
167,91,137003,1,8,0:0:0:0:
167,91,137234,1,0,0:0:0:0:
167,91,137465,1,8,0:0:0:0:
178,64,137580,1,0,0:0:0:0:
167,91,137696,1,8,0:0:0:0:
149,65,137926,1,0,0:0:0:0:
181,25,138042,1,0,0:0:0:0:
149,65,138157,1,8,0:0:0:0:
149,65,138388,1,8,0:0:0:0:
152,81,138619,1,0,0:0:0:0:
152,81,138850,1,8,0:0:0:0:
150,87,138965,1,0,0:0:0:0:
152,81,139080,1,8,0:0:0:0:
151,89,139311,1,0,0:0:0:0:
151,89,139542,1,8,0:0:0:0:
151,89,139773,1,8,0:0:0:0:
184,32,139888,1,8,0:0:0:0:
154,120,140003,1,0,0:0:0:0:
202,102,140119,1,0,0:0:0:0:
154,120,140234,1,8,0:0:0:0:
154,120,140465,1,8,0:0:0:0:
128,128,140696,1,0,0:0:0:0:
160,128,140926,1,8,0:0:0:0:
173,22,141042,1,0,0:0:0:0:
160,128,141157,1,0,0:0:0:0:
173,22,141273,1,0,0:0:0:0:
160,128,141388,1,8,0:0:0:0:
160,128,141619,1,0,0:0:0:0:
192,64,141734,1,0,0:0:0:0:
160,128,141850,1,0,0:0:0:0:
160,128,142080,1,8,0:0:0:0:
160,128,142311,1,0,0:0:0:0:
160,128,142542,1,8,0:0:0:0:
160,128,142773,1,0,0:0:0:0:
160,128,143003,1,8,0:0:0:0:
160,64,143119,1,0,0:0:0:0:
160,128,143234,1,8,0:0:0:0:
171,32,143350,1,8,0:0:0:0:
160,64,143465,1,0,0:0:0:0:
160,64,143696,1,8,0:0:0:0:
160,64,143926,1,8,0:0:0:0:
160,64,144157,1,0,0:0:0:0:
160,64,144273,1,0,0:0:0:0:
160,64,144388,1,8,0:0:0:0:
160,64,144503,1,0,0:0:0:0:
160,64,144619,1,8,0:0:0:0:
192,32,144734,1,8,0:0:0:0:
192,32,144850,1,0,0:0:0:0:
160,64,145080,1,8,0:0:0:0:
171,36,145196,1,0,0:0:0:0:
160,64,145311,1,8,0:0:0:0:
160,64,145542,1,0,0:0:0:0:
211,42,145657,1,0,0:0:0:0:
160,64,145773,1,8,0:0:0:0:
160,64,146003,1,8,0:0:0:0:
256,192,146234,12,0,149003,0:0:0:0:
