osu file format v14

[General]
AudioFilename: audio.mp3
AudioLeadIn: 0
PreviewTime: 50696
Countdown: 0
SampleSet: Normal
StackLeniency: 0.7
Mode: 1
LetterboxInBreaks: 0
WidescreenStoryboard: 1

[Editor]
Bookmarks: 2118,17348,28425,47810,53348,75502,97656,119810,125348,147502
DistanceSpacing: 0.8
BeatDivisor: 4
GridSize: 32
TimelineZoom: 1.6

[Metadata]
Title:Gangu Kyou Sou Kyoku -Shuuen-
TitleUnicode:玩具狂奏曲 -終焉-
Artist:Kikuo
ArtistUnicode:きくお
Creator:Ulqui
Version:Futsuu
Source:CHUNITHM AIR
Tags:ALL JUSTICE COLLECTION ep.I WAVE MASTER ウェーブマスター SEGA electronic instrumental
BeatmapID:1936875
BeatmapSetID:927341

[Difficulty]
HPDrainRate:6.5
CircleSize:5
OverallDifficulty:4
ApproachRate:5
SliderMultiplier:1.4
SliderTickRate:1

[Events]
//Background and Video events
0,0,"1.jpg",0,0
//Break Periods
2,96588,106265
//Storyboard Layer 0 (Background)
//Storyboard Layer 1 (Fail)
//Storyboard Layer 2 (Pass)
//Storyboard Layer 3 (Foreground)
//Storyboard Layer 4 (Overlay)
//Storyboard Sound Samples

[TimingPoints]
850,461.538461538462,3,1,0,80,1,0
52080,-100,3,1,0,80,0,1
74234,-100,3,1,0,80,0,0
124080,-100,3,1,0,80,0,1
146234,-100,3,1,0,80,0,0

[HitObjects]
256,192,850,12,0,5003,0:0:0:0:
160,160,5234,5,8,0:0:0:0:
128,160,5465,1,0,0:0:0:0:
128,160,5696,1,8,0:0:0:0:
128,160,5926,1,0,0:0:0:0:
128,160,6388,1,0,0:0:0:0:
160,64,6850,1,8,0:0:0:0:
160,64,8234,1,0,0:0:0:0:
160,64,8465,1,8,0:0:0:0:
160,64,9157,1,8,0:0:0:0:
128,96,10773,1,0,0:0:0:0:
128,96,11003,1,0,0:0:0:0:
128,96,11234,1,8,0:0:0:0:
160,96,11465,1,0,0:0:0:0:
160,96,11926,1,8,0:0:0:0:
160,64,12619,1,8,0:0:0:0:
128,96,13542,1,0,0:0:0:0:
128,96,13773,1,0,0:0:0:0:
128,96,14003,1,0,0:0:0:0:
160,64,14234,1,0,0:0:0:0:
128,96,14696,1,8,0:0:0:0:
160,96,15042,1,8,0:0:0:0:
160,96,15388,1,8,0:0:0:0:
192,32,16080,1,12,0:0:0:0:
160,64,16542,1,0,0:0:0:0:
160,64,16773,1,8,0:0:0:0:
160,64,17234,1,0,0:0:0:0:
160,64,17465,1,8,0:0:0:0:
160,64,17926,1,0,0:0:0:0:
160,64,18157,1,8,0:0:0:0:
192,96,18388,1,0,0:0:0:0:
160,32,18619,1,8,0:0:0:0:
160,32,18850,1,8,0:0:0:0:
160,64,19311,1,0,0:0:0:0:
160,64,19542,1,8,0:0:0:0:
160,64,20003,1,0,0:0:0:0:
160,64,20234,1,8,0:0:0:0:
160,96,20696,1,0,0:0:0:0:
160,96,20926,1,8,0:0:0:0:
192,64,21157,1,0,0:0:0:0:
160,96,21388,1,0,0:0:0:0:
160,96,21619,1,8,0:0:0:0:
160,64,22080,1,0,0:0:0:0:
160,64,22311,1,8,0:0:0:0:
160,64,22773,1,0,0:0:0:0:
160,64,23003,1,8,0:0:0:0:
160,64,23465,1,0,0:0:0:0:
160,64,23696,1,8,0:0:0:0:
192,96,23926,1,0,0:0:0:0:
192,64,24157,1,8,0:0:0:0:
192,64,24388,1,8,0:0:0:0:
192,64,24850,1,0,0:0:0:0:
192,64,25080,1,8,0:0:0:0:
192,64,25542,1,0,0:0:0:0:
192,64,25773,1,8,0:0:0:0:
192,32,26003,1,0,0:0:0:0:
192,64,26465,1,8,0:0:0:0:
224,96,26696,1,0,0:0:0:0:
192,64,26926,1,8,0:0:0:0:
192,64,27157,1,8,0:0:0:0:
160,192,27850,1,4,0:0:0:0:
160,224,28542,1,8,0:0:0:0:
160,128,29234,1,4,0:0:0:0:
160,128,29926,1,8,0:0:0:0:
160,128,30619,1,4,0:0:0:0:
160,128,31311,1,8,0:0:0:0:
160,128,32003,1,4,0:0:0:0:
160,128,32696,1,8,0:0:0:0:
160,128,33388,1,4,0:0:0:0:
160,128,34080,1,8,0:0:0:0:
192,128,34773,1,4,0:0:0:0:
192,128,35465,1,8,0:0:0:0:
192,128,36157,1,4,0:0:0:0:
192,128,36850,1,8,0:0:0:0:
192,128,37542,1,4,0:0:0:0:
192,128,38234,1,0,0:0:0:0:
192,128,38696,1,0,0:0:0:0:
192,128,38926,1,12,0:0:0:0:
192,128,39619,1,0,0:0:0:0:
160,96,40080,1,0,0:0:0:0:
160,96,40311,1,12,0:0:0:0:
160,96,41003,1,0,0:0:0:0:
160,96,41465,1,0,0:0:0:0:
160,96,41696,1,12,0:0:0:0:
160,96,42388,1,0,0:0:0:0:
160,96,42850,1,0,0:0:0:0:
160,96,43080,1,12,0:0:0:0:
160,128,43773,1,0,0:0:0:0:
160,128,44465,1,12,0:0:0:0:
160,128,45157,1,0,0:0:0:0:
160,128,45850,1,12,0:0:0:0:
192,64,46542,1,0,0:0:0:0:
141,43,47926,1,8,0:0:0:0:
141,43,48619,1,8,0:0:0:0:
192,64,49311,1,8,0:0:0:0:
209,63,49773,1,0,0:0:0:0:
192,96,50003,1,8,0:0:0:0:
197,44,50465,1,0,0:0:0:0:
192,96,50696,1,8,0:0:0:0:
192,32,50926,1,0,0:0:0:0:
160,96,51388,1,0,0:0:0:0:
160,96,51619,1,8,0:0:0:0:
160,96,51850,1,8,0:0:0:0:
160,96,52080,1,4,0:0:0:0:
160,96,52542,1,8,0:0:0:0:
160,96,52773,1,0,0:0:0:0:
160,96,53234,1,8,0:0:0:0:
160,96,53465,1,0,0:0:0:0:
160,96,53926,1,8,0:0:0:0:
160,96,54157,1,0,0:0:0:0:
160,96,54619,1,0,0:0:0:0:
160,96,54850,1,8,0:0:0:0:
160,64,55311,1,0,0:0:0:0:
160,64,55542,1,0,0:0:0:0:
172,78,55773,1,8,0:0:0:0:
160,64,56003,1,8,0:0:0:0:
160,64,56234,1,0,0:0:0:0:
160,64,56926,1,8,0:0:0:0:
160,96,57388,1,8,0:0:0:0:
160,96,57619,1,0,0:0:0:0:
160,128,58080,1,0,0:0:0:0:
160,128,58311,1,8,0:0:0:0:
160,128,58773,1,0,0:0:0:0:
160,128,59003,1,8,0:0:0:0:
160,96,59465,1,0,0:0:0:0:
160,96,59696,1,8,0:0:0:0:
160,96,60157,1,8,0:0:0:0:
160,96,60388,1,0,0:0:0:0:
192,96,60850,1,0,0:0:0:0:
192,96,61080,1,0,0:0:0:0:
192,96,61542,1,0,0:0:0:0:
192,96,61773,1,8,0:0:0:0:
192,96,62003,1,8,0:0:0:0:
192,96,62465,1,0,0:0:0:0:
192,32,62696,1,8,0:0:0:0:
192,96,62926,1,8,0:0:0:0:
160,96,63157,5,4,0:0:0:0:
160,96,63619,1,8,0:0:0:0:
160,96,63850,1,0,0:0:0:0:
160,96,64311,1,8,0:0:0:0:
160,96,64542,1,0,0:0:0:0:
160,96,65003,1,8,0:0:0:0:
160,96,65234,1,0,0:0:0:0:
160,96,65696,1,0,0:0:0:0:
160,96,65926,1,8,0:0:0:0:
160,64,66388,1,0,0:0:0:0:
160,64,66619,1,0,0:0:0:0:
178,122,66850,1,8,0:0:0:0:
160,64,67080,1,8,0:0:0:0:
160,64,67311,1,0,0:0:0:0:
160,64,68003,1,8,0:0:0:0:
160,96,68465,1,8,0:0:0:0:
160,96,68696,1,0,0:0:0:0:
160,96,69157,1,0,0:0:0:0:
160,96,69388,1,8,0:0:0:0:
192,96,69850,1,0,0:0:0:0:
192,96,70080,1,8,0:0:0:0:
192,96,70773,1,0,0:0:0:0:
213,84,71003,1,8,0:0:0:0:
160,96,71234,1,8,0:0:0:0:
160,96,71465,1,0,0:0:0:0:
160,96,71926,1,0,0:0:0:0:
160,96,72157,1,0,0:0:0:0:
160,96,72619,1,8,0:0:0:0:
160,96,72850,1,8,0:0:0:0:
160,64,73311,1,8,0:0:0:0:
160,64,73542,1,0,0:0:0:0:
160,64,74003,1,8,0:0:0:0:
160,64,74234,1,4,0:0:0:0:
160,32,75157,1,8,0:0:0:0:
160,96,75619,1,0,0:0:0:0:
160,64,76542,1,8,0:0:0:0:
160,96,77003,1,0,0:0:0:0:
160,64,77926,1,0,0:0:0:0:
160,96,78388,1,0,0:0:0:0:
160,64,79311,1,0,0:0:0:0:
160,96,79773,1,0,0:0:0:0:
192,64,80696,1,8,0:0:0:0:
160,96,81157,1,0,0:0:0:0:
192,64,82080,1,8,0:0:0:0:
160,96,82542,1,0,0:0:0:0:
160,64,83465,1,0,0:0:0:0:
160,96,83926,1,8,0:0:0:0:
192,32,84850,1,8,0:0:0:0:
160,96,85311,1,0,0:0:0:0:
160,96,85657,1,0,0:0:0:0:
160,96,86003,1,8,0:0:0:0:
160,96,86696,1,0,0:0:0:0:
160,96,87042,1,0,0:0:0:0:
160,96,87388,1,8,0:0:0:0:
160,96,88080,1,0,0:0:0:0:
160,96,88426,1,8,0:0:0:0:
160,96,88773,1,8,0:0:0:0:
160,96,89465,1,8,0:0:0:0:
160,96,89811,1,0,0:0:0:0:
160,96,90157,1,8,0:0:0:0:
160,96,90850,1,0,0:0:0:0:
160,96,91196,1,0,0:0:0:0:
160,96,91542,1,8,0:0:0:0:
160,96,92234,1,0,0:0:0:0:
160,96,92580,1,0,0:0:0:0:
160,96,92926,1,8,0:0:0:0:
160,96,93619,1,0,0:0:0:0:
160,96,93965,1,8,0:0:0:0:
160,96,94311,1,8,0:0:0:0:
160,96,95003,1,8,0:0:0:0:
160,96,95350,1,0,0:0:0:0:
160,96,95696,1,8,0:0:0:0:
192,160,96157,1,8,0:0:0:0:
222,120,96388,1,0,0:0:0:0:
192,96,107465,5,0,0:0:0:0:
192,96,107811,1,0,0:0:0:0:
192,96,108157,1,8,0:0:0:0:
192,96,108850,1,0,0:0:0:0:
192,96,109196,1,0,0:0:0:0:
192,96,109542,1,8,0:0:0:0:
192,96,110234,1,0,0:0:0:0:
192,96,110580,1,8,0:0:0:0:
192,96,110926,1,8,0:0:0:0:
192,96,111619,1,8,0:0:0:0:
192,96,111965,1,0,0:0:0:0:
192,96,112311,1,8,0:0:0:0:
192,96,113003,1,0,0:0:0:0:
192,96,113350,1,0,0:0:0:0:
192,96,113696,1,8,0:0:0:0:
192,96,114388,1,0,0:0:0:0:
192,96,114734,1,0,0:0:0:0:
192,96,115080,1,8,0:0:0:0:
192,96,115773,1,0,0:0:0:0:
192,96,116119,1,8,0:0:0:0:
192,96,116465,1,8,0:0:0:0:
192,96,117157,1,8,0:0:0:0:
192,96,117503,1,0,0:0:0:0:
192,128,117850,1,8,0:0:0:0:
160,96,118542,1,8,0:0:0:0:
186,35,119003,1,0,0:0:0:0:
160,96,119234,1,8,0:0:0:0:
186,35,119696,1,0,0:0:0:0:
160,96,119926,1,8,0:0:0:0:
186,35,120388,1,0,0:0:0:0:
160,96,120619,1,8,0:0:0:0:
186,35,121080,1,0,0:0:0:0:
160,96,121311,1,8,0:0:0:0:
186,35,121773,1,0,0:0:0:0:
160,96,122003,1,8,0:0:0:0:
186,35,122465,1,0,0:0:0:0:
160,96,122696,1,8,0:0:0:0:
160,96,122926,1,0,0:0:0:0:
160,96,123388,1,0,0:0:0:0:
160,96,123619,1,8,0:0:0:0:
160,96,123850,1,8,0:0:0:0:
160,96,124080,1,4,0:0:0:0:
160,96,124542,1,8,0:0:0:0:
160,96,124773,1,0,0:0:0:0:
160,96,125234,1,8,0:0:0:0:
160,96,125465,1,0,0:0:0:0:
160,96,125926,1,8,0:0:0:0:
160,96,126157,1,0,0:0:0:0:
160,96,126619,1,0,0:0:0:0:
160,96,126850,1,8,0:0:0:0:
160,64,127311,1,0,0:0:0:0:
160,64,127542,1,0,0:0:0:0:
190,50,127773,1,8,0:0:0:0:
160,64,128003,1,8,0:0:0:0:
160,64,128234,1,0,0:0:0:0:
160,64,128926,1,8,0:0:0:0:
160,96,129388,1,8,0:0:0:0:
160,96,129619,1,0,0:0:0:0:
160,128,130080,1,0,0:0:0:0:
160,128,130311,1,8,0:0:0:0:
160,128,130773,1,0,0:0:0:0:
160,128,131003,1,8,0:0:0:0:
160,96,131465,1,0,0:0:0:0:
160,96,131696,1,8,0:0:0:0:
160,96,132157,1,8,0:0:0:0:
160,96,132388,1,0,0:0:0:0:
192,96,132850,1,0,0:0:0:0:
192,96,133080,1,0,0:0:0:0:
192,96,133542,1,0,0:0:0:0:
192,96,133773,1,8,0:0:0:0:
192,96,134003,1,8,0:0:0:0:
192,96,134465,1,0,0:0:0:0:
192,32,134696,1,8,0:0:0:0:
192,96,134926,1,8,0:0:0:0:
160,96,135157,5,4,0:0:0:0:
160,96,135619,1,8,0:0:0:0:
160,96,135850,1,0,0:0:0:0:
160,96,136311,1,8,0:0:0:0:
160,96,136542,1,0,0:0:0:0:
160,96,137003,1,8,0:0:0:0:
160,96,137234,1,0,0:0:0:0:
160,96,137696,1,0,0:0:0:0:
160,96,137926,1,8,0:0:0:0:
160,64,138388,1,0,0:0:0:0:
160,64,138619,1,0,0:0:0:0:
167,37,138850,1,8,0:0:0:0:
160,64,139080,1,8,0:0:0:0:
160,64,139311,1,0,0:0:0:0:
160,64,140003,1,8,0:0:0:0:
160,96,140465,1,8,0:0:0:0:
160,96,140696,1,0,0:0:0:0:
160,96,141157,1,0,0:0:0:0:
160,96,141388,1,8,0:0:0:0:
192,96,141850,1,0,0:0:0:0:
192,96,142080,1,8,0:0:0:0:
192,96,142773,1,0,0:0:0:0:
221,133,143003,1,8,0:0:0:0:
160,96,143234,1,8,0:0:0:0:
160,96,143465,1,0,0:0:0:0:
160,96,143926,1,0,0:0:0:0:
160,96,144157,1,0,0:0:0:0:
160,96,144619,1,8,0:0:0:0:
160,96,144850,1,8,0:0:0:0:
160,64,145311,1,8,0:0:0:0:
160,64,145542,1,0,0:0:0:0:
160,64,146003,1,8,0:0:0:0:
256,192,146234,12,0,149003,0:0:0:0:
