osu file format v14

[General]
AudioFilename: audio.mp3
AudioLeadIn: 0
PreviewTime: 52387
Countdown: 0
SampleSet: Soft
StackLeniency: 0.7
Mode: 3
LetterboxInBreaks: 0
SpecialStyle: 0
WidescreenStoryboard: 0

[Editor]
DistanceSpacing: 0.8
BeatDivisor: 8
GridSize: 32
TimelineZoom: 1.599999

[Metadata]
Title:Gangu Kyou Sou Kyoku -Shuuen-
TitleUnicode:玩具狂奏曲 -終焉-
Artist:Kikuo
ArtistUnicode:きくお
Creator:Lirai
Version:7K ADVANCED
Source:CHUNITHM AIR
Tags:DE-CADE PLUS ALL JUSTICE COLLECTION ep.I WAVE MASTER ウェーブマスター SEGA electronic instrumental
BeatmapID:2272481
BeatmapSetID:1080799

[Difficulty]
HPDrainRate:7.4
CircleSize:7
OverallDifficulty:7.2
ApproachRate:5
SliderMultiplier:1.4
SliderTickRate:1

[Events]
//Background and Video events
0,0,"BG.jpg",0,0
//Break Periods
//Storyboard Layer 0 (Background)
//Storyboard Layer 1 (Fail)
//Storyboard Layer 2 (Pass)
//Storyboard Layer 3 (Foreground)
//Storyboard Layer 4 (Overlay)
//Storyboard Sound Samples

[TimingPoints]
926,461.538461538462,3,2,1,40,1,0
52156,-100,3,2,1,40,0,1
74310,-100,3,2,1,40,0,0
74541,-100,3,1,1,40,0,0
118387,-100,3,2,1,40,0,0
124156,-100,3,2,1,40,0,1
146310,-100,3,2,1,40,0,0

[HitObjects]
475,192,926,5,2,0:0:0:0:
36,192,926,1,0,0:0:0:0:
256,192,926,128,0,3464:0:0:0:0:
36,192,2310,1,2,0:0:0:0:
475,192,3464,1,2,0:0:0:0:
402,192,3579,1,2,0:0:0:0:
329,192,3695,128,2,5079:0:0:0:0:
182,192,4156,128,2,5079:0:0:0:0:
475,192,5310,1,0,0:0:0:0:
36,192,5310,1,0,0:0:0:0:
182,192,5541,1,0,0:0:0:0:
329,192,5541,1,0,0:0:0:0:
402,192,5772,1,0,0:0:0:0:
109,192,5772,1,0,0:0:0:0:
182,192,6002,1,0,0:0:0:0:
329,192,6002,1,0,0:0:0:0:
475,192,6233,1,0,0:0:0:0:
36,192,6233,1,0,0:0:0:0:
402,192,6464,1,2,0:0:0:0:
109,192,6464,1,4,0:0:0:0:
256,192,6464,128,0,6810:0:0:0:0:
182,192,6810,128,0,7156:0:0:0:0:
109,192,7156,128,0,7502:0:0:0:0:
256,192,7502,128,0,7849:0:0:0:0:
402,192,7849,128,0,8195:0:0:0:0:
182,192,8195,128,0,8541:0:0:0:0:
36,192,8541,128,0,8887:0:0:0:0:
256,192,8541,1,2,0:0:0:0:
329,192,8887,128,0,9233:0:0:0:0:
475,192,9233,128,0,9579:0:0:0:0:
109,192,9233,1,2,0:0:0:0:
256,192,9579,128,0,9926:0:0:0:0:
109,192,9926,128,0,10272:0:0:0:0:
402,192,10272,128,0,10618:0:0:0:0:
182,192,10618,128,0,10964:0:0:0:0:
36,192,10618,128,0,12002:0:0:0:0:
329,192,10964,128,0,11310:0:0:0:0:
109,192,11310,128,0,11656:0:0:0:0:
256,192,11656,128,0,12002:0:0:0:0:
402,192,12002,1,2,0:0:0:0:
182,192,12002,128,0,12349:0:0:0:0:
329,192,12349,128,0,12695:0:0:0:0:
475,192,12695,128,0,13041:0:0:0:0:
256,192,13041,128,0,13387:0:0:0:0:
109,192,13387,128,0,13733:0:0:0:0:
182,192,13733,128,0,14079:0:0:0:0:
256,192,14079,128,0,14426:0:0:0:0:
329,192,14426,128,0,14772:0:0:0:0:
36,192,14772,1,2,0:0:0:0:
182,192,14772,1,8,0:0:0:0:
256,192,15118,1,2,0:0:0:0:
475,192,15118,1,8,0:0:0:0:
256,192,15464,1,2,0:0:0:0:
475,192,15464,1,8,0:0:0:0:
182,192,15926,1,8,0:0:0:0:
256,192,16041,1,8,0:0:0:0:
329,192,16156,1,4,0:0:0:0:
475,192,16156,1,2,0:0:0:0:
36,192,16156,128,0,16387:0:0:0:0:
109,192,16387,128,0,16618:0:0:0:0:
182,192,16618,128,0,16849:0:0:0:0:
402,192,16849,128,0,18695:0:0:0:0:
256,192,16849,1,2,0:0:0:0:
36,192,16849,1,0,0:0:0:0:
256,192,17541,1,2,0:0:0:0:
36,192,17541,1,0,0:0:0:0:
256,192,18233,1,2,0:0:0:0:
36,192,18233,1,0,0:0:0:0:
109,192,18695,128,0,18926:0:0:0:0:
256,192,18926,128,0,20079:0:0:0:0:
475,192,18926,1,2,0:0:0:0:
329,192,18926,1,0,0:0:0:0:
475,192,19618,1,2,0:0:0:0:
329,192,19618,1,0,0:0:0:0:
36,192,20079,128,0,20310:0:0:0:0:
182,192,20310,128,0,21695:0:0:0:0:
402,192,20310,1,2,0:0:0:0:
329,192,20310,1,0,0:0:0:0:
402,192,21002,1,2,0:0:0:0:
329,192,21002,1,0,0:0:0:0:
475,192,21695,128,0,21926:0:0:0:0:
256,192,21695,1,0,0:0:0:0:
36,192,21695,1,2,0:0:0:0:
402,192,21926,128,0,22156:0:0:0:0:
329,192,22156,128,0,22387:0:0:0:0:
475,192,22387,128,0,23541:0:0:0:0:
109,192,22387,1,2,0:0:0:0:
182,192,22387,1,0,0:0:0:0:
182,192,23079,1,0,0:0:0:0:
109,192,23079,1,2,0:0:0:0:
256,192,23541,1,0,0:0:0:0:
329,192,23656,1,0,0:0:0:0:
402,192,23772,1,2,0:0:0:0:
36,192,23772,128,0,24233:0:0:0:0:
182,192,23772,1,0,0:0:0:0:
475,192,24233,1,0,0:0:0:0:
402,192,24349,1,0,0:0:0:0:
329,192,24464,1,2,0:0:0:0:
182,192,24464,128,0,25849:0:0:0:0:
256,192,24464,1,0,0:0:0:0:
329,192,25156,1,2,0:0:0:0:
256,192,25156,1,0,0:0:0:0:
475,192,25849,1,0,0:0:0:0:
36,192,25849,1,0,0:0:0:0:
402,192,26079,1,2,0:0:0:0:
109,192,26079,1,0,0:0:0:0:
182,192,26310,1,2,0:0:0:0:
329,192,26310,1,0,0:0:0:0:
475,192,26541,1,0,0:0:0:0:
36,192,26541,1,0,0:0:0:0:
256,192,26541,1,0,0:0:0:0:
182,192,26772,1,2,0:0:0:0:
329,192,26772,1,0,0:0:0:0:
109,192,27002,1,2,0:0:0:0:
402,192,27002,1,0,0:0:0:0:
36,192,27233,1,4,0:0:0:0:
475,192,27233,1,2,0:0:0:0:
256,192,27233,128,0,27926:0:0:0:40:pianohit.wav
329,192,27926,128,2,28618:0:0:0:0:
109,192,27926,128,0,28618:0:0:0:40:glass.wav
256,192,28618,128,0,29310:0:0:0:40:pianohit.wav
36,192,28618,1,2,0:0:0:0:
402,192,29310,128,2,30002:0:0:0:0:
182,192,29310,128,0,30002:0:0:0:40:glass.wav
256,192,30002,128,0,30695:0:0:0:40:pianohit.wav
36,192,30002,1,2,0:0:0:0:
475,192,30695,128,2,31387:0:0:0:0:
109,192,30695,128,0,31387:0:0:0:40:glass.wav
256,192,31387,128,0,32079:0:0:0:40:pianohit.wav
36,192,31387,1,2,0:0:0:0:
402,192,32079,128,2,32772:0:0:0:0:
36,192,32079,128,0,32772:0:0:0:40:glass.wav
256,192,32772,128,0,33464:0:0:0:40:pianohit.wav
475,192,32772,1,2,0:0:0:0:
109,192,33464,128,2,34156:0:0:0:0:
329,192,33464,128,0,34156:0:0:0:40:glass.wav
256,192,34156,128,0,34849:0:0:0:40:pianohit.wav
475,192,34156,1,2,0:0:0:0:
182,192,34849,128,2,35541:0:0:0:0:
402,192,34849,128,0,35541:0:0:0:40:glass.wav
256,192,35541,128,0,36233:0:0:0:40:pianohit.wav
475,192,35541,1,2,0:0:0:0:
329,192,36233,128,2,36926:0:0:0:0:
36,192,36233,128,0,36926:0:0:0:40:glass.wav
256,192,36926,128,0,37618:0:0:0:40:pianohit.wav
475,192,36926,1,2,0:0:0:0:
402,192,37618,128,2,38310:0:0:0:0:
109,192,37618,128,0,38310:0:0:0:40:glass.wav
182,192,38310,1,0,0:0:0:40:pianohit.wav
329,192,38310,1,2,0:0:0:0:
256,192,38656,1,0,0:0:0:0:
329,192,39002,1,2,0:0:0:0:
475,192,39002,128,0,39695:0:0:0:40:glass.wav
256,192,39349,1,0,0:0:0:0:
182,192,39695,1,0,0:0:0:40:pianohit.wav
36,192,39695,1,2,0:0:0:0:
109,192,40041,1,0,0:0:0:0:
475,192,40387,1,2,0:0:0:0:
182,192,40387,128,0,41079:0:0:0:40:glass.wav
402,192,40733,1,0,0:0:0:0:
36,192,41079,1,0,0:0:0:40:pianohit.wav
329,192,41079,1,2,0:0:0:0:
109,192,41426,1,0,0:0:0:0:
182,192,41772,1,2,0:0:0:0:
402,192,41772,128,0,42464:0:0:0:40:glass.wav
256,192,42118,1,0,0:0:0:0:
109,192,42464,1,0,0:0:0:40:pianohit.wav
329,192,42464,1,0,0:0:0:0:
182,192,42810,1,0,0:0:0:0:
256,192,43156,128,0,43849:0:0:0:40:glass.wav
475,192,43156,1,2,0:0:0:0:
329,192,43502,1,0,0:0:0:0:
182,192,43849,1,0,0:0:0:40:pianohit.wav
36,192,43849,1,2,0:0:0:0:
109,192,44195,1,0,0:0:0:0:
182,192,44541,1,0,0:0:0:0:
402,192,44541,128,0,45233:0:0:0:40:glass.wav
256,192,44887,1,0,0:0:0:0:
329,192,45233,1,0,0:0:0:40:pianohit.wav
109,192,45233,1,0,0:0:0:0:
402,192,45579,1,0,0:0:0:0:
182,192,45926,128,0,46618:0:0:0:40:glass.wav
475,192,45926,128,0,46618:0:0:0:0:
36,192,46618,1,0,0:0:0:0:
256,192,46618,1,0,0:0:0:0:
109,192,46964,1,0,0:0:0:0:
329,192,46964,1,0,0:0:0:0:
182,192,47310,1,0,0:0:0:0:
402,192,47310,1,0,0:0:0:0:
475,192,47656,1,0,0:0:0:0:
256,192,47656,1,0,0:0:0:0:
329,192,48002,1,0,0:0:0:0:
36,192,48002,1,0,0:0:0:0:
256,192,48349,1,0,0:0:0:0:
109,192,48349,1,0,0:0:0:0:
182,192,48695,1,0,0:0:0:0:
329,192,48695,1,0,0:0:0:0:
256,192,49041,1,0,0:0:0:0:
402,192,49041,1,0,0:0:0:0:
475,192,49387,1,8,0:0:0:0:
36,192,49387,1,0,0:0:0:0:
182,192,49618,1,0,0:0:0:0:
256,192,49733,1,0,0:0:0:0:
329,192,49849,1,0,0:0:0:0:
402,192,49964,1,0,0:0:0:0:
109,192,50079,1,8,0:0:0:0:
475,192,50079,1,0,0:0:0:0:
36,192,50310,1,0,0:0:0:0:
182,192,50426,1,0,0:0:0:0:
402,192,50541,1,0,0:0:0:0:
256,192,50656,1,0,0:0:0:0:
475,192,50772,1,0,0:0:0:0:
36,192,50772,128,0,51002:0:0:0:0:
109,192,51002,128,0,51233:0:0:0:0:
402,192,51002,1,0,0:0:0:0:
329,192,51233,1,0,0:0:0:0:
182,192,51233,128,0,51464:0:0:0:0:
402,192,51464,1,0,0:0:0:0:
109,192,51464,128,0,51695:0:0:0:0:
256,192,51695,1,8,0:0:0:0:
36,192,51695,1,0,0:0:0:0:
329,192,51926,1,8,0:0:0:0:
109,192,51926,1,0,0:0:0:0:
36,192,52156,128,0,52849:0:0:0:0:
402,192,52156,1,4,0:0:0:0:
182,192,52156,1,2,0:0:0:0:
475,192,52387,1,8,0:0:0:0:
329,192,52387,1,0,0:0:0:0:
475,192,52618,1,8,0:0:0:0:
329,192,52618,1,0,0:0:0:0:
256,192,52849,1,2,0:0:0:0:
109,192,52849,1,0,0:0:0:0:
402,192,53079,1,8,0:0:0:0:
182,192,53079,1,0,0:0:0:0:
329,192,53310,1,8,0:0:0:0:
109,192,53310,1,0,0:0:0:0:
256,192,53541,1,2,0:0:0:0:
475,192,53541,128,0,54233:0:0:0:0:
182,192,53772,1,8,0:0:0:0:
36,192,53772,1,0,0:0:0:0:
36,192,54002,1,8,0:0:0:0:
182,192,54002,1,0,0:0:0:0:
256,192,54233,1,2,0:0:0:0:
402,192,54233,1,0,0:0:0:0:
329,192,54464,1,8,0:0:0:0:
109,192,54464,1,0,0:0:0:0:
182,192,54695,1,8,0:0:0:0:
402,192,54695,1,0,0:0:0:0:
475,192,54926,1,2,0:0:0:0:
256,192,54926,128,0,55387:0:0:0:0:
402,192,55156,1,8,0:0:0:0:
182,192,55156,1,0,0:0:0:0:
329,192,55387,1,8,0:0:0:0:
109,192,55387,1,0,0:0:0:0:
256,192,55618,1,2,0:0:0:0:
36,192,55618,128,0,56079:0:0:0:0:
182,192,55849,1,8,0:0:0:0:
329,192,55849,1,0,0:0:0:0:
402,192,56079,1,8,0:0:0:0:
256,192,56079,1,0,0:0:0:0:
475,192,56310,128,0,57002:0:0:0:0:
329,192,56310,1,2,0:0:0:0:
182,192,56541,1,8,0:0:0:0:
109,192,56541,1,0,0:0:0:0:
109,192,56772,1,8,0:0:0:0:
182,192,56772,1,0,0:0:0:0:
329,192,57002,1,2,0:0:0:0:
256,192,57002,1,0,0:0:0:0:
109,192,57233,1,8,0:0:0:0:
36,192,57233,128,0,57695:0:0:0:0:
402,192,57464,1,8,0:0:0:0:
329,192,57464,1,0,0:0:0:0:
256,192,57695,1,2,0:0:0:0:
182,192,57695,1,0,0:0:0:0:
329,192,57926,1,8,0:0:0:0:
475,192,57926,1,0,0:0:0:0:
402,192,58156,1,8,0:0:0:0:
109,192,58156,1,0,0:0:0:0:
329,192,58387,1,2,0:0:0:0:
182,192,58387,1,0,0:0:0:0:
256,192,58618,1,8,0:0:0:0:
36,192,58618,1,0,0:0:0:0:
402,192,58849,1,8,0:0:0:0:
182,192,58849,1,0,0:0:0:0:
36,192,59079,128,0,59541:0:0:0:0:
329,192,59079,1,2,0:0:0:0:
256,192,59310,1,8,0:0:0:0:
475,192,59310,1,0,0:0:0:0:
182,192,59541,1,8,0:0:0:0:
402,192,59541,1,0,0:0:0:0:
109,192,59772,1,2,0:0:0:0:
329,192,59772,128,0,60002:0:0:0:0:
256,192,60002,1,8,0:0:0:0:
36,192,60002,1,0,0:0:0:0:
329,192,60233,1,8,0:0:0:0:
109,192,60233,1,0,0:0:0:0:
182,192,60464,1,2,0:0:0:0:
402,192,60464,128,0,60695:0:0:0:0:
36,192,60695,1,8,0:0:0:0:
109,192,60810,1,0,0:0:0:0:
182,192,60926,1,8,0:0:0:0:
329,192,60926,1,0,0:0:0:0:
256,192,61156,1,2,0:0:0:0:
475,192,61156,128,0,61387:0:0:0:0:
36,192,61387,1,8,0:0:0:0:
109,192,61502,1,0,0:0:0:0:
182,192,61618,1,8,0:0:0:0:
256,192,61733,1,0,0:0:0:0:
329,192,61849,1,0,0:0:0:0:
475,192,61849,128,2,62079:0:0:0:0:
182,192,62079,1,0,0:0:0:0:
402,192,62079,128,2,62310:0:0:0:0:
329,192,62310,128,2,62541:0:0:0:0:
36,192,62310,1,0,0:0:0:0:
256,192,62541,128,2,62772:0:0:0:0:
109,192,62541,1,0,0:0:0:0:
182,192,62772,1,8,0:0:0:0:
402,192,62772,1,0,0:0:0:0:
256,192,63002,1,8,0:0:0:0:
475,192,63002,1,0,0:0:0:0:
182,192,63233,1,2,0:0:0:0:
36,192,63233,128,0,63926:0:0:0:0:
402,192,63233,1,4,0:0:0:0:
256,192,63464,1,8,0:0:0:0:
329,192,63464,1,0,0:0:0:0:
329,192,63695,1,8,0:0:0:0:
256,192,63695,1,0,0:0:0:0:
182,192,63926,1,2,0:0:0:0:
475,192,63926,1,0,0:0:0:0:
256,192,64156,1,8,0:0:0:0:
402,192,64156,1,0,0:0:0:0:
182,192,64387,1,8,0:0:0:0:
329,192,64387,1,0,0:0:0:0:
109,192,64618,128,0,65310:0:0:0:0:
256,192,64618,1,2,0:0:0:0:
475,192,64849,1,8,0:0:0:0:
329,192,64849,1,0,0:0:0:0:
475,192,65079,1,8,0:0:0:0:
329,192,65079,1,0,0:0:0:0:
256,192,65310,1,2,0:0:0:0:
36,192,65310,1,0,0:0:0:0:
329,192,65541,1,8,0:0:0:0:
109,192,65541,1,0,0:0:0:0:
402,192,65772,1,8,0:0:0:0:
182,192,65772,1,0,0:0:0:0:
475,192,66002,128,0,66233:0:0:0:0:
256,192,66002,1,2,0:0:0:0:
109,192,66233,1,8,0:0:0:0:
329,192,66233,1,0,0:0:0:0:
256,192,66464,1,8,0:0:0:0:
36,192,66464,1,0,0:0:0:0:
109,192,66695,128,0,66926:0:0:0:0:
329,192,66695,1,2,0:0:0:0:
256,192,66926,1,8,0:0:0:0:
402,192,66926,1,0,0:0:0:0:
329,192,67156,1,8,0:0:0:0:
475,192,67156,1,0,0:0:0:0:
182,192,67387,1,2,0:0:0:0:
36,192,67387,128,0,68079:0:0:0:0:
329,192,67618,1,8,0:0:0:0:
475,192,67618,1,0,0:0:0:0:
475,192,67849,1,8,0:0:0:0:
329,192,67849,1,0,0:0:0:0:
256,192,68079,1,2,0:0:0:0:
402,192,68079,1,0,0:0:0:0:
329,192,68310,128,0,68772:0:0:0:0:
182,192,68310,1,8,0:0:0:0:
109,192,68541,1,8,0:0:0:0:
256,192,68541,1,0,0:0:0:0:
475,192,68772,1,2,0:0:0:0:
36,192,68772,1,0,0:0:0:0:
109,192,69002,1,8,0:0:0:0:
402,192,69002,1,0,0:0:0:0:
182,192,69233,1,8,0:0:0:0:
329,192,69233,1,0,0:0:0:0:
402,192,69464,1,2,0:0:0:0:
36,192,69464,1,0,0:0:0:0:
475,192,69695,1,8,0:0:0:0:
109,192,69695,1,0,0:0:0:0:
402,192,69926,1,8,0:0:0:0:
182,192,69926,1,0,0:0:0:0:
256,192,70156,1,2,0:0:0:0:
329,192,70156,128,0,70849:0:0:0:0:
36,192,70387,1,8,0:0:0:0:
109,192,70387,1,0,0:0:0:0:
109,192,70618,1,8,0:0:0:0:
36,192,70618,1,0,0:0:0:0:
256,192,70849,1,2,0:0:0:0:
475,192,70849,1,0,0:0:0:0:
402,192,71079,1,8,0:0:0:0:
182,192,71079,1,0,0:0:0:0:
109,192,71310,1,8,0:0:0:0:
329,192,71310,1,0,0:0:0:0:
36,192,71541,128,0,72233:0:0:0:0:
256,192,71541,1,2,0:0:0:0:
475,192,71772,1,8,0:0:0:0:
402,192,71772,1,0,0:0:0:0:
402,192,72002,1,8,0:0:0:0:
475,192,72002,1,0,0:0:0:0:
256,192,72233,1,2,0:0:0:0:
109,192,72233,1,0,0:0:0:0:
329,192,72349,1,0,0:0:0:0:
402,192,72464,1,8,0:0:0:0:
475,192,72579,1,0,0:0:0:0:
402,192,72695,1,8,0:0:0:0:
329,192,72810,1,0,0:0:0:0:
256,192,72926,128,0,74310:0:0:0:0:
36,192,72926,1,2,0:0:0:0:
109,192,73156,1,8,0:0:0:0:
182,192,73156,1,0,0:0:0:0:
109,192,73387,1,8,0:0:0:0:
182,192,73387,1,0,0:0:0:0:
475,192,73618,1,2,0:0:0:0:
36,192,73618,1,0,0:0:0:0:
402,192,73849,1,8,0:0:0:0:
329,192,73849,1,0,0:0:0:0:
402,192,74079,1,8,0:0:0:0:
329,192,74079,1,0,0:0:0:0:
475,192,74310,1,2,0:0:0:0:
36,192,74310,1,4,0:0:0:0:
182,192,74310,1,0,0:0:0:0:
402,192,74656,1,0,0:0:0:0:
109,192,74656,1,0,0:0:0:0:
329,192,74887,1,0,0:0:0:0:
182,192,75002,1,0,0:0:0:40:glass.wav
402,192,75233,1,0,0:0:0:0:
109,192,75233,1,0,0:0:0:0:
329,192,75579,1,0,0:0:0:0:
182,192,75695,1,0,0:0:0:0:
475,192,76041,1,0,0:0:0:0:
256,192,76041,1,0,0:0:0:0:
36,192,76272,1,0,0:0:0:0:
182,192,76387,1,0,0:0:0:40:glass.wav
475,192,76618,1,0,0:0:0:0:
256,192,76618,1,0,0:0:0:0:
402,192,76849,1,0,0:0:0:0:
256,192,76964,1,0,0:0:0:0:
182,192,77079,1,0,0:0:0:0:
36,192,77195,1,0,0:0:0:0:
329,192,77426,1,0,0:0:0:0:
109,192,77426,1,0,0:0:0:0:
402,192,77656,1,0,0:0:0:0:
256,192,77772,1,0,0:0:0:40:glass.wav
329,192,78002,1,0,0:0:0:0:
109,192,78002,1,0,0:0:0:0:
182,192,78233,1,0,0:0:0:0:
256,192,78349,1,0,0:0:0:0:
329,192,78464,1,0,0:0:0:0:
402,192,78579,1,0,0:0:0:0:
256,192,78810,1,0,0:0:0:0:
36,192,78810,1,0,0:0:0:0:
182,192,79041,1,0,0:0:0:0:
329,192,79156,1,0,0:0:0:40:glass.wav
256,192,79387,1,0,0:0:0:0:
36,192,79387,1,0,0:0:0:0:
402,192,79618,1,0,0:0:0:0:
329,192,79733,1,0,0:0:0:0:
182,192,79849,1,0,0:0:0:0:
109,192,79964,1,0,0:0:0:0:
256,192,80195,1,0,0:0:0:0:
475,192,80195,1,0,0:0:0:0:
36,192,80426,1,0,0:0:0:0:
182,192,80541,1,0,0:0:0:40:glass.wav
475,192,80772,1,0,0:0:0:0:
256,192,80772,1,0,0:0:0:0:
36,192,81002,1,0,0:0:0:0:
182,192,81118,1,0,0:0:0:0:
256,192,81233,1,0,0:0:0:0:
402,192,81349,1,0,0:0:0:0:
329,192,81579,1,0,0:0:0:0:
109,192,81579,1,0,0:0:0:0:
256,192,81810,1,0,0:0:0:0:
475,192,81926,1,0,0:0:0:40:glass.wav
329,192,82156,1,0,0:0:0:0:
109,192,82156,1,0,0:0:0:0:
182,192,82387,1,0,0:0:0:0:
256,192,82502,1,0,0:0:0:0:
329,192,82618,1,0,0:0:0:0:
402,192,82733,1,0,0:0:0:0:
182,192,82964,1,0,0:0:0:0:
475,192,82964,1,0,0:0:0:0:
329,192,83195,1,0,0:0:0:0:
36,192,83310,1,0,0:0:0:40:glass.wav
182,192,83541,1,0,0:0:0:0:
475,192,83541,1,0,0:0:0:0:
109,192,83772,1,0,0:0:0:0:
182,192,83887,1,0,0:0:0:0:
256,192,84002,1,0,0:0:0:0:
329,192,84118,1,0,0:0:0:0:
182,192,84349,1,0,0:0:0:0:
36,192,84349,1,0,0:0:0:0:
329,192,84579,1,0,0:0:0:0:
256,192,84695,1,0,0:0:0:40:glass.wav
182,192,84926,1,0,0:0:0:0:
36,192,84926,1,0,0:0:0:0:
402,192,85156,1,0,0:0:0:0:
329,192,85272,1,0,0:0:0:0:
256,192,85387,1,2,0:0:0:0:
36,192,85387,1,0,0:0:0:0:
182,192,85502,1,0,0:0:0:0:
475,192,85733,128,0,86079:0:0:0:0:
329,192,85733,1,2,0:0:0:0:
36,192,85964,1,0,0:0:0:0:
182,192,86079,1,0,0:0:0:40:glass.wav
402,192,86079,1,8,0:0:0:0:
109,192,86310,1,0,0:0:0:0:
329,192,86310,1,0,0:0:0:0:
256,192,86541,1,0,0:0:0:0:
329,192,86656,1,0,0:0:0:0:
402,192,86772,1,2,0:0:0:0:
182,192,86772,1,0,0:0:0:0:
475,192,86887,1,0,0:0:0:0:
256,192,87118,1,2,0:0:0:0:
36,192,87118,128,0,87464:0:0:0:0:
402,192,87349,1,0,0:0:0:0:
182,192,87464,1,0,0:0:0:40:glass.wav
329,192,87464,1,8,0:0:0:0:
475,192,87695,1,0,0:0:0:0:
256,192,87695,1,0,0:0:0:0:
36,192,87926,1,0,0:0:0:0:
109,192,88041,1,0,0:0:0:0:
182,192,88156,1,2,0:0:0:0:
329,192,88156,1,0,0:0:0:0:
256,192,88272,1,0,0:0:0:0:
182,192,88502,1,2,0:0:0:0:
402,192,88502,128,0,88849:0:0:0:0:
109,192,88733,1,0,0:0:0:0:
256,192,88849,1,0,0:0:0:40:glass.wav
329,192,88849,1,8,0:0:0:0:
36,192,89079,1,0,0:0:0:0:
475,192,89079,1,0,0:0:0:0:
182,192,89310,1,0,0:0:0:0:
329,192,89426,1,0,0:0:0:0:
402,192,89541,1,2,0:0:0:0:
109,192,89541,1,0,0:0:0:0:
475,192,89656,1,0,0:0:0:0:
256,192,89887,1,2,0:0:0:0:
36,192,89887,128,0,90233:0:0:0:0:
182,192,90118,1,0,0:0:0:0:
329,192,90233,1,0,0:0:0:40:glass.wav
475,192,90233,1,8,0:0:0:0:
109,192,90464,1,0,0:0:0:0:
402,192,90464,1,0,0:0:0:0:
329,192,90695,1,0,0:0:0:0:
256,192,90810,1,0,0:0:0:0:
182,192,90926,1,2,0:0:0:0:
475,192,90926,1,0,0:0:0:0:
109,192,91041,1,0,0:0:0:0:
402,192,91272,128,0,91618:0:0:0:0:
256,192,91272,1,2,0:0:0:0:
109,192,91502,1,0,0:0:0:0:
329,192,91618,1,0,0:0:0:40:glass.wav
182,192,91618,1,8,0:0:0:0:
256,192,91849,1,0,0:0:0:0:
36,192,91849,1,0,0:0:0:0:
402,192,92079,1,0,0:0:0:0:
329,192,92195,1,0,0:0:0:0:
256,192,92310,1,2,0:0:0:0:
36,192,92310,1,0,0:0:0:0:
182,192,92426,1,0,0:0:0:0:
475,192,92656,128,0,93002:0:0:0:0:
109,192,92656,1,2,0:0:0:0:
329,192,92887,1,0,0:0:0:0:
182,192,93002,1,0,0:0:0:40:glass.wav
402,192,93002,1,8,0:0:0:0:
256,192,93233,1,0,0:0:0:0:
36,192,93233,1,0,0:0:0:0:
402,192,93464,1,0,0:0:0:0:
329,192,93579,1,0,0:0:0:0:
182,192,93695,1,2,0:0:0:0:
256,192,93695,1,0,0:0:0:0:
109,192,93810,1,0,0:0:0:0:
475,192,94041,1,2,0:0:0:0:
256,192,94041,128,0,94387:0:0:0:0:
402,192,94272,1,0,0:0:0:0:
182,192,94387,1,0,0:0:0:40:glass.wav
36,192,94387,1,8,0:0:0:0:
329,192,94618,1,0,0:0:0:0:
109,192,94618,1,0,0:0:0:0:
36,192,94849,1,0,0:0:0:0:
109,192,94964,1,0,0:0:0:0:
182,192,95079,1,2,0:0:0:0:
402,192,95079,1,0,0:0:0:0:
256,192,95195,1,0,0:0:0:0:
329,192,95426,5,2,0:0:0:0:
475,192,95426,128,0,95772:0:0:0:0:
109,192,95656,1,0,0:0:0:0:
256,192,95772,1,0,0:0:0:40:glass.wav
402,192,95772,1,8,0:0:0:0:
182,192,96002,1,0,0:0:0:0:
36,192,96002,1,0,0:0:0:0:
329,192,96233,1,0,0:0:0:0:
182,192,96349,1,0,0:0:0:0:
36,192,96464,128,0,96695:0:0:0:0:
329,192,96695,1,0,0:0:0:0:
329,192,96926,1,0,0:0:0:0:
109,192,97156,128,0,97387:0:0:0:0:
402,192,97387,1,0,0:0:0:0:
402,192,97618,1,0,0:0:0:0:
182,192,97849,128,0,98079:0:0:0:0:
475,192,98079,1,0,0:0:0:0:
475,192,98310,1,0,0:0:0:0:
256,192,98541,128,0,98772:0:0:0:0:
36,192,98772,1,0,0:0:0:0:
36,192,99002,1,0,0:0:0:0:
329,192,99233,128,0,99464:0:0:0:0:
109,192,99464,1,0,0:0:0:0:
109,192,99695,1,0,0:0:0:0:
402,192,99926,128,0,100156:0:0:0:0:
182,192,100156,1,0,0:0:0:0:
182,192,100387,1,0,0:0:0:0:
475,192,100618,128,0,100849:0:0:0:0:
36,192,100618,128,0,101541:0:0:0:0:
256,192,100849,1,0,0:0:0:0:
256,192,101079,1,0,0:0:0:0:
402,192,101310,128,0,101541:0:0:0:0:
182,192,101541,1,0,0:0:0:0:
182,192,101772,1,0,0:0:0:0:
329,192,102002,128,0,102233:0:0:0:0:
109,192,102233,1,0,0:0:0:0:
109,192,102464,1,0,0:0:0:0:
256,192,102695,128,0,102926:0:0:0:0:
475,192,102926,1,0,0:0:0:0:
475,192,103156,1,0,0:0:0:0:
182,192,103387,128,0,103618:0:0:0:0:
402,192,103618,1,0,0:0:0:0:
402,192,103849,1,0,0:0:0:0:
109,192,104079,128,0,104310:0:0:0:0:
329,192,104310,1,0,0:0:0:0:
329,192,104541,1,0,0:0:0:0:
36,192,104772,128,0,105002:0:0:0:0:
256,192,105002,1,0,0:0:0:0:
256,192,105233,1,0,0:0:0:0:
402,192,105464,128,0,105695:0:0:0:0:
182,192,105695,1,0,0:0:0:0:
182,192,105926,1,0,0:0:0:0:
329,192,106156,128,0,106387:0:0:0:0:
109,192,106387,5,0,0:0:0:0:
109,192,106618,1,0,0:0:0:0:
182,192,106849,128,0,107541:0:0:0:0:
475,192,106849,128,0,107079:0:0:0:0:
329,192,107079,1,0,0:0:0:0:
329,192,107310,1,0,0:0:0:0:
402,192,107541,5,2,0:0:0:0:
36,192,107541,1,0,0:0:0:0:
109,192,107656,1,0,0:0:0:0:
182,192,107772,1,0,0:0:0:0:
256,192,107887,1,2,0:0:0:0:
475,192,108002,1,0,0:0:0:0:
402,192,108118,1,0,0:0:0:0:
329,192,108233,1,0,0:0:0:40:glass.wav
36,192,108349,1,0,0:0:0:0:
109,192,108464,1,0,0:0:0:0:
182,192,108579,1,0,0:0:0:0:
402,192,108695,1,0,0:0:0:0:
329,192,108810,1,0,0:0:0:0:
256,192,108926,1,2,0:0:0:0:
36,192,109041,1,0,0:0:0:0:
109,192,109156,1,0,0:0:0:0:
182,192,109272,1,2,0:0:0:0:
402,192,109387,1,0,0:0:0:0:
329,192,109502,1,0,0:0:0:0:
256,192,109618,128,0,109849:0:0:0:40:glass.wav
475,192,109849,1,0,0:0:0:0:
402,192,109964,1,0,0:0:0:0:
329,192,110079,1,0,0:0:0:0:
256,192,110195,1,0,0:0:0:0:
182,192,110310,1,2,0:0:0:0:
36,192,110426,1,0,0:0:0:0:
109,192,110541,1,0,0:0:0:0:
182,192,110656,1,2,0:0:0:0:
256,192,110772,1,0,0:0:0:0:
329,192,110887,1,0,0:0:0:0:
182,192,111002,128,0,111349:0:0:0:40:glass.wav
475,192,111349,1,0,0:0:0:0:
329,192,111464,128,0,111695:0:0:0:0:
256,192,111695,128,2,112618:0:0:0:0:
109,192,112041,1,2,0:0:0:0:
36,192,112387,1,0,0:0:0:40:glass.wav
182,192,112618,1,0,0:0:0:0:
402,192,112849,1,0,0:0:0:0:
329,192,112964,1,0,0:0:0:0:
256,192,113079,1,2,0:0:0:0:
182,192,113195,1,0,0:0:0:0:
256,192,113310,1,0,0:0:0:0:
329,192,113426,1,2,0:0:0:0:
402,192,113541,1,0,0:0:0:0:
109,192,113656,1,0,0:0:0:0:
182,192,113772,1,0,0:0:0:40:glass.wav
256,192,113887,1,0,0:0:0:0:
329,192,114002,1,0,0:0:0:0:
256,192,114118,1,0,0:0:0:0:
182,192,114233,1,0,0:0:0:0:
109,192,114349,1,0,0:0:0:0:
475,192,114464,1,2,0:0:0:0:
402,192,114579,1,0,0:0:0:0:
329,192,114695,1,0,0:0:0:0:
256,192,114810,1,2,0:0:0:0:
329,192,114926,1,0,0:0:0:0:
402,192,115041,1,0,0:0:0:0:
475,192,115156,1,0,0:0:0:40:glass.wav
36,192,115272,1,0,0:0:0:0:
109,192,115387,1,0,0:0:0:0:
182,192,115502,1,0,0:0:0:0:
256,192,115618,1,0,0:0:0:0:
329,192,115733,1,0,0:0:0:0:
402,192,115849,1,2,0:0:0:0:
329,192,115964,1,0,0:0:0:0:
256,192,116079,1,0,0:0:0:0:
182,192,116195,1,2,0:0:0:0:
109,192,116310,1,0,0:0:0:0:
475,192,116426,1,0,0:0:0:0:
402,192,116541,1,0,0:0:0:40:glass.wav
329,192,116656,1,0,0:0:0:0:
256,192,116772,1,0,0:0:0:0:
329,192,116887,1,0,0:0:0:0:
402,192,117002,1,0,0:0:0:0:
475,192,117118,1,0,0:0:0:0:
36,192,117233,1,2,0:0:0:0:
109,192,117349,1,0,0:0:0:0:
182,192,117464,1,0,0:0:0:0:
256,192,117579,1,2,0:0:0:0:
329,192,117695,1,0,0:0:0:0:
402,192,117810,1,0,0:0:0:0:
475,192,117926,128,0,118618:0:0:0:40:glass.wav
329,192,118618,1,8,0:0:0:0:
36,192,118618,1,0,0:0:0:0:
182,192,118849,1,0,0:0:0:0:
256,192,118964,1,0,0:0:0:0:
329,192,119079,1,0,0:0:0:0:
402,192,119195,1,0,0:0:0:0:
182,192,119310,1,8,0:0:0:0:
475,192,119310,1,0,0:0:0:0:
329,192,119541,1,0,0:0:0:0:
256,192,119656,1,0,0:0:0:0:
182,192,119772,1,0,0:0:0:0:
109,192,119887,1,0,0:0:0:0:
36,192,120002,1,8,0:0:0:0:
329,192,120002,1,0,0:0:0:0:
182,192,120233,1,0,0:0:0:0:
256,192,120349,1,0,0:0:0:0:
329,192,120464,1,0,0:0:0:0:
402,192,120579,1,0,0:0:0:0:
475,192,120695,1,8,0:0:0:0:
182,192,120695,1,0,0:0:0:0:
329,192,120926,1,0,0:0:0:0:
256,192,121041,1,0,0:0:0:0:
182,192,121156,1,0,0:0:0:0:
109,192,121272,1,0,0:0:0:0:
36,192,121387,1,8,0:0:0:0:
329,192,121387,1,0,0:0:0:0:
475,192,121618,1,0,0:0:0:0:
402,192,121733,1,0,0:0:0:0:
329,192,121849,1,0,0:0:0:0:
256,192,121964,1,0,0:0:0:0:
182,192,122079,1,8,0:0:0:0:
36,192,122079,1,0,0:0:0:0:
475,192,122310,1,0,0:0:0:0:
402,192,122426,1,0,0:0:0:0:
329,192,122541,1,0,0:0:0:0:
402,192,122656,1,0,0:0:0:0:
475,192,122772,1,0,0:0:0:0:
36,192,122772,128,0,123002:0:0:0:0:
402,192,123002,5,0,0:0:0:0:
109,192,123002,128,0,123233:0:0:0:0:
182,192,123233,128,0,123464:0:0:0:0:
329,192,123233,1,0,0:0:0:0:
475,192,123464,1,0,0:0:0:0:
36,192,123464,128,0,123695:0:0:0:0:
329,192,123695,1,8,0:0:0:0:
182,192,123695,1,0,0:0:0:0:
109,192,123926,1,0,0:0:0:0:
256,192,123926,1,8,0:0:0:0:
182,192,124156,1,2,0:0:0:0:
475,192,124156,128,0,124849:0:0:0:0:
36,192,124156,1,4,0:0:0:0:
329,192,124387,1,8,0:0:0:0:
256,192,124387,1,0,0:0:0:0:
329,192,124618,1,8,0:0:0:0:
256,192,124618,1,0,0:0:0:0:
36,192,124849,1,2,0:0:0:0:
182,192,124849,1,0,0:0:0:0:
109,192,125079,1,8,0:0:0:0:
329,192,125079,1,0,0:0:0:0:
182,192,125310,1,8,0:0:0:0:
402,192,125310,1,0,0:0:0:0:
256,192,125541,1,2,0:0:0:0:
475,192,125541,128,0,126233:0:0:0:0:
36,192,125772,1,8,0:0:0:0:
109,192,125772,1,0,0:0:0:0:
109,192,126002,1,8,0:0:0:0:
36,192,126002,1,0,0:0:0:0:
256,192,126233,1,2,0:0:0:0:
402,192,126233,1,0,0:0:0:0:
109,192,126464,1,8,0:0:0:0:
182,192,126464,1,0,0:0:0:0:
329,192,126695,1,8,0:0:0:0:
256,192,126695,1,0,0:0:0:0:
475,192,126926,128,0,127387:0:0:0:0:
36,192,126926,1,2,0:0:0:0:
109,192,127156,1,8,0:0:0:0:
256,192,127156,1,0,0:0:0:0:
182,192,127387,1,8,0:0:0:0:
329,192,127387,1,0,0:0:0:0:
256,192,127618,128,0,128079:0:0:0:0:
36,192,127618,1,2,0:0:0:0:
109,192,127849,1,8,0:0:0:0:
402,192,127849,1,0,0:0:0:0:
182,192,128079,1,8,0:0:0:0:
329,192,128079,1,0,0:0:0:0:
256,192,128310,1,2,0:0:0:0:
36,192,128310,128,0,129002:0:0:0:0:
329,192,128541,1,8,0:0:0:0:
475,192,128541,1,0,0:0:0:0:
475,192,128772,1,8,0:0:0:0:
329,192,128772,1,0,0:0:0:0:
256,192,129002,1,2,0:0:0:0:
109,192,129002,1,0,0:0:0:0:
475,192,129233,128,0,129695:0:0:0:0:
329,192,129233,1,8,0:0:0:0:
256,192,129464,1,8,0:0:0:0:
109,192,129464,1,0,0:0:0:0:
182,192,129695,1,2,0:0:0:0:
36,192,129695,1,0,0:0:0:0:
402,192,129926,1,8,0:0:0:0:
329,192,129926,1,0,0:0:0:0:
182,192,130156,1,8,0:0:0:0:
256,192,130156,1,0,0:0:0:0:
36,192,130387,1,2,0:0:0:0:
475,192,130387,1,0,0:0:0:0:
109,192,130618,1,8,0:0:0:0:
182,192,130618,1,0,0:0:0:0:
329,192,130849,1,8,0:0:0:0:
256,192,130849,1,0,0:0:0:0:
36,192,131079,1,2,0:0:0:0:
475,192,131079,128,0,131541:0:0:0:0:
109,192,131310,1,8,0:0:0:0:
182,192,131310,1,0,0:0:0:0:
402,192,131541,1,8,0:0:0:0:
256,192,131541,1,0,0:0:0:0:
36,192,131772,128,0,132002:0:0:0:0:
109,192,131772,1,2,0:0:0:0:
402,192,132002,1,8,0:0:0:0:
329,192,132002,1,0,0:0:0:0:
182,192,132233,1,8,0:0:0:0:
256,192,132233,1,0,0:0:0:0:
475,192,132464,128,0,132695:0:0:0:0:
36,192,132464,1,2,0:0:0:0:
109,192,132695,1,8,0:0:0:0:
182,192,132810,1,0,0:0:0:0:
329,192,132926,1,8,0:0:0:0:
256,192,132926,1,0,0:0:0:0:
402,192,133156,128,0,133387:0:0:0:0:
36,192,133156,1,2,0:0:0:0:
182,192,133387,1,8,0:0:0:0:
109,192,133502,1,0,0:0:0:0:
329,192,133618,1,8,0:0:0:0:
256,192,133733,1,0,0:0:0:0:
475,192,133849,128,2,134079:0:0:0:0:
182,192,133849,1,0,0:0:0:0:
402,192,134079,128,2,134310:0:0:0:0:
109,192,134079,1,0,0:0:0:0:
36,192,134310,1,0,0:0:0:0:
329,192,134310,128,2,134541:0:0:0:0:
109,192,134541,1,0,0:0:0:0:
402,192,134541,128,2,134772:0:0:0:0:
475,192,134772,1,8,0:0:0:0:
182,192,134772,1,0,0:0:0:0:
402,192,135002,1,8,0:0:0:0:
109,192,135002,1,0,0:0:0:0:
256,192,135233,128,0,135926:0:0:0:0:
36,192,135233,1,4,0:0:0:0:
329,192,135233,1,2,0:0:0:0:
182,192,135464,1,8,0:0:0:0:
475,192,135464,1,0,0:0:0:0:
475,192,135695,1,8,0:0:0:0:
182,192,135695,1,0,0:0:0:0:
329,192,135926,1,2,0:0:0:0:
36,192,135926,1,0,0:0:0:0:
402,192,136156,1,8,0:0:0:0:
109,192,136156,1,0,0:0:0:0:
475,192,136387,1,8,0:0:0:0:
182,192,136387,1,0,0:0:0:0:
36,192,136618,1,2,0:0:0:0:
256,192,136618,128,0,137310:0:0:0:0:
109,192,136849,1,8,0:0:0:0:
402,192,136849,1,0,0:0:0:0:
109,192,137079,1,8,0:0:0:0:
402,192,137079,1,0,0:0:0:0:
36,192,137310,1,2,0:0:0:0:
475,192,137310,1,0,0:0:0:0:
402,192,137541,1,8,0:0:0:0:
182,192,137541,1,0,0:0:0:0:
329,192,137772,1,8,0:0:0:0:
109,192,137772,1,0,0:0:0:0:
36,192,138002,1,2,0:0:0:0:
256,192,138002,128,0,138464:0:0:0:0:
109,192,138233,1,8,0:0:0:0:
329,192,138233,1,0,0:0:0:0:
182,192,138464,1,8,0:0:0:0:
402,192,138464,1,0,0:0:0:0:
475,192,138695,1,2,0:0:0:0:
36,192,138695,128,0,139156:0:0:0:0:
402,192,138926,1,8,0:0:0:0:
182,192,138926,1,0,0:0:0:0:
109,192,139156,1,8,0:0:0:0:
329,192,139156,1,0,0:0:0:0:
475,192,139387,128,0,140079:0:0:0:0:
256,192,139387,1,2,0:0:0:0:
36,192,139618,1,8,0:0:0:0:
182,192,139618,1,0,0:0:0:0:
182,192,139849,1,8,0:0:0:0:
36,192,139849,1,0,0:0:0:0:
256,192,140079,1,2,0:0:0:0:
109,192,140079,1,0,0:0:0:0:
182,192,140310,1,8,0:0:0:0:
36,192,140310,128,0,140772:0:0:0:0:
329,192,140541,1,8,0:0:0:0:
402,192,140541,1,0,0:0:0:0:
475,192,140772,1,2,0:0:0:0:
256,192,140772,1,0,0:0:0:0:
402,192,141002,1,8,0:0:0:0:
182,192,141002,1,0,0:0:0:0:
329,192,141233,1,8,0:0:0:0:
109,192,141233,1,0,0:0:0:0:
36,192,141464,1,2,0:0:0:0:
475,192,141464,1,0,0:0:0:0:
182,192,141695,1,8,0:0:0:0:
402,192,141695,1,0,0:0:0:0:
109,192,141926,1,8,0:0:0:0:
329,192,141926,1,0,0:0:0:0:
402,192,142156,128,0,142849:0:0:0:0:
182,192,142156,1,2,0:0:0:0:
256,192,142387,1,8,0:0:0:0:
109,192,142387,1,0,0:0:0:0:
109,192,142618,1,8,0:0:0:0:
256,192,142618,1,0,0:0:0:0:
329,192,142849,1,2,0:0:0:0:
36,192,142849,1,0,0:0:0:0:
475,192,143079,1,8,0:0:0:0:
256,192,143079,1,0,0:0:0:0:
182,192,143310,1,8,0:0:0:0:
36,192,143310,1,0,0:0:0:0:
402,192,143541,1,2,0:0:0:0:
256,192,143541,128,0,144233:0:0:0:0:
182,192,143772,1,8,0:0:0:0:
109,192,143772,1,0,0:0:0:0:
182,192,144002,1,8,0:0:0:0:
109,192,144002,1,0,0:0:0:0:
36,192,144233,1,2,0:0:0:0:
475,192,144233,1,0,0:0:0:0:
402,192,144349,1,0,0:0:0:0:
329,192,144464,1,8,0:0:0:0:
256,192,144579,1,0,0:0:0:0:
182,192,144695,1,8,0:0:0:0:
109,192,144810,1,0,0:0:0:0:
36,192,144926,1,2,0:0:0:0:
256,192,144926,128,0,146310:0:0:0:0:
475,192,145156,1,8,0:0:0:0:
402,192,145156,1,0,0:0:0:0:
475,192,145387,1,8,0:0:0:0:
402,192,145387,1,0,0:0:0:0:
182,192,145618,1,2,0:0:0:0:
329,192,145618,1,0,0:0:0:0:
36,192,145849,1,8,0:0:0:0:
109,192,145849,1,0,0:0:0:0:
36,192,146079,1,8,0:0:0:0:
109,192,146079,1,0,0:0:0:0:
329,192,146310,1,2,0:0:0:0:
182,192,146310,128,0,149079:0:0:0:0:
475,192,146310,128,0,149079:0:0:0:0:
329,192,147695,128,0,149079:0:0:0:0:
