osu file format v14

[General]
AudioFilename: audio.ogg
AudioLeadIn: 0
PreviewTime: 104177
Countdown: 0
SampleSet: Normal
StackLeniency: 0
Mode: 1
LetterboxInBreaks: 0
WidescreenStoryboard: 0

[Editor]
Bookmarks: 29992,56992,80992,104992,128992,161992,185990,209990
DistanceSpacing: 1.5
BeatDivisor: 12
GridSize: 32
TimelineZoom: 1

[Metadata]
Title:Gakkou o Yasunda Hi no Koto
TitleUnicode:学校を休んだ日のこと
Artist:Kikuo
ArtistUnicode:きくお
Creator:Alchyr
Version:Oni
Source:
Tags:the day when I was absent away from school japanese electronic experimental vocaloid 初音ミク hatsune miku 6
BeatmapID:3280232
BeatmapSetID:1606407

[Difficulty]
HPDrainRate:7.5
CircleSize:6
OverallDifficulty:6
ApproachRate:10
SliderMultiplier:1.4
SliderTickRate:1

[Events]
//Background and Video events
0,0,"bg.jpg",0,0
//Break Periods
//Storyboard Layer 0 (Background)
//Storyboard Layer 1 (Fail)
//Storyboard Layer 2 (Pass)
//Storyboard Layer 3 (Foreground)
//Storyboard Layer 4 (Overlay)
//Storyboard Sound Samples

[TimingPoints]
-11,750,4,1,0,30,1,8
-11,-150.15015015015,4,1,0,30,0,0
26989,-166.666666666667,4,1,0,30,0,0
29114,-120.481927710843,4,1,0,40,0,0
51739,-120.481927710843,4,1,0,37,0,0
51989,-120.481927710843,4,1,0,34,0,0
52239,-120.481927710843,4,1,0,31,0,0
52489,-120.481927710843,4,1,0,28,0,0
52739,-120.481927710843,4,1,0,26,0,0
52989,-120.481927710843,4,1,0,24,0,0
53239,-120.481927710843,4,1,0,22,0,0
53489,-120.481927710843,4,1,0,20,0,0
53739,-120.481927710843,4,1,0,18,0,0
53989,-133.333333333333,4,1,0,16,0,0
54239,-133.333333333333,4,1,0,14,0,0
54489,-133.333333333333,4,1,0,12,0,0
54739,-133.333333333333,4,1,0,10,0,0
56114,-43.859649122807,4,1,0,60,0,0
56426,-43.859649122807,4,1,0,55,0,0
56614,-66.6666666666667,4,1,0,50,0,0
56801,-66.6666666666667,4,1,0,45,0,0
56989,-66.6666666666667,4,1,0,50,0,1
80239,-66.6666666666667,4,1,0,50,0,1
80551,-70.7947895034925,4,1,0,50,0,1
80676,-72.716695753345,4,1,0,50,0,1
80895,-75.4679009861139,4,1,0,50,0,1
80989,-76.9230769230769,4,1,0,50,0,0
81114,-76.9230769230769,4,1,0,40,0,0
104989,-87.719298245614,4,1,0,40,0,0
105739,-88.9505612780417,4,1,0,40,0,0
106489,-90.2168813828444,4,1,0,40,0,0
107239,-91.5197774239013,4,1,0,40,0,0
107989,-92.8608572914345,4,1,0,40,0,0
108739,-94.2418245217227,4,1,0,40,0,0
109301,-95.4244000190849,4,1,0,40,0,0
109489,-95.6644855163969,4,1,0,40,0,0
109864,-96.3920457283865,4,1,0,40,0,0
110239,-97.1307574256464,4,1,0,40,0,0
110989,-98.6426767676768,4,1,0,40,0,0
111739,-100.202408865909,4,1,0,40,0,0
112489,-101.812258195887,4,1,0,40,0,0
112864,-102.636737793926,4,1,0,40,0,0
113239,-103.474679745866,4,1,0,40,0,0
113989,-105.192291508878,4,1,0,40,0,0
114739,-106.96788823995,4,1,0,40,0,0
115364,-108.493994857385,4,1,0,40,0,0
115489,-108.804456630544,4,1,0,40,0,0
116114,-110.383804488205,4,1,0,40,0,0
116239,-110.705192073508,4,1,0,40,0,0
116989,-112.673517216513,4,1,0,40,0,0
117739,-114.713102530571,4,1,0,40,0,0
118489,-116.827889153699,4,1,0,40,0,0
119239,-119.022114308839,4,1,0,40,0,0
119989,-121.300339640951,4,1,0,40,0,0
120739,-123.667482872054,4,1,0,40,0,0
121301,-125.711843312759,4,1,0,40,0,0
121489,-126.128853236466,4,1,0,40,0,0
121864,-127.396649468119,4,1,0,40,0,0
122239,-128.690191233624,4,1,0,40,0,0
122989,-131.357713324926,4,1,0,40,0,0
123739,-134.138162307176,4,1,0,40,0,0
124489,-137.038864221893,4,1,0,40,0,0
124864,-138.536774586814,4,1,0,40,0,0
125239,-140.067792811721,4,1,0,40,0,0
125989,-143.233642718002,4,1,0,40,0,0
126739,-146.545912834491,4,1,0,40,0,0
127364,-149.425459109723,4,1,0,40,0,0
127489,-150.01500150015,4,1,0,40,0,0
127739,-100,4,1,0,38,0,0
127989,-100,4,1,0,36,0,0
128239,-100,4,1,0,34,0,0
128489,-100,4,1,0,32,0,0
128739,-100,4,1,0,31,0,0
128989,-100,4,1,0,30,0,0
152864,-87.719298245614,4,1,0,25,0,0
154364,-120.481927710843,4,1,0,27,0,0
155864,-150.15015015015,4,1,0,30,0,0
158707,-200,4,1,0,28,0,0
158754,-200,4,1,0,26,0,0
158801,-200,4,1,0,24,0,0
158848,-200,4,1,0,22,0,0
158895,-200,4,1,0,20,0,0
158942,-200,4,1,0,17,0,0
158989,-200,4,1,0,12,0,0
159035,-200,4,1,0,8,0,0
159082,-200,4,1,0,5,0,0
160395,-66.6666666666667,4,1,0,40,0,0
161192,-33.3333333333333,4,1,0,70,0,0
161848,-66.6666666666667,4,1,0,66,0,0
161895,-66.6666666666667,4,1,0,62,0,0
161942,-66.6666666666667,4,1,0,58,0,0
161989,-66.6666666666667,4,1,0,55,0,1
209239,-66.6666666666667,4,1,0,55,0,1
209614,-71.4285714285714,4,1,0,53,0,1
209989,-76.9230769230769,4,1,0,50,0,0
210139,-100,4,1,0,48,0,0
210289,-100,4,1,0,46,0,0
210439,-100,4,1,0,44,0,0
210589,-100,4,1,0,42,0,0
210739,-78.2853276520553,4,1,0,40,0,0
211301,-79.4579454634716,4,1,0,40,0,0
211489,-79.6966971411656,4,1,0,40,0,0
211864,-80.4216391653383,4,1,0,40,0,0
212239,-81.1598907819755,4,1,0,40,0,0
212989,-82.6778163607587,4,1,0,40,0,0
213364,-83.4582723541492,4,1,0,40,0,0
213739,-84.2536033460717,4,1,0,40,0,0
214114,-85.0642386902538,4,1,0,40,0,0
214489,-85.8906244248396,4,1,0,40,0,0
215239,-87.5925195988263,4,1,0,40,0,0
215614,-88.4690121486911,4,1,0,40,0,0
215989,-89.3632232037992,4,1,0,40,0,0
216739,-91.2069942735037,4,1,0,40,0,0
217114,-92.1577081694517,4,1,0,40,0,0
217364,-92.8026055436299,4,1,0,40,0,0
217489,-93.1284507417016,4,1,0,40,0,0
218114,-94.7926129470911,4,1,0,40,0,0
218239,-95.13260806045,4,1,0,40,0,0
218989,-97.2249229145254,4,1,0,40,0,0
219364,-98.3059773545159,4,1,0,40,0,0
219739,-99.4113428342174,4,1,0,40,0,0
220114,-100.541848749152,4,1,0,40,0,0
220489,-101.698362656361,4,1,0,40,0,0
221239,-104.093088962415,4,1,0,40,0,0
221614,-105.333248063561,4,1,0,40,0,0
221989,-106.603313840156,4,1,0,40,0,0
222739,-109.237599581776,4,1,0,40,0,0
223301,-111.534381136881,4,1,0,40,0,0
223489,-112.00537625806,4,1,0,40,0,0
223864,-113.442535278603,4,1,0,40,0,0
224239,-114.917054511726,4,1,0,40,0,0
224989,-117.984156413282,4,1,0,40,0,0
225364,-119.579932778995,4,1,0,40,0,0
225739,-121.219467846536,4,1,0,40,0,0
226114,-122.904586535803,4,1,0,40,0,0
226489,-124.637216672899,4,1,0,40,0,0
227314,-100,4,1,0,38,0,0
227389,-100,4,1,0,36,0,0
227464,-100,4,1,0,34,0,0
227539,-100,4,1,0,32,0,0
227614,-100,4,1,0,30,0,0
227689,-100,4,1,0,28,0,0
227764,-100,4,1,0,26,0,0
227839,-100,4,1,0,24,0,0
227914,-100,4,1,0,22,0,0
227989,-132.085440410597,4,1,0,20,0,0
229489,-172.413793103448,4,1,0,20,0,0
230989,-200,4,1,0,20,0,0
233689,-227.272727272727,4,1,0,19,0,0
233764,-227.272727272727,4,1,0,18,0,0
233839,-227.272727272727,4,1,0,17,0,0
233914,-227.272727272727,4,1,0,16,0,0
233989,-227.272727272727,4,1,0,15,0,0
236989,-222.222222222222,4,1,0,5,0,0

[HitObjects]
512,64,2239,5,8,0:0:0:0:
512,96,2614,1,8,0:0:0:0:
512,128,2989,1,0,0:0:0:0:
512,192,3739,1,8,0:0:0:0:
512,224,4489,1,0,0:0:0:0:
512,288,5239,1,0,0:0:0:0:
448,0,5989,1,8,0:0:0:0:
448,32,6364,1,0,0:0:0:0:
448,64,6739,1,0,0:0:0:0:
448,96,7114,1,0,0:0:0:0:
448,128,7489,1,8,0:0:0:0:
448,224,8239,1,0,0:0:0:0:
448,256,8614,1,0,0:0:0:0:
448,288,8989,1,8,0:0:0:0:
384,0,9739,1,8,0:0:0:0:
384,32,10114,1,8,0:0:0:0:
384,96,10489,1,0,0:0:0:0:
384,160,11239,1,8,0:0:0:0:
384,224,11989,1,0,0:0:0:0:
384,256,12364,1,0,0:0:0:0:
384,288,12739,1,8,0:0:0:0:
384,320,13114,1,8,0:0:0:0:
384,352,13489,1,0,0:0:0:0:
320,0,14239,1,8,0:0:0:0:
320,32,14614,1,8,0:0:0:0:
320,64,14989,1,0,0:0:0:0:
320,128,15739,1,8,0:0:0:0:
320,192,16489,1,0,0:0:0:0:
320,256,17239,1,0,0:0:0:0:
256,0,17989,1,8,0:0:0:0:
256,32,18364,1,0,0:0:0:0:
256,96,18739,1,0,0:0:0:0:
256,128,19114,1,0,0:0:0:0:
256,160,19489,1,8,0:0:0:0:
256,224,20239,1,0,0:0:0:0:
256,256,20614,1,0,0:0:0:0:
256,288,20989,1,8,0:0:0:0:
192,0,21739,1,0,0:0:0:0:
192,32,22114,1,0,0:0:0:0:
192,64,22489,1,8,0:0:0:0:
192,96,22864,1,8,0:0:0:0:
192,128,23239,1,0,0:0:0:0:
192,192,23614,1,0,0:0:0:0:
192,224,23989,1,8,0:0:0:0:
192,288,24364,1,8,0:0:0:0:
192,320,24551,1,8,0:0:0:0:
448,0,29239,1,0,0:0:0:0:
448,32,29614,1,0,0:0:0:0:
448,64,29989,1,8,0:0:0:0:
448,96,30364,1,0,0:0:0:0:
448,160,30739,1,8,0:0:0:0:
448,192,31114,1,8,0:0:0:0:
448,224,31489,1,0,0:0:0:0:
384,0,32239,1,8,0:0:0:0:
384,32,32614,1,0,0:0:0:0:
384,64,32989,1,8,0:0:0:0:
384,128,33364,1,0,0:0:0:0:
384,160,33739,1,0,0:0:0:0:
384,224,34114,1,0,0:0:0:0:
384,256,34489,1,8,0:0:0:0:
320,0,35239,1,0,0:0:0:0:
320,32,35614,1,0,0:0:0:0:
320,96,35989,1,8,0:0:0:0:
320,160,36364,1,8,0:0:0:0:
320,128,36739,1,0,0:0:0:0:
320,192,37114,1,0,0:0:0:0:
320,224,37489,1,8,0:0:0:0:
320,288,38239,1,0,0:0:0:0:
320,320,38614,1,8,0:0:0:0:
256,0,38989,1,0,0:0:0:0:
256,64,39364,1,8,0:0:0:0:
256,128,39739,1,8,0:0:0:0:
256,160,40114,1,8,0:0:0:0:
256,192,40489,1,0,0:0:0:0:
192,0,41239,1,8,0:0:0:0:
192,32,41614,1,8,0:0:0:0:
192,64,41989,1,0,0:0:0:0:
192,96,42364,1,0,0:0:0:0:
192,160,42739,1,8,0:0:0:0:
192,192,43114,1,0,0:0:0:0:
192,256,43489,1,8,0:0:0:0:
128,0,44239,1,0,0:0:0:0:
128,32,44614,1,0,0:0:0:0:
128,64,44989,1,8,0:0:0:0:
128,128,45364,1,0,0:0:0:0:
128,160,45739,1,0,0:0:0:0:
128,192,46114,1,0,0:0:0:0:
128,224,46489,1,8,0:0:0:0:
64,0,47239,1,8,0:0:0:0:
64,32,47614,1,0,0:0:0:0:
64,64,47989,1,8,0:0:0:0:
64,160,48739,1,0,0:0:0:0:
64,192,49114,1,8,0:0:0:0:
64,256,49489,1,0,0:0:0:0:
64,288,49864,1,0,0:0:0:0:
64,320,50239,1,8,0:0:0:0:
64,352,50614,1,0,0:0:0:0:
64,384,50989,1,8,0:0:0:0:
0,0,51364,1,8,0:0:0:0:
0,32,51551,1,8,0:0:0:0:
512,64,56239,1,12,0:0:0:0:
448,384,56989,1,0,0:0:0:0:
448,32,57239,1,8,0:0:0:0:
448,64,57364,1,8,0:0:0:0:
448,96,57489,1,0,0:0:0:0:
448,128,57614,1,0,0:0:0:0:
448,160,57739,1,8,0:0:0:0:
448,256,57989,1,0,0:0:0:0:
448,288,58114,1,8,0:0:0:0:
448,352,58322,1,8,0:0:0:0:
384,384,58489,1,0,0:0:0:0:
384,32,58739,1,8,0:0:0:0:
384,64,58864,1,0,0:0:0:0:
384,96,58989,1,0,0:0:0:0:
384,128,59114,1,0,0:0:0:0:
384,160,59239,1,8,0:0:0:0:
384,224,59489,1,0,0:0:0:0:
384,256,59614,1,8,0:0:0:0:
384,320,59822,1,8,0:0:0:0:
320,384,59989,1,0,0:0:0:0:
320,0,60239,1,8,0:0:0:0:
320,64,60364,1,0,0:0:0:0:
320,160,60614,1,0,0:0:0:0:
320,192,60739,1,8,0:0:0:0:
320,256,60989,1,8,0:0:0:0:
320,288,61114,1,0,0:0:0:0:
320,352,61322,1,8,0:0:0:0:
256,384,61489,1,0,0:0:0:0:
256,0,61739,1,8,0:0:0:0:
256,32,61801,1,8,0:0:0:0:
256,64,61864,1,0,0:0:0:0:
256,128,61989,1,8,0:0:0:0:
256,192,62114,1,0,0:0:0:0:
256,224,62239,1,8,0:0:0:0:
256,288,62520,1,0,0:0:0:0:
256,320,62660,1,8,0:0:0:0:
256,352,62864,1,8,0:0:0:0:
192,384,62989,1,0,0:0:0:0:
192,32,63239,1,8,0:0:0:0:
192,64,63364,1,0,0:0:0:0:
192,96,63489,1,0,0:0:0:0:
192,128,63614,1,0,0:0:0:0:
192,160,63739,1,8,0:0:0:0:
192,224,63989,1,0,0:0:0:0:
192,256,64114,1,8,0:0:0:0:
192,320,64322,1,8,0:0:0:0:
128,384,64489,1,0,0:0:0:0:
128,0,64739,1,0,0:0:0:0:
128,32,64864,1,8,0:0:0:0:
128,64,64989,1,0,0:0:0:0:
128,96,65114,1,0,0:0:0:0:
128,128,65239,1,8,0:0:0:0:
128,256,65489,1,0,0:0:0:0:
128,288,65614,1,8,0:0:0:0:
128,352,65822,1,0,0:0:0:0:
64,384,65989,1,0,0:0:0:0:
64,64,66364,1,0,0:0:0:0:
64,96,66457,1,0,0:0:0:0:
64,128,66551,1,0,0:0:0:0:
64,160,66739,1,8,0:0:0:0:
64,224,66989,1,0,0:0:0:0:
64,256,67114,1,8,0:0:0:0:
64,320,67322,1,8,0:0:0:0:
0,384,67489,1,0,0:0:0:0:
0,0,67739,1,0,0:0:0:0:
0,32,67801,1,0,0:0:0:0:
0,64,67864,1,8,0:0:0:0:
0,128,67989,1,0,0:0:0:0:
0,160,68114,1,0,0:0:0:0:
0,224,68239,1,8,0:0:0:0:
0,288,68567,1,0,0:0:0:0:
9,323,68707,1,8,0:0:0:0:
0,352,68895,1,8,0:0:0:0:
448,384,68989,1,0,0:0:0:0:
448,32,69239,1,8,0:0:0:0:
448,64,69364,1,8,0:0:0:0:
448,96,69489,1,0,0:0:0:0:
448,128,69614,1,0,0:0:0:0:
448,160,69739,1,8,0:0:0:0:
448,256,69989,1,0,0:0:0:0:
448,288,70114,1,8,0:0:0:0:
448,352,70322,1,8,0:0:0:0:
384,384,70489,1,0,0:0:0:0:
384,32,70739,1,8,0:0:0:0:
384,64,70864,1,0,0:0:0:0:
384,96,70989,1,0,0:0:0:0:
384,128,71114,1,0,0:0:0:0:
384,160,71239,1,8,0:0:0:0:
384,224,71489,1,0,0:0:0:0:
384,256,71614,1,8,0:0:0:0:
384,320,71822,1,8,0:0:0:0:
320,384,71989,1,0,0:0:0:0:
320,0,72239,1,8,0:0:0:0:
334,71,72364,1,0,0:0:0:0:
320,128,72614,1,0,0:0:0:0:
312,201,72739,1,8,0:0:0:0:
320,256,72989,1,8,0:0:0:0:
320,288,73114,1,0,0:0:0:0:
320,352,73322,1,8,0:0:0:0:
256,352,73489,1,0,0:0:0:0:
256,0,73739,1,8,0:0:0:0:
256,32,73801,1,8,0:0:0:0:
256,64,73864,1,0,0:0:0:0:
256,96,73989,1,8,0:0:0:0:
256,160,74114,1,0,0:0:0:0:
256,192,74239,1,8,0:0:0:0:
256,256,74520,1,0,0:0:0:0:
256,288,74660,1,8,0:0:0:0:
256,352,74864,1,8,0:0:0:0:
192,384,74989,1,0,0:0:0:0:
192,32,75239,1,8,0:0:0:0:
192,64,75364,1,0,0:0:0:0:
192,96,75489,1,0,0:0:0:0:
192,128,75614,1,0,0:0:0:0:
192,160,75739,1,8,0:0:0:0:
192,224,75989,1,0,0:0:0:0:
192,256,76114,1,8,0:0:0:0:
192,320,76322,1,8,0:0:0:0:
128,384,76489,1,0,0:0:0:0:
128,0,76739,1,0,0:0:0:0:
128,32,76864,1,8,0:0:0:0:
128,64,76989,1,0,0:0:0:0:
128,96,77114,1,0,0:0:0:0:
128,128,77239,1,8,0:0:0:0:
128,224,77489,1,0,0:0:0:0:
128,256,77614,1,8,0:0:0:0:
128,320,77822,1,0,0:0:0:0:
64,384,77989,1,0,0:0:0:0:
64,64,78364,1,0,0:0:0:0:
64,96,78457,1,0,0:0:0:0:
64,128,78551,1,0,0:0:0:0:
64,160,78739,1,8,0:0:0:0:
64,224,78989,1,0,0:0:0:0:
64,256,79114,1,8,0:0:0:0:
64,320,79322,1,8,0:0:0:0:
0,384,79489,1,0,0:0:0:0:
0,0,79739,1,0,0:0:0:0:
0,32,79801,1,0,0:0:0:0:
0,64,79864,1,8,0:0:0:0:
0,96,79989,1,0,0:0:0:0:
0,128,80114,1,0,0:0:0:0:
0,192,80239,1,8,0:0:0:0:
0,256,80567,1,0,0:0:0:0:
0,288,80707,1,8,0:0:0:0:
0,352,80895,1,8,0:0:0:0:
448,384,80989,1,0,0:0:0:0:
448,32,81239,1,0,0:0:0:0:
448,48,81364,1,0,0:0:0:0:
448,64,81489,1,8,0:0:0:0:
448,80,81614,1,0,0:0:0:0:
448,96,81739,1,8,0:0:0:0:
448,160,81989,1,0,0:0:0:0:
448,176,82114,1,0,0:0:0:0:
448,240,82322,1,8,0:0:0:0:
384,384,82489,1,0,0:0:0:0:
384,112,82739,1,8,0:0:0:0:
384,128,82864,1,0,0:0:0:0:
384,144,82989,1,0,0:0:0:0:
384,160,83114,1,0,0:0:0:0:
384,176,83239,1,8,0:0:0:0:
384,240,83489,1,0,0:0:0:0:
384,256,83614,1,8,0:0:0:0:
384,336,83822,1,0,0:0:0:0:
320,384,83989,1,0,0:0:0:0:
320,0,84239,1,8,0:0:0:0:
320,64,84364,1,0,0:0:0:0:
320,144,84614,1,0,0:0:0:0:
320,208,84739,1,8,0:0:0:0:
320,272,84989,1,0,0:0:0:0:
320,288,85114,1,0,0:0:0:0:
320,352,85322,1,8,0:0:0:0:
256,384,85489,1,0,0:0:0:0:
256,0,85739,1,0,0:0:0:0:
256,16,85801,1,0,0:0:0:0:
256,32,85864,1,0,0:0:0:0:
253,47,85989,1,8,0:0:0:0:
256,96,86114,1,0,0:0:0:0:
256,128,86239,1,8,0:0:0:0:
256,192,86520,1,8,0:0:0:0:
256,224,86660,1,8,0:0:0:0:
256,304,86864,1,8,0:0:0:0:
192,384,86989,1,0,0:0:0:0:
192,64,87239,1,0,0:0:0:0:
192,80,87364,1,0,0:0:0:0:
192,96,87489,1,0,0:0:0:0:
192,112,87614,1,0,0:0:0:0:
192,128,87739,1,8,0:0:0:0:
192,192,87989,1,8,0:0:0:0:
192,208,88114,1,0,0:0:0:0:
192,320,88322,1,0,0:0:0:0:
128,384,88489,1,0,0:0:0:0:
128,16,88739,1,8,0:0:0:0:
128,32,88864,1,0,0:0:0:0:
128,48,88989,1,0,0:0:0:0:
128,64,89114,1,0,0:0:0:0:
128,80,89239,1,8,0:0:0:0:
128,160,89489,1,0,0:0:0:0:
128,176,89614,1,8,0:0:0:0:
128,240,89822,1,8,0:0:0:0:
64,384,89989,1,0,0:0:0:0:
64,112,90364,1,0,0:0:0:0:
64,128,90457,1,0,0:0:0:0:
64,144,90551,1,0,0:0:0:0:
62,215,90739,1,8,0:0:0:0:
64,272,90989,1,8,0:0:0:0:
64,288,91114,1,0,0:0:0:0:
64,336,91322,1,8,0:0:0:0:
0,384,91489,1,0,0:0:0:0:
0,16,91739,1,8,0:0:0:0:
0,32,91801,1,8,0:0:0:0:
0,64,91864,1,0,0:0:0:0:
7,101,91989,1,0,0:0:0:0:
0,128,92114,1,0,0:0:0:0:
0,160,92239,1,8,0:0:0:0:
0,224,92567,1,8,0:0:0:0:
6,269,92707,1,0,0:0:0:0:
0,336,92895,1,8,0:0:0:0:
448,384,92989,1,0,0:0:0:0:
448,32,93239,1,0,0:0:0:0:
448,48,93364,1,0,0:0:0:0:
448,64,93489,1,8,0:0:0:0:
448,80,93614,1,0,0:0:0:0:
448,96,93739,1,8,0:0:0:0:
448,160,93989,1,0,0:0:0:0:
448,176,94114,1,0,0:0:0:0:
448,240,94322,1,8,0:0:0:0:
384,384,94489,1,0,0:0:0:0:
384,112,94739,1,8,0:0:0:0:
384,128,94864,1,0,0:0:0:0:
384,144,94989,1,0,0:0:0:0:
384,160,95114,1,0,0:0:0:0:
384,176,95239,1,8,0:0:0:0:
384,240,95489,1,0,0:0:0:0:
384,256,95614,1,8,0:0:0:0:
384,336,95822,1,0,0:0:0:0:
320,384,95989,1,8,0:0:0:0:
320,0,96239,1,8,0:0:0:0:
320,64,96364,1,0,0:0:0:0:
320,144,96614,1,0,0:0:0:0:
312,204,96739,1,8,0:0:0:0:
320,272,96989,1,0,0:0:0:0:
320,288,97114,1,0,0:0:0:0:
320,352,97322,1,8,0:0:0:0:
256,384,97489,1,0,0:0:0:0:
256,0,97739,1,0,0:0:0:0:
256,16,97801,1,0,0:0:0:0:
256,32,97864,1,0,0:0:0:0:
253,47,97989,1,8,0:0:0:0:
244,78,98114,1,0,0:0:0:0:
256,128,98239,1,8,0:0:0:0:
256,192,98520,1,0,0:0:0:0:
256,224,98660,1,8,0:0:0:0:
256,304,98864,1,0,0:0:0:0:
192,384,98989,1,0,0:0:0:0:
192,64,99239,1,8,0:0:0:0:
192,80,99364,1,8,0:0:0:0:
192,96,99489,1,0,0:0:0:0:
192,112,99614,1,0,0:0:0:0:
192,128,99739,1,8,0:0:0:0:
192,192,99989,1,8,0:0:0:0:
192,208,100114,1,0,0:0:0:0:
192,320,100322,1,0,0:0:0:0:
128,384,100489,1,0,0:0:0:0:
128,16,100739,1,8,0:0:0:0:
128,32,100864,1,0,0:0:0:0:
128,48,100989,1,0,0:0:0:0:
128,64,101114,1,0,0:0:0:0:
128,80,101239,1,8,0:0:0:0:
128,160,101489,1,0,0:0:0:0:
128,176,101614,1,8,0:0:0:0:
128,240,101822,1,8,0:0:0:0:
64,384,101989,1,0,0:0:0:0:
64,112,102364,1,0,0:0:0:0:
64,128,102457,1,0,0:0:0:0:
64,144,102551,1,0,0:0:0:0:
62,215,102739,1,8,0:0:0:0:
64,272,102989,1,8,0:0:0:0:
64,288,103114,1,0,0:0:0:0:
64,336,103322,1,8,0:0:0:0:
0,384,103489,1,0,0:0:0:0:
0,16,103739,1,8,0:0:0:0:
0,32,103801,1,8,0:0:0:0:
4,60,103864,1,0,0:0:0:0:
0,95,103989,1,8,0:0:0:0:
9,133,104114,1,0,0:0:0:0:
3,198,104239,1,8,0:0:0:0:
512,384,104989,1,0,0:0:0:0:
512,0,105739,1,8,0:0:0:0:
448,384,106489,1,0,0:0:0:0:
448,0,107239,1,8,0:0:0:0:
384,384,107989,1,0,0:0:0:0:
384,0,108739,1,8,0:0:0:0:
384,352,109301,1,0,0:0:0:0:
320,384,109489,1,0,0:0:0:0:
320,192,109864,1,0,0:0:0:0:
320,0,110239,1,8,0:0:0:0:
256,384,110989,1,0,0:0:0:0:
256,0,111739,1,8,0:0:0:0:
192,384,112489,1,0,0:0:0:0:
192,192,112864,1,0,0:0:0:0:
192,0,113239,1,8,0:0:0:0:
128,384,113989,1,0,0:0:0:0:
128,0,114739,1,8,0:0:0:0:
128,352,115364,1,0,0:0:0:0:
64,384,115489,1,0,0:0:0:0:
64,64,116114,1,0,0:0:0:0:
64,0,116239,1,8,0:0:0:0:
448,384,116989,1,0,0:0:0:0:
448,0,117739,1,8,0:0:0:0:
384,384,118489,1,0,0:0:0:0:
384,0,119239,1,8,0:0:0:0:
320,384,119989,1,0,0:0:0:0:
320,0,120739,1,8,0:0:0:0:
320,352,121301,1,0,0:0:0:0:
256,384,121489,1,0,0:0:0:0:
256,256,121864,1,0,0:0:0:0:
256,0,122239,1,8,0:0:0:0:
192,384,122989,1,0,0:0:0:0:
192,0,123739,1,8,0:0:0:0:
128,384,124489,1,0,0:0:0:0:
128,192,124864,1,0,0:0:0:0:
128,0,125239,1,8,0:0:0:0:
64,384,125989,1,0,0:0:0:0:
64,0,126739,1,8,0:0:0:0:
64,320,127364,1,0,0:0:0:0:
0,384,127489,1,0,0:0:0:0:
512,0,128989,1,8,0:0:0:0:
512,32,129739,1,8,0:0:0:0:
512,64,130489,1,0,0:0:0:0:
512,128,131239,1,8,0:0:0:0:
512,160,131989,1,0,0:0:0:0:
512,192,132364,1,0,0:0:0:0:
512,224,132739,1,8,0:0:0:0:
512,256,133114,1,0,0:0:0:0:
512,288,133489,1,8,0:0:0:0:
448,32,134239,1,8,0:0:0:0:
448,64,134614,1,8,0:0:0:0:
448,96,134989,1,0,0:0:0:0:
448,160,135739,1,8,0:0:0:0:
448,192,136114,1,0,0:0:0:0:
448,224,136489,1,8,0:0:0:0:
448,320,137239,1,8,0:0:0:0:
384,32,137989,1,0,0:0:0:0:
384,64,138364,1,0,0:0:0:0:
384,128,138739,1,8,0:0:0:0:
384,192,139114,1,8,0:0:0:0:
384,256,139489,1,0,0:0:0:0:
320,64,140239,1,8,0:0:0:0:
320,96,140614,1,8,0:0:0:0:
320,160,140989,1,0,0:0:0:0:
320,288,141739,1,8,0:0:0:0:
320,320,142489,1,8,0:0:0:0:
320,352,143239,1,8,0:0:0:0:
256,32,143989,1,0,0:0:0:0:
256,64,144364,1,0,0:0:0:0:
256,128,144739,1,8,0:0:0:0:
256,160,145114,1,0,0:0:0:0:
256,224,145489,1,8,0:0:0:0:
256,288,146239,1,8,0:0:0:0:
256,320,146614,1,8,0:0:0:0:
192,64,146989,1,0,0:0:0:0:
192,128,147739,1,8,0:0:0:0:
192,160,148114,1,0,0:0:0:0:
192,192,148489,1,8,0:0:0:0:
192,224,148864,1,8,0:0:0:0:
192,256,149239,1,0,0:0:0:0:
192,288,149614,1,0,0:0:0:0:
128,32,149989,1,8,0:0:0:0:
128,160,150364,1,0,0:0:0:0:
0,0,150739,1,8,0:0:0:0:
0,384,152239,1,8,0:0:0:0:
512,64,152989,1,0,0:0:0:0:
512,192,154489,1,0,0:0:0:0:
512,320,155989,1,0,0:0:0:0:
0,192,160489,1,8,0:0:0:0:
512,192,160639,1,8,0:0:0:0:
256,192,161239,12,0,161614,0:0:0:0:
448,384,161989,5,0,0:0:0:0:
448,32,162239,1,8,0:0:0:0:
448,64,162364,1,8,0:0:0:0:
448,96,162489,1,0,0:0:0:0:
448,128,162614,1,0,0:0:0:0:
448,160,162739,1,8,0:0:0:0:
448,256,162989,1,0,0:0:0:0:
448,288,163114,1,8,0:0:0:0:
448,352,163322,1,8,0:0:0:0:
384,384,163489,1,0,0:0:0:0:
384,32,163739,1,8,0:0:0:0:
384,64,163864,1,0,0:0:0:0:
384,96,163989,1,0,0:0:0:0:
384,128,164114,1,0,0:0:0:0:
384,160,164239,1,8,0:0:0:0:
384,224,164489,1,0,0:0:0:0:
384,256,164614,1,8,0:0:0:0:
384,320,164822,1,0,0:0:0:0:
320,384,164989,1,8,0:0:0:0:
320,0,165239,1,8,0:0:0:0:
334,71,165364,1,0,0:0:0:0:
320,128,165614,1,0,0:0:0:0:
320,192,165739,1,8,0:0:0:0:
320,256,165989,1,8,0:0:0:0:
320,288,166114,1,0,0:0:0:0:
320,352,166322,1,8,0:0:0:0:
256,384,166489,1,8,0:0:0:0:
256,0,166739,1,0,0:0:0:0:
272,37,166801,1,0,0:0:0:0:
256,64,166864,1,8,0:0:0:0:
256,128,166989,1,0,0:0:0:0:
256,192,167114,1,0,0:0:0:0:
250,200,167239,1,8,0:0:0:0:
256,256,167520,1,0,0:0:0:0:
259,278,167660,1,8,0:0:0:0:
256,352,167864,1,8,0:0:0:0:
192,384,167989,1,0,0:0:0:0:
192,32,168239,1,0,0:0:0:0:
192,64,168364,1,8,0:0:0:0:
192,96,168489,1,0,0:0:0:0:
192,128,168614,1,0,0:0:0:0:
192,160,168739,1,8,0:0:0:0:
192,224,168989,1,8,0:0:0:0:
192,256,169114,1,0,0:0:0:0:
192,320,169322,1,8,0:0:0:0:
128,384,169489,1,0,0:0:0:0:
128,0,169739,1,0,0:0:0:0:
128,32,169864,1,0,0:0:0:0:
128,64,169989,1,8,0:0:0:0:
128,96,170114,1,0,0:0:0:0:
128,128,170239,1,8,0:0:0:0:
128,256,170489,1,0,0:0:0:0:
128,288,170614,1,8,0:0:0:0:
128,352,170822,1,8,0:0:0:0:
64,384,170989,1,0,0:0:0:0:
64,64,171364,1,0,0:0:0:0:
64,96,171457,1,0,0:0:0:0:
64,128,171551,1,0,0:0:0:0:
64,160,171739,1,8,0:0:0:0:
64,224,171989,1,8,0:0:0:0:
64,256,172114,1,8,0:0:0:0:
64,320,172322,1,0,0:0:0:0:
0,384,172489,1,0,0:0:0:0:
16,37,172739,1,8,0:0:0:0:
0,50,172801,1,8,0:0:0:0:
0,64,172864,1,0,0:0:0:0:
0,96,172989,1,0,0:0:0:0:
0,128,173114,1,0,0:0:0:0:
0,192,173239,1,8,0:0:0:0:
0,256,173567,1,0,0:0:0:0:
9,291,173707,1,8,0:0:0:0:
0,352,173895,1,8,0:0:0:0:
448,384,173989,1,0,0:0:0:0:
448,32,174239,1,8,0:0:0:0:
448,64,174364,1,8,0:0:0:0:
448,96,174489,1,0,0:0:0:0:
448,128,174614,1,0,0:0:0:0:
448,160,174739,1,8,0:0:0:0:
448,256,174989,1,0,0:0:0:0:
448,288,175114,1,0,0:0:0:0:
448,352,175322,1,8,0:0:0:0:
384,384,175489,1,0,0:0:0:0:
384,32,175739,1,0,0:0:0:0:
384,64,175864,1,0,0:0:0:0:
384,96,175989,1,8,0:0:0:0:
384,128,176114,1,0,0:0:0:0:
384,160,176239,1,8,0:0:0:0:
384,224,176489,1,0,0:0:0:0:
384,256,176614,1,8,0:0:0:0:
384,320,176822,1,0,0:0:0:0:
320,384,176989,1,8,0:0:0:0:
320,0,177239,1,8,0:0:0:0:
334,71,177364,1,0,0:0:0:0:
320,128,177614,1,0,0:0:0:0:
312,201,177739,1,8,0:0:0:0:
320,256,177989,1,8,0:0:0:0:
320,288,178114,1,8,0:0:0:0:
320,352,178322,1,0,0:0:0:0:
256,384,178489,1,8,0:0:0:0:
256,0,178739,1,0,0:0:0:0:
263,25,178801,1,0,0:0:0:0:
272,37,178864,1,8,0:0:0:0:
256,96,178989,1,0,0:0:0:0:
256,128,179114,1,0,0:0:0:0:
256,192,179239,1,8,0:0:0:0:
256,256,179520,1,0,0:0:0:0:
256,288,179660,1,8,0:0:0:0:
256,352,179864,1,8,0:0:0:0:
192,384,179989,1,0,0:0:0:0:
192,32,180239,1,8,0:0:0:0:
192,64,180364,1,0,0:0:0:0:
192,96,180489,1,0,0:0:0:0:
192,128,180614,1,0,0:0:0:0:
192,160,180739,1,8,0:0:0:0:
192,224,180989,1,0,0:0:0:0:
192,256,181114,1,8,0:0:0:0:
192,320,181322,1,8,0:0:0:0:
128,384,181489,1,0,0:0:0:0:
128,0,181739,1,0,0:0:0:0:
128,32,181864,1,0,0:0:0:0:
128,64,181989,1,0,0:0:0:0:
128,96,182114,1,0,0:0:0:0:
128,128,182239,1,8,0:0:0:0:
128,256,182489,1,0,0:0:0:0:
128,288,182614,1,8,0:0:0:0:
130,357,182822,1,8,0:0:0:0:
64,384,182989,1,0,0:0:0:0:
64,64,183364,1,0,0:0:0:0:
64,96,183457,1,0,0:0:0:0:
64,128,183551,1,0,0:0:0:0:
64,160,183739,1,8,0:0:0:0:
64,224,183989,1,8,0:0:0:0:
64,256,184114,1,8,0:0:0:0:
64,320,184322,1,0,0:0:0:0:
0,384,184489,1,0,0:0:0:0:
0,0,184739,1,0,0:0:0:0:
5,24,184801,1,0,0:0:0:0:
0,51,184864,1,0,0:0:0:0:
2,78,184989,1,8,0:0:0:0:
0,96,185114,1,0,0:0:0:0:
5,192,185239,1,8,0:0:0:0:
0,256,185567,1,0,0:0:0:0:
0,288,185707,1,8,0:0:0:0:
0,352,185895,1,8,0:0:0:0:
448,384,185989,1,0,0:0:0:0:
448,32,186239,1,8,0:0:0:0:
448,64,186364,1,0,0:0:0:0:
448,96,186489,1,0,0:0:0:0:
448,128,186614,1,0,0:0:0:0:
448,160,186739,1,8,0:0:0:0:
448,256,186989,1,0,0:0:0:0:
448,288,187114,1,8,0:0:0:0:
448,352,187322,1,8,0:0:0:0:
384,384,187489,1,0,0:0:0:0:
384,32,187739,1,8,0:0:0:0:
384,64,187864,1,0,0:0:0:0:
384,96,187989,1,0,0:0:0:0:
384,128,188114,1,0,0:0:0:0:
384,160,188239,1,8,0:0:0:0:
384,224,188489,1,0,0:0:0:0:
384,256,188614,1,8,0:0:0:0:
384,320,188822,1,0,0:0:0:0:
320,384,188989,1,8,0:0:0:0:
320,0,189239,1,8,0:0:0:0:
334,71,189364,1,0,0:0:0:0:
320,128,189614,1,0,0:0:0:0:
320,192,189739,1,8,0:0:0:0:
320,256,189989,1,8,0:0:0:0:
320,288,190114,1,0,0:0:0:0:
320,352,190322,1,0,0:0:0:0:
256,384,190489,1,8,0:0:0:0:
259,20,190739,1,8,0:0:0:0:
254,41,190801,1,8,0:0:0:0:
256,64,190864,1,0,0:0:0:0:
256,96,190989,1,8,0:0:0:0:
260,136,191114,1,0,0:0:0:0:
256,192,191239,1,8,0:0:0:0:
256,256,191520,1,0,0:0:0:0:
256,288,191660,1,8,0:0:0:0:
256,352,191864,1,8,0:0:0:0:
192,384,191989,1,0,0:0:0:0:
192,32,192239,1,0,0:0:0:0:
192,64,192364,1,8,0:0:0:0:
192,96,192489,1,0,0:0:0:0:
192,128,192614,1,0,0:0:0:0:
192,160,192739,1,8,0:0:0:0:
192,224,192989,1,8,0:0:0:0:
192,256,193114,1,0,0:0:0:0:
192,320,193322,1,8,0:0:0:0:
128,384,193489,1,0,0:0:0:0:
128,0,193739,1,0,0:0:0:0:
128,32,193864,1,0,0:0:0:0:
128,64,193989,1,8,0:0:0:0:
128,96,194114,1,0,0:0:0:0:
128,128,194239,1,8,0:0:0:0:
128,256,194489,1,0,0:0:0:0:
128,288,194614,1,8,0:0:0:0:
128,352,194822,1,8,0:0:0:0:
64,384,194989,1,0,0:0:0:0:
64,64,195364,1,0,0:0:0:0:
64,96,195457,1,0,0:0:0:0:
64,128,195551,1,0,0:0:0:0:
64,160,195739,1,8,0:0:0:0:
64,224,195989,1,8,0:0:0:0:
64,256,196114,1,8,0:0:0:0:
64,320,196322,1,0,0:0:0:0:
0,384,196489,1,0,0:0:0:0:
0,0,196739,1,0,0:0:0:0:
7,25,196801,1,8,0:0:0:0:
0,64,196864,1,0,0:0:0:0:
0,96,196989,1,0,0:0:0:0:
0,128,197114,1,0,0:0:0:0:
0,192,197239,1,8,0:0:0:0:
0,288,197567,1,0,0:0:0:0:
9,323,197707,1,8,0:0:0:0:
0,352,197895,1,8,0:0:0:0:
448,384,197989,1,0,0:0:0:0:
448,32,198239,1,8,0:0:0:0:
448,64,198364,1,8,0:0:0:0:
448,96,198489,1,0,0:0:0:0:
448,128,198614,1,0,0:0:0:0:
448,160,198739,1,8,0:0:0:0:
448,256,198989,1,0,0:0:0:0:
448,288,199114,1,0,0:0:0:0:
448,352,199322,1,8,0:0:0:0:
384,384,199489,1,0,0:0:0:0:
384,32,199739,1,0,0:0:0:0:
384,64,199864,1,0,0:0:0:0:
384,96,199989,1,8,0:0:0:0:
384,128,200114,1,0,0:0:0:0:
384,160,200239,1,8,0:0:0:0:
384,224,200489,1,0,0:0:0:0:
384,256,200614,1,8,0:0:0:0:
384,320,200822,1,0,0:0:0:0:
320,384,200989,1,8,0:0:0:0:
320,0,201239,1,8,0:0:0:0:
334,71,201364,1,0,0:0:0:0:
320,128,201614,1,0,0:0:0:0:
312,201,201739,1,8,0:0:0:0:
320,256,201989,1,8,0:0:0:0:
320,288,202114,1,8,0:0:0:0:
320,352,202322,1,0,0:0:0:0:
256,384,202489,1,8,0:0:0:0:
263,0,202739,1,0,0:0:0:0:
254,21,202801,1,0,0:0:0:0:
259,37,202864,1,8,0:0:0:0:
263,83,202989,1,8,0:0:0:0:
256,128,203114,1,0,0:0:0:0:
256,192,203239,1,8,0:0:0:0:
256,256,203520,1,0,0:0:0:0:
256,288,203660,1,8,0:0:0:0:
256,352,203864,1,8,0:0:0:0:
192,384,203989,1,0,0:0:0:0:
192,32,204239,1,8,0:0:0:0:
192,64,204364,1,0,0:0:0:0:
192,96,204489,1,0,0:0:0:0:
192,128,204614,1,0,0:0:0:0:
192,160,204739,1,8,0:0:0:0:
192,224,204989,1,0,0:0:0:0:
192,256,205114,1,8,0:0:0:0:
192,320,205322,1,8,0:0:0:0:
128,384,205489,1,0,0:0:0:0:
128,0,205739,1,0,0:0:0:0:
128,32,205864,1,0,0:0:0:0:
128,64,205989,1,0,0:0:0:0:
128,96,206114,1,0,0:0:0:0:
128,128,206239,1,8,0:0:0:0:
128,256,206489,1,0,0:0:0:0:
128,288,206614,1,8,0:0:0:0:
128,352,206822,1,0,0:0:0:0:
64,384,206989,1,0,0:0:0:0:
64,64,207364,1,0,0:0:0:0:
64,96,207457,1,0,0:0:0:0:
64,128,207551,1,0,0:0:0:0:
64,160,207739,1,8,0:0:0:0:
64,224,207989,1,0,0:0:0:0:
64,256,208114,1,8,0:0:0:0:
63,331,208322,1,0,0:0:0:0:
0,384,208489,1,0,0:0:0:0:
0,0,208739,1,0,0:0:0:0:
6,33,208801,1,0,0:0:0:0:
0,50,208864,1,8,0:0:0:0:
0,95,208989,1,0,0:0:0:0:
0,128,209114,1,0,0:0:0:0:
4,153,209239,1,8,0:0:0:0:
0,288,209614,1,8,0:0:0:0:
448,384,209989,1,0,0:0:0:0:
448,0,210739,1,8,0:0:0:0:
448,352,211301,1,0,0:0:0:0:
384,384,211489,1,0,0:0:0:0:
384,192,211864,1,0,0:0:0:0:
384,0,212239,1,8,0:0:0:0:
320,384,212989,1,0,0:0:0:0:
320,192,213364,1,0,0:0:0:0:
320,0,213739,1,8,0:0:0:0:
320,192,214114,1,8,0:0:0:0:
256,384,214489,1,0,0:0:0:0:
256,0,215239,1,8,0:0:0:0:
256,192,215614,1,8,0:0:0:0:
192,384,215989,1,0,0:0:0:0:
192,0,216739,1,8,0:0:0:0:
192,192,217114,1,8,0:0:0:0:
192,352,217364,1,0,0:0:0:0:
128,384,217489,1,0,0:0:0:0:
128,64,218114,1,0,0:0:0:0:
128,0,218239,1,8,0:0:0:0:
64,384,218989,1,0,0:0:0:0:
64,192,219364,1,0,0:0:0:0:
64,0,219739,1,8,0:0:0:0:
64,192,220114,1,8,0:0:0:0:
0,384,220489,1,0,0:0:0:0:
0,0,221239,1,8,0:0:0:0:
0,192,221614,1,8,0:0:0:0:
512,384,221989,1,0,0:0:0:0:
512,0,222739,1,8,0:0:0:0:
512,352,223301,1,0,0:0:0:0:
448,384,223489,1,0,0:0:0:0:
448,192,223864,1,0,0:0:0:0:
448,0,224239,1,8,0:0:0:0:
384,384,224989,1,0,0:0:0:0:
384,192,225364,1,0,0:0:0:0:
384,0,225739,1,8,0:0:0:0:
384,192,226114,1,0,0:0:0:0:
320,384,226489,1,8,0:0:0:0:
256,384,227989,1,0,0:0:0:0:
256,288,229489,1,0,0:0:0:0:
256,192,230989,12,0,236989,0:0:0:0:
