osu file format v14

[General]
AudioFilename: audio.ogg
AudioLeadIn: 0
PreviewTime: 104177
Countdown: 0
SampleSet: Normal
StackLeniency: 0
Mode: 1
LetterboxInBreaks: 0
WidescreenStoryboard: 0

[Editor]
Bookmarks: 29992,56992,80992,104992,128992,161992,185990,209990
DistanceSpacing: 1.5
BeatDivisor: 6
GridSize: 32
TimelineZoom: 1

[Metadata]
Title:Gakkou o Yasunda Hi no Koto
TitleUnicode:学校を休んだ日のこと
Artist:Kikuo
ArtistUnicode:きくお
Creator:Alchyr
Version:Muzukashii
Source:
Tags:the day when I was absent away from school japanese electronic experimental vocaloid 初音ミク hatsune miku 6
BeatmapID:3280231
BeatmapSetID:1606407

[Difficulty]
HPDrainRate:8
CircleSize:6
OverallDifficulty:5
ApproachRate:10
SliderMultiplier:1.4
SliderTickRate:1

[Events]
//Background and Video events
0,0,"bg.jpg",0,0
//Break Periods
//Storyboard Layer 0 (Background)
//Storyboard Layer 1 (Fail)
//Storyboard Layer 2 (Pass)
//Storyboard Layer 3 (Foreground)
//Storyboard Layer 4 (Overlay)
//Storyboard Sound Samples

[TimingPoints]
-11,750,4,1,0,30,1,8
-11,-120.481927710843,4,1,0,30,0,8
26989,-133.333333333333,4,1,0,30,0,0
29114,-100,4,1,0,40,0,0
51739,-100,4,1,0,37,0,0
51989,-100,4,1,0,34,0,0
52239,-100,4,1,0,31,0,0
52489,-100,4,1,0,28,0,0
52739,-100,4,1,0,26,0,0
52989,-100,4,1,0,24,0,0
53239,-100,4,1,0,22,0,0
53489,-100,4,1,0,20,0,0
53739,-100,4,1,0,18,0,0
53989,-100,4,1,0,16,0,0
54239,-100,4,1,0,14,0,0
54489,-100,4,1,0,12,0,0
54739,-100,4,1,0,10,0,0
56114,-50,4,1,0,60,0,0
56426,-100,4,1,0,55,0,0
56614,-100,4,1,0,50,0,0
56801,-100,4,1,0,45,0,0
56989,-66.6666666666667,4,1,0,50,0,1
80989,-66.6666666666667,4,1,0,50,0,0
81114,-66.6666666666667,4,1,0,40,0,0
81739,-67.4698795180723,4,1,0,40,0,0
82489,-68.2926829268293,4,1,0,40,0,0
83239,-69.1358024691358,4,1,0,40,0,0
83989,-70,4,1,0,40,0,0
84364,-70.440251572327,4,1,0,40,0,0
84739,-70.8860759493671,4,1,0,40,0,0
85114,-71.3375796178344,4,1,0,40,0,0
85489,-71.7948717948718,4,1,0,40,0,0
86239,-72.7272727272727,4,1,0,40,0,0
86614,-73.202614379085,4,1,0,40,0,0
86989,-73.6842105263158,4,1,0,40,0,0
87739,-74.6666666666667,4,1,0,40,0,0
88114,-75.1677852348993,4,1,0,40,0,0
88489,-75.6756756756757,4,1,0,40,0,0
89239,-76.7123287671233,4,1,0,40,0,0
89989,-77.7777777777778,4,1,0,40,0,0
90364,-78.3216783216783,4,1,0,40,0,0
90739,-78.8732394366197,4,1,0,40,0,0
91114,-79.4326241134752,4,1,0,40,0,0
91489,-80,4,1,0,40,0,0
92239,-81.1594202898551,4,1,0,40,0,0
92614,-81.7518248175183,4,1,0,40,0,0
92989,-82.3529411764706,4,1,0,40,0,0
93739,-83.5820895522388,4,1,0,40,0,0
94489,-84.8484848484848,4,1,0,40,0,0
95239,-86.1538461538462,4,1,0,40,0,0
95989,-87.5,4,1,0,40,0,0
96364,-88.1889763779528,4,1,0,40,0,0
96739,-88.8888888888889,4,1,0,40,0,0
97114,-89.6,4,1,0,40,0,0
97489,-90.3225806451613,4,1,0,40,0,0
98239,-91.8032786885246,4,1,0,40,0,0
98614,-92.5619834710744,4,1,0,40,0,0
98989,-93.3333333333333,4,1,0,40,0,0
99739,-94.9152542372881,4,1,0,40,0,0
100114,-95.7264957264957,4,1,0,40,0,0
100489,-96.551724137931,4,1,0,40,0,0
100864,-97.3913043478261,4,1,0,40,0,0
101239,-98.2456140350877,4,1,0,40,0,0
101614,-99.1150442477876,4,1,0,40,0,0
101989,-100,4,1,0,40,0,0
127739,-100,4,1,0,38,0,0
127989,-100,4,1,0,36,0,0
128239,-100,4,1,0,34,0,0
128489,-100,4,1,0,32,0,0
128739,-100,4,1,0,31,0,0
128989,-87.719298245614,4,1,0,30,0,0
152864,-100,4,1,0,25,0,0
154364,-120.481927710843,4,1,0,27,0,0
155864,-133.333333333333,4,1,0,30,0,0
158707,-151.515151515152,4,1,0,28,0,0
158754,-151.515151515152,4,1,0,26,0,0
158801,-151.515151515152,4,1,0,24,0,0
158848,-151.515151515152,4,1,0,22,0,0
158895,-151.515151515152,4,1,0,20,0,0
158942,-151.515151515152,4,1,0,17,0,0
158989,-151.515151515152,4,1,0,12,0,0
159035,-151.515151515152,4,1,0,8,0,0
159082,-151.515151515152,4,1,0,5,0,0
160395,-76.9230769230769,4,1,0,40,0,0
161192,-58.4795321637427,4,1,0,70,0,0
161848,-66.6666666666667,4,1,0,66,0,0
161895,-66.6666666666667,4,1,0,62,0,0
161942,-66.6666666666667,4,1,0,58,0,0
161989,-66.6666666666667,4,1,0,55,0,1
209614,-71.4285714285714,4,1,0,53,0,1
209989,-76.9230769230769,4,1,0,50,0,0
210139,-76.9230769230769,4,1,0,48,0,0
210289,-76.9230769230769,4,1,0,46,0,0
210439,-76.9230769230769,4,1,0,44,0,0
210589,-76.9230769230769,4,1,0,42,0,0
210739,-77.6699029126214,4,1,0,40,0,0
211489,-78.4313725490196,4,1,0,40,0,0
212239,-79.2079207920792,4,1,0,40,0,0
212989,-80,4,1,0,40,0,0
213364,-80.4020100502512,4,1,0,40,0,0
213739,-80.8080808080808,4,1,0,40,0,0
214114,-81.2182741116751,4,1,0,40,0,0
214489,-81.6326530612245,4,1,0,40,0,0
215239,-82.4742268041237,4,1,0,40,0,0
215614,-82.9015544041451,4,1,0,40,0,0
215989,-83.3333333333333,4,1,0,40,0,0
216739,-84.2105263157895,4,1,0,40,0,0
217114,-84.6560846560846,4,1,0,40,0,0
217489,-85.1063829787234,4,1,0,40,0,0
218239,-86.0215053763441,4,1,0,40,0,0
218989,-86.9565217391304,4,1,0,40,0,0
219364,-87.431693989071,4,1,0,40,0,0
219739,-87.9120879120879,4,1,0,40,0,0
220114,-88.3977900552486,4,1,0,40,0,0
220489,-88.8888888888889,4,1,0,40,0,0
221239,-89.8876404494382,4,1,0,40,0,0
221614,-90.3954802259887,4,1,0,40,0,0
221989,-90.9090909090909,4,1,0,40,0,0
222739,-91.9540229885058,4,1,0,40,0,0
223489,-93.0232558139535,4,1,0,40,0,0
224239,-94.1176470588235,4,1,0,40,0,0
224989,-95.2380952380952,4,1,0,40,0,0
225364,-95.8083832335329,4,1,0,40,0,0
225739,-96.3855421686747,4,1,0,40,0,0
226114,-96.969696969697,4,1,0,40,0,0
226489,-97.5609756097561,4,1,0,40,0,0
227314,-100,4,1,0,38,0,0
227389,-100,4,1,0,36,0,0
227464,-100,4,1,0,34,0,0
227539,-100,4,1,0,32,0,0
227614,-100,4,1,0,30,0,0
227689,-100,4,1,0,28,0,0
227764,-100,4,1,0,26,0,0
227839,-100,4,1,0,24,0,0
227914,-100,4,1,0,22,0,0
227989,-100,4,1,0,20,0,0
229489,-120.481927710843,4,1,0,20,0,0
233689,-150.15015015015,4,1,0,19,0,0
233764,-150.15015015015,4,1,0,18,0,0
233839,-150.15015015015,4,1,0,17,0,0
233914,-150.15015015015,4,1,0,16,0,0
233989,-150.15015015015,4,1,0,15,0,0
236989,-100,4,1,0,5,0,0

[HitObjects]
512,64,2239,5,8,0:0:0:0:
512,96,2614,1,8,0:0:0:0:
512,128,2989,1,0,0:0:0:0:
512,192,3739,1,8,0:0:0:0:
512,224,4489,1,0,0:0:0:0:
512,288,5239,1,0,0:0:0:0:
448,0,5989,1,8,0:0:0:0:
448,32,6364,1,0,0:0:0:0:
448,64,6739,1,0,0:0:0:0:
448,96,7114,1,0,0:0:0:0:
448,128,7489,1,8,0:0:0:0:
448,224,8239,1,0,0:0:0:0:
448,256,8614,1,0,0:0:0:0:
448,288,8989,1,8,0:0:0:0:
384,0,9739,1,8,0:0:0:0:
384,32,10114,1,8,0:0:0:0:
384,96,10489,1,0,0:0:0:0:
384,160,11239,1,8,0:0:0:0:
384,224,11989,1,0,0:0:0:0:
384,256,12364,1,0,0:0:0:0:
384,288,12739,1,8,0:0:0:0:
384,320,13114,1,8,0:0:0:0:
384,352,13489,1,0,0:0:0:0:
320,0,14239,1,8,0:0:0:0:
320,32,14614,1,8,0:0:0:0:
320,64,14989,1,0,0:0:0:0:
320,128,15739,1,8,0:0:0:0:
320,192,16489,1,0,0:0:0:0:
320,256,17239,1,0,0:0:0:0:
256,0,17989,1,8,0:0:0:0:
256,32,18364,1,0,0:0:0:0:
256,96,18739,1,0,0:0:0:0:
256,128,19114,1,0,0:0:0:0:
256,160,19489,1,8,0:0:0:0:
256,224,20239,1,0,0:0:0:0:
256,256,20614,1,0,0:0:0:0:
256,288,20989,1,8,0:0:0:0:
192,0,21739,1,0,0:0:0:0:
192,32,22114,1,0,0:0:0:0:
192,64,22489,1,8,0:0:0:0:
192,96,22864,1,8,0:0:0:0:
192,128,23239,1,0,0:0:0:0:
192,192,23614,1,0,0:0:0:0:
192,224,23989,1,8,0:0:0:0:
192,288,24364,1,8,0:0:0:0:
192,320,24551,1,8,0:0:0:0:
448,0,29239,1,0,0:0:0:0:
448,32,29614,1,0,0:0:0:0:
448,64,29989,1,8,0:0:0:0:
448,96,30364,1,0,0:0:0:0:
448,160,30739,1,8,0:0:0:0:
448,192,31114,1,8,0:0:0:0:
448,224,31489,1,0,0:0:0:0:
384,0,32239,1,8,0:0:0:0:
384,32,32614,1,0,0:0:0:0:
384,64,32989,1,8,0:0:0:0:
384,128,33364,1,0,0:0:0:0:
384,160,33739,1,0,0:0:0:0:
384,224,34114,1,0,0:0:0:0:
384,256,34489,1,8,0:0:0:0:
320,0,35239,1,0,0:0:0:0:
320,32,35614,1,0,0:0:0:0:
320,96,35989,1,8,0:0:0:0:
320,128,36364,1,8,0:0:0:0:
320,160,36739,1,0,0:0:0:0:
320,192,37114,1,0,0:0:0:0:
320,224,37489,1,8,0:0:0:0:
320,288,38239,1,0,0:0:0:0:
320,320,38614,1,8,0:0:0:0:
256,0,38989,1,0,0:0:0:0:
256,64,39364,1,0,0:0:0:0:
256,128,39739,1,8,0:0:0:0:
256,160,40114,1,8,0:0:0:0:
256,192,40489,1,0,0:0:0:0:
192,0,41239,1,8,0:0:0:0:
192,32,41614,1,8,0:0:0:0:
192,64,41989,1,0,0:0:0:0:
192,96,42364,1,0,0:0:0:0:
192,160,42739,1,8,0:0:0:0:
192,192,43114,1,0,0:0:0:0:
192,256,43489,1,8,0:0:0:0:
128,0,44239,1,0,0:0:0:0:
128,32,44614,1,0,0:0:0:0:
128,64,44989,1,8,0:0:0:0:
128,128,45364,1,0,0:0:0:0:
128,160,45739,1,0,0:0:0:0:
128,192,46114,1,0,0:0:0:0:
128,224,46489,1,8,0:0:0:0:
64,0,47239,1,8,0:0:0:0:
64,32,47614,1,0,0:0:0:0:
64,64,47989,1,8,0:0:0:0:
64,160,48739,1,0,0:0:0:0:
64,192,49114,1,0,0:0:0:0:
64,256,49489,1,8,0:0:0:0:
64,320,49864,1,8,0:0:0:0:
64,288,50239,1,0,0:0:0:0:
64,352,50614,1,0,0:0:0:0:
64,384,50989,1,8,0:0:0:0:
0,0,51364,1,8,0:0:0:0:
0,32,51551,1,8,0:0:0:0:
512,64,56239,1,12,0:0:0:0:
448,384,56989,1,0,0:0:0:0:
448,64,57364,1,0,0:0:0:0:
448,96,57489,1,0,0:0:0:0:
448,128,57614,1,0,0:0:0:0:
448,160,57739,1,8,0:0:0:0:
448,256,57989,1,0,0:0:0:0:
448,288,58114,1,0,0:0:0:0:
384,384,58489,1,0,0:0:0:0:
384,64,58864,1,8,0:0:0:0:
384,96,58989,1,0,0:0:0:0:
384,128,59114,1,0,0:0:0:0:
384,160,59239,1,8,0:0:0:0:
384,224,59489,1,0,0:0:0:0:
384,256,59614,1,8,0:0:0:0:
320,384,59989,1,0,0:0:0:0:
320,0,60239,1,0,0:0:0:0:
320,64,60364,1,0,0:0:0:0:
320,160,60614,1,8,0:0:0:0:
320,192,60739,1,8,0:0:0:0:
320,256,60989,1,0,0:0:0:0:
320,288,61114,1,0,0:0:0:0:
256,384,61489,1,0,0:0:0:0:
256,64,61739,1,8,0:0:0:0:
256,96,61864,1,0,0:0:0:0:
256,128,61989,1,8,0:0:0:0:
256,160,62114,1,0,0:0:0:0:
256,192,62239,1,8,0:0:0:0:
256,288,62489,1,0,0:0:0:0:
256,320,62614,1,8,0:0:0:0:
192,384,62989,1,0,0:0:0:0:
192,64,63364,1,0,0:0:0:0:
192,96,63489,1,0,0:0:0:0:
192,128,63614,1,0,0:0:0:0:
192,160,63739,1,8,0:0:0:0:
192,224,63989,1,0,0:0:0:0:
192,256,64114,1,0,0:0:0:0:
128,384,64489,1,0,0:0:0:0:
128,32,64864,1,8,0:0:0:0:
128,64,64989,1,0,0:0:0:0:
128,96,65114,1,0,0:0:0:0:
128,128,65239,1,8,0:0:0:0:
128,256,65489,1,0,0:0:0:0:
128,288,65614,1,8,0:0:0:0:
64,384,65989,1,0,0:0:0:0:
64,64,66364,1,0,0:0:0:0:
64,96,66457,1,0,0:0:0:0:
64,128,66551,1,0,0:0:0:0:
64,160,66739,1,8,0:0:0:0:
64,224,66989,1,0,0:0:0:0:
64,256,67114,1,8,0:0:0:0:
0,384,67489,1,0,0:0:0:0:
0,32,67739,1,8,0:0:0:0:
0,64,67864,1,8,0:0:0:0:
0,96,67989,1,0,0:0:0:0:
0,128,68114,1,0,0:0:0:0:
0,160,68239,1,8,0:0:0:0:
448,384,68989,1,0,0:0:0:0:
448,64,69364,1,0,0:0:0:0:
448,96,69489,1,0,0:0:0:0:
448,128,69614,1,0,0:0:0:0:
448,160,69739,1,8,0:0:0:0:
448,256,69989,1,0,0:0:0:0:
448,288,70114,1,0,0:0:0:0:
384,384,70489,1,0,0:0:0:0:
384,64,70864,1,8,0:0:0:0:
384,96,70989,1,0,0:0:0:0:
384,128,71114,1,0,0:0:0:0:
384,160,71239,1,8,0:0:0:0:
384,224,71489,1,0,0:0:0:0:
384,256,71614,1,8,0:0:0:0:
320,384,71989,1,0,0:0:0:0:
320,0,72239,1,8,0:0:0:0:
334,71,72364,1,8,0:0:0:0:
320,128,72614,1,8,0:0:0:0:
312,201,72739,1,8,0:0:0:0:
320,256,72989,1,0,0:0:0:0:
320,288,73114,1,0,0:0:0:0:
256,352,73489,1,0,0:0:0:0:
256,0,73739,1,8,0:0:0:0:
256,64,73864,1,0,0:0:0:0:
256,96,73989,1,8,0:0:0:0:
256,160,74114,1,0,0:0:0:0:
256,192,74239,1,8,0:0:0:0:
256,256,74489,1,0,0:0:0:0:
256,288,74614,1,8,0:0:0:0:
192,384,74989,1,0,0:0:0:0:
192,64,75364,1,0,0:0:0:0:
192,96,75489,1,0,0:0:0:0:
192,128,75614,1,0,0:0:0:0:
192,160,75739,1,8,0:0:0:0:
192,224,75989,1,0,0:0:0:0:
192,256,76114,1,0,0:0:0:0:
128,384,76489,1,0,0:0:0:0:
128,32,76864,1,8,0:0:0:0:
128,64,76989,1,0,0:0:0:0:
128,96,77114,1,0,0:0:0:0:
128,128,77239,1,8,0:0:0:0:
128,224,77489,1,0,0:0:0:0:
128,256,77614,1,8,0:0:0:0:
64,384,77989,1,0,0:0:0:0:
64,64,78364,1,0,0:0:0:0:
64,96,78457,1,0,0:0:0:0:
64,128,78551,1,0,0:0:0:0:
64,160,78739,1,8,0:0:0:0:
64,224,78989,1,0,0:0:0:0:
64,256,79114,1,8,0:0:0:0:
0,384,79489,1,0,0:0:0:0:
0,32,79739,1,8,0:0:0:0:
0,64,79864,1,8,0:0:0:0:
0,96,79989,1,0,0:0:0:0:
0,128,80114,1,0,0:0:0:0:
0,160,80239,1,8,0:0:0:0:
0,288,80614,1,8,0:0:0:0:
448,384,80989,1,0,0:0:0:0:
448,128,81739,1,8,0:0:0:0:
384,384,82489,1,0,0:0:0:0:
384,256,83239,1,0,0:0:0:0:
320,0,83989,1,8,0:0:0:0:
320,64,84364,1,8,0:0:0:0:
320,208,84739,1,0,0:0:0:0:
320,288,85114,1,0,0:0:0:0:
256,384,85489,1,8,0:0:0:0:
256,128,86239,1,0,0:0:0:0:
256,224,86614,1,0,0:0:0:0:
192,384,86989,1,8,0:0:0:0:
192,128,87739,1,8,0:0:0:0:
192,208,88114,1,0,0:0:0:0:
128,384,88489,1,8,0:0:0:0:
128,80,89239,1,0,0:0:0:0:
64,384,89989,1,0,0:0:0:0:
64,112,90364,1,0,0:0:0:0:
62,215,90739,1,8,0:0:0:0:
64,272,91114,1,8,0:0:0:0:
0,384,91489,1,0,0:0:0:0:
0,160,92239,1,8,0:0:0:0:
0,224,92614,1,8,0:0:0:0:
448,384,92989,1,0,0:0:0:0:
448,96,93739,1,8,0:0:0:0:
384,384,94489,1,0,0:0:0:0:
384,176,95239,1,0,0:0:0:0:
320,384,95989,1,8,0:0:0:0:
320,0,96364,1,0,0:0:0:0:
320,192,96739,1,0,0:0:0:0:
320,288,97114,1,0,0:0:0:0:
256,384,97489,1,8,0:0:0:0:
256,128,98239,1,8,0:0:0:0:
256,224,98614,1,8,0:0:0:0:
192,384,98989,1,0,0:0:0:0:
192,128,99739,1,8,0:0:0:0:
192,208,100114,1,0,0:0:0:0:
128,384,100489,1,8,0:0:0:0:
128,32,100864,1,8,0:0:0:0:
128,80,101239,1,0,0:0:0:0:
128,160,101614,1,0,0:0:0:0:
64,384,101989,1,8,0:0:0:0:
64,96,102364,1,8,0:0:0:0:
64,128,102551,1,8,0:0:0:0:
3,198,104239,1,8,0:0:0:0:
512,384,104989,1,0,0:0:0:0:
512,0,105739,1,8,0:0:0:0:
448,384,106489,1,0,0:0:0:0:
448,0,107239,1,8,0:0:0:0:
384,384,107989,1,0,0:0:0:0:
384,0,108739,1,8,0:0:0:0:
384,192,109114,1,8,0:0:0:0:
320,384,109489,1,0,0:0:0:0:
320,0,110239,1,0,0:0:0:0:
320,192,110614,1,8,0:0:0:0:
256,384,110989,1,0,0:0:0:0:
256,0,111739,1,8,0:0:0:0:
256,192,112114,1,8,0:0:0:0:
192,384,112489,1,0,0:0:0:0:
192,0,113239,1,0,0:0:0:0:
192,192,113614,1,8,0:0:0:0:
128,384,113989,1,0,0:0:0:0:
128,192,114364,1,0,0:0:0:0:
128,0,114739,1,8,0:0:0:0:
128,192,115114,1,8,0:0:0:0:
64,384,115489,1,0,0:0:0:0:
64,0,116239,1,8,0:0:0:0:
64,192,116614,1,8,0:0:0:0:
448,384,116989,1,0,0:0:0:0:
448,192,117364,1,0,0:0:0:0:
448,0,117739,1,8,0:0:0:0:
448,192,118114,1,0,0:0:0:0:
384,384,118489,1,8,0:0:0:0:
384,0,119239,1,0,0:0:0:0:
384,192,119614,1,8,0:0:0:0:
320,384,119989,1,0,0:0:0:0:
320,192,120364,1,0,0:0:0:0:
320,0,120739,1,8,0:0:0:0:
320,192,121114,1,8,0:0:0:0:
256,384,121489,1,0,0:0:0:0:
256,0,122239,1,8,0:0:0:0:
256,192,122614,1,8,0:0:0:0:
192,384,122989,1,0,0:0:0:0:
192,0,123739,1,8,0:0:0:0:
128,384,124489,1,0,0:0:0:0:
128,0,125239,1,8,0:0:0:0:
128,192,125614,1,8,0:0:0:0:
64,384,125989,1,0,0:0:0:0:
64,0,126739,1,8,0:0:0:0:
0,384,127489,1,0,0:0:0:0:
512,0,128989,1,8,0:0:0:0:
512,32,129739,1,8,0:0:0:0:
512,64,130489,1,0,0:0:0:0:
512,128,131239,1,8,0:0:0:0:
512,160,131989,1,0,0:0:0:0:
512,192,132364,1,0,0:0:0:0:
512,224,132739,1,8,0:0:0:0:
512,256,133114,1,0,0:0:0:0:
512,288,133489,1,8,0:0:0:0:
448,32,134239,1,8,0:0:0:0:
448,64,134614,1,8,0:0:0:0:
448,96,134989,1,0,0:0:0:0:
448,160,135739,1,8,0:0:0:0:
448,192,136114,1,0,0:0:0:0:
448,224,136489,1,8,0:0:0:0:
448,320,137239,1,8,0:0:0:0:
384,32,137989,1,0,0:0:0:0:
384,64,138364,1,0,0:0:0:0:
384,128,138739,1,8,0:0:0:0:
384,192,139114,1,8,0:0:0:0:
384,256,139489,1,0,0:0:0:0:
320,64,140239,1,8,0:0:0:0:
320,96,140614,1,8,0:0:0:0:
320,160,140989,1,0,0:0:0:0:
320,288,141739,1,8,0:0:0:0:
320,320,142489,1,8,0:0:0:0:
320,352,143239,1,8,0:0:0:0:
256,32,143989,1,0,0:0:0:0:
256,64,144364,1,0,0:0:0:0:
256,128,144739,1,8,0:0:0:0:
256,160,145114,1,0,0:0:0:0:
256,224,145489,1,8,0:0:0:0:
256,288,146239,1,8,0:0:0:0:
256,320,146614,1,8,0:0:0:0:
192,64,146989,1,0,0:0:0:0:
192,128,147739,1,8,0:0:0:0:
192,160,148114,1,0,0:0:0:0:
192,192,148489,1,8,0:0:0:0:
192,224,148864,1,8,0:0:0:0:
192,256,149239,1,0,0:0:0:0:
192,288,149614,1,0,0:0:0:0:
128,32,149989,1,8,0:0:0:0:
128,160,150364,1,0,0:0:0:0:
0,0,150739,1,8,0:0:0:0:
0,384,152239,1,8,0:0:0:0:
512,64,152989,1,0,0:0:0:0:
512,192,154489,1,0,0:0:0:0:
512,320,155989,1,0,0:0:0:0:
0,192,160489,1,8,0:0:0:0:
512,192,160639,1,8,0:0:0:0:
256,192,161239,12,0,161614,0:0:0:0:
448,384,161989,5,0,0:0:0:0:
448,64,162364,1,0,0:0:0:0:
448,96,162489,1,0,0:0:0:0:
448,128,162614,1,0,0:0:0:0:
448,160,162739,1,8,0:0:0:0:
448,256,162989,1,0,0:0:0:0:
448,288,163114,1,0,0:0:0:0:
384,384,163489,1,0,0:0:0:0:
384,64,163864,1,8,0:0:0:0:
384,96,163989,1,0,0:0:0:0:
384,128,164114,1,0,0:0:0:0:
384,160,164239,1,8,0:0:0:0:
384,224,164489,1,0,0:0:0:0:
384,256,164614,1,8,0:0:0:0:
320,384,164989,1,0,0:0:0:0:
320,0,165239,1,0,0:0:0:0:
334,71,165364,1,0,0:0:0:0:
320,128,165614,1,8,0:0:0:0:
320,192,165739,1,8,0:0:0:0:
320,256,165989,1,8,0:0:0:0:
320,288,166114,1,0,0:0:0:0:
256,384,166489,1,0,0:0:0:0:
256,0,166739,1,8,0:0:0:0:
256,64,166864,1,8,0:0:0:0:
256,128,166989,1,0,0:0:0:0:
256,192,167114,1,0,0:0:0:0:
250,200,167239,1,8,0:0:0:0:
256,256,167489,1,0,0:0:0:0:
259,278,167614,1,8,0:0:0:0:
192,384,167989,1,0,0:0:0:0:
192,64,168364,1,0,0:0:0:0:
192,96,168489,1,0,0:0:0:0:
192,128,168614,1,0,0:0:0:0:
192,160,168739,1,8,0:0:0:0:
192,224,168989,1,0,0:0:0:0:
192,256,169114,1,0,0:0:0:0:
128,384,169489,1,0,0:0:0:0:
128,32,169864,1,8,0:0:0:0:
128,64,169989,1,0,0:0:0:0:
128,96,170114,1,0,0:0:0:0:
128,128,170239,1,8,0:0:0:0:
128,256,170489,1,0,0:0:0:0:
128,288,170614,1,8,0:0:0:0:
64,384,170989,1,0,0:0:0:0:
64,64,171364,1,0,0:0:0:0:
64,96,171457,1,0,0:0:0:0:
64,128,171551,1,0,0:0:0:0:
64,160,171739,1,8,0:0:0:0:
64,224,171989,1,8,0:0:0:0:
64,256,172114,1,0,0:0:0:0:
0,384,172489,1,0,0:0:0:0:
0,32,172739,1,8,0:0:0:0:
0,64,172864,1,0,0:0:0:0:
0,96,172989,1,8,0:0:0:0:
0,128,173114,1,0,0:0:0:0:
0,160,173239,1,8,0:0:0:0:
448,384,173989,1,0,0:0:0:0:
448,64,174364,1,0,0:0:0:0:
448,96,174489,1,0,0:0:0:0:
448,128,174614,1,0,0:0:0:0:
448,160,174739,1,8,0:0:0:0:
448,256,174989,1,0,0:0:0:0:
448,288,175114,1,0,0:0:0:0:
384,384,175489,1,0,0:0:0:0:
384,96,175864,1,8,0:0:0:0:
384,64,175989,1,0,0:0:0:0:
384,128,176114,1,0,0:0:0:0:
384,160,176239,1,8,0:0:0:0:
384,224,176489,1,0,0:0:0:0:
384,256,176614,1,8,0:0:0:0:
320,384,176989,1,8,0:0:0:0:
320,0,177239,1,0,0:0:0:0:
334,71,177364,1,0,0:0:0:0:
320,128,177614,1,0,0:0:0:0:
312,201,177739,1,8,0:0:0:0:
320,256,177989,1,8,0:0:0:0:
320,288,178114,1,8,0:0:0:0:
256,384,178489,1,0,0:0:0:0:
256,0,178739,1,8,0:0:0:0:
256,32,178864,1,8,0:0:0:0:
256,96,178989,1,0,0:0:0:0:
256,128,179114,1,0,0:0:0:0:
256,192,179239,1,8,0:0:0:0:
256,256,179489,1,0,0:0:0:0:
256,288,179614,1,8,0:0:0:0:
192,384,179989,1,0,0:0:0:0:
192,64,180364,1,0,0:0:0:0:
192,96,180489,1,0,0:0:0:0:
192,128,180614,1,0,0:0:0:0:
192,160,180739,1,8,0:0:0:0:
192,224,180989,1,8,0:0:0:0:
192,256,181114,1,8,0:0:0:0:
128,384,181489,1,0,0:0:0:0:
128,32,181864,1,8,0:0:0:0:
128,64,181989,1,0,0:0:0:0:
128,96,182114,1,0,0:0:0:0:
128,128,182239,1,8,0:0:0:0:
128,256,182489,1,0,0:0:0:0:
128,288,182614,1,8,0:0:0:0:
64,384,182989,1,0,0:0:0:0:
64,64,183364,1,0,0:0:0:0:
64,96,183457,1,0,0:0:0:0:
64,128,183551,1,0,0:0:0:0:
64,160,183739,1,8,0:0:0:0:
64,224,183989,1,8,0:0:0:0:
64,256,184114,1,8,0:0:0:0:
0,384,184489,1,0,0:0:0:0:
0,32,184739,1,8,0:0:0:0:
0,64,184864,1,0,0:0:0:0:
0,96,184989,1,8,0:0:0:0:
0,128,185114,1,0,0:0:0:0:
0,160,185239,1,8,0:0:0:0:
448,384,185989,1,0,0:0:0:0:
448,64,186364,1,0,0:0:0:0:
448,96,186489,1,0,0:0:0:0:
448,128,186614,1,0,0:0:0:0:
448,160,186739,1,8,0:0:0:0:
448,256,186989,1,0,0:0:0:0:
448,288,187114,1,8,0:0:0:0:
384,384,187489,1,0,0:0:0:0:
384,32,187864,1,8,0:0:0:0:
384,96,187989,1,0,0:0:0:0:
384,128,188114,1,0,0:0:0:0:
384,160,188239,1,8,0:0:0:0:
384,256,188489,1,8,0:0:0:0:
384,224,188614,1,0,0:0:0:0:
320,384,188989,1,8,0:0:0:0:
320,0,189239,1,8,0:0:0:0:
334,71,189364,1,0,0:0:0:0:
320,128,189614,1,0,0:0:0:0:
320,192,189739,1,8,0:0:0:0:
320,256,189989,1,0,0:0:0:0:
320,288,190114,1,0,0:0:0:0:
256,384,190489,1,0,0:0:0:0:
259,20,190739,1,8,0:0:0:0:
256,64,190864,1,8,0:0:0:0:
256,96,190989,1,0,0:0:0:0:
260,136,191114,1,0,0:0:0:0:
256,192,191239,1,8,0:0:0:0:
256,256,191489,1,0,0:0:0:0:
256,288,191614,1,8,0:0:0:0:
192,384,191989,1,0,0:0:0:0:
192,64,192364,1,0,0:0:0:0:
192,96,192489,1,0,0:0:0:0:
192,128,192614,1,0,0:0:0:0:
192,160,192739,1,8,0:0:0:0:
192,224,192989,1,8,0:0:0:0:
192,256,193114,1,0,0:0:0:0:
128,384,193489,1,0,0:0:0:0:
128,32,193864,1,8,0:0:0:0:
128,64,193989,1,0,0:0:0:0:
128,96,194114,1,0,0:0:0:0:
128,128,194239,1,8,0:0:0:0:
128,256,194489,1,0,0:0:0:0:
128,288,194614,1,8,0:0:0:0:
64,384,194989,1,0,0:0:0:0:
64,64,195364,1,0,0:0:0:0:
64,96,195457,1,0,0:0:0:0:
64,128,195551,1,0,0:0:0:0:
64,160,195739,1,8,0:0:0:0:
64,224,195989,1,8,0:0:0:0:
64,256,196114,1,8,0:0:0:0:
0,384,196489,1,0,0:0:0:0:
0,32,196739,1,8,0:0:0:0:
0,64,196864,1,0,0:0:0:0:
0,96,196989,1,8,0:0:0:0:
0,128,197114,1,0,0:0:0:0:
0,160,197239,1,8,0:0:0:0:
448,384,197989,1,0,0:0:0:0:
448,64,198364,1,0,0:0:0:0:
448,96,198489,1,0,0:0:0:0:
448,128,198614,1,0,0:0:0:0:
448,160,198739,1,8,0:0:0:0:
448,256,198989,1,0,0:0:0:0:
448,288,199114,1,0,0:0:0:0:
384,384,199489,1,0,0:0:0:0:
384,96,199864,1,8,0:0:0:0:
384,64,199989,1,0,0:0:0:0:
384,128,200114,1,0,0:0:0:0:
384,160,200239,1,8,0:0:0:0:
384,224,200489,1,0,0:0:0:0:
384,256,200614,1,8,0:0:0:0:
320,384,200989,1,8,0:0:0:0:
320,0,201239,1,8,0:0:0:0:
334,71,201364,1,0,0:0:0:0:
320,128,201614,1,0,0:0:0:0:
312,201,201739,1,8,0:0:0:0:
320,256,201989,1,8,0:0:0:0:
320,288,202114,1,8,0:0:0:0:
256,384,202489,1,0,0:0:0:0:
256,0,202739,1,8,0:0:0:0:
256,32,202864,1,8,0:0:0:0:
256,64,202989,1,0,0:0:0:0:
256,96,203114,1,0,0:0:0:0:
256,128,203239,1,8,0:0:0:0:
256,256,203489,1,0,0:0:0:0:
256,288,203614,1,8,0:0:0:0:
192,384,203989,1,0,0:0:0:0:
192,64,204364,1,0,0:0:0:0:
192,96,204489,1,0,0:0:0:0:
192,128,204614,1,0,0:0:0:0:
192,160,204739,1,8,0:0:0:0:
192,224,204989,1,0,0:0:0:0:
192,256,205114,1,8,0:0:0:0:
128,384,205489,1,0,0:0:0:0:
128,32,205864,1,8,0:0:0:0:
128,64,205989,1,0,0:0:0:0:
128,96,206114,1,0,0:0:0:0:
128,128,206239,1,8,0:0:0:0:
128,256,206489,1,0,0:0:0:0:
128,288,206614,1,8,0:0:0:0:
64,384,206989,1,0,0:0:0:0:
64,64,207364,1,0,0:0:0:0:
64,96,207457,1,0,0:0:0:0:
64,128,207551,1,0,0:0:0:0:
64,160,207739,1,8,0:0:0:0:
64,224,207989,1,0,0:0:0:0:
64,256,208114,1,8,0:0:0:0:
0,384,208489,1,0,0:0:0:0:
0,0,208739,1,8,0:0:0:0:
0,50,208864,1,0,0:0:0:0:
0,95,208989,1,8,0:0:0:0:
0,128,209114,1,0,0:0:0:0:
4,153,209239,1,8,0:0:0:0:
0,288,209614,1,8,0:0:0:0:
448,384,209989,1,0,0:0:0:0:
448,0,210739,1,8,0:0:0:0:
384,384,211489,1,0,0:0:0:0:
384,0,212239,1,8,0:0:0:0:
320,384,212989,1,0,0:0:0:0:
320,192,213364,1,0,0:0:0:0:
320,0,213739,1,8,0:0:0:0:
320,192,214114,1,8,0:0:0:0:
256,384,214489,1,0,0:0:0:0:
256,0,215239,1,8,0:0:0:0:
256,192,215614,1,8,0:0:0:0:
192,384,215989,1,0,0:0:0:0:
192,0,216739,1,8,0:0:0:0:
192,192,217114,1,8,0:0:0:0:
128,384,217489,1,0,0:0:0:0:
128,0,218239,1,8,0:0:0:0:
64,384,218989,1,0,0:0:0:0:
64,192,219364,1,0,0:0:0:0:
64,0,219739,1,8,0:0:0:0:
64,192,220114,1,8,0:0:0:0:
0,384,220489,1,0,0:0:0:0:
0,0,221239,1,8,0:0:0:0:
0,192,221614,1,8,0:0:0:0:
512,384,221989,1,0,0:0:0:0:
512,0,222739,1,8,0:0:0:0:
448,384,223489,1,0,0:0:0:0:
448,0,224239,1,8,0:0:0:0:
384,384,224989,1,0,0:0:0:0:
384,192,225364,1,0,0:0:0:0:
384,0,225739,1,8,0:0:0:0:
384,192,226114,1,0,0:0:0:0:
320,384,226489,1,8,0:0:0:0:
256,384,227989,1,0,0:0:0:0:
256,288,229489,1,0,0:0:0:0:
256,192,230989,12,0,236989,0:0:0:0:
