osu file format v14

[General]
AudioFilename: audio.mp3
AudioLeadIn: 0
PreviewTime: 89843
Countdown: 0
SampleSet: Normal
StackLeniency: 0.3
Mode: 1
LetterboxInBreaks: 0
WidescreenStoryboard: 0

[Editor]
Bookmarks: 6204,35246,60937,90937,122792,202979
DistanceSpacing: 1
BeatDivisor: 12
GridSize: 32
TimelineZoom: 1

[Metadata]
Title:Cotton Candy
TitleUnicode:わたあめ
Artist:Kikuo
ArtistUnicode:きくお
Creator:Alchyr
Version:Muzukashii
Source:
Tags:wataame japanese electronic vocaloid 初音ミク hatsune miku 6
BeatmapID:2592631
BeatmapSetID:1247343

[Difficulty]
HPDrainRate:8
CircleSize:2
OverallDifficulty:3
ApproachRate:10
SliderMultiplier:1.4
SliderTickRate:3

[Events]
//Background and Video events
0,0,"bg.jpg",0,0
//Break Periods
//Storyboard Layer 0 (Background)
//Storyboard Layer 1 (Fail)
//Storyboard Layer 2 (Pass)
//Storyboard Layer 3 (Foreground)
//Storyboard Layer 4 (Overlay)
//Storyboard Sound Samples

[TimingPoints]
93,764.331210191083,8,1,0,5,1,8
3150,-100,8,1,0,6,0,0
3532,-100,8,1,0,7,0,0
3914,-100,8,1,0,8,0,0
6207,764.331210191083,4,1,0,5,1,0
6207,-96.1538461538461,4,1,0,5,0,0
6589,-105.263157894737,4,1,0,5,0,0
10219,-100,4,1,0,5,0,0
12321,-102.040816326531,4,1,0,5,0,0
13085,-96.1538461538461,4,1,0,5,0,0
13850,-92.5925925925926,4,1,0,5,0,0
15378,-100,4,1,0,5,0,0
18436,764.331210191083,5,1,0,5,1,0
18436,-97.0873786407767,5,1,0,5,0,0
19200,-100,5,1,0,5,0,0
19964,-104.166666666667,5,1,0,5,0,0
20346,-100,5,1,0,5,0,0
20728,-100,5,1,0,5,0,0
21111,-100,5,1,0,5,0,0
21493,-100,5,1,0,5,0,0
21875,-100,5,1,0,5,0,0
22257,-95.2380952380952,5,1,0,5,0,0
22639,-100,5,1,0,5,0,0
25314,764.331210191083,4,1,0,5,1,0
25314,-103.092783505155,4,1,0,5,0,0
26078,-96.1538461538461,4,1,0,5,0,0
26842,-92.5925925925926,4,1,0,5,0,0
27224,-97.0873786407767,4,1,0,5,0,0
28180,-95.2380952380952,4,1,0,5,0,0
28562,-100,4,1,0,5,0,0
31428,764.331210191083,5,1,0,5,1,0
31428,-102.040816326531,5,1,0,5,0,0
32192,-104.166666666667,5,1,0,5,0,0
32956,-106.382978723404,5,1,0,5,0,0
34103,-100,5,1,0,8,0,0
35121,-100,5,1,0,15,0,0
35249,764.331210191083,4,1,0,15,1,0
35249,-87.719298245614,4,1,0,15,0,0
39070,-83.3333333333333,4,1,0,15,0,0
39834,-85.4700854700855,4,1,0,15,0,0
40599,-87.719298245614,4,1,0,15,0,0
45185,-83.3333333333333,4,1,0,15,0,0
45949,-85.4700854700855,4,1,0,15,0,0
46713,-90.9090909090909,4,1,0,15,0,0
47478,-87.719298245614,4,1,0,15,0,0
51299,-83.3333333333333,4,1,0,15,0,0
52063,-85.4700854700855,4,1,0,15,0,0
53210,-85.4700854700855,4,1,0,8,0,0
53592,764.331210191083,5,1,0,8,1,0
53592,-100,4,1,0,8,0,0
55757,-100,4,1,0,5,0,0
56012,-100,4,1,0,8,0,0
57286,-100,4,1,0,50,0,0
57413,779.220779220779,4,1,0,50,1,0
57413,-87.719298245614,4,1,0,50,0,0
57672,-91.743119266055,4,1,0,50,0,0
57932,-96.1538461538461,4,1,0,50,0,0
58192,895.522388059702,4,1,0,50,1,8
58192,-87.719298245614,4,1,0,50,0,0
58490,-88.5618451223314,4,1,0,50,0,0
58789,-88.9576910980822,4,1,0,50,0,0
59087,923.076923076923,4,1,0,50,1,8
59087,-86.6898047534874,4,1,0,50,0,0
59394,-87.0807787293757,4,1,0,50,0,0
59702,-87.4752952943916,4,1,0,50,0,0
60010,930.232558139535,4,1,0,50,1,8
60010,-87.1975443332932,4,1,0,50,0,0
60320,-87.5962025294279,4,1,0,50,0,0
60630,-87.9985227162729,4,1,0,50,0,0
60940,937.5,4,1,0,50,1,1
60940,-87.7193415281838,4,1,0,50,0,1
61852,-100,4,1,0,50,0,1
86696,-100,4,1,0,40,0,1
87111,-100,4,1,0,20,0,1
87190,-87.719298245614,4,1,0,20,0,0
88127,-91.743119266055,4,1,0,20,0,0
89065,-95.2380952380952,4,1,0,20,0,0
89533,-100,4,1,0,25,0,0
90705,-87.719298245614,4,1,0,15,0,0
95627,-83.3333333333333,4,1,0,15,0,0
96565,-85.4700854700855,4,1,0,15,0,0
97502,-87.719298245614,4,1,0,15,0,0
103127,-83.3333333333333,4,1,0,15,0,0
104065,-85.4700854700855,4,1,0,15,0,0
105002,-90.9090909090909,4,1,0,15,0,0
105940,-87.719298245614,4,1,0,15,0,0
110627,-85.4700854700855,4,1,0,15,0,0
111565,-89.2857142857143,4,1,0,15,0,0
112502,-90.9090909090909,4,1,0,15,0,0
112971,-89.2857142857143,4,1,0,15,0,0
113440,937.5,5,1,0,8,1,0
113440,-87.719298245614,5,1,0,8,0,0
117658,-100,5,1,0,15,0,0
117815,-100,5,1,0,15,0,0
118010,-100,5,1,0,20,0,0
118127,983.606557377049,4,1,0,20,1,0
118127,-94.2133132740318,5,1,0,20,0,0
118454,-93.1392811528603,5,1,0,23,0,0
118782,-92.0893719806763,5,1,0,26,0,0
119110,1090.90909090909,4,1,0,29,1,8
119110,-82.1058655713804,5,1,0,29,0,0
119473,-81.200812976634,5,1,0,32,0,0
119837,-80.3154205607477,5,1,0,35,0,0
120200,1200,4,1,0,38,1,8
120200,-72.226480053473,5,1,0,38,0,0
120600,-71.4558144682361,5,1,0,40,0,0
121000,-70.7013574660633,5,1,0,42,0,0
121400,1411.76470588235,4,1,0,43,1,8
121400,-59.8802395209581,5,1,0,43,0,0
121865,-59.1715976331361,5,1,0,44,0,0
122330,-58.4795321637427,5,1,0,45,0,0
122672,-57.1428571428571,4,1,0,5,0,0
122811,1445.43483497952,4,1,0,5,1,0
122811,-60.6060606060606,4,1,0,5,0,0
123337,-66.6666666666667,4,1,0,10,0,0
123413,-66.6666666666667,4,1,0,10,0,1
123517,-76.9230769230769,4,1,0,12,0,1
123698,-76.9230769230769,4,1,0,18,0,1
123879,-76.9230769230769,4,1,0,22,0,1
124060,-76.9230769230769,4,1,0,26,0,1
124256,1445.26074912682,4,1,0,30,1,9
124421,-100,4,1,0,34,0,1
124603,-100,4,1,0,38,0,1
124784,-100,4,1,0,42,0,1
124964,-100,4,1,0,45,0,1
125687,-76.9230769230769,4,1,0,45,0,1
164482,-76.9230769230769,4,1,0,25,0,1
164697,1621.62162162162,4,1,0,25,1,0
164697,-76.9230769230769,4,1,0,25,0,0
166310,1764.70588235294,4,1,0,25,1,8
166751,-87.719298245614,4,1,0,25,0,0
168074,2000,4,1,0,27,1,8
168740,-100,4,1,0,30,0,0
169074,-100,4,1,0,33,0,0
169407,-100,4,1,0,36,0,0
169740,-100,4,1,0,40,0,0
169907,-100,4,1,0,60,0,0
170071,2181.81818181818,4,1,0,60,1,8
172180,-66.6666666666667,4,1,0,10,0,0
172244,2400,4,1,0,10,1,1
172244,-66.6666666666667,4,1,0,10,0,1
172319,-66.6666666666667,4,1,0,15,0,1
172394,-66.6666666666667,4,1,0,21,0,1
172469,-66.6666666666667,4,1,0,27,0,1
172544,-66.6666666666667,4,1,0,33,0,1
172619,-66.6666666666667,4,1,0,39,0,1
172694,-66.6666666666667,4,1,0,45,0,1
176961,-66.6666666666667,4,1,0,10,0,1
177100,-66.6666666666667,4,1,0,15,0,1
177175,-66.6666666666667,4,1,0,21,0,1
177250,-66.6666666666667,4,1,0,27,0,1
177325,-66.6666666666667,4,1,0,33,0,1
177400,-66.6666666666667,4,1,0,39,0,1
177475,-66.6666666666667,4,1,0,45,0,1
181774,-66.6666666666667,4,1,0,10,0,1
181913,-66.6666666666667,4,1,0,15,0,1
181988,-66.6666666666667,4,1,0,21,0,1
182063,-66.6666666666667,4,1,0,27,0,1
182138,-66.6666666666667,4,1,0,33,0,1
182213,-66.6666666666667,4,1,0,39,0,1
182288,-66.6666666666667,4,1,0,45,0,1
186572,-66.6666666666667,4,1,0,10,0,1
186711,-66.6666666666667,4,1,0,15,0,1
186786,-66.6666666666667,4,1,0,21,0,1
186861,-66.6666666666667,4,1,0,27,0,1
186936,-66.6666666666667,4,1,0,33,0,1
187011,-66.6666666666667,4,1,0,39,0,1
187086,-66.6666666666667,4,1,0,45,0,1
190881,-66.6666666666667,4,1,0,30,0,1
191294,-76.9230769230769,4,1,0,20,0,1
192055,-76.9230769230769,4,1,0,24,0,1
192636,-76.9230769230769,4,1,0,28,0,1
193217,-76.9230769230769,4,1,0,32,0,1
193798,2296.21125143513,4,1,0,45,1,1
193798,-50,4,1,0,45,0,1
202982,-100,4,1,0,40,0,0
206427,-100,4,1,0,37,0,0
207001,-100,4,1,0,34,0,0
207575,-100,4,1,0,31,0,0
208149,-100,4,1,0,28,0,0
208723,-100,4,1,0,25,0,0
209297,-100,4,1,0,22,0,0
209871,-100,4,1,0,19,0,0
211019,-100,4,1,0,25,0,0
211306,-100,4,1,0,30,0,0
211593,-100,4,1,0,35,0,0
211880,-100,4,1,0,10,0,0
212311,-100,4,1,0,5,0,0
215612,-100,4,1,0,7,0,0
216760,1090.90909090909,4,1,0,8,1,0
216896,-100,4,1,0,10,0,0
217032,-100,4,1,0,12,0,0
217169,-100,4,1,0,14,0,0
217305,-100,4,1,0,16,0,0
217441,-100,4,1,0,18,0,0
217578,-100,4,1,0,20,0,0
217714,-100,4,1,0,22,0,0
217850,1052.63157894737,4,1,0,24,1,8
217981,-100,4,1,0,26,0,0
218113,-100,4,1,0,28,0,0
218244,-100,4,1,0,30,0,0
218376,-100,4,1,0,32,0,0
218507,-100,4,1,0,34,0,0
218639,-100,4,1,0,36,0,0
218771,-100,4,1,0,38,0,0
218902,1016.94915254237,4,1,0,40,1,8
219918,1000,4,1,0,40,1,8
219918,-66.6666666666667,4,1,0,40,0,0
221918,983.606557377049,4,1,0,40,1,0
221918,-50,4,1,0,40,0,0
223270,-33.3333333333333,4,1,0,50,0,0
224499,-100,4,1,0,40,0,0
224622,-100,4,1,0,30,0,0
224745,-100,4,1,0,18,0,0
224868,-100,4,1,0,10,0,0
224991,-100,4,1,0,5,0,0
228803,1052.63157894737,4,1,0,5,1,8
229855,1090.90909090909,4,1,0,5,1,0
230400,1153.84615384615,4,1,0,5,1,8
230976,1176.47058823529,4,1,0,5,1,8
231564,1304.34782608695,4,1,0,5,1,8
232216,1318.68131868132,4,1,0,5,1,8
233534,1500,4,1,0,5,1,8
234284,1566.57963446475,4,1,0,5,1,8
234284,-111.111111111111,4,1,0,5,0,0
235067,1818.18181818182,4,1,0,5,1,0

[HitObjects]
64,64,6589,5,0,0:0:0:0:
320,64,6971,1,8,0:0:0:0:
64,64,7353,1,0,0:0:0:0:
320,64,7735,1,8,0:0:0:0:
64,64,8117,1,0,0:0:0:0:
320,64,8499,1,8,0:0:0:0:
320,64,9264,1,8,0:0:0:0:
64,64,9646,1,0,0:0:0:0:
320,64,10028,1,8,0:0:0:0:
64,64,10410,1,0,0:0:0:0:
64,64,10792,1,0,0:0:0:0:
320,64,11175,1,8,0:0:0:0:
320,64,11557,1,8,0:0:0:0:
64,64,11939,1,0,0:0:0:0:
320,64,12321,1,8,0:0:0:0:
320,64,13085,1,8,0:0:0:0:
64,64,13850,1,0,0:0:0:0:
64,64,15378,1,0,0:0:0:0:
64,64,15761,1,0,0:0:0:0:
320,64,16143,1,8,0:0:0:0:
64,64,16525,1,0,0:0:0:0:
320,64,16907,1,8,0:0:0:0:
320,64,17289,1,8,0:0:0:0:
64,64,17671,1,0,0:0:0:0:
64,64,18054,1,0,0:0:0:0:
320,64,18436,1,8,0:0:0:0:
320,64,19200,1,8,0:0:0:0:
64,64,19964,1,0,0:0:0:0:
320,64,22257,1,8,0:0:0:0:
64,64,23404,1,0,0:0:0:0:
64,64,23786,1,0,0:0:0:0:
320,64,24168,1,8,0:0:0:0:
320,64,24550,1,8,0:0:0:0:
64,64,24932,1,0,0:0:0:0:
320,64,25314,1,8,0:0:0:0:
320,64,26078,1,8,0:0:0:0:
64,64,26842,1,0,0:0:0:0:
320,64,27606,1,8,0:0:0:0:
64,64,28753,1,0,0:0:0:0:
320,64,29135,1,8,0:0:0:0:
64,64,29517,1,0,0:0:0:0:
320,64,29899,1,8,0:0:0:0:
320,64,30282,1,8,0:0:0:0:
64,64,30664,1,0,0:0:0:0:
64,64,31046,1,0,0:0:0:0:
320,64,31428,1,8,0:0:0:0:
320,64,32192,1,8,0:0:0:0:
64,64,32956,1,0,0:0:0:0:
128,256,34485,1,0,0:0:0:0:
320,64,35249,1,8,0:0:0:0:
320,64,36013,1,8,0:0:0:0:
64,64,36395,1,0,0:0:0:0:
64,64,36777,1,0,0:0:0:0:
64,64,37159,1,0,0:0:0:0:
320,64,37541,1,8,0:0:0:0:
320,64,38115,1,8,0:0:0:0:
64,64,38306,1,0,0:0:0:0:
320,64,39070,1,8,0:0:0:0:
64,64,39834,1,0,0:0:0:0:
64,64,41363,1,0,0:0:0:0:
64,64,41745,1,0,0:0:0:0:
320,64,42127,1,8,0:0:0:0:
320,64,42510,1,8,0:0:0:0:
64,64,42892,1,0,0:0:0:0:
64,64,43274,1,0,0:0:0:0:
320,64,43656,1,8,0:0:0:0:
64,64,44038,1,0,0:0:0:0:
320,64,44420,1,8,0:0:0:0:
320,64,45185,1,8,0:0:0:0:
320,64,45949,1,8,0:0:0:0:
64,64,46713,1,0,0:0:0:0:
320,64,47478,1,8,0:0:0:0:
320,64,48242,1,8,0:0:0:0:
64,64,48624,1,0,0:0:0:0:
64,64,49006,1,0,0:0:0:0:
64,64,49389,1,0,0:0:0:0:
320,64,49771,1,8,0:0:0:0:
320,64,50344,1,8,0:0:0:0:
64,64,50535,1,0,0:0:0:0:
320,64,51299,1,8,0:0:0:0:
64,64,52064,1,0,0:0:0:0:
320,64,53592,1,8,0:0:0:0:
64,64,54356,1,0,0:0:0:0:
64,64,54611,1,0,0:0:0:0:
320,64,54865,1,8,0:0:0:0:
320,64,55120,1,8,0:0:0:0:
64,64,55375,1,0,0:0:0:0:
64,64,55630,1,0,0:0:0:0:
64,64,55884,1,0,0:0:0:0:
320,64,56649,1,8,0:0:0:0:
64,64,57413,1,0,0:0:0:0:
64,64,57672,1,0,0:0:0:0:
64,64,57932,1,0,0:0:0:0:
320,64,58192,1,8,0:0:0:0:
320,64,58490,1,8,0:0:0:0:
320,64,58789,1,8,0:0:0:0:
64,64,59087,1,0,0:0:0:0:
64,64,59394,1,0,0:0:0:0:
64,64,59702,1,0,0:0:0:0:
320,64,60010,1,8,0:0:0:0:
320,64,60320,1,8,0:0:0:0:
320,64,60630,1,8,0:0:0:0:
64,64,60940,1,0,0:0:0:0:
320,64,61877,5,12,0:0:0:0:
320,64,62346,1,8,0:0:0:0:
64,64,62815,5,0,0:0:0:0:
64,64,63283,1,0,0:0:0:0:
320,64,63752,1,12,0:0:0:0:
64,64,64690,5,0,0:0:0:0:
320,64,65627,5,12,0:0:0:0:
64,64,66096,1,0,0:0:0:0:
64,64,66565,5,0,0:0:0:0:
64,64,67033,1,0,0:0:0:0:
320,64,67502,1,12,0:0:0:0:
320,64,67971,1,8,0:0:0:0:
64,64,68440,1,0,0:0:0:0:
320,64,69377,1,12,0:0:0:0:
320,64,69846,1,8,0:0:0:0:
64,64,70315,1,0,0:0:0:0:
64,64,70783,1,0,0:0:0:0:
320,64,71252,1,12,0:0:0:0:
64,64,72190,1,0,0:0:0:0:
320,64,73127,1,12,0:0:0:0:
64,64,74065,1,0,0:0:0:0:
320,64,75002,1,12,0:0:0:0:
64,64,75940,1,0,0:0:0:0:
64,64,76408,1,0,0:0:0:0:
320,64,76877,1,12,0:0:0:0:
64,64,77346,1,0,0:0:0:0:
64,64,77815,1,0,0:0:0:0:
320,64,78283,1,8,0:0:0:0:
320,64,78752,1,12,0:0:0:0:
64,64,79690,1,0,0:0:0:0:
64,64,80158,1,0,0:0:0:0:
320,64,80627,1,12,0:0:0:0:
64,64,81096,1,0,0:0:0:0:
64,64,81565,1,0,0:0:0:0:
64,64,82033,1,0,0:0:0:0:
320,64,82502,1,12,0:0:0:0:
64,64,83440,1,0,0:0:0:0:
64,64,83908,1,0,0:0:0:0:
320,64,84377,1,12,0:0:0:0:
64,64,84846,1,0,0:0:0:0:
64,64,85315,1,0,0:0:0:0:
64,64,85783,1,0,0:0:0:0:
320,64,86252,1,12,0:0:0:0:
320,64,87190,5,8,0:0:0:0:
64,64,88127,1,0,0:0:0:0:
320,64,89065,1,8,0:0:0:0:
256,192,89533,12,0,90002,0:0:0:0:
320,64,90940,5,8,0:0:0:0:
320,64,91877,1,8,0:0:0:0:
64,64,92346,1,0,0:0:0:0:
64,64,92815,1,0,0:0:0:0:
64,64,93283,1,0,0:0:0:0:
320,64,93752,1,8,0:0:0:0:
320,64,94455,1,8,0:0:0:0:
64,64,94690,1,0,0:0:0:0:
320,64,95627,1,8,0:0:0:0:
64,64,96565,1,0,0:0:0:0:
320,64,97502,1,8,0:0:0:0:
64,64,97971,1,0,0:0:0:0:
320,64,98440,1,8,0:0:0:0:
64,64,98908,1,0,0:0:0:0:
64,64,99377,1,0,0:0:0:0:
320,64,99846,1,8,0:0:0:0:
320,64,100315,1,8,0:0:0:0:
64,64,100783,1,0,0:0:0:0:
64,64,101252,1,0,0:0:0:0:
320,64,101721,1,8,0:0:0:0:
64,64,102190,1,0,0:0:0:0:
320,64,103127,1,8,0:0:0:0:
320,64,104065,1,8,0:0:0:0:
64,64,105002,1,0,0:0:0:0:
320,64,105940,1,8,0:0:0:0:
320,64,106877,1,8,0:0:0:0:
64,64,107346,1,0,0:0:0:0:
64,64,107815,1,0,0:0:0:0:
64,64,108283,1,0,0:0:0:0:
320,64,108752,1,8,0:0:0:0:
320,64,109533,1,8,0:0:0:0:
64,64,109690,1,0,0:0:0:0:
320,64,110627,1,8,0:0:0:0:
320,64,110783,1,8,0:0:0:0:
320,64,111565,1,8,0:0:0:0:
64,64,111721,1,0,0:0:0:0:
320,64,112502,1,8,0:0:0:0:
64,64,112971,1,0,0:0:0:0:
320,64,113440,1,8,0:0:0:0:
64,64,114377,1,0,0:0:0:0:
64,64,114690,1,0,0:0:0:0:
64,64,115002,1,0,0:0:0:0:
320,64,115315,1,8,0:0:0:0:
64,64,115627,1,0,0:0:0:0:
64,64,115940,1,0,0:0:0:0:
64,64,116252,1,0,0:0:0:0:
320,64,116565,1,8,0:0:0:0:
320,64,117815,1,8,0:0:0:0:
320,64,118127,1,8,0:0:0:0:
64,64,118454,1,0,0:0:0:0:
64,64,118782,1,0,0:0:0:0:
320,64,119110,1,8,0:0:0:0:
320,64,119473,1,8,0:0:0:0:
64,64,119837,1,0,0:0:0:0:
64,64,120200,1,0,0:0:0:0:
320,64,120600,1,8,0:0:0:0:
320,64,121000,1,8,0:0:0:0:
64,64,121400,1,0,0:0:0:0:
64,64,121870,1,0,0:0:0:0:
320,64,122341,1,8,0:0:0:0:
256,192,123413,12,0,124978,0:0:0:0:
320,64,125701,5,12,0:0:0:0:
64,64,126423,1,0,0:0:0:0:
64,64,127146,1,0,0:0:0:0:
64,64,127869,1,0,0:0:0:0:
320,64,128591,1,12,0:0:0:0:
64,64,130037,1,0,0:0:0:0:
64,64,130759,1,0,0:0:0:0:
210,314,131482,6,0,L|333:332,1,121.333327779134
64,64,132927,1,0,0:0:0:0:
64,64,133650,1,0,0:0:0:0:
320,64,134372,1,12,0:0:0:0:
64,64,135818,1,0,0:0:0:0:
64,64,136540,1,0,0:0:0:0:
320,64,137263,1,8,0:0:0:0:
320,64,137985,1,8,0:0:0:0:
64,64,138708,1,0,0:0:0:0:
64,64,139431,1,0,0:0:0:0:
320,64,140153,1,12,0:0:0:0:
64,64,141599,1,0,0:0:0:0:
320,64,143044,1,12,0:0:0:0:
256,192,144489,12,0,145453,0:0:0:0:
320,64,145934,5,12,0:0:0:0:
64,64,147380,5,0,0:0:0:0:
64,64,148102,1,0,0:0:0:0:
320,64,148825,1,12,0:0:0:0:
64,64,149548,1,0,0:0:0:0:
64,64,150270,1,0,0:0:0:0:
64,64,150993,1,0,0:0:0:0:
320,64,151715,1,12,0:0:0:0:
64,64,153161,1,0,0:0:0:0:
188,303,154606,2,0,L|345:349,1,121.333327779134
64,64,156051,1,0,0:0:0:0:
64,64,156774,1,0,0:0:0:0:
320,64,157496,1,12,0:0:0:0:
64,64,158942,1,0,0:0:0:0:
194,324,160387,6,0,L|320:372,1,121.333327779134
64,64,161832,1,0,0:0:0:0:
64,64,162555,1,0,0:0:0:0:
320,64,163278,1,12,0:0:0:0:
320,64,164697,1,8,0:0:0:0:
256,192,166751,12,0,169740,0:0:0:0:
256,64,170071,5,12,0:0:0:0:
256,192,172244,12,0,174044,0:0:0:0:
320,64,174644,5,12,0:0:0:0:
224,352,175244,2,0,L|352:352,1,105.000004005432
256,192,177044,12,0,178844,0:0:0:0:
320,64,179444,5,12,0:0:0:0:
224,352,180044,2,0,L|352:352,1,105.000004005432
256,192,181844,12,0,183644,0:0:0:0:
320,64,184244,5,12,0:0:0:0:
224,352,184844,2,0,L|352:352,1,105.000004005432
256,192,186644,12,0,189044,0:0:0:0:
320,64,189494,5,12,0:0:0:0:
256,192,191444,12,0,193444,0:0:0:0:
507,384,193798,6,4,B|-5:192|-5:192|505:2,1,1073.33333333333
0,384,202982,6,0,L|502:380,1,490
320,64,212167,5,8,0:0:0:0:
256,192,216760,12,0,221168,0:0:0:0:
320,64,221543,5,8,0:0:0:0:
320,64,221668,1,8,0:0:0:0:
208,207,221918,2,0,L|473:300,1,280
98,127,223270,2,0,L|536:185,1,420.000016021729
256,192,224991,12,0,225606,0:0:0:0:
64,64,229329,5,0,0:0:0:0:
320,64,229855,1,8,0:0:0:0:
320,64,234284,1,8,0:0:0:0:
320,64,235067,1,8,0:0:0:0:
