osu file format v14

[General]
AudioFilename: audio.ogg
AudioLeadIn: 0
PreviewTime: 52416
Countdown: 0
SampleSet: Normal
StackLeniency: 0.2
Mode: 1
LetterboxInBreaks: 0
WidescreenStoryboard: 0

[Editor]
Bookmarks: 30444,37944,82944,97944,112944,127944,142944,157944,187944,201069,202944
DistanceSpacing: 0.8
BeatDivisor: 4
GridSize: 32
TimelineZoom: 1

[Metadata]
Title:Chiri Chiri Juso
TitleUnicode:塵塵呪詛
Artist:Kikuo
ArtistUnicode:きくお
Creator:Alchyr
Version:Oni
Source:
Tags:featured artist fa mappers' mapper's guild mg dust dust curse kikuo miku 2 vocaloid electronic japanese IA -ARIA ON THE PLANETES- IA/1.0.0 -BIRTH- MD EXIT TUNES PRESENTS Vocalofanatic feat. GUMI、IA、MAYU IA/VT -COLORFUL-
BeatmapID:3789344
BeatmapSetID:1844742

[Difficulty]
HPDrainRate:5
CircleSize:2
OverallDifficulty:5.5
ApproachRate:10
SliderMultiplier:1.4
SliderTickRate:1

[Events]
//Background and Video events
0,0,"bg.jpg",0,120
//Break Periods
//Storyboard Layer 0 (Background)
//Storyboard Layer 1 (Fail)
//Storyboard Layer 2 (Pass)
//Storyboard Layer 3 (Foreground)
//Storyboard Layer 4 (Overlay)
//Storyboard Sound Samples

[TimingPoints]
452,468.75,4,1,0,15,1,8
452,-400,4,1,0,15,0,0
15444,468.75,4,1,0,70,1,0
15444,-100,4,1,0,70,0,0
30411,-50,4,1,0,80,0,0
30488,-50,4,1,0,55,0,0
34150,-33.3333333333333,4,1,0,80,0,0
36435,-100,4,1,0,50,0,0
37881,-100,4,1,0,80,0,0
38029,-100,4,1,0,70,0,0
51019,-66.6666666666667,4,1,0,70,0,0
52404,-120.481927710843,4,1,0,80,0,0
52885,-76.9230769230769,4,1,0,100,0,0
52944,-76.9230769230769,4,1,0,100,0,1
54736,-50,4,1,0,100,0,1
56615,-33.3333333333333,4,1,0,100,0,1
58568,-33.3333333333333,4,1,0,100,0,1
58802,-51.8953617523109,4,1,0,100,0,1
58920,-53.9346758454779,4,1,0,100,0,1
59037,-56.0710925277237,4,1,0,100,0,1
59271,-60.6060606060606,4,1,0,100,0,1
59506,-65.3027210025315,4,1,0,100,0,1
59623,-67.5844065963246,4,1,0,100,0,1
59740,-69.7537545922872,4,1,0,100,0,1
59857,-71.7472204445728,4,1,0,100,0,1
59974,-73.4986574781024,4,1,0,100,0,1
60209,-76.0314787508366,4,1,0,100,0,1
60385,-76.9230769230769,4,1,0,100,0,1
62191,-50,4,1,0,100,0,1
64115,-33.3333333333333,4,1,0,100,0,1
66263,-51.8953617523109,4,1,0,100,0,1
66420,-53.9346758454779,4,1,0,100,0,1
66537,-56.0710925277237,4,1,0,100,0,1
66771,-60.6060606060606,4,1,0,100,0,1
67006,-65.3027210025315,4,1,0,100,0,1
67123,-67.5844065963246,4,1,0,100,0,1
67240,-69.7537545922872,4,1,0,100,0,1
67474,-73.4986574781024,4,1,0,100,0,1
67591,-74.9435417250948,4,1,0,100,0,1
67709,-76.0314787508366,4,1,0,100,0,1
67885,-76.9230769230769,4,1,0,100,0,1
69696,-50,4,1,0,100,0,1
71575,-33.3333333333333,4,1,0,100,0,1
73653,-51.8953617523109,4,1,0,100,0,1
73920,-53.9346758454779,4,1,0,100,0,1
74037,-56.0710925277237,4,1,0,100,0,1
74271,-60.6060606060606,4,1,0,100,0,1
74388,-62.9464662471795,4,1,0,100,0,1
74506,-65.3027210025315,4,1,0,100,0,1
74623,-67.5844065963246,4,1,0,100,0,1
74740,-69.7537545922872,4,1,0,100,0,1
74857,-71.7472204445728,4,1,0,100,0,1
74974,-73.4986574781024,4,1,0,100,0,1
75091,-74.9435417250948,4,1,0,100,0,1
75209,-76.0314787508366,4,1,0,100,0,1
75385,-76.9230769230769,4,1,0,100,0,1
77196,-50,4,1,0,100,0,1
79075,-33.3333333333333,4,1,0,100,0,1
81153,-51.8953617523109,4,1,0,100,0,1
81420,-53.9346758454779,4,1,0,100,0,1
81537,-56.0710925277237,4,1,0,100,0,1
81771,-60.6060606060606,4,1,0,100,0,1
81888,-62.9464662471795,4,1,0,100,0,1
82006,-65.3027210025315,4,1,0,100,0,1
82123,-67.5844065963246,4,1,0,100,0,1
82240,-69.7537545922872,4,1,0,100,0,1
82357,-71.7472204445728,4,1,0,100,0,1
82474,-73.4986574781024,4,1,0,100,0,1
82591,-74.9435417250948,4,1,0,100,0,1
82709,-76.0314787508366,4,1,0,100,0,1
82861,-50,4,1,0,80,0,1
82944,-50,4,1,0,80,0,0
83077,-100,4,1,0,60,0,0
96017,-66.6666666666667,4,1,0,70,0,0
97902,-50,4,1,0,80,0,0
98030,-100,4,1,0,40,0,0
112887,-66.6666666666667,4,1,0,70,0,0
113012,-200,4,1,0,20,0,0
120354,-151.515151515152,4,1,0,60,0,0
120510,-200,4,1,0,15,0,0
127885,-50,4,1,0,80,0,0
127962,-50,4,1,0,55,0,0
131652,-33.3333333333333,4,1,0,80,0,0
132162,-35.3223812470233,4,1,0,80,0,0
132631,-37.4301185088018,4,1,0,80,0,0
133099,-39.6587261649887,4,1,0,80,0,0
133568,-42.0252193611308,4,1,0,80,0,0
134037,-44.5329246079094,4,1,0,80,0,0
134271,-45.8395131742969,4,1,0,80,0,0
134388,-46.5071135820233,4,1,0,80,0,0
134506,-47.1902682313655,4,1,0,80,0,0
134623,-47.8775408512162,4,1,0,80,0,0
134857,-49.2822598992852,4,1,0,80,0,0
134974,-50,4,1,0,80,0,0
135157,-40,4,1,0,80,0,0
135574,-50,4,1,0,80,0,0
136493,-40,4,1,0,80,0,0
137612,-50,4,1,0,80,0,0
137964,-40,4,1,0,80,0,0
138491,-50,4,1,0,80,0,0
139077,-40,4,1,0,80,0,0
139780,-50,4,1,0,80,0,0
140717,-33.3333333333333,4,1,0,80,0,0
141004,-100,4,1,0,60,0,0
142417,-66.6666666666667,4,1,0,30,0,0
142826,-50,4,1,0,60,0,0
143015,-100,4,1,0,60,0,0
156029,-66.6666666666667,4,1,0,60,0,0
157357,-120.481927710843,4,1,0,60,0,0
157885,-76.9230769230769,4,1,0,100,0,0
157944,-76.9230769230769,4,1,0,100,0,1
159736,-50,4,1,0,100,0,1
161615,-33.3333333333333,4,1,0,100,0,1
163693,-51.4542394450248,4,1,0,100,0,1
163920,-52.9637518633056,4,1,0,100,0,1
164037,-54.5041914056281,4,1,0,100,0,1
164271,-57.720783663216,4,1,0,100,0,1
164506,-61.1421852658823,4,1,0,100,0,1
164740,-64.7505220683605,4,1,0,100,0,1
164974,-68.5718066813151,4,1,0,100,0,1
165091,-70.5662032031668,4,1,0,100,0,1
165209,-72.6364030777548,4,1,0,100,0,1
165385,-76.9230769230769,4,1,0,100,0,1
167191,-50,4,1,0,100,0,1
169115,-33.3333333333333,4,1,0,100,0,1
171263,-51.8953617523109,4,1,0,100,0,1
171420,-53.9346758454779,4,1,0,100,0,1
171537,-56.0710925277237,4,1,0,100,0,1
171771,-60.6060606060606,4,1,0,100,0,1
171888,-62.9464662471795,4,1,0,100,0,1
172006,-65.3027210025315,4,1,0,100,0,1
172123,-67.5844065963246,4,1,0,100,0,1
172239,-69.735864948891,4,1,0,100,0,1
172474,-73.4986574781024,4,1,0,100,0,1
172709,-76.0314787508366,4,1,0,100,0,1
172885,-76.9230769230769,4,1,0,100,0,1
174696,-50,4,1,0,100,0,1
176575,-33.3333333333333,4,1,0,100,0,1
178653,-51.8953617523109,4,1,0,100,0,1
178920,-53.9346758454779,4,1,0,100,0,1
179037,-56.0710925277237,4,1,0,100,0,1
179271,-60.6060606060606,4,1,0,100,0,1
179388,-62.9464662471795,4,1,0,100,0,1
179506,-65.3027210025315,4,1,0,100,0,1
179740,-69.7537545922872,4,1,0,100,0,1
179857,-71.7472204445728,4,1,0,100,0,1
179974,-73.4986574781024,4,1,0,100,0,1
180209,-76.0314787508366,4,1,0,100,0,1
180385,-76.9230769230769,4,1,0,100,0,1
182196,-50,4,1,0,100,0,1
184075,-33.3333333333333,4,1,0,100,0,1
186153,-51.8953617523109,4,1,0,100,0,1
186420,-53.9346758454779,4,1,0,100,0,1
186537,-56.0710925277237,4,1,0,100,0,1
186771,-60.6060606060606,4,1,0,100,0,1
186888,-62.9464662471795,4,1,0,100,0,1
187006,-65.3027210025315,4,1,0,100,0,1
187123,-67.5844065963246,4,1,0,100,0,1
187240,-69.7537545922872,4,1,0,100,0,1
187357,-71.7472204445728,4,1,0,100,0,1
187474,-73.4986574781024,4,1,0,100,0,1
187709,-76.0314787508366,4,1,0,100,0,1
187861,-50,4,1,0,80,0,1
187944,-50,4,1,0,80,0,0
188077,-100,4,1,0,60,0,0
200987,-66.6666666666667,4,1,0,60,0,0
202885,-50,4,1,0,80,0,0
203013,-100,4,1,0,40,0,0
210385,-50,4,1,0,40,0,0
210502,-100,4,1,0,40,0,0
217892,-66.6666666666667,4,1,0,60,0,0

[HitObjects]
256,192,13577,5,8,0:0:0:0:
256,192,14045,1,8,0:0:0:0:
256,192,14514,1,8,0:0:0:0:
256,192,14983,1,8,0:0:0:0:
444,384,15444,1,0,0:0:0:0:
444,384,15678,1,0,0:0:0:0:
444,384,15913,1,8,0:0:0:0:
444,384,16147,1,0,0:0:0:0:
444,384,16382,1,0,0:0:0:0:
444,384,16616,1,0,0:0:0:0:
444,384,16850,1,8,0:0:0:0:
444,384,17085,1,8,0:0:0:0:
444,384,17319,1,0,0:0:0:0:
444,384,17553,1,8,0:0:0:0:
444,384,17788,1,8,0:0:0:0:
444,384,18022,1,0,0:0:0:0:
444,384,18257,1,8,0:0:0:0:
444,384,18491,1,0,0:0:0:0:
444,384,18725,1,8,0:0:0:0:
444,384,19194,1,8,0:0:0:0:
444,384,19428,1,8,0:0:0:0:
444,384,19663,1,8,0:0:0:0:
444,384,19897,1,0,0:0:0:0:
444,384,20132,1,8,0:0:0:0:
444,384,20366,1,8,0:0:0:0:
444,384,20600,1,0,0:0:0:0:
444,384,20835,1,0,0:0:0:0:
444,384,21069,1,8,0:0:0:0:
444,384,21303,1,0,0:0:0:0:
444,384,21538,1,8,0:0:0:0:
444,384,21772,1,8,0:0:0:0:
444,384,22007,1,0,0:0:0:0:
444,384,22241,1,0,0:0:0:0:
444,384,22475,1,0,0:0:0:0:
444,384,22944,1,8,0:0:0:0:
444,384,23178,1,0,0:0:0:0:
444,384,23413,1,8,0:0:0:0:
444,384,23647,1,0,0:0:0:0:
444,384,23882,1,8,0:0:0:0:
444,384,24116,1,0,0:0:0:0:
444,384,24350,1,0,0:0:0:0:
444,384,24585,1,0,0:0:0:0:
444,384,24819,1,8,0:0:0:0:
444,384,25053,1,8,0:0:0:0:
444,384,25288,1,8,0:0:0:0:
444,384,25522,1,0,0:0:0:0:
444,384,25757,1,8,0:0:0:0:
444,384,25991,1,0,0:0:0:0:
444,384,26225,1,8,0:0:0:0:
444,384,26694,1,0,0:0:0:0:
444,384,26928,1,0,0:0:0:0:
444,384,27163,1,8,0:0:0:0:
444,384,27397,1,8,0:0:0:0:
444,384,27632,1,0,0:0:0:0:
444,384,27866,1,8,0:0:0:0:
444,384,28100,1,0,0:0:0:0:
444,384,28335,1,0,0:0:0:0:
444,384,28569,1,8,0:0:0:0:
444,384,28803,1,8,0:0:0:0:
444,384,29038,1,8,0:0:0:0:
444,384,29272,1,8,0:0:0:0:
444,384,29507,1,0,0:0:0:0:
444,384,29741,1,0,0:0:0:0:
444,384,29975,1,0,0:0:0:0:
444,384,30444,1,12,0:0:0:0:
444,384,30796,1,0,0:0:0:0:
444,384,30913,1,8,0:0:0:0:
444,384,31147,1,0,0:0:0:0:
444,384,31382,1,8,0:0:0:0:
444,384,31616,1,8,0:0:0:0:
444,384,31733,1,8,0:0:0:0:
444,384,31850,1,0,0:0:0:0:
444,384,31967,1,8,0:0:0:0:
444,384,32202,1,0,0:0:0:0:
444,384,32319,1,8,0:0:0:0:
444,384,32553,1,0,0:0:0:0:
444,384,32788,1,8,0:0:0:0:
444,384,32905,1,8,0:0:0:0:
444,384,33022,1,0,0:0:0:0:
444,384,33139,1,0,0:0:0:0:
444,384,33257,1,8,0:0:0:0:
444,384,33491,1,0,0:0:0:0:
444,384,33608,1,0,0:0:0:0:
444,384,33725,1,8,0:0:0:0:
444,384,33842,1,0,0:0:0:0:
444,384,34077,1,8,0:0:0:0:
444,384,34194,1,4,0:0:0:0:
444,384,34663,1,4,0:0:0:0:
444,384,35132,1,4,0:0:0:0:
444,384,35600,1,4,0:0:0:0:
444,384,36069,1,4,0:0:0:0:
444,384,36538,1,0,0:0:0:0:
444,384,37007,1,0,0:0:0:0:
444,384,37358,1,0,0:0:0:0:
444,384,37475,1,0,0:0:0:0:
444,384,37944,1,12,0:0:0:0:
444,384,38178,1,0,0:0:0:0:
444,384,38296,1,0,0:0:0:0:
444,384,38413,1,8,0:0:0:0:
444,384,38647,1,0,0:0:0:0:
444,384,38764,1,0,0:0:0:0:
444,384,38882,1,8,0:0:0:0:
444,384,38999,1,0,0:0:0:0:
444,384,39116,1,8,0:0:0:0:
444,384,39350,1,0,0:0:0:0:
444,384,39585,1,8,0:0:0:0:
444,384,39702,1,0,0:0:0:0:
444,384,39819,1,8,0:0:0:0:
444,384,39936,1,8,0:0:0:0:
444,384,40053,1,0,0:0:0:0:
444,384,40171,1,0,0:0:0:0:
444,384,40288,1,8,0:0:0:0:
444,384,40522,1,0,0:0:0:0:
444,384,40639,1,0,0:0:0:0:
444,384,40757,1,8,0:0:0:0:
444,384,40991,1,0,0:0:0:0:
444,384,41225,1,8,0:0:0:0:
444,384,41460,1,0,0:0:0:0:
444,384,41694,1,8,0:0:0:0:
444,384,41811,1,0,0:0:0:0:
444,384,41928,1,8,0:0:0:0:
444,384,42046,1,8,0:0:0:0:
444,384,42163,1,8,0:0:0:0:
444,384,42280,1,0,0:0:0:0:
444,384,42397,1,8,0:0:0:0:
444,384,42632,1,8,0:0:0:0:
444,384,42749,1,8,0:0:0:0:
444,384,42866,1,0,0:0:0:0:
444,384,42983,1,0,0:0:0:0:
444,384,43100,1,8,0:0:0:0:
444,384,43335,1,0,0:0:0:0:
444,384,43452,1,0,0:0:0:0:
444,384,43569,1,8,0:0:0:0:
444,384,43803,1,8,0:0:0:0:
444,384,43921,1,0,0:0:0:0:
444,384,44038,1,8,0:0:0:0:
444,384,44272,1,8,0:0:0:0:
444,384,44507,1,0,0:0:0:0:
444,384,44624,1,0,0:0:0:0:
444,384,44741,1,8,0:0:0:0:
444,384,44858,1,0,0:0:0:0:
444,384,44975,1,8,0:0:0:0:
444,384,45444,1,0,0:0:0:0:
444,384,45678,1,0,0:0:0:0:
444,384,45913,1,0,0:0:0:0:
444,384,46030,1,0,0:0:0:0:
444,384,46147,1,8,0:0:0:0:
444,384,46264,1,8,0:0:0:0:
444,384,46382,1,0,0:0:0:0:
444,384,46616,1,0,0:0:0:0:
444,384,46850,1,8,0:0:0:0:
444,384,46967,1,8,0:0:0:0:
444,384,47085,1,0,0:0:0:0:
444,384,47202,1,0,0:0:0:0:
444,384,47319,1,8,0:0:0:0:
444,384,47553,1,8,0:0:0:0:
444,384,47788,1,8,0:0:0:0:
444,384,47905,1,8,0:0:0:0:
444,384,48022,1,0,0:0:0:0:
444,384,48257,1,8,0:0:0:0:
444,384,48374,1,0,0:0:0:0:
444,384,48491,1,8,0:0:0:0:
444,384,48725,1,8,0:0:0:0:
444,384,48960,1,0,0:0:0:0:
444,384,49194,1,8,0:0:0:0:
444,384,49311,1,0,0:0:0:0:
444,384,49428,1,8,0:0:0:0:
444,384,49546,1,8,0:0:0:0:
444,384,49663,1,0,0:0:0:0:
444,384,49897,1,8,0:0:0:0:
444,384,50132,1,8,0:0:0:0:
444,384,50249,1,8,0:0:0:0:
444,384,50366,1,8,0:0:0:0:
444,384,50483,1,8,0:0:0:0:
444,384,50600,1,0,0:0:0:0:
444,384,50835,1,0,0:0:0:0:
444,384,51069,1,8,0:0:0:0:
444,384,51186,1,0,0:0:0:0:
444,384,51303,1,8,0:0:0:0:
444,384,51421,1,8,0:0:0:0:
444,384,51538,1,0,0:0:0:0:
444,384,51655,1,0,0:0:0:0:
444,384,51772,1,8,0:0:0:0:
444,384,51889,1,8,0:0:0:0:
444,384,52007,1,0,0:0:0:0:
444,384,52475,1,0,0:0:0:0:
444,384,52710,1,0,0:0:0:0:
444,384,52944,1,12,0:0:0:0:
444,384,53178,1,8,0:0:0:0:
444,384,53296,1,8,0:0:0:0:
444,384,53413,1,0,0:0:0:0:
444,384,53647,1,0,0:0:0:0:
444,384,53882,1,8,0:0:0:0:
444,384,54116,1,0,0:0:0:0:
444,384,54233,1,0,0:0:0:0:
444,384,54350,1,8,0:0:0:0:
444,384,54585,1,8,0:0:0:0:
444,384,54819,1,12,0:0:0:0:
444,384,55053,1,8,0:0:0:0:
444,384,55171,1,8,0:0:0:0:
444,384,55288,1,0,0:0:0:0:
444,384,55522,1,0,0:0:0:0:
444,384,55757,1,8,0:0:0:0:
444,384,55991,1,0,0:0:0:0:
444,384,56108,1,0,0:0:0:0:
444,384,56225,1,8,0:0:0:0:
444,384,56460,1,8,0:0:0:0:
444,384,56694,1,12,0:0:0:0:
444,384,56928,1,8,0:0:0:0:
444,384,57046,1,8,0:0:0:0:
444,384,57163,1,0,0:0:0:0:
444,384,57397,1,0,0:0:0:0:
444,384,57632,1,8,0:0:0:0:
444,384,57866,1,0,0:0:0:0:
444,384,57983,1,0,0:0:0:0:
444,384,58100,1,8,0:0:0:0:
444,384,58335,1,8,0:0:0:0:
444,384,58569,1,12,0:0:0:0:
444,384,58803,1,8,0:0:0:0:
444,384,58921,1,8,0:0:0:0:
444,384,59038,1,0,0:0:0:0:
444,384,59272,1,0,0:0:0:0:
444,384,59507,1,8,0:0:0:0:
444,384,59741,1,0,0:0:0:0:
444,384,59858,1,8,0:0:0:0:
444,384,59975,1,0,0:0:0:0:
444,384,60210,1,8,0:0:0:0:
444,384,60444,1,4,0:0:0:0:
444,384,60678,1,8,0:0:0:0:
444,384,60796,1,8,0:0:0:0:
444,384,60913,1,0,0:0:0:0:
444,384,61147,1,8,0:0:0:0:
444,384,61382,1,0,0:0:0:0:
444,384,61499,1,0,0:0:0:0:
444,384,61616,1,8,0:0:0:0:
444,384,61733,1,8,0:0:0:0:
444,384,61850,1,0,0:0:0:0:
444,384,62085,1,8,0:0:0:0:
444,384,62319,1,4,0:0:0:0:
444,384,62553,1,8,0:0:0:0:
444,384,62671,1,8,0:0:0:0:
444,384,62788,1,0,0:0:0:0:
444,384,63022,1,8,0:0:0:0:
444,384,63257,1,0,0:0:0:0:
444,384,63374,1,0,0:0:0:0:
444,384,63491,1,8,0:0:0:0:
444,384,63608,1,8,0:0:0:0:
444,384,63725,1,0,0:0:0:0:
444,384,63960,1,8,0:0:0:0:
444,384,64194,1,4,0:0:0:0:
444,384,64428,1,8,0:0:0:0:
444,384,64546,1,8,0:0:0:0:
444,384,64663,1,0,0:0:0:0:
444,384,64897,1,8,0:0:0:0:
444,384,65132,1,0,0:0:0:0:
444,384,65249,1,0,0:0:0:0:
444,384,65366,1,8,0:0:0:0:
444,384,65483,1,8,0:0:0:0:
444,384,65600,1,0,0:0:0:0:
444,384,65835,1,8,0:0:0:0:
444,384,66069,1,4,0:0:0:0:
444,384,66303,1,8,0:0:0:0:
444,384,66421,1,8,0:0:0:0:
444,384,66538,1,0,0:0:0:0:
444,384,66772,1,0,0:0:0:0:
444,384,67007,1,8,0:0:0:0:
444,384,67124,1,0,0:0:0:0:
444,384,67241,1,8,0:0:0:0:
444,384,67475,1,0,0:0:0:0:
444,384,67592,1,0,0:0:0:0:
444,384,67710,1,8,0:0:0:0:
444,384,67944,1,12,0:0:0:0:
444,384,68178,1,8,0:0:0:0:
444,384,68296,1,8,0:0:0:0:
444,384,68413,1,0,0:0:0:0:
444,384,68647,1,8,0:0:0:0:
444,384,68882,1,0,0:0:0:0:
444,384,68999,1,0,0:0:0:0:
444,384,69116,1,8,0:0:0:0:
444,384,69350,1,0,0:0:0:0:
444,384,69467,1,0,0:0:0:0:
444,384,69585,1,8,0:0:0:0:
444,384,69819,1,12,0:0:0:0:
444,384,70053,1,8,0:0:0:0:
444,384,70171,1,8,0:0:0:0:
444,384,70288,1,0,0:0:0:0:
444,384,70522,1,8,0:0:0:0:
444,384,70757,1,0,0:0:0:0:
444,384,70874,1,0,0:0:0:0:
444,384,70991,1,8,0:0:0:0:
444,384,71225,1,0,0:0:0:0:
444,384,71342,1,0,0:0:0:0:
444,384,71460,1,8,0:0:0:0:
444,384,71694,1,12,0:0:0:0:
444,384,71928,1,8,0:0:0:0:
444,384,72046,1,8,0:0:0:0:
444,384,72163,1,0,0:0:0:0:
444,384,72397,1,8,0:0:0:0:
444,384,72632,1,0,0:0:0:0:
444,384,72749,1,0,0:0:0:0:
444,384,72866,1,8,0:0:0:0:
444,384,73100,1,0,0:0:0:0:
444,384,73217,1,0,0:0:0:0:
444,384,73335,1,8,0:0:0:0:
444,384,73569,1,12,0:0:0:0:
444,384,73803,1,8,0:0:0:0:
444,384,73921,1,8,0:0:0:0:
444,384,74038,1,0,0:0:0:0:
444,384,74272,1,0,0:0:0:0:
444,384,74389,1,0,0:0:0:0:
444,384,74507,1,8,0:0:0:0:
444,384,74624,1,0,0:0:0:0:
444,384,74741,1,8,0:0:0:0:
444,384,74975,1,0,0:0:0:0:
444,384,75092,1,0,0:0:0:0:
444,384,75210,1,8,0:0:0:0:
444,384,75444,1,4,0:0:0:0:
444,384,75678,1,0,0:0:0:0:
444,384,75796,1,0,0:0:0:0:
444,384,75913,1,8,0:0:0:0:
444,384,76147,1,8,0:0:0:0:
444,384,76382,1,0,0:0:0:0:
444,384,76616,1,8,0:0:0:0:
444,384,76733,1,8,0:0:0:0:
444,384,76850,1,0,0:0:0:0:
444,384,76967,1,0,0:0:0:0:
444,384,77085,1,8,0:0:0:0:
444,384,77319,1,4,0:0:0:0:
444,384,77553,1,0,0:0:0:0:
444,384,77671,1,0,0:0:0:0:
444,384,77788,1,8,0:0:0:0:
444,384,78022,1,8,0:0:0:0:
444,384,78257,1,0,0:0:0:0:
444,384,78491,1,8,0:0:0:0:
444,384,78608,1,8,0:0:0:0:
444,384,78725,1,0,0:0:0:0:
444,384,78842,1,0,0:0:0:0:
444,384,78960,1,8,0:0:0:0:
444,384,79194,1,4,0:0:0:0:
444,384,79428,1,0,0:0:0:0:
444,384,79546,1,0,0:0:0:0:
444,384,79663,1,8,0:0:0:0:
444,384,79897,1,8,0:0:0:0:
444,384,80132,1,0,0:0:0:0:
444,384,80366,1,8,0:0:0:0:
444,384,80483,1,8,0:0:0:0:
444,384,80600,1,0,0:0:0:0:
444,384,80717,1,0,0:0:0:0:
444,384,80835,1,8,0:0:0:0:
444,384,81069,1,4,0:0:0:0:
444,384,81303,1,8,0:0:0:0:
444,384,81421,1,8,0:0:0:0:
444,384,81538,1,0,0:0:0:0:
444,384,81772,1,0,0:0:0:0:
444,384,81889,1,8,0:0:0:0:
444,384,82007,1,0,0:0:0:0:
444,384,82241,1,8,0:0:0:0:
444,384,82358,1,0,0:0:0:0:
444,384,82475,1,8,0:0:0:0:
444,384,82592,1,8,0:0:0:0:
444,384,82710,1,0,0:0:0:0:
444,384,82944,1,12,0:0:0:0:
444,384,83413,1,0,0:0:0:0:
444,384,83647,1,0,0:0:0:0:
444,384,83764,1,0,0:0:0:0:
444,384,83882,1,8,0:0:0:0:
444,384,84116,1,0,0:0:0:0:
444,384,84350,1,8,0:0:0:0:
444,384,84467,1,0,0:0:0:0:
444,384,84702,1,0,0:0:0:0:
444,384,84819,1,8,0:0:0:0:
444,384,85288,1,8,0:0:0:0:
444,384,85522,1,0,0:0:0:0:
444,384,85639,1,0,0:0:0:0:
444,384,85757,1,8,0:0:0:0:
444,384,85991,1,0,0:0:0:0:
444,384,86108,1,8,0:0:0:0:
444,384,86225,1,0,0:0:0:0:
444,384,86694,1,8,0:0:0:0:
444,384,86928,1,0,0:0:0:0:
444,384,87163,1,8,0:0:0:0:
444,384,87514,1,0,0:0:0:0:
444,384,87632,1,8,0:0:0:0:
444,384,87866,1,0,0:0:0:0:
444,384,87983,1,0,0:0:0:0:
444,384,88100,1,8,0:0:0:0:
444,384,88569,1,0,0:0:0:0:
444,384,88803,1,0,0:0:0:0:
444,384,89038,1,8,0:0:0:0:
444,384,89272,1,0,0:0:0:0:
444,384,89507,1,8,0:0:0:0:
444,384,89741,1,8,0:0:0:0:
444,384,89975,1,0,0:0:0:0:
444,384,90210,1,0,0:0:0:0:
444,384,90327,1,0,0:0:0:0:
444,384,90444,1,8,0:0:0:0:
444,384,90913,1,0,0:0:0:0:
444,384,91382,1,8,0:0:0:0:
444,384,91850,1,8,0:0:0:0:
444,384,92319,1,0,0:0:0:0:
444,384,92788,1,0,0:0:0:0:
444,384,93257,1,8,0:0:0:0:
444,384,93725,1,0,0:0:0:0:
444,384,94194,1,8,0:0:0:0:
444,384,94663,1,8,0:0:0:0:
444,384,95132,1,0,0:0:0:0:
444,384,95600,1,8,0:0:0:0:
444,384,96069,1,0,0:0:0:0:
444,384,96186,1,0,0:0:0:0:
444,384,96303,1,8,0:0:0:0:
444,384,96421,1,8,0:0:0:0:
444,384,96538,1,0,0:0:0:0:
444,384,96655,1,8,0:0:0:0:
444,384,96772,1,8,0:0:0:0:
444,384,96889,1,8,0:0:0:0:
444,384,97007,1,0,0:0:0:0:
444,384,97124,1,0,0:0:0:0:
444,384,97241,1,8,0:0:0:0:
444,384,97358,1,8,0:0:0:0:
444,384,97475,1,0,0:0:0:0:
444,384,97592,1,8,0:0:0:0:
444,384,97710,1,8,0:0:0:0:
444,384,97827,1,8,0:0:0:0:
444,384,97944,1,4,0:0:0:0:
444,384,98413,1,8,0:0:0:0:
444,384,98647,1,0,0:0:0:0:
444,384,98764,1,0,0:0:0:0:
444,384,98882,1,8,0:0:0:0:
444,384,99116,1,0,0:0:0:0:
444,384,99233,1,0,0:0:0:0:
444,384,99350,1,8,0:0:0:0:
444,384,99467,1,0,0:0:0:0:
444,384,99585,1,0,0:0:0:0:
444,384,99701,1,0,0:0:0:0:
444,384,99819,1,8,0:0:0:0:
444,384,100053,1,0,0:0:0:0:
444,384,100171,1,0,0:0:0:0:
444,384,100288,1,8,0:0:0:0:
444,384,100405,1,0,0:0:0:0:
444,384,100522,1,0,0:0:0:0:
444,384,100639,1,0,0:0:0:0:
444,384,100757,1,8,0:0:0:0:
444,384,100874,1,0,0:0:0:0:
444,384,100991,1,0,0:0:0:0:
444,384,101108,1,0,0:0:0:0:
444,384,101225,1,8,0:0:0:0:
444,384,101460,1,0,0:0:0:0:
444,384,101577,1,0,0:0:0:0:
444,384,101694,1,8,0:0:0:0:
444,384,101928,1,0,0:0:0:0:
444,384,102163,1,8,0:0:0:0:
444,384,102280,1,0,0:0:0:0:
444,384,102397,1,0,0:0:0:0:
444,384,102632,1,8,0:0:0:0:
444,384,102749,1,0,0:0:0:0:
444,384,102807,1,0,0:0:0:0:
444,384,102866,1,0,0:0:0:0:
444,384,103100,1,8,0:0:0:0:
444,384,103217,1,0,0:0:0:0:
444,384,103335,1,0,0:0:0:0:
444,384,103569,1,8,0:0:0:0:
444,384,103686,1,0,0:0:0:0:
444,384,103745,1,0,0:0:0:0:
444,384,103803,1,0,0:0:0:0:
444,384,104038,1,8,0:0:0:0:
444,384,104155,1,0,0:0:0:0:
444,384,104389,1,0,0:0:0:0:
444,384,104507,1,8,0:0:0:0:
444,384,104741,1,0,0:0:0:0:
444,384,104897,1,0,0:0:0:0:
444,384,104975,1,8,0:0:0:0:
444,384,105092,1,0,0:0:0:0:
444,384,105210,1,0,0:0:0:0:
444,384,105327,1,0,0:0:0:0:
444,384,105444,1,8,0:0:0:0:
444,384,105678,1,0,0:0:0:0:
444,384,105796,1,0,0:0:0:0:
444,384,105913,1,8,0:0:0:0:
444,384,106147,1,0,0:0:0:0:
444,384,106205,1,0,0:0:0:0:
444,384,106264,1,0,0:0:0:0:
444,384,106382,1,8,0:0:0:0:
444,384,106615,1,0,0:0:0:0:
444,384,106733,1,0,0:0:0:0:
444,384,106850,1,8,0:0:0:0:
444,384,107085,1,0,0:0:0:0:
444,384,107143,1,0,0:0:0:0:
444,384,107202,1,0,0:0:0:0:
444,384,107319,1,8,0:0:0:0:
444,384,107436,1,0,0:0:0:0:
444,384,107788,1,8,0:0:0:0:
444,384,107904,1,0,0:0:0:0:
444,384,108022,1,0,0:0:0:0:
444,384,108139,1,0,0:0:0:0:
444,384,108257,1,8,0:0:0:0:
444,384,108373,1,0,0:0:0:0:
444,384,108491,1,0,0:0:0:0:
444,384,108725,1,8,0:0:0:0:
444,384,108842,1,0,0:0:0:0:
444,384,108959,1,0,0:0:0:0:
444,384,109077,1,0,0:0:0:0:
444,384,109194,1,8,0:0:0:0:
444,384,109311,1,0,0:0:0:0:
444,384,109428,1,0,0:0:0:0:
444,384,109663,1,8,0:0:0:0:
444,384,109779,1,0,0:0:0:0:
444,384,109897,1,0,0:0:0:0:
444,384,110014,1,0,0:0:0:0:
444,384,110132,1,8,0:0:0:0:
444,384,110249,1,0,0:0:0:0:
444,384,110366,1,0,0:0:0:0:
444,384,110600,1,8,0:0:0:0:
444,384,110717,1,0,0:0:0:0:
444,384,110835,1,0,0:0:0:0:
444,384,110952,1,0,0:0:0:0:
444,384,111069,1,8,0:0:0:0:
444,384,111186,1,0,0:0:0:0:
444,384,111245,1,0,0:0:0:0:
444,384,111538,1,8,0:0:0:0:
444,384,111772,1,0,0:0:0:0:
444,384,111889,1,0,0:0:0:0:
444,384,112007,1,8,0:0:0:0:
444,384,112124,1,0,0:0:0:0:
444,384,112241,1,0,0:0:0:0:
444,384,112358,1,0,0:0:0:0:
444,384,112475,1,8,0:0:0:0:
444,384,112710,1,0,0:0:0:0:
444,384,112827,1,0,0:0:0:0:
444,384,112944,1,12,0:0:0:0:
444,384,113413,1,0,0:0:0:0:
444,384,113647,1,0,0:0:0:0:
444,384,113882,1,8,0:0:0:0:
444,384,114116,1,0,0:0:0:0:
444,384,114350,1,8,0:0:0:0:
444,384,114585,1,8,0:0:0:0:
444,384,114819,1,0,0:0:0:0:
444,384,115053,1,0,0:0:0:0:
444,384,115288,1,8,0:0:0:0:
444,384,115522,1,0,0:0:0:0:
444,384,115757,1,0,0:0:0:0:
444,384,115991,1,0,0:0:0:0:
444,384,116225,1,8,0:0:0:0:
444,384,116694,1,0,0:0:0:0:
444,384,116928,1,0,0:0:0:0:
444,384,117163,1,8,0:0:0:0:
444,384,117397,1,8,0:0:0:0:
444,384,117632,1,0,0:0:0:0:
444,384,117866,1,8,0:0:0:0:
444,384,118100,1,8,0:0:0:0:
444,384,118335,1,8,0:0:0:0:
444,384,118569,1,0,0:0:0:0:
444,384,118803,1,0,0:0:0:0:
444,384,119038,1,8,0:0:0:0:
444,384,119272,1,8,0:0:0:0:
444,384,119507,1,0,0:0:0:0:
444,384,119741,1,0,0:0:0:0:
444,384,119975,1,0,0:0:0:0:
444,384,120444,1,8,0:0:0:0:
444,384,120678,1,0,0:0:0:0:
444,384,120913,1,0,0:0:0:0:
444,384,121147,1,0,0:0:0:0:
444,384,121382,1,8,0:0:0:0:
444,384,121616,1,0,0:0:0:0:
444,384,121850,1,8,0:0:0:0:
444,384,122085,1,0,0:0:0:0:
444,384,122319,1,8,0:0:0:0:
444,384,122553,1,8,0:0:0:0:
444,384,122788,1,0,0:0:0:0:
444,384,123022,1,0,0:0:0:0:
444,384,123257,1,8,0:0:0:0:
444,384,123491,1,0,0:0:0:0:
444,384,123725,1,8,0:0:0:0:
444,384,124194,1,0,0:0:0:0:
444,384,124428,1,0,0:0:0:0:
444,384,124663,1,8,0:0:0:0:
444,384,124897,1,8,0:0:0:0:
444,384,125132,1,0,0:0:0:0:
444,384,125366,1,0,0:0:0:0:
444,384,125600,1,8,0:0:0:0:
444,384,125835,1,8,0:0:0:0:
444,384,126069,1,0,0:0:0:0:
444,384,126303,1,0,0:0:0:0:
444,384,126538,1,0,0:0:0:0:
444,384,126772,1,0,0:0:0:0:
444,384,127007,1,8,0:0:0:0:
444,384,127241,1,8,0:0:0:0:
444,384,127475,1,8,0:0:0:0:
444,384,127944,1,12,0:0:0:0:
444,384,128296,1,0,0:0:0:0:
444,384,128413,1,8,0:0:0:0:
444,384,128647,1,0,0:0:0:0:
444,384,128882,1,8,0:0:0:0:
444,384,129116,1,8,0:0:0:0:
444,384,129233,1,8,0:0:0:0:
444,384,129350,1,0,0:0:0:0:
444,384,129467,1,8,0:0:0:0:
444,384,129702,1,0,0:0:0:0:
444,384,129819,1,8,0:0:0:0:
444,384,130053,1,0,0:0:0:0:
444,384,130288,1,8,0:0:0:0:
444,384,130405,1,8,0:0:0:0:
444,384,130522,1,0,0:0:0:0:
444,384,130639,1,0,0:0:0:0:
444,384,130757,1,8,0:0:0:0:
444,384,130991,1,0,0:0:0:0:
444,384,131108,1,0,0:0:0:0:
444,384,131225,1,8,0:0:0:0:
444,384,131342,1,0,0:0:0:0:
444,384,131577,1,8,0:0:0:0:
444,384,131694,1,4,0:0:0:0:
444,384,132163,1,4,0:0:0:0:
444,384,132632,1,4,0:0:0:0:
444,384,133100,1,4,0:0:0:0:
444,384,133569,1,4,0:0:0:0:
444,384,134038,1,4,0:0:0:0:
444,384,134272,1,0,0:0:0:0:
444,384,134389,1,0,0:0:0:0:
444,384,134507,1,0,0:0:0:0:
444,384,134624,1,0,0:0:0:0:
444,384,134858,1,0,0:0:0:0:
444,384,134975,1,0,0:0:0:0:
444,384,135210,1,4,0:0:0:0:
444,384,135444,1,4,0:0:0:0:
444,384,135913,1,0,0:0:0:0:
444,384,136382,1,0,0:0:0:0:
444,384,136616,1,4,0:0:0:0:
444,384,137085,1,4,0:0:0:0:
444,384,137319,1,4,0:0:0:0:
444,384,137788,1,0,0:0:0:0:
444,384,138257,1,4,0:0:0:0:
444,384,138725,1,0,0:0:0:0:
444,384,138960,1,0,0:0:0:0:
444,384,139194,1,4,0:0:0:0:
444,384,139663,1,4,0:0:0:0:
444,384,139897,1,0,0:0:0:0:
444,384,140014,1,0,0:0:0:0:
444,384,140132,1,0,0:0:0:0:
444,384,140249,1,0,0:0:0:0:
444,384,140483,1,0,0:0:0:0:
444,384,140600,1,0,0:0:0:0:
444,384,140835,1,4,0:0:0:0:
444,384,141069,1,0,0:0:0:0:
444,384,141538,1,0,0:0:0:0:
444,384,142007,1,0,0:0:0:0:
444,384,142358,1,0,0:0:0:0:
0,0,142475,1,8,0:0:0:0:
444,384,142944,5,12,0:0:0:0:
444,384,143413,1,8,0:0:0:0:
444,384,143530,1,8,0:0:0:0:
444,384,143647,1,0,0:0:0:0:
444,384,143764,1,0,0:0:0:0:
444,384,143882,1,8,0:0:0:0:
444,384,144116,1,8,0:0:0:0:
444,384,144233,1,0,0:0:0:0:
444,384,144350,1,8,0:0:0:0:
444,384,144467,1,8,0:0:0:0:
444,384,144585,1,0,0:0:0:0:
444,384,144819,1,8,0:0:0:0:
444,384,145053,1,8,0:0:0:0:
444,384,145171,1,0,0:0:0:0:
444,384,145288,1,8,0:0:0:0:
444,384,145522,1,0,0:0:0:0:
444,384,145757,1,8,0:0:0:0:
444,384,145991,1,8,0:0:0:0:
444,384,146108,1,8,0:0:0:0:
444,384,146225,1,8,0:0:0:0:
444,384,146460,1,0,0:0:0:0:
444,384,146694,1,8,0:0:0:0:
444,384,146811,1,0,0:0:0:0:
444,384,146928,1,8,0:0:0:0:
444,384,147046,1,8,0:0:0:0:
444,384,147163,1,8,0:0:0:0:
444,384,147280,1,0,0:0:0:0:
444,384,147397,1,8,0:0:0:0:
444,384,147632,1,8,0:0:0:0:
444,384,147749,1,8,0:0:0:0:
444,384,147866,1,0,0:0:0:0:
444,384,147983,1,0,0:0:0:0:
444,384,148100,1,8,0:0:0:0:
444,384,148335,1,0,0:0:0:0:
444,384,148569,1,8,0:0:0:0:
444,384,148686,1,0,0:0:0:0:
444,384,148803,1,8,0:0:0:0:
444,384,148921,1,8,0:0:0:0:
444,384,149038,1,0,0:0:0:0:
444,384,149155,1,0,0:0:0:0:
444,384,149272,1,8,0:0:0:0:
444,384,149507,1,0,0:0:0:0:
444,384,149975,1,8,0:0:0:0:
444,384,150444,1,8,0:0:0:0:
444,384,150561,1,8,0:0:0:0:
444,384,150678,1,0,0:0:0:0:
444,384,150796,1,0,0:0:0:0:
444,384,150913,1,8,0:0:0:0:
444,384,151147,1,8,0:0:0:0:
444,384,151381,1,8,0:0:0:0:
444,384,151499,1,0,0:0:0:0:
444,384,151615,1,0,0:0:0:0:
444,384,151733,1,0,0:0:0:0:
444,384,151850,1,8,0:0:0:0:
444,384,151967,1,0,0:0:0:0:
444,384,152085,1,0,0:0:0:0:
444,384,152202,1,0,0:0:0:0:
444,384,152319,1,8,0:0:0:0:
444,384,152553,1,8,0:0:0:0:
444,384,152788,1,8,0:0:0:0:
444,384,152905,1,0,0:0:0:0:
444,384,153022,1,8,0:0:0:0:
444,384,153139,1,0,0:0:0:0:
444,384,153257,1,8,0:0:0:0:
444,384,153491,1,0,0:0:0:0:
444,384,153608,1,0,0:0:0:0:
444,384,153725,1,8,0:0:0:0:
444,384,153842,1,8,0:0:0:0:
444,384,153960,1,0,0:0:0:0:
444,384,154194,1,8,0:0:0:0:
444,384,154311,1,8,0:0:0:0:
444,384,154428,1,0,0:0:0:0:
444,384,154546,1,0,0:0:0:0:
444,384,154662,1,8,0:0:0:0:
444,384,154780,1,8,0:0:0:0:
444,384,154897,1,8,0:0:0:0:
444,384,155014,1,8,0:0:0:0:
444,384,155132,1,0,0:0:0:0:
444,384,155366,1,8,0:0:0:0:
444,384,155600,1,8,0:0:0:0:
444,384,155717,1,8,0:0:0:0:
444,384,155835,1,0,0:0:0:0:
444,384,156069,1,8,0:0:0:0:
444,384,156186,1,0,0:0:0:0:
444,384,156303,1,8,0:0:0:0:
444,384,156420,1,8,0:0:0:0:
444,384,156537,1,8,0:0:0:0:
444,384,156654,1,0,0:0:0:0:
444,384,156772,1,8,0:0:0:0:
444,384,156889,1,0,0:0:0:0:
444,384,157006,1,8,0:0:0:0:
444,384,157475,1,0,0:0:0:0:
444,384,157710,1,0,0:0:0:0:
444,384,157944,1,12,0:0:0:0:
444,384,158178,1,0,0:0:0:0:
444,384,158296,1,0,0:0:0:0:
444,384,158413,1,8,0:0:0:0:
444,384,158647,1,8,0:0:0:0:
444,384,158882,1,0,0:0:0:0:
444,384,159116,1,0,0:0:0:0:
444,384,159233,1,0,0:0:0:0:
444,384,159350,1,8,0:0:0:0:
444,384,159585,1,8,0:0:0:0:
444,384,159819,1,12,0:0:0:0:
444,384,160053,1,0,0:0:0:0:
444,384,160171,1,0,0:0:0:0:
444,384,160288,1,8,0:0:0:0:
444,384,160522,1,8,0:0:0:0:
444,384,160757,1,0,0:0:0:0:
444,384,160991,1,0,0:0:0:0:
444,384,161108,1,0,0:0:0:0:
444,384,161225,1,8,0:0:0:0:
444,384,161459,1,8,0:0:0:0:
444,384,161694,1,12,0:0:0:0:
444,384,161928,1,0,0:0:0:0:
444,384,162046,1,0,0:0:0:0:
444,384,162163,1,8,0:0:0:0:
444,384,162397,1,8,0:0:0:0:
444,384,162632,1,0,0:0:0:0:
444,384,162866,1,0,0:0:0:0:
444,384,162983,1,0,0:0:0:0:
444,384,163100,1,8,0:0:0:0:
444,384,163334,1,8,0:0:0:0:
444,384,163569,1,12,0:0:0:0:
444,384,163803,1,8,0:0:0:0:
444,384,163921,1,8,0:0:0:0:
444,384,164038,1,0,0:0:0:0:
444,384,164272,1,8,0:0:0:0:
444,384,164507,1,0,0:0:0:0:
444,384,164741,1,8,0:0:0:0:
444,384,164975,1,0,0:0:0:0:
444,384,165092,1,0,0:0:0:0:
444,384,165210,1,8,0:0:0:0:
444,384,165444,1,4,0:0:0:0:
444,384,165678,1,8,0:0:0:0:
444,384,165796,1,8,0:0:0:0:
444,384,165913,1,0,0:0:0:0:
444,384,166147,1,8,0:0:0:0:
444,384,166382,1,0,0:0:0:0:
444,384,166616,1,8,0:0:0:0:
444,384,166733,1,8,0:0:0:0:
444,384,166850,1,0,0:0:0:0:
444,384,166967,1,0,0:0:0:0:
444,384,167085,1,8,0:0:0:0:
444,384,167319,1,4,0:0:0:0:
444,384,167553,1,8,0:0:0:0:
444,384,167671,1,8,0:0:0:0:
444,384,167788,1,0,0:0:0:0:
444,384,168022,1,8,0:0:0:0:
444,384,168257,1,0,0:0:0:0:
444,384,168491,1,8,0:0:0:0:
444,384,168608,1,8,0:0:0:0:
444,384,168725,1,0,0:0:0:0:
444,384,168842,1,0,0:0:0:0:
444,384,168960,1,8,0:0:0:0:
444,384,169194,1,4,0:0:0:0:
444,384,169428,1,8,0:0:0:0:
444,384,169546,1,8,0:0:0:0:
444,384,169663,1,0,0:0:0:0:
444,384,169897,1,8,0:0:0:0:
444,384,170132,1,0,0:0:0:0:
444,384,170366,1,8,0:0:0:0:
444,384,170483,1,8,0:0:0:0:
444,384,170600,1,0,0:0:0:0:
444,384,170717,1,0,0:0:0:0:
444,384,170835,1,8,0:0:0:0:
444,384,171069,1,4,0:0:0:0:
444,384,171303,1,8,0:0:0:0:
444,384,171421,1,8,0:0:0:0:
444,384,171538,1,0,0:0:0:0:
444,384,171772,1,8,0:0:0:0:
444,384,171889,1,0,0:0:0:0:
444,384,172007,1,0,0:0:0:0:
444,384,172124,1,0,0:0:0:0:
444,384,172240,1,8,0:0:0:0:
444,384,172475,1,8,0:0:0:0:
444,384,172710,1,0,0:0:0:0:
444,384,172944,1,12,0:0:0:0:
444,384,173178,1,0,0:0:0:0:
444,384,173296,1,8,0:0:0:0:
444,384,173413,1,0,0:0:0:0:
444,384,173647,1,8,0:0:0:0:
444,384,173882,1,0,0:0:0:0:
444,384,173999,1,0,0:0:0:0:
444,384,174116,1,8,0:0:0:0:
444,384,174233,1,8,0:0:0:0:
444,384,174350,1,0,0:0:0:0:
444,384,174585,1,8,0:0:0:0:
444,384,174819,1,12,0:0:0:0:
444,384,175053,1,0,0:0:0:0:
444,384,175171,1,8,0:0:0:0:
444,384,175288,1,0,0:0:0:0:
444,384,175522,1,8,0:0:0:0:
444,384,175757,1,0,0:0:0:0:
444,384,175874,1,0,0:0:0:0:
444,384,175991,1,8,0:0:0:0:
444,384,176108,1,8,0:0:0:0:
444,384,176225,1,0,0:0:0:0:
444,384,176460,1,8,0:0:0:0:
444,384,176694,1,12,0:0:0:0:
444,384,176928,1,0,0:0:0:0:
444,384,177046,1,8,0:0:0:0:
444,384,177163,1,0,0:0:0:0:
444,384,177397,1,8,0:0:0:0:
444,384,177632,1,0,0:0:0:0:
444,384,177749,1,0,0:0:0:0:
444,384,177866,1,8,0:0:0:0:
444,384,177983,1,8,0:0:0:0:
444,384,178100,1,0,0:0:0:0:
444,384,178335,1,8,0:0:0:0:
444,384,178569,1,12,0:0:0:0:
444,384,178803,1,8,0:0:0:0:
444,384,178921,1,8,0:0:0:0:
444,384,179038,1,0,0:0:0:0:
444,384,179272,1,0,0:0:0:0:
444,384,179389,1,8,0:0:0:0:
444,384,179507,1,0,0:0:0:0:
444,384,179741,1,8,0:0:0:0:
444,384,179858,1,0,0:0:0:0:
444,384,179975,1,8,0:0:0:0:
444,384,180210,1,8,0:0:0:0:
444,384,180444,1,4,0:0:0:0:
444,384,180678,1,8,0:0:0:0:
444,384,180796,1,8,0:0:0:0:
444,384,180913,1,0,0:0:0:0:
444,384,181030,1,0,0:0:0:0:
444,384,181147,1,8,0:0:0:0:
444,384,181382,1,0,0:0:0:0:
444,384,181616,1,8,0:0:0:0:
444,384,181733,1,0,0:0:0:0:
444,384,181850,1,8,0:0:0:0:
444,384,181967,1,0,0:0:0:0:
444,384,182085,1,8,0:0:0:0:
444,384,182319,1,4,0:0:0:0:
444,384,182553,1,8,0:0:0:0:
444,384,182671,1,8,0:0:0:0:
444,384,182788,1,0,0:0:0:0:
444,384,182905,1,0,0:0:0:0:
444,384,183022,1,8,0:0:0:0:
444,384,183257,1,0,0:0:0:0:
444,384,183491,1,8,0:0:0:0:
444,384,183608,1,0,0:0:0:0:
444,384,183725,1,8,0:0:0:0:
444,384,183842,1,0,0:0:0:0:
444,384,183960,1,8,0:0:0:0:
444,384,184194,1,4,0:0:0:0:
444,384,184428,1,8,0:0:0:0:
444,384,184546,1,8,0:0:0:0:
444,384,184663,1,0,0:0:0:0:
444,384,184780,1,0,0:0:0:0:
444,384,184897,1,8,0:0:0:0:
444,384,185132,1,0,0:0:0:0:
444,384,185366,1,8,0:0:0:0:
444,384,185483,1,0,0:0:0:0:
444,384,185600,1,8,0:0:0:0:
444,384,185717,1,0,0:0:0:0:
444,384,185835,1,8,0:0:0:0:
444,384,186069,1,4,0:0:0:0:
444,384,186303,1,8,0:0:0:0:
444,384,186421,1,8,0:0:0:0:
444,384,186538,1,0,0:0:0:0:
444,384,186772,1,8,0:0:0:0:
444,384,186889,1,0,0:0:0:0:
444,384,187007,1,8,0:0:0:0:
444,384,187124,1,8,0:0:0:0:
444,384,187241,1,0,0:0:0:0:
444,384,187358,1,0,0:0:0:0:
444,384,187475,1,8,0:0:0:0:
444,384,187710,1,8,0:0:0:0:
444,384,187944,1,12,0:0:0:0:
444,384,188413,1,0,0:0:0:0:
444,384,188647,1,8,0:0:0:0:
444,384,188764,1,8,0:0:0:0:
444,384,188882,1,0,0:0:0:0:
444,384,189116,1,8,0:0:0:0:
444,384,189350,1,0,0:0:0:0:
444,384,189467,1,0,0:0:0:0:
444,384,189585,1,8,0:0:0:0:
444,384,189819,1,0,0:0:0:0:
444,384,190053,1,0,0:0:0:0:
444,384,190171,1,8,0:0:0:0:
444,384,190288,1,0,0:0:0:0:
444,384,190522,1,8,0:0:0:0:
444,384,190757,1,0,0:0:0:0:
444,384,190991,1,8,0:0:0:0:
444,384,191225,1,0,0:0:0:0:
444,384,191342,1,8,0:0:0:0:
444,384,191460,1,8,0:0:0:0:
444,384,191577,1,8,0:0:0:0:
444,384,191694,1,0,0:0:0:0:
444,384,191928,1,8,0:0:0:0:
444,384,192046,1,8,0:0:0:0:
444,384,192163,1,0,0:0:0:0:
444,384,192397,1,8,0:0:0:0:
444,384,192632,1,0,0:0:0:0:
444,384,192866,1,8,0:0:0:0:
444,384,193100,1,0,0:0:0:0:
444,384,193217,1,0,0:0:0:0:
444,384,193335,1,8,0:0:0:0:
444,384,193452,1,8,0:0:0:0:
444,384,193569,1,0,0:0:0:0:
444,384,193803,1,0,0:0:0:0:
444,384,193921,1,8,0:0:0:0:
444,384,194038,1,0,0:0:0:0:
444,384,194272,1,8,0:0:0:0:
444,384,194507,1,8,0:0:0:0:
444,384,194741,1,0,0:0:0:0:
444,384,194858,1,0,0:0:0:0:
444,384,194975,1,8,0:0:0:0:
444,384,195210,1,0,0:0:0:0:
444,384,195444,1,0,0:0:0:0:
444,384,195678,1,0,0:0:0:0:
444,384,195796,1,0,0:0:0:0:
444,384,195913,1,8,0:0:0:0:
444,384,196147,1,0,0:0:0:0:
444,384,196264,1,8,0:0:0:0:
444,384,196382,1,0,0:0:0:0:
444,384,196616,1,8,0:0:0:0:
444,384,196850,1,0,0:0:0:0:
444,384,196967,1,0,0:0:0:0:
444,384,197085,1,8,0:0:0:0:
444,384,197319,1,0,0:0:0:0:
444,384,197553,1,0,0:0:0:0:
444,384,197671,1,0,0:0:0:0:
444,384,197788,1,0,0:0:0:0:
444,384,198022,1,0,0:0:0:0:
444,384,198139,1,8,0:0:0:0:
444,384,198257,1,0,0:0:0:0:
444,384,198491,1,8,0:0:0:0:
444,384,198725,1,0,0:0:0:0:
444,384,198842,1,0,0:0:0:0:
444,384,198960,1,8,0:0:0:0:
444,384,199077,1,0,0:0:0:0:
444,384,199194,1,8,0:0:0:0:
444,384,199428,1,0,0:0:0:0:
444,384,199663,1,8,0:0:0:0:
444,384,199897,1,8,0:0:0:0:
444,384,200014,1,8,0:0:0:0:
444,384,200132,1,0,0:0:0:0:
444,384,200366,1,8,0:0:0:0:
444,384,200600,1,0,0:0:0:0:
444,384,200717,1,8,0:0:0:0:
444,384,200835,1,0,0:0:0:0:
444,384,201069,1,0,0:0:0:0:
444,384,201186,1,0,0:0:0:0:
444,384,201303,1,8,0:0:0:0:
444,384,201421,1,8,0:0:0:0:
444,384,201538,1,0,0:0:0:0:
444,384,201654,1,0,0:0:0:0:
444,384,201772,1,8,0:0:0:0:
444,384,201889,1,8,0:0:0:0:
444,384,202007,1,0,0:0:0:0:
444,384,202124,1,0,0:0:0:0:
444,384,202241,1,8,0:0:0:0:
444,384,202358,1,8,0:0:0:0:
444,384,202475,1,0,0:0:0:0:
444,384,202592,1,0,0:0:0:0:
444,384,202710,1,8,0:0:0:0:
444,384,202827,1,8,0:0:0:0:
444,384,202944,1,4,0:0:0:0:
444,384,203413,1,0,0:0:0:0:
444,384,203647,1,8,0:0:0:0:
444,384,203764,1,8,0:0:0:0:
444,384,203882,1,0,0:0:0:0:
444,384,204116,1,8,0:0:0:0:
444,384,204233,1,8,0:0:0:0:
444,384,204350,1,0,0:0:0:0:
444,384,204467,1,8,0:0:0:0:
444,384,204585,1,8,0:0:0:0:
444,384,204701,1,8,0:0:0:0:
444,384,204819,1,0,0:0:0:0:
444,384,205053,1,8,0:0:0:0:
444,384,205171,1,8,0:0:0:0:
444,384,205288,1,0,0:0:0:0:
444,384,205405,1,8,0:0:0:0:
444,384,205522,1,8,0:0:0:0:
444,384,205639,1,8,0:0:0:0:
444,384,205757,1,0,0:0:0:0:
444,384,205874,1,8,0:0:0:0:
444,384,205991,1,8,0:0:0:0:
444,384,206108,1,8,0:0:0:0:
444,384,206225,1,0,0:0:0:0:
444,384,206460,1,8,0:0:0:0:
444,384,206576,1,8,0:0:0:0:
444,384,206694,1,0,0:0:0:0:
444,384,206928,1,8,0:0:0:0:
444,384,207163,1,0,0:0:0:0:
444,384,207280,1,8,0:0:0:0:
444,384,207397,1,8,0:0:0:0:
444,384,207632,1,0,0:0:0:0:
444,384,207749,1,8,0:0:0:0:
444,384,207807,1,8,0:0:0:0:
444,384,207866,1,8,0:0:0:0:
444,384,208100,1,0,0:0:0:0:
444,384,208217,1,8,0:0:0:0:
444,384,208335,1,8,0:0:0:0:
444,384,208569,1,0,0:0:0:0:
444,384,208686,1,8,0:0:0:0:
444,384,208745,1,8,0:0:0:0:
444,384,208803,1,8,0:0:0:0:
444,384,209038,1,0,0:0:0:0:
444,384,209272,1,0,0:0:0:0:
444,384,209389,1,0,0:0:0:0:
444,384,209624,1,0,0:0:0:0:
444,384,209858,1,0,0:0:0:0:
444,384,209975,1,0,0:0:0:0:
444,384,210092,1,8,0:0:0:0:
444,384,210210,1,0,0:0:0:0:
444,384,210444,1,4,0:0:0:0:
444,384,210678,1,8,0:0:0:0:
444,384,210796,1,8,0:0:0:0:
444,384,210913,1,0,0:0:0:0:
444,384,211030,1,8,0:0:0:0:
444,384,211089,1,8,0:0:0:0:
444,384,211147,1,8,0:0:0:0:
444,384,211382,1,0,0:0:0:0:
444,384,211616,1,8,0:0:0:0:
444,384,211733,1,8,0:0:0:0:
444,384,211850,1,0,0:0:0:0:
444,384,211967,1,8,0:0:0:0:
444,384,212026,1,8,0:0:0:0:
444,384,212084,1,8,0:0:0:0:
444,384,212319,1,0,0:0:0:0:
444,384,212436,1,8,0:0:0:0:
444,384,212788,1,0,0:0:0:0:
444,384,212905,1,8,0:0:0:0:
444,384,213022,1,8,0:0:0:0:
444,384,213139,1,8,0:0:0:0:
444,384,213257,1,0,0:0:0:0:
444,384,213373,1,8,0:0:0:0:
444,384,213490,1,8,0:0:0:0:
444,384,213725,1,0,0:0:0:0:
444,384,213842,1,8,0:0:0:0:
444,384,213959,1,8,0:0:0:0:
444,384,214076,1,8,0:0:0:0:
444,384,214194,1,0,0:0:0:0:
444,384,214311,1,8,0:0:0:0:
444,384,214428,1,8,0:0:0:0:
444,384,214663,1,0,0:0:0:0:
444,384,214779,1,8,0:0:0:0:
444,384,214897,1,8,0:0:0:0:
444,384,215014,1,8,0:0:0:0:
444,384,215132,1,0,0:0:0:0:
444,384,215249,1,8,0:0:0:0:
444,384,215366,1,8,0:0:0:0:
444,384,215600,1,0,0:0:0:0:
444,384,215717,1,8,0:0:0:0:
444,384,215835,1,8,0:0:0:0:
444,384,215952,1,8,0:0:0:0:
444,384,216069,1,0,0:0:0:0:
444,384,216186,1,8,0:0:0:0:
444,384,216245,1,8,0:0:0:0:
444,384,216538,1,0,0:0:0:0:
444,384,216772,1,8,0:0:0:0:
444,384,216889,1,8,0:0:0:0:
444,384,217007,1,0,0:0:0:0:
444,384,217124,1,8,0:0:0:0:
444,384,217241,1,8,0:0:0:0:
444,384,217358,1,8,0:0:0:0:
444,384,217475,1,0,0:0:0:0:
444,384,217944,1,8,0:0:0:0:
