osu file format v14

[General]
AudioFilename: audio.ogg
AudioLeadIn: 0
PreviewTime: 52416
Countdown: 0
SampleSet: Normal
StackLeniency: 0.2
Mode: 1
LetterboxInBreaks: 0
WidescreenStoryboard: 0

[Editor]
Bookmarks: 30444,37944,82944,97944,112944,127944,142944,157944,187944,201069,202944
DistanceSpacing: 0.8
BeatDivisor: 2
GridSize: 32
TimelineZoom: 1

[Metadata]
Title:Chiri Chiri Juso
TitleUnicode:塵塵呪詛
Artist:Kikuo
ArtistUnicode:きくお
Creator:Alchyr
Version:Futsuu
Source:
Tags:featured artist fa mappers' mapper's guild mg dust dust curse kikuo miku 2 vocaloid electronic japanese IA -ARIA ON THE PLANETES- IA/1.0.0 -BIRTH- MD EXIT TUNES PRESENTS Vocalofanatic feat. GUMI、IA、MAYU IA/VT -COLORFUL-
BeatmapID:3850821
BeatmapSetID:1844742

[Difficulty]
HPDrainRate:7
CircleSize:2
OverallDifficulty:4.5
ApproachRate:10
SliderMultiplier:1.4
SliderTickRate:1

[Events]
//Background and Video events
0,0,"bg.jpg",0,120
//Break Periods
//Storyboard Layer 0 (Background)
//Storyboard Layer 1 (Fail)
//Storyboard Layer 2 (Pass)
//Storyboard Layer 3 (Foreground)
//Storyboard Layer 4 (Overlay)
//Storyboard Sound Samples

[TimingPoints]
452,468.75,4,1,0,15,1,8
15444,468.75,4,1,0,70,1,0
15444,-100,4,1,0,70,0,0
30411,-93.4579439252336,4,1,0,80,0,0
30488,-100,4,1,0,55,0,0
34150,-93.4579439252336,4,1,0,80,0,0
36435,-100,4,1,0,50,0,0
37881,-93.4579439252336,4,1,0,80,0,0
38029,-100,4,1,0,70,0,0
50992,-100,4,1,0,70,0,0
52404,-100,4,1,0,80,0,0
52885,-93.4579439252336,4,1,0,100,0,0
52944,-93.4579439252336,4,1,0,100,0,1
82944,-87.719298245614,4,1,0,80,0,0
83077,-100,4,1,0,60,0,0
96017,-100,4,1,0,70,0,0
97902,-93.4579439252336,4,1,0,80,0,0
98030,-100,4,1,0,40,0,0
112887,-93.4579439252336,4,1,0,70,0,0
113012,-111.111111111111,4,1,0,20,0,0
120354,-111.111111111111,4,1,0,60,0,0
120510,-111.111111111111,4,1,0,15,0,0
127885,-93.4579439252336,4,1,0,80,0,0
127962,-100,4,1,0,55,0,0
131652,-93.4579439252336,4,1,0,80,0,0
141004,-93.4579439252336,4,1,0,60,0,0
142417,-90.9090909090909,4,1,0,30,0,0
142826,-100,4,1,0,60,0,0
143015,-100,4,1,0,60,0,0
157357,-100,4,1,0,60,0,0
157885,-93.4579439252336,4,1,0,100,0,0
157944,-93.4579439252336,4,1,0,100,0,1
187861,-93.4579439252336,4,1,0,80,0,1
187944,-93.4579439252336,4,1,0,80,0,0
188077,-100,4,1,0,60,0,0
202885,-93.4579439252336,4,1,0,80,0,0
203013,-100,4,1,0,40,0,0
217892,-100,4,1,0,60,0,0

[HitObjects]
444,384,15444,5,0,0:0:0:0:
444,384,15913,1,8,0:0:0:0:
444,384,16382,1,0,0:0:0:0:
444,384,16850,1,8,0:0:0:0:
444,384,17319,1,0,0:0:0:0:
444,384,17788,1,8,0:0:0:0:
444,384,18257,1,8,0:0:0:0:
444,384,18491,1,8,0:0:0:0:
444,384,18725,1,0,0:0:0:0:
444,384,19194,1,8,0:0:0:0:
444,384,19663,1,8,0:0:0:0:
444,384,20132,1,0,0:0:0:0:
444,384,20600,1,8,0:0:0:0:
444,384,21069,1,0,0:0:0:0:
444,384,21303,1,0,0:0:0:0:
444,384,21538,1,0,0:0:0:0:
444,384,21772,1,0,0:0:0:0:
444,384,22007,1,8,0:0:0:0:
444,384,22241,1,8,0:0:0:0:
444,384,22475,1,0,0:0:0:0:
444,384,22944,1,8,0:0:0:0:
444,384,23413,1,8,0:0:0:0:
444,384,23882,1,0,0:0:0:0:
444,384,24350,1,8,0:0:0:0:
444,384,24819,1,0,0:0:0:0:
444,384,25288,1,8,0:0:0:0:
444,384,25757,1,8,0:0:0:0:
444,384,25991,1,8,0:0:0:0:
444,384,26225,1,0,0:0:0:0:
444,384,26694,1,8,0:0:0:0:
444,384,27163,1,8,0:0:0:0:
444,384,27632,1,0,0:0:0:0:
444,384,28100,1,8,0:0:0:0:
444,384,28569,1,0,0:0:0:0:
444,384,28803,1,0,0:0:0:0:
444,384,29038,1,8,0:0:0:0:
444,384,29272,1,8,0:0:0:0:
444,384,29507,1,0,0:0:0:0:
444,384,29741,1,0,0:0:0:0:
444,384,29975,1,0,0:0:0:0:
444,384,30444,1,12,0:0:0:0:
444,384,30913,1,8,0:0:0:0:
444,384,31030,1,8,0:0:0:0:
444,384,31382,1,8,0:0:0:0:
444,384,31850,1,8,0:0:0:0:
444,384,32319,1,8,0:0:0:0:
444,384,32788,1,8,0:0:0:0:
444,384,32905,1,8,0:0:0:0:
444,384,33257,1,8,0:0:0:0:
256,192,33491,1,8,0:0:0:0:
444,384,33725,1,8,0:0:0:0:
444,384,34194,1,4,0:0:0:0:
444,384,34663,1,4,0:0:0:0:
444,384,35132,1,4,0:0:0:0:
444,384,35600,1,4,0:0:0:0:
444,384,36069,1,4,0:0:0:0:
444,384,37944,1,12,0:0:0:0:
444,384,38413,1,8,0:0:0:0:
444,384,38647,1,0,0:0:0:0:
444,384,38882,1,8,0:0:0:0:
444,384,39116,1,0,0:0:0:0:
444,384,39585,1,0,0:0:0:0:
444,384,39819,1,8,0:0:0:0:
444,384,40053,1,0,0:0:0:0:
444,384,40288,1,8,0:0:0:0:
444,384,40757,1,8,0:0:0:0:
444,384,41225,1,8,0:0:0:0:
444,384,41694,1,0,0:0:0:0:
444,384,41928,1,0,0:0:0:0:
444,384,42163,1,8,0:0:0:0:
444,384,42397,1,8,0:0:0:0:
444,384,42632,1,0,0:0:0:0:
444,384,43100,1,8,0:0:0:0:
444,384,43569,1,8,0:0:0:0:
444,384,43803,1,8,0:0:0:0:
444,384,44038,1,8,0:0:0:0:
444,384,44272,1,8,0:0:0:0:
444,384,44507,1,0,0:0:0:0:
444,384,44741,1,0,0:0:0:0:
444,384,44975,1,0,0:0:0:0:
444,384,45444,1,0,0:0:0:0:
444,384,45913,1,0,0:0:0:0:
444,384,46382,1,0,0:0:0:0:
256,192,46850,1,0,0:0:0:0:
256,192,47085,1,0,0:0:0:0:
444,384,47319,1,8,0:0:0:0:
444,384,47553,1,8,0:0:0:0:
444,384,47788,1,0,0:0:0:0:
444,384,48257,1,8,0:0:0:0:
444,384,48491,1,8,0:0:0:0:
444,384,48725,1,8,0:0:0:0:
444,384,49194,1,0,0:0:0:0:
444,384,49428,1,0,0:0:0:0:
444,384,49663,1,8,0:0:0:0:
444,384,50132,1,0,0:0:0:0:
444,384,50366,1,0,0:0:0:0:
444,384,50600,1,0,0:0:0:0:
444,384,51069,1,8,0:0:0:0:
444,384,51303,1,8,0:0:0:0:
444,384,51538,1,8,0:0:0:0:
256,192,51772,1,8,0:0:0:0:
444,384,52007,1,0,0:0:0:0:
444,384,52475,1,8,0:0:0:0:
444,384,52944,1,12,0:0:0:0:
444,384,53178,1,8,0:0:0:0:
444,384,53413,1,0,0:0:0:0:
444,384,53647,1,8,0:0:0:0:
444,384,53882,1,0,0:0:0:0:
444,384,54116,1,0,0:0:0:0:
444,384,54350,1,8,0:0:0:0:
444,384,54819,1,12,0:0:0:0:
444,384,55053,1,8,0:0:0:0:
444,384,55288,1,0,0:0:0:0:
444,384,55522,1,8,0:0:0:0:
444,384,55757,1,0,0:0:0:0:
444,384,55991,1,0,0:0:0:0:
444,384,56225,1,8,0:0:0:0:
444,384,56694,1,12,0:0:0:0:
444,384,56928,1,8,0:0:0:0:
444,384,57163,1,0,0:0:0:0:
444,384,57397,1,8,0:0:0:0:
444,384,57632,1,0,0:0:0:0:
444,384,57866,1,0,0:0:0:0:
444,384,58100,1,8,0:0:0:0:
444,384,58569,1,12,0:0:0:0:
444,384,59038,1,8,0:0:0:0:
444,384,59507,1,0,0:0:0:0:
444,384,59741,1,0,0:0:0:0:
444,384,59975,1,8,0:0:0:0:
444,384,60444,1,4,0:0:0:0:
444,384,60678,1,0,0:0:0:0:
444,384,60913,1,8,0:0:0:0:
444,384,61147,1,8,0:0:0:0:
444,384,61382,1,0,0:0:0:0:
444,384,61616,1,0,0:0:0:0:
444,384,61850,1,8,0:0:0:0:
444,384,62319,1,4,0:0:0:0:
444,384,62553,1,0,0:0:0:0:
444,384,62788,1,8,0:0:0:0:
444,384,63022,1,8,0:0:0:0:
444,384,63257,1,0,0:0:0:0:
444,384,63491,1,0,0:0:0:0:
444,384,63725,1,8,0:0:0:0:
444,384,64194,1,4,0:0:0:0:
444,384,64428,1,0,0:0:0:0:
444,384,64663,1,8,0:0:0:0:
444,384,64897,1,8,0:0:0:0:
444,384,65132,1,0,0:0:0:0:
444,384,65366,1,0,0:0:0:0:
444,384,65600,1,8,0:0:0:0:
444,384,66069,1,4,0:0:0:0:
444,384,66538,1,8,0:0:0:0:
444,384,67007,1,0,0:0:0:0:
444,384,67241,1,0,0:0:0:0:
444,384,67475,1,8,0:0:0:0:
444,384,67944,1,12,0:0:0:0:
444,384,68178,1,8,0:0:0:0:
444,384,68413,1,0,0:0:0:0:
256,192,68647,1,0,0:0:0:0:
256,192,68882,1,8,0:0:0:0:
256,192,69116,1,0,0:0:0:0:
444,384,69350,1,8,0:0:0:0:
444,384,69819,1,12,0:0:0:0:
444,384,70053,1,8,0:0:0:0:
444,384,70288,1,0,0:0:0:0:
256,192,70522,1,0,0:0:0:0:
256,192,70757,1,8,0:0:0:0:
444,384,70991,1,0,0:0:0:0:
444,384,71225,1,8,0:0:0:0:
444,384,71694,1,12,0:0:0:0:
444,384,71928,1,8,0:0:0:0:
444,384,72163,1,0,0:0:0:0:
256,192,72397,1,0,0:0:0:0:
256,192,72632,1,8,0:0:0:0:
444,384,72866,1,0,0:0:0:0:
444,384,73100,1,8,0:0:0:0:
444,384,73569,1,12,0:0:0:0:
256,192,74038,1,0,0:0:0:0:
444,384,74507,1,8,0:0:0:0:
256,192,74741,1,0,0:0:0:0:
256,192,74975,1,8,0:0:0:0:
444,384,75444,1,4,0:0:0:0:
444,384,75678,1,8,0:0:0:0:
444,384,75913,1,0,0:0:0:0:
444,384,76147,1,8,0:0:0:0:
444,384,76382,1,0,0:0:0:0:
444,384,76616,1,0,0:0:0:0:
444,384,76850,1,8,0:0:0:0:
444,384,77319,1,4,0:0:0:0:
444,384,77553,1,8,0:0:0:0:
444,384,77788,1,0,0:0:0:0:
444,384,78022,1,8,0:0:0:0:
444,384,78257,1,0,0:0:0:0:
444,384,78491,1,0,0:0:0:0:
444,384,78725,1,8,0:0:0:0:
444,384,79194,1,4,0:0:0:0:
444,384,79428,1,8,0:0:0:0:
444,384,79663,1,0,0:0:0:0:
444,384,79897,1,8,0:0:0:0:
444,384,80132,1,0,0:0:0:0:
444,384,80366,1,0,0:0:0:0:
444,384,80600,1,8,0:0:0:0:
444,384,81069,1,4,0:0:0:0:
256,192,81538,1,8,0:0:0:0:
256,192,82007,1,0,0:0:0:0:
444,384,82241,1,0,0:0:0:0:
256,192,82475,1,0,0:0:0:0:
256,192,82710,1,0,0:0:0:0:
444,384,82944,1,12,0:0:0:0:
444,384,83413,1,0,0:0:0:0:
444,384,83882,1,8,0:0:0:0:
444,384,84350,1,8,0:0:0:0:
444,384,84819,1,0,0:0:0:0:
444,384,85288,1,8,0:0:0:0:
444,384,85757,1,8,0:0:0:0:
444,384,85991,1,8,0:0:0:0:
444,384,86225,1,0,0:0:0:0:
444,384,86694,1,8,0:0:0:0:
444,384,87163,1,8,0:0:0:0:
256,192,87632,1,0,0:0:0:0:
444,384,88100,1,8,0:0:0:0:
444,384,88569,1,0,0:0:0:0:
444,384,88803,1,0,0:0:0:0:
444,384,89038,1,8,0:0:0:0:
256,192,89272,1,8,0:0:0:0:
444,384,89507,1,8,0:0:0:0:
444,384,89741,1,8,0:0:0:0:
444,384,89975,1,0,0:0:0:0:
444,384,90444,1,8,0:0:0:0:
444,384,90913,1,0,0:0:0:0:
444,384,91382,1,8,0:0:0:0:
444,384,91850,1,8,0:0:0:0:
444,384,92319,1,0,0:0:0:0:
444,384,92788,1,0,0:0:0:0:
444,384,93257,1,8,0:0:0:0:
444,384,93725,1,0,0:0:0:0:
444,384,94194,1,8,0:0:0:0:
444,384,94663,1,8,0:0:0:0:
444,384,95132,1,0,0:0:0:0:
444,384,95600,1,8,0:0:0:0:
444,384,96069,1,0,0:0:0:0:
444,384,96303,1,0,0:0:0:0:
444,384,96538,1,8,0:0:0:0:
444,384,96772,1,8,0:0:0:0:
444,384,97007,1,0,0:0:0:0:
444,384,97241,1,0,0:0:0:0:
444,384,97475,1,8,0:0:0:0:
444,384,97944,1,4,0:0:0:0:
444,384,98413,1,8,0:0:0:0:
444,384,98882,1,8,0:0:0:0:
256,192,99116,1,8,0:0:0:0:
444,384,99350,1,8,0:0:0:0:
444,384,99819,1,8,0:0:0:0:
444,384,100288,1,8,0:0:0:0:
444,384,100757,1,8,0:0:0:0:
256,192,100991,1,8,0:0:0:0:
444,384,101225,1,8,0:0:0:0:
444,384,101694,1,8,0:0:0:0:
256,192,102163,1,0,0:0:0:0:
256,192,102397,1,0,0:0:0:0:
256,192,102632,1,0,0:0:0:0:
256,192,103100,1,0,0:0:0:0:
256,192,103569,1,0,0:0:0:0:
444,384,103803,1,0,0:0:0:0:
256,192,104038,1,0,0:0:0:0:
256,192,104507,1,0,0:0:0:0:
256,192,104975,1,0,0:0:0:0:
444,384,105210,1,0,0:0:0:0:
256,192,105444,1,8,0:0:0:0:
444,384,105913,1,8,0:0:0:0:
444,384,106382,1,8,0:0:0:0:
256,192,106616,1,8,0:0:0:0:
444,384,106850,1,8,0:0:0:0:
444,384,107319,1,8,0:0:0:0:
444,384,107788,1,8,0:0:0:0:
444,384,108257,1,8,0:0:0:0:
256,192,108491,1,8,0:0:0:0:
444,384,108725,1,8,0:0:0:0:
444,384,109194,1,8,0:0:0:0:
256,192,109663,1,8,0:0:0:0:
256,192,110132,1,8,0:0:0:0:
256,192,110366,1,8,0:0:0:0:
256,192,110600,1,8,0:0:0:0:
256,192,111069,1,0,0:0:0:0:
256,192,111538,1,8,0:0:0:0:
256,192,112007,1,0,0:0:0:0:
256,192,112241,1,0,0:0:0:0:
256,192,112475,1,0,0:0:0:0:
256,192,112944,1,12,0:0:0:0:
444,384,113413,1,0,0:0:0:0:
256,192,113647,1,0,0:0:0:0:
444,384,114116,1,0,0:0:0:0:
444,384,114819,1,0,0:0:0:0:
444,384,115288,1,8,0:0:0:0:
444,384,115522,1,0,0:0:0:0:
444,384,115991,1,0,0:0:0:0:
256,192,116225,1,8,0:0:0:0:
444,384,116694,1,0,0:0:0:0:
444,384,117163,1,8,0:0:0:0:
444,384,117397,1,8,0:0:0:0:
256,192,117866,1,0,0:0:0:0:
444,384,118100,1,8,0:0:0:0:
444,384,118569,1,0,0:0:0:0:
444,384,118803,1,0,0:0:0:0:
444,384,119038,1,8,0:0:0:0:
444,384,119272,1,8,0:0:0:0:
444,384,119507,1,0,0:0:0:0:
444,384,119975,1,0,0:0:0:0:
444,384,120444,1,8,0:0:0:0:
256,192,120913,1,0,0:0:0:0:
444,384,121147,1,0,0:0:0:0:
256,192,121616,1,0,0:0:0:0:
256,192,122319,1,0,0:0:0:0:
256,192,122788,1,8,0:0:0:0:
444,384,123022,1,0,0:0:0:0:
444,384,123491,1,0,0:0:0:0:
444,384,123725,1,8,0:0:0:0:
444,384,124194,1,0,0:0:0:0:
444,384,124428,1,0,0:0:0:0:
444,384,124663,1,8,0:0:0:0:
444,384,125132,1,0,0:0:0:0:
444,384,125366,1,0,0:0:0:0:
444,384,125600,1,8,0:0:0:0:
444,384,126069,1,0,0:0:0:0:
444,384,126303,1,0,0:0:0:0:
444,384,126538,1,0,0:0:0:0:
444,384,126772,1,0,0:0:0:0:
444,384,127007,1,8,0:0:0:0:
444,384,127241,1,8,0:0:0:0:
444,384,127475,1,8,0:0:0:0:
444,384,127944,1,12,0:0:0:0:
444,384,128413,1,8,0:0:0:0:
444,384,128530,1,8,0:0:0:0:
444,384,128882,1,8,0:0:0:0:
444,384,129350,1,8,0:0:0:0:
444,384,129819,1,8,0:0:0:0:
444,384,130288,1,8,0:0:0:0:
444,384,130405,1,8,0:0:0:0:
444,384,130757,1,8,0:0:0:0:
256,192,130991,1,8,0:0:0:0:
444,384,131225,1,8,0:0:0:0:
444,384,131694,1,4,0:0:0:0:
444,384,132163,1,4,0:0:0:0:
444,384,132632,1,4,0:0:0:0:
444,384,133100,1,4,0:0:0:0:
444,384,133569,1,4,0:0:0:0:
444,384,134038,1,4,0:0:0:0:
444,384,134507,1,0,0:0:0:0:
444,384,134858,1,0,0:0:0:0:
444,384,134975,1,0,0:0:0:0:
444,384,135444,1,4,0:0:0:0:
444,384,135913,1,0,0:0:0:0:
444,384,136616,1,4,0:0:0:0:
444,384,137085,1,4,0:0:0:0:
444,384,137319,1,4,0:0:0:0:
444,384,137788,1,0,0:0:0:0:
444,384,138257,1,4,0:0:0:0:
444,384,138725,1,0,0:0:0:0:
444,384,139194,1,4,0:0:0:0:
444,384,139663,1,4,0:0:0:0:
444,384,140132,1,0,0:0:0:0:
444,384,140483,1,0,0:0:0:0:
444,384,140600,1,0,0:0:0:0:
444,384,140835,1,4,0:0:0:0:
0,0,142475,1,8,0:0:0:0:
444,384,142944,1,12,0:0:0:0:
444,384,143413,1,8,0:0:0:0:
256,192,143647,1,8,0:0:0:0:
256,192,143882,1,0,0:0:0:0:
256,192,144350,1,8,0:0:0:0:
256,192,144585,1,8,0:0:0:0:
444,384,144819,1,8,0:0:0:0:
256,192,145053,1,8,0:0:0:0:
256,192,145288,1,0,0:0:0:0:
444,384,145757,1,8,0:0:0:0:
256,192,145991,1,8,0:0:0:0:
444,384,146225,1,8,0:0:0:0:
444,384,146694,1,0,0:0:0:0:
444,384,147163,1,8,0:0:0:0:
444,384,147397,1,8,0:0:0:0:
444,384,147632,1,0,0:0:0:0:
444,384,148100,1,8,0:0:0:0:
444,384,148569,1,8,0:0:0:0:
444,384,148803,1,8,0:0:0:0:
444,384,149038,1,8,0:0:0:0:
444,384,149272,1,8,0:0:0:0:
444,384,149507,1,0,0:0:0:0:
444,384,149975,1,0,0:0:0:0:
256,192,150444,1,8,0:0:0:0:
256,192,150678,1,8,0:0:0:0:
256,192,150913,1,8,0:0:0:0:
444,384,151382,1,0,0:0:0:0:
256,192,151850,1,0,0:0:0:0:
256,192,152085,1,0,0:0:0:0:
444,384,152319,1,8,0:0:0:0:
444,384,152553,1,8,0:0:0:0:
444,384,152788,1,0,0:0:0:0:
444,384,153257,1,8,0:0:0:0:
444,384,153491,1,8,0:0:0:0:
444,384,153725,1,8,0:0:0:0:
444,384,154194,1,0,0:0:0:0:
444,384,154428,1,0,0:0:0:0:
444,384,154663,1,8,0:0:0:0:
444,384,155132,1,0,0:0:0:0:
444,384,155366,1,0,0:0:0:0:
444,384,155600,1,0,0:0:0:0:
444,384,156069,1,8,0:0:0:0:
444,384,156303,1,8,0:0:0:0:
444,384,156538,1,8,0:0:0:0:
256,192,156772,1,8,0:0:0:0:
444,384,157007,1,0,0:0:0:0:
444,384,157475,1,8,0:0:0:0:
444,384,157944,1,12,0:0:0:0:
256,192,158178,1,0,0:0:0:0:
444,384,158413,1,8,0:0:0:0:
256,192,158647,1,0,0:0:0:0:
256,192,158882,1,8,0:0:0:0:
256,192,159116,1,8,0:0:0:0:
256,192,159350,1,0,0:0:0:0:
444,384,159819,1,12,0:0:0:0:
444,384,160053,1,0,0:0:0:0:
444,384,160288,1,8,0:0:0:0:
256,192,160522,1,0,0:0:0:0:
256,192,160757,1,8,0:0:0:0:
256,192,160991,1,8,0:0:0:0:
256,192,161225,1,0,0:0:0:0:
444,384,161694,1,12,0:0:0:0:
444,384,161928,1,0,0:0:0:0:
444,384,162163,1,8,0:0:0:0:
256,192,162397,1,0,0:0:0:0:
256,192,162632,1,8,0:0:0:0:
256,192,162866,1,8,0:0:0:0:
256,192,163100,1,0,0:0:0:0:
444,384,163569,1,12,0:0:0:0:
256,192,164038,1,8,0:0:0:0:
256,192,164507,1,0,0:0:0:0:
256,192,164741,1,0,0:0:0:0:
444,384,164975,1,8,0:0:0:0:
444,384,165444,1,4,0:0:0:0:
256,192,165678,1,0,0:0:0:0:
256,192,165913,1,8,0:0:0:0:
444,384,166147,1,8,0:0:0:0:
444,384,166382,1,0,0:0:0:0:
444,384,166616,1,0,0:0:0:0:
444,384,166850,1,8,0:0:0:0:
444,384,167319,1,4,0:0:0:0:
256,192,167553,1,0,0:0:0:0:
256,192,167788,1,8,0:0:0:0:
444,384,168022,1,8,0:0:0:0:
444,384,168257,1,0,0:0:0:0:
444,384,168491,1,0,0:0:0:0:
444,384,168725,1,8,0:0:0:0:
444,384,169194,1,4,0:0:0:0:
256,192,169428,1,0,0:0:0:0:
256,192,169663,1,8,0:0:0:0:
444,384,169897,1,8,0:0:0:0:
444,384,170132,1,0,0:0:0:0:
444,384,170366,1,0,0:0:0:0:
444,384,170600,1,8,0:0:0:0:
444,384,171069,1,4,0:0:0:0:
256,192,171538,1,8,0:0:0:0:
256,192,172007,1,0,0:0:0:0:
256,192,172241,1,0,0:0:0:0:
444,384,172475,1,8,0:0:0:0:
444,384,172944,1,12,0:0:0:0:
444,384,173178,1,0,0:0:0:0:
256,192,173413,1,0,0:0:0:0:
256,192,173647,1,0,0:0:0:0:
256,192,173882,1,8,0:0:0:0:
256,192,174116,1,0,0:0:0:0:
256,192,174350,1,8,0:0:0:0:
444,384,174819,1,12,0:0:0:0:
444,384,175053,1,0,0:0:0:0:
444,384,175288,1,0,0:0:0:0:
256,192,175522,1,0,0:0:0:0:
256,192,175757,1,8,0:0:0:0:
256,192,175991,1,0,0:0:0:0:
444,384,176225,1,8,0:0:0:0:
444,384,176694,1,12,0:0:0:0:
444,384,176928,1,0,0:0:0:0:
444,384,177163,1,0,0:0:0:0:
256,192,177397,1,0,0:0:0:0:
256,192,177632,1,8,0:0:0:0:
256,192,177866,1,0,0:0:0:0:
444,384,178100,1,8,0:0:0:0:
444,384,178569,1,12,0:0:0:0:
256,192,179038,1,0,0:0:0:0:
256,192,179507,1,8,0:0:0:0:
256,192,179741,1,0,0:0:0:0:
444,384,179975,1,8,0:0:0:0:
444,384,180444,1,4,0:0:0:0:
444,384,180678,1,8,0:0:0:0:
444,384,180913,1,0,0:0:0:0:
444,384,181147,1,8,0:0:0:0:
444,384,181382,1,0,0:0:0:0:
444,384,181616,1,8,0:0:0:0:
256,192,181850,1,0,0:0:0:0:
444,384,182319,1,4,0:0:0:0:
444,384,182553,1,8,0:0:0:0:
444,384,182788,1,0,0:0:0:0:
444,384,183022,1,8,0:0:0:0:
444,384,183257,1,0,0:0:0:0:
444,384,183491,1,8,0:0:0:0:
256,192,183725,1,0,0:0:0:0:
444,384,184194,1,4,0:0:0:0:
444,384,184428,1,8,0:0:0:0:
444,384,184663,1,0,0:0:0:0:
444,384,184897,1,8,0:0:0:0:
444,384,185132,1,0,0:0:0:0:
444,384,185366,1,8,0:0:0:0:
256,192,185600,1,0,0:0:0:0:
444,384,186069,1,4,0:0:0:0:
256,192,186538,1,8,0:0:0:0:
256,192,187007,1,0,0:0:0:0:
256,192,187241,1,8,0:0:0:0:
256,192,187475,1,0,0:0:0:0:
256,192,187710,1,0,0:0:0:0:
444,384,187944,1,12,0:0:0:0:
444,384,188413,1,0,0:0:0:0:
256,192,188882,1,8,0:0:0:0:
256,192,189350,1,8,0:0:0:0:
444,384,189819,1,0,0:0:0:0:
444,384,190288,1,0,0:0:0:0:
256,192,190757,1,8,0:0:0:0:
444,384,190991,1,8,0:0:0:0:
444,384,191225,1,0,0:0:0:0:
256,192,191694,1,8,0:0:0:0:
256,192,192163,1,8,0:0:0:0:
444,384,192632,1,0,0:0:0:0:
256,192,193100,1,8,0:0:0:0:
444,384,193569,1,0,0:0:0:0:
444,384,193803,1,0,0:0:0:0:
444,384,194038,1,8,0:0:0:0:
444,384,194272,1,8,0:0:0:0:
444,384,194507,1,8,0:0:0:0:
256,192,194741,1,8,0:0:0:0:
256,192,194975,1,0,0:0:0:0:
256,192,195444,1,8,0:0:0:0:
444,384,195913,1,0,0:0:0:0:
256,192,196382,1,8,0:0:0:0:
256,192,196850,1,8,0:0:0:0:
444,384,197319,1,0,0:0:0:0:
444,384,197788,1,0,0:0:0:0:
256,192,198257,1,8,0:0:0:0:
444,384,198491,1,8,0:0:0:0:
444,384,198725,1,0,0:0:0:0:
444,384,199194,1,8,0:0:0:0:
444,384,199663,1,0,0:0:0:0:
444,384,200132,1,0,0:0:0:0:
256,192,200600,1,8,0:0:0:0:
444,384,201069,1,0,0:0:0:0:
256,192,201303,1,0,0:0:0:0:
256,192,201538,1,8,0:0:0:0:
444,384,201772,1,8,0:0:0:0:
444,384,202007,1,0,0:0:0:0:
256,192,202241,1,0,0:0:0:0:
256,192,202475,1,8,0:0:0:0:
444,384,202710,1,8,0:0:0:0:
444,384,202944,1,4,0:0:0:0:
256,192,203413,1,0,0:0:0:0:
256,192,203882,1,0,0:0:0:0:
256,192,204116,1,8,0:0:0:0:
256,192,204350,1,0,0:0:0:0:
256,192,204819,1,0,0:0:0:0:
256,192,205288,1,0,0:0:0:0:
256,192,205757,1,0,0:0:0:0:
256,192,205991,1,8,0:0:0:0:
256,192,206225,1,0,0:0:0:0:
256,192,206694,1,0,0:0:0:0:
256,192,207163,1,0,0:0:0:0:
256,192,207632,1,0,0:0:0:0:
256,192,207866,1,8,0:0:0:0:
256,192,208100,1,0,0:0:0:0:
256,192,208569,1,0,0:0:0:0:
256,192,209038,1,0,0:0:0:0:
256,192,209272,1,0,0:0:0:0:
256,192,209507,1,0,0:0:0:0:
256,192,209975,1,0,0:0:0:0:
256,192,210210,1,0,0:0:0:0:
256,192,210444,1,12,0:0:0:0:
256,192,210913,1,8,0:0:0:0:
256,192,211147,1,8,0:0:0:0:
256,192,211382,1,8,0:0:0:0:
256,192,211850,1,8,0:0:0:0:
256,192,212319,1,8,0:0:0:0:
256,192,212788,1,8,0:0:0:0:
256,192,213022,1,8,0:0:0:0:
256,192,213257,1,8,0:0:0:0:
256,192,213725,1,8,0:0:0:0:
256,192,214194,1,8,0:0:0:0:
256,192,214663,1,0,0:0:0:0:
256,192,215132,1,0,0:0:0:0:
256,192,215366,1,0,0:0:0:0:
256,192,215600,1,0,0:0:0:0:
256,192,216069,1,0,0:0:0:0:
256,192,216538,1,0,0:0:0:0:
256,192,217007,1,0,0:0:0:0:
256,192,217241,1,0,0:0:0:0:
256,192,217475,1,0,0:0:0:0:
444,384,217944,1,8,0:0:0:0:
