osu file format v14

[General]
AudioFilename: audio.mp3
AudioLeadIn: 0
PreviewTime: 44448
Countdown: 1
SampleSet: Soft
StackLeniency: 0.2
Mode: 0
LetterboxInBreaks: 0
WidescreenStoryboard: 0

[Editor]
Bookmarks: 21300
DistanceSpacing: 0.9
BeatDivisor: 4
GridSize: 8
TimelineZoom: 1.9

[Metadata]
Title:Breaking Things into Pieces
TitleUnicode:Breaking Things into Pieces
Artist:Kikuo
ArtistUnicode:Kikuo
Creator:Cristo
Version:Parapara
Source:
Tags:para parapara hatsune miku kikuomiku 1 sinn
BeatmapID:1346858
BeatmapSetID:634797

[Difficulty]
HPDrainRate:5.8
CircleSize:4.7
OverallDifficulty:7.6
ApproachRate:6.7
SliderMultiplier:1.5
SliderTickRate:1

[Events]
//Background and Video events
0,0,"kikmik3.jpg",0,0
//Break Periods
2,87932,90645
2,94790,97502
2,165305,171216
//Storyboard Layer 0 (Background)
//Storyboard Layer 1 (Fail)
//Storyboard Layer 2 (Pass)
//Storyboard Layer 3 (Foreground)
//Storyboard Sound Samples

[TimingPoints]
733,428.571428571429,4,2,0,90,1,0
4187,-66.6666666666667,4,2,0,80,0,0
9115,-66.6666666666667,4,2,0,90,0,0
10805,-100,4,2,0,70,0,0
24734,-100,4,2,0,80,0,0
35448,-200,4,2,0,70,0,0
41876,-200,4,2,0,20,0,0
44448,-100,4,2,0,35,0,0
45305,-100,4,2,0,90,0,1
72734,-100,4,2,0,75,0,0
75947,-100,4,2,0,40,0,0
76161,-100,4,2,0,75,0,0
87733,-100,4,2,0,30,0,0
91591,-100,4,2,0,70,0,0
101876,-100,4,2,0,80,0,0
112162,-200,4,2,0,70,0,0
115591,-100,4,2,0,70,0,0
119018,-200,4,2,0,20,0,0
121591,-200,4,2,0,35,0,0
122448,-66.6666666666667,4,2,0,90,0,1
149876,-66.6666666666667,4,2,0,75,0,0
172161,-133.333333333333,4,2,0,50,0,0
175590,-200,4,2,0,70,0,0
179019,-66.6666666666667,4,2,0,90,0,1
203019,-200,4,2,0,90,0,1
208162,-66.6666666666667,4,2,0,90,0,1
220161,-76.9230769230769,4,2,0,90,0,1
223590,-100,4,2,0,60,0,0

[HitObjects]
112,112,733,6,0,P|88:136|72:184,1,75,2|0,0:0|0:0,0:0:0:0:
144,176,1161,2,0,P|168:200|184:248,1,75
104,240,1590,2,0,P|80:264|64:312,1,75,2|0,0:0|0:0,0:0:0:0:
144,312,2018,2,0,P|177:312|223:289,1,75
288,264,2447,6,0,B|307:245|307:245|331:243|331:243|352:224,1,75,2|0,0:0|0:0,0:0:0:0:
373,198,2768,1,0,0:0:0:0:
400,172,2875,1,2,0:0:0:0:
496,200,3090,1,2,0:0:0:0:
493,223,3197,1,0,0:0:0:0:
475,246,3304,1,2,0:0:0:0:
489,271,3411,1,0,0:0:0:0:
487,295,3518,1,2,0:0:0:0:
424,336,3733,1,0,0:0:0:0:
361,296,3947,1,0,0:0:0:0:
216,352,4161,5,4,0:0:0:0:
128,232,4375,1,0,0:0:0:0:
48,360,4590,1,8,0:0:0:0:
216,352,4804,1,0,0:0:0:0:
128,232,5018,2,0,B|112:208|112:144|96:112,1,112.500004291535,2|0,0:0|0:0,0:0:0:0:
96,56,5340,1,0,0:0:0:0:
160,80,5447,2,0,B|188:80|241:117|276:122,1,112.500004291535,8|0,0:0|0:0,0:0:0:0:
328,144,5768,1,0,0:0:0:0:
272,184,5875,2,0,B|243:184|190:221|155:226,1,112.500004291535,2|0,0:0|0:0,0:0:0:0:
104,240,6197,1,0,0:0:0:0:
40,240,6304,1,8,0:0:0:0:
1,126,6518,5,0,0:0:0:0:
71,349,6733,1,2,0:0:0:0:
55,171,6947,1,0,0:0:0:0:
17,305,7161,1,8,0:0:0:0:
144,312,7375,5,2,0:0:0:0:
152,328,7483,1,0,0:0:0:0:
168,344,7590,1,4,0:0:0:0:
227,304,7804,1,2,0:0:0:0:
239,301,7911,1,0,0:0:0:0:
257,303,8018,1,8,0:0:0:0:
328,280,8233,1,0,0:0:0:0:
352,336,8447,1,2,0:0:0:0:
416,352,8661,1,0,0:0:0:0:
464,288,8875,1,8,0:0:0:0:
472,104,9090,5,2,0:0:0:0:
440,56,9197,1,0,0:0:0:0:
384,40,9304,1,4,0:0:0:0:
336,0,9411,1,0,0:0:0:0:
296,40,9518,1,2,0:0:0:0:
240,56,9625,1,0,0:0:0:0:
208,104,9733,1,8,0:0:0:0:
272,168,9947,1,0,0:0:0:0:
384,40,10161,1,4,0:0:0:0:
296,40,10375,1,2,0:0:0:0:
408,168,10590,1,4,0:0:0:0:
296,216,10804,5,2,0:0:0:0:
256,232,10911,1,0,0:0:0:0:
216,216,11018,1,4,0:0:0:0:
144,240,11233,1,2,0:0:0:0:
72,208,11447,1,8,0:0:0:0:
8,248,11661,1,0,0:0:0:0:
88,264,11875,1,2,0:0:0:0:
160,223,12090,1,0,0:0:0:0:
232,248,12304,1,8,0:0:0:0:
272,264,12411,1,0,0:0:0:0:
312,248,12518,1,2,0:0:0:0:
352,248,12625,1,0,0:0:0:0:
384,224,12733,1,2,0:0:0:0:
464,240,12947,5,0,0:0:0:0:
392,264,13161,1,8,0:0:0:0:
320,240,13375,1,2,0:0:0:0:
280,240,13483,1,0,0:0:0:0:
248,256,13590,1,2,0:0:0:0:
176,224,13804,1,2,0:0:0:0:
136,224,13911,1,0,0:0:0:0:
104,240,14018,1,8,0:0:0:0:
64,240,14125,1,0,0:0:0:0:
32,272,14233,1,2,0:0:0:0:
0,288,14340,1,0,0:0:0:0:
124,370,14661,5,2,3:2:0:0:
92,278,14875,2,0,L|72:246,1,37.5,4|0,0:0|0:0,0:0:0:0:
384,370,15518,1,2,3:2:0:0:
416,278,15733,2,0,L|436:246,1,37.5,4|0,0:3|0:0,0:0:0:0:
87,322,16375,5,2,3:2:0:0:
51,231,16590,2,0,L|15:220,1,37.5,12|0,0:3|0:0,0:0:0:0:
425,322,17233,1,0,3:2:0:0:
461,231,17447,2,0,L|497:220,1,37.5,8|0,0:3|0:0,0:0:0:0:
464,176,17661,5,2,0:0:0:0:
448,144,17768,1,0,0:0:0:0:
448,104,17875,1,4,0:0:0:0:
416,32,18090,1,0,0:0:0:0:
400,104,18304,1,8,0:0:0:0:
432,168,18518,1,0,0:0:0:0:
416,240,18733,1,2,0:0:0:0:
440,312,18947,1,2,0:0:0:0:
432,344,19054,1,0,0:0:0:0:
408,376,19161,1,8,0:0:0:0:
384,344,19268,1,0,0:0:0:0:
360,320,19375,1,2,0:0:0:0:
368,280,19483,1,0,0:0:0:0:
360,240,19590,1,2,0:0:0:0:
376,168,19804,1,0,0:0:0:0:
344,96,20018,1,8,0:0:0:0:
336,24,20233,1,0,0:0:0:0:
360,96,20447,1,2,0:0:0:0:
312,16,20661,1,2,0:0:0:0:
304,56,20768,1,0,0:0:0:0:
288,80,20875,1,8,0:0:0:0:
312,152,21090,1,0,0:0:0:0:
469,324,21518,5,2,3:2:0:0:
377,356,21733,2,0,L|345:376,1,37.5,4|0,0:0|0:0,0:0:0:0:
469,64,22375,1,2,3:2:0:0:
415,70,22483,1,0,0:0:0:0:
377,32,22590,2,0,L|345:12,1,37.5,8|0,0:3|0:0,0:0:0:0:
382,293,23233,5,0,0:0:0:0:
302,348,23447,2,0,L|295:386,1,37.5,12|0,0:3|0:0,0:0:0:0:
382,91,24090,1,0,0:0:0:0:
302,36,24304,2,0,L|295:-2,1,37.5,2|0,0:0|0:0,0:0:0:0:
125,349,24733,5,4,0:0:0:0:
61,309,24947,1,2,0:0:0:0:
125,269,25161,1,8,0:0:0:0:
189,309,25375,1,0,0:0:0:0:
61,309,25590,1,2,0:0:0:0:
60,197,25804,1,0,0:0:0:0:
144,122,26018,1,8,0:0:0:0:
257,122,26233,1,0,0:0:0:0:
136,42,26447,5,2,0:0:0:0:
144,122,26661,1,2,0:0:0:0:
152,82,26768,1,0,0:0:0:0:
136,42,26875,1,8,0:0:0:0:
104,146,27090,1,2,0:0:0:0:
144,122,27197,1,0,0:0:0:0:
184,122,27304,1,2,0:0:0:0:
224,138,27411,1,0,0:0:0:0:
256,162,27518,1,2,0:0:0:0:
272,194,27625,1,0,0:0:0:0:
272,234,27733,1,8,0:0:0:0:
256,266,27840,1,0,0:0:0:0:
224,282,27947,1,2,0:0:0:0:
184,274,28054,1,0,0:0:0:0:
160,242,28161,1,2,0:0:0:0:
232,202,28375,5,0,0:0:0:0:
224,282,28590,1,8,0:0:0:0:
160,242,28804,1,0,0:0:0:0:
232,202,29018,1,2,0:0:0:0:
224,162,29125,1,0,0:0:0:0:
192,146,29233,1,2,0:0:0:0:
176,106,29340,1,0,0:0:0:0:
144,90,29447,1,8,0:0:0:0:
120,58,29554,1,0,0:0:0:0:
80,50,29661,1,2,0:0:0:0:
48,26,29768,1,0,0:0:0:0:
8,10,29875,1,2,0:0:0:0:
0,90,30090,5,2,0:0:0:0:
40,74,30197,1,0,0:0:0:0:
80,50,30304,1,8,0:0:0:0:
84,123,30518,1,2,0:0:0:0:
41,110,30625,1,0,0:0:0:0:
0,90,30733,1,0,0:0:0:0:
0,170,30947,1,2,0:0:0:0:
80,50,31161,1,8,0:0:0:0:
184,328,31590,5,2,0:0:0:0:
112,358,31804,1,0,0:0:0:0:
40,326,32018,1,8,0:0:0:0:
39,183,32233,1,0,0:0:0:0:
221,258,32447,1,2,0:0:0:0:
185,183,32661,1,0,0:0:0:0:
112,144,32875,1,8,0:0:0:0:
0,254,33090,1,2,0:0:0:0:
221,258,33304,1,2,0:0:0:0:
39,183,33518,1,0,0:0:0:0:
64,152,33625,1,0,0:0:0:0:
112,144,33733,1,8,0:0:0:0:
185,183,33947,1,2,0:0:0:0:
160,152,34054,1,0,0:0:0:0:
112,144,34161,1,2,0:0:0:0:
112,304,34375,1,0,0:0:0:0:
112,224,34590,1,8,0:0:0:0:
240,104,35447,5,2,0:0:0:0:
296,120,35661,1,0,0:0:0:0:
352,136,35875,1,8,0:0:0:0:
240,184,36304,1,2,0:0:0:0:
184,200,36518,1,0,0:0:0:0:
128,216,36733,2,0,L|40:240,1,75,2|8,0:0|0:0,0:0:0:0:
24,320,37590,5,2,0:0:0:0:
64,360,38018,1,8,0:0:0:0:
168,352,38447,5,4,0:0:0:0:
200,280,38661,1,0,0:0:0:0:
256,224,38875,1,8,0:0:0:0:
282,297,39090,1,0,0:0:0:0:
117,292,39304,1,2,0:0:0:0:
200,280,39518,1,2,0:0:0:0:
176,248,39625,1,0,0:0:0:0:
144,224,39733,1,8,0:0:0:0:
235,353,39947,1,0,0:0:0:0:
376,376,40161,5,4,0:0:0:0:
352,304,40375,1,0,0:0:0:0:
288,368,40590,1,8,0:0:0:0:
353,305,40804,1,0,0:0:0:0:
256,280,41018,1,2,0:0:0:0:
353,305,41233,1,0,0:0:0:0:
320,200,41447,1,8,0:0:0:0:
353,305,41661,1,0,0:0:0:0:
418,290,41875,6,0,B|402:274|415:182|395:155,1,131.25,8|0,0:3|0:0,0:0:0:0:
365,223,42733,6,0,B|349:207|360:111|338:91,1,131.25,8|0,0:3|0:0,0:0:0:0:
396,140,43590,6,0,B|384:118|384:118|381:112|394:59|343:47|323:80|356:81,1,112.5,8|0,0:3|0:0,0:0:0:0:
426,195,44447,5,4,3:0:0:0:
426,195,44661,1,0,3:0:0:0:
426,195,44875,1,10,3:0:0:0:
426,195,45090,1,10,3:0:0:0:
312,328,45304,5,4,0:0:0:0:
384,352,45518,1,2,0:0:0:0:
296,248,45733,1,8,0:0:0:0:
224,224,45947,1,2,0:0:0:0:
344,328,46161,1,0,0:0:0:0:
416,336,46375,1,2,0:0:0:0:
264,224,46590,1,8,0:0:0:0:
192,216,46804,1,2,0:0:0:0:
376,344,47018,1,0,0:0:0:0:
448,320,47233,1,2,0:0:0:0:
232,200,47447,1,8,0:0:0:0:
160,224,47661,1,0,0:0:0:0:
120,320,47875,5,4,0:0:0:0:
192,352,48090,1,2,0:0:0:0:
280,344,48304,1,8,0:0:0:0:
384,320,48518,1,2,0:0:0:0:
472,240,48733,1,2,0:0:0:0:
496,104,48947,1,2,0:0:0:0:
496,104,49375,5,2,0:0:0:0:
435,150,49590,1,2,0:0:0:0:
360,122,49804,1,0,0:0:0:0:
420,76,50018,1,8,0:0:0:0:
345,49,50233,1,0,0:0:0:0:
285,95,50447,1,2,0:0:0:0:
210,67,50661,1,2,0:0:0:0:
240,44,50768,1,0,0:0:0:0:
270,21,50875,1,8,0:0:0:0:
345,49,51090,1,0,0:0:0:0:
360,122,51304,1,2,0:0:0:0:
420,76,51518,1,2,0:0:0:0:
458,90,51625,1,0,0:0:0:0:
496,104,51733,1,8,0:0:0:0:
435,150,51947,1,0,0:0:0:0:
362,271,52161,5,4,0:0:0:0:
296,307,52375,1,0,0:0:0:0:
474,285,52590,1,8,0:0:0:0:
362,271,52804,1,0,0:0:0:0:
241,141,53018,1,2,0:0:0:0:
212,75,53233,1,0,0:0:0:0:
376,138,53447,1,8,0:0:0:0:
241,141,53661,1,0,0:0:0:0:
103,273,53875,1,2,0:0:0:0:
91,341,54090,1,0,0:0:0:0:
245,230,54304,1,8,0:0:0:0:
103,273,54518,1,0,0:0:0:0:
36,149,54733,5,2,0:0:0:0:
95,202,54947,1,0,0:0:0:0:
173,193,55161,1,8,0:0:0:0:
256,119,55375,1,0,0:0:0:0:
154,19,55590,1,2,0:0:0:0:
12,40,55804,1,2,0:0:0:0:
12,40,56233,5,0,0:0:0:0:
23,114,56447,1,2,0:0:0:0:
85,71,56661,1,0,0:0:0:0:
97,145,56875,1,8,0:0:0:0:
171,177,57090,1,0,0:0:0:0:
159,102,57304,1,2,0:0:0:0:
232,133,57518,1,2,0:0:0:0:
238,171,57625,1,0,0:0:0:0:
244,208,57733,1,8,0:0:0:0:
171,177,57947,1,0,0:0:0:0:
97,145,58161,1,2,0:0:0:0:
159,102,58375,1,2,0:0:0:0:
122,86,58483,1,0,0:0:0:0:
85,71,58590,1,8,0:0:0:0:
23,114,58804,1,0,0:0:0:0:
17,229,59018,5,4,0:0:0:0:
159,279,59233,1,0,0:0:0:0:
244,353,59447,1,8,0:0:0:0:
320,350,59661,1,0,0:0:0:0:
408,280,59875,5,4,0:0:0:0:
302,172,60090,1,0,0:0:0:0:
199,126,60304,1,8,0:0:0:0:
170,56,60518,1,0,0:0:0:0:
416,32,60733,5,4,0:0:0:0:
464,96,60947,1,0,0:0:0:0:
416,160,61161,1,8,0:0:0:0:
336,160,61375,1,0,0:0:0:0:
416,32,61590,1,2,0:0:0:0:
288,96,61804,1,0,0:0:0:0:
416,160,62018,1,8,0:0:0:0:
336,32,62233,1,2,0:0:0:0:
168,72,62447,1,4,0:0:0:0:
168,72,62875,5,8,0:0:0:0:
168,248,63090,1,0,0:0:0:0:
96,160,63304,1,2,0:0:0:0:
240,160,63518,1,0,0:0:0:0:
168,64,63733,1,8,0:0:0:0:
168,256,63947,1,0,0:0:0:0:
88,160,64161,1,2,0:0:0:0:
248,160,64375,1,0,0:0:0:0:
168,56,64590,1,8,0:0:0:0:
168,264,64804,1,0,0:0:0:0:
80,160,65018,1,2,0:0:0:0:
256,160,65233,1,0,0:0:0:0:
168,48,65447,1,8,0:0:0:0:
168,272,65661,1,0,0:0:0:0:
88,176,65875,5,6,0:0:0:0:
82,112,66090,1,0,0:0:0:0:
146,106,66304,1,8,0:0:0:0:
151,170,66518,1,2,0:0:0:0:
158,103,66733,5,6,0:0:0:0:
78,96,66947,1,2,0:0:0:0:
72,176,67161,1,8,0:0:0:0:
151,182,67375,1,2,0:0:0:0:
72,192,67590,5,6,0:0:0:0:
63,96,67804,1,2,0:0:0:0:
159,87,68018,1,10,0:0:0:0:
167,183,68233,1,2,0:0:0:0:
176,88,68447,5,6,0:0:0:0:
63,78,68661,1,2,0:0:0:0:
54,190,68875,1,10,0:0:0:0:
165,199,69090,1,2,0:0:0:0:
104,272,69304,5,4,0:0:0:0:
104,272,69733,1,8,0:0:0:0:
252,257,69947,1,0,0:0:0:0:
114,257,70161,1,2,0:0:0:0:
249,273,70375,1,0,0:0:0:0:
104,272,70590,1,8,0:0:0:0:
252,257,70804,1,0,0:0:0:0:
184,112,71018,5,4,0:0:0:0:
274,29,71233,1,0,0:0:0:0:
390,67,71447,1,8,0:0:0:0:
400,182,71661,1,0,0:0:0:0:
336,16,71875,5,6,2:0:0:0:
179,65,72090,1,0,2:0:0:0:
145,223,72304,1,8,2:0:0:0:
272,312,72518,1,0,2:0:0:0:
480,160,72733,5,4,0:0:0:0:
256,192,72947,12,0,75947,3:0:0:0:
224,32,76161,5,4,0:0:0:0:
192,52,76268,1,0,0:0:0:0:
155,54,76375,1,2,0:0:0:0:
120,41,76483,1,0,0:0:0:0:
87,25,76590,1,8,0:0:0:0:
54,39,76697,1,0,0:0:0:0:
47,74,76804,1,2,0:0:0:0:
54,111,76911,1,0,0:0:0:0:
40,144,77018,2,0,L|0:120,3,37.5,2|0|2|0,0:0|0:0|0:0|0:0,0:0:0:0:
40,184,77447,2,0,L|96:176,3,37.5,8|0|2|0,3:2|3:0|3:2|3:0,0:0:0:0:
40,216,77875,5,4,0:0:0:0:
71,235,77983,1,0,0:0:0:0:
80,272,78090,1,2,0:0:0:0:
104,304,78197,1,0,0:0:0:0:
144,312,78304,1,8,0:0:0:0:
176,296,78411,1,0,0:0:0:0:
216,296,78518,1,2,0:0:0:0:
240,320,78625,1,0,0:0:0:0:
280,320,78733,2,0,L|288:280,3,37.5,2|0|2|0,0:0|0:0|0:0|0:0,0:0:0:0:
312,312,79161,2,0,L|344:336,3,37.5,8|0|2|0,3:2|0:0|0:0|0:0,0:0:0:0:
352,296,79590,5,4,2:0:0:0:
384,280,79697,1,0,2:0:0:0:
392,240,79804,1,2,2:0:0:0:
408,208,79911,1,0,2:0:0:0:
432,184,80018,1,8,2:0:0:0:
432,144,80125,1,0,2:0:0:0:
408,112,80233,1,2,2:0:0:0:
376,96,80340,1,0,2:0:0:0:
352,72,80447,1,2,2:0:0:0:
336,32,80554,1,0,2:0:0:0:
312,8,80661,1,2,2:0:0:0:
272,16,80768,1,0,2:0:0:0:
240,40,80875,1,8,2:0:0:0:
200,32,80983,1,0,2:0:0:0:
160,24,81090,1,2,2:0:0:0:
128,40,81197,1,0,2:0:0:0:
120,64,81304,5,4,0:0:0:0:
104,88,81411,1,0,0:0:0:0:
104,120,81518,1,2,0:0:0:0:
80,136,81625,1,0,0:0:0:0:
88,168,81733,1,8,0:0:0:0:
80,200,81840,1,0,0:0:0:0:
104,224,81947,1,2,0:0:0:0:
112,256,82054,1,0,0:0:0:0:
136,272,82161,1,2,0:0:0:0:
160,288,82268,1,0,0:0:0:0:
192,280,82375,1,2,0:0:0:0:
224,288,82483,1,0,0:0:0:0:
256,280,82590,1,8,0:0:0:0:
288,280,82697,1,0,0:0:0:0:
312,264,82804,1,2,0:0:0:0:
344,264,82911,1,0,0:0:0:0:
352,240,83018,5,4,0:0:0:0:
360,224,83125,1,0,0:0:0:0:
352,200,83233,1,2,0:0:0:0:
352,176,83340,1,0,0:0:0:0:
344,152,83447,1,8,0:0:0:0:
328,136,83554,1,0,0:0:0:0:
312,120,83661,1,2,0:0:0:0:
304,96,83768,1,0,0:0:0:0:
280,88,83875,1,2,0:0:0:0:
256,96,83983,1,0,0:0:0:0:
232,88,84090,1,2,0:0:0:0:
216,96,84197,1,0,0:0:0:0:
200,112,84304,1,8,0:0:0:0:
184,128,84411,1,0,0:0:0:0:
172,151,84518,1,2,0:0:0:0:
176,176,84625,1,0,0:0:0:0:
176,200,84733,5,4,0:0:0:0:
184,208,84840,1,0,0:0:0:0:
192,224,84947,1,2,0:0:0:0:
208,232,85054,1,0,0:0:0:0:
224,240,85161,1,8,0:0:0:0:
240,248,85268,1,0,0:0:0:0:
248,240,85375,1,2,0:0:0:0:
264,240,85483,1,0,0:0:0:0:
271,230,85590,1,2,0:0:0:0:
288,224,85697,1,0,0:0:0:0:
296,216,85804,1,2,0:0:0:0:
304,200,85911,1,0,0:0:0:0:
296,184,86018,1,10,0:0:0:0:
288,176,86125,1,2,0:0:0:0:
280,173,86233,1,2,0:0:0:0:
272,176,86340,1,2,0:0:0:0:
264,176,86447,6,0,B|277:119|277:119|300:109|285:57|285:57|240:44|220:-23|220:-23|206:32|139:18|139:18|154:58|200:60|200:60|198:105,1,450,6|0,0:0|3:0,0:0:0:0:
437,243,91590,5,4,0:0:0:0:
383,151,91804,1,2,0:0:0:0:
410,196,91911,1,0,0:0:0:0:
437,243,92018,1,8,0:0:0:0:
377,253,92447,5,4,0:0:0:0:
442,139,92661,1,0,0:0:0:0:
377,253,92875,1,8,0:0:0:0:
450,268,93304,5,4,0:0:0:0:
368,126,93518,1,0,0:0:0:0:
450,268,93733,1,8,0:0:0:0:
359,285,94161,5,4,0:0:0:0:
461,108,94375,1,0,0:0:0:0:
359,285,94590,1,8,0:0:0:0:
213,198,98447,5,4,0:0:0:0:
285,222,98661,1,0,0:0:0:0:
269,150,98875,1,8,0:0:0:0:
312,199,99304,5,4,0:0:0:0:
222,229,99518,1,0,0:0:0:0:
242,139,99733,1,8,0:0:0:0:
191,201,100161,5,4,0:0:0:0:
299,237,100375,1,0,0:0:0:0:
275,128,100590,1,8,0:0:0:0:
191,201,100804,1,0,0:0:0:0:
275,128,101018,1,2,0:0:0:0:
191,201,101447,1,8,0:0:0:0:
275,128,101661,1,0,0:0:0:0:
392,320,101875,5,4,0:0:0:0:
440,264,102090,1,0,0:0:0:0:
368,248,102304,1,8,0:0:0:0:
440,264,102518,1,2,0:0:0:0:
440,224,102625,1,0,0:0:0:0:
416,200,102733,1,2,0:0:0:0:
368,248,102947,1,0,0:0:0:0:
272,248,103161,1,8,0:0:0:0:
168,248,103375,1,0,0:0:0:0:
72,248,103590,5,4,0:0:0:0:
135,300,103804,1,2,0:0:0:0:
96,284,103911,1,0,0:0:0:0:
72,248,104018,1,8,0:0:0:0:
101,360,104233,1,2,0:0:0:0:
84,322,104340,1,0,0:0:0:0:
96,284,104447,1,2,0:0:0:0:
125,264,104554,1,0,0:0:0:0:
163,265,104661,1,2,0:0:0:0:
197,286,104768,1,0,0:0:0:0:
240,256,104875,1,8,0:0:0:0:
219,211,104983,1,0,0:0:0:0:
171,216,105090,1,2,0:0:0:0:
160,264,105197,1,0,0:0:0:0:
201,288,105304,1,6,0:0:0:0:
136,320,105518,5,0,0:0:0:0:
200,352,105733,1,8,0:0:0:0:
264,312,105947,1,0,0:0:0:0:
256,240,106161,1,2,0:0:0:0:
201,288,106375,1,0,0:0:0:0:
128,200,106590,1,8,0:0:0:0:
160,88,106804,1,0,0:0:0:0:
264,56,107018,5,2,0:0:0:0:
224,48,107125,1,0,0:0:0:0:
184,56,107233,1,2,0:0:0:0:
160,88,107340,1,0,0:0:0:0:
152,128,107447,1,8,0:0:0:0:
208,168,107661,1,2,0:0:0:0:
192,136,107768,1,0,0:0:0:0:
152,128,107875,1,2,0:0:0:0:
176,264,108090,1,0,0:0:0:0:
208,168,108304,1,8,0:0:0:0:
312,200,108733,5,4,0:0:0:0:
248,160,108947,1,0,0:0:0:0:
320,120,109161,1,8,0:0:0:0:
424,232,109375,1,0,0:0:0:0:
264,264,109590,1,2,0:0:0:0:
354,269,109804,1,0,0:0:0:0:
384,168,110018,1,8,0:0:0:0:
200,224,110233,1,0,0:0:0:0:
94,113,110447,1,2,0:0:0:0:
86,73,110554,1,0,0:0:0:0:
70,41,110661,1,2,0:0:0:0:
46,17,110768,1,0,0:0:0:0:
14,1,110875,1,8,0:0:0:0:
70,185,111090,1,2,0:0:0:0:
86,153,111197,1,0,0:0:0:0:
94,113,111304,1,2,0:0:0:0:
14,113,111518,1,0,0:0:0:0:
174,113,111733,1,8,0:0:0:0:
64,192,112590,5,8,0:0:0:0:
53,247,112804,1,0,0:0:0:0:
106,230,113018,1,2,0:0:0:0:
58,93,113447,1,8,0:0:0:0:
31,40,113661,1,0,0:0:0:0:
91,45,113875,2,0,P|127:90|123:146,1,112.5,2|0,0:0|0:0,0:0:0:0:
64,192,114733,5,2,0:0:0:0:
57,112,115161,1,10,0:0:0:0:
168,32,115590,5,4,0:0:0:0:
200,104,115804,1,0,0:0:0:0:
256,160,116018,1,8,0:0:0:0:
282,87,116233,1,0,0:0:0:0:
117,92,116447,1,2,0:0:0:0:
200,104,116661,1,2,0:0:0:0:
176,136,116768,1,0,0:0:0:0:
144,160,116875,1,8,0:0:0:0:
235,31,117090,1,0,0:0:0:0:
353,79,117304,5,4,0:0:0:0:
376,8,117518,1,0,0:0:0:0:
353,79,117733,1,8,0:0:0:0:
272,24,117947,1,0,0:0:0:0:
353,79,118161,1,2,0:0:0:0:
240,120,118375,1,0,0:0:0:0:
353,79,118590,1,8,0:0:0:0:
312,216,118804,1,0,0:0:0:0:
326,142,119018,6,0,P|381:128|353:79,1,131.25,8|0,0:3|0:0,0:0:0:0:
366,45,119875,6,0,P|397:86|333:102,1,131.25,8|0,0:3|0:0,0:0:0:0:
404,143,120733,6,0,B|378:143|347:68|324:65,1,112.5,8|0,0:3|0:0,0:0:0:0:
248,80,121590,5,4,3:0:0:0:
248,80,121804,1,0,3:0:0:0:
248,80,122018,1,10,3:0:0:0:
248,80,122233,1,10,3:0:0:0:
188,255,122447,5,4,0:0:0:0:
251,213,122661,1,0,0:0:0:0:
159,147,122875,1,8,0:0:0:0:
235,151,123090,1,0,0:0:0:0:
198,294,123304,1,2,0:0:0:0:
240,233,123518,1,0,0:0:0:0:
149,108,123733,1,8,0:0:0:0:
215,140,123947,1,0,0:0:0:0:
207,325,124161,1,2,0:0:0:0:
229,252,124375,1,0,0:0:0:0:
140,77,124590,1,8,0:0:0:0:
196,129,124804,1,0,0:0:0:0:
202,40,125018,5,4,0:0:0:0:
267,11,125233,1,0,0:0:0:0:
370,46,125447,1,8,0:0:0:0:
507,1,125661,1,2,0:0:0:0:
267,11,125875,1,2,0:0:0:0:
267,11,126518,5,2,2:0:0:0:
259,85,126733,1,2,2:0:0:0:
267,11,126947,1,0,2:0:0:0:
195,45,127161,1,8,2:0:0:0:
187,120,127375,1,0,2:0:0:0:
123,80,127590,1,2,2:0:0:0:
51,115,127804,1,2,2:0:0:0:
84,136,127911,1,0,2:0:0:0:
115,155,128018,1,8,2:0:0:0:
123,80,128233,1,0,2:0:0:0:
187,120,128447,1,2,2:0:0:0:
195,45,128661,1,0,2:0:0:0:
259,85,128875,1,8,2:0:0:0:
331,50,129090,1,0,2:0:0:0:
209,196,129304,5,4,0:0:0:0:
297,172,129518,1,0,0:0:0:0:
449,244,129733,1,8,0:0:0:0:
361,268,129947,1,0,0:0:0:0:
289,75,130161,1,2,0:0:0:0:
291,164,130375,1,0,0:0:0:0:
319,356,130590,1,8,0:0:0:0:
365,276,130804,1,0,0:0:0:0:
382,128,131018,1,2,0:0:0:0:
285,157,131233,1,0,0:0:0:0:
435,334,131447,1,8,0:0:0:0:
370,284,131661,1,0,0:0:0:0:
243,206,131875,5,4,0:0:0:0:
132,197,132090,1,0,0:0:0:0:
268,237,132304,1,8,0:0:0:0:
100,213,132518,1,2,0:0:0:0:
295,214,132733,1,2,0:0:0:0:
282,150,133375,5,2,0:0:0:0:
282,150,133590,1,2,0:0:0:0:
266,84,134018,5,8,0:0:0:0:
320,30,134233,1,0,0:0:0:0:
344,101,134447,1,2,0:0:0:0:
422,118,134661,1,0,0:0:0:0:
344,101,134875,1,8,0:0:0:0:
398,48,135090,1,0,0:0:0:0:
320,30,135304,1,2,0:0:0:0:
266,84,135518,1,0,0:0:0:0:
188,67,135733,1,8,0:0:0:0:
242,12,135947,1,0,0:0:0:0:
80,79,136161,5,4,0:0:0:0:
236,146,136375,1,0,0:0:0:0:
253,259,136590,1,8,0:0:0:0:
185,261,136804,1,0,0:0:0:0:
27,126,137018,5,4,0:0:0:0:
180,192,137233,1,0,0:0:0:0:
131,300,137447,1,8,0:0:0:0:
123,233,137661,1,0,0:0:0:0:
205,153,137875,5,4,0:0:0:0:
127,132,138090,1,0,0:0:0:0:
207,145,138304,1,8,0:0:0:0:
282,173,138518,1,0,0:0:0:0:
200,163,138733,1,2,0:0:0:0:
72,116,138947,1,0,0:0:0:0:
337,186,139161,1,8,0:0:0:0:
205,152,139375,1,0,0:0:0:0:
139,136,139590,1,4,0:0:0:0:
176,304,140018,5,8,0:0:0:0:
256,208,140233,1,0,0:0:0:0:
336,304,140447,1,2,0:0:0:0:
256,192,140661,1,0,0:0:0:0:
176,304,140875,1,8,0:0:0:0:
256,176,141090,1,0,0:0:0:0:
336,304,141304,1,2,0:0:0:0:
256,160,141518,1,0,0:0:0:0:
176,304,141733,1,8,0:0:0:0:
256,144,141947,1,0,0:0:0:0:
336,304,142161,1,2,0:0:0:0:
256,128,142375,1,0,0:0:0:0:
176,304,142590,1,8,0:0:0:0:
336,304,142804,1,0,0:0:0:0:
264,248,143018,5,6,0:0:0:0:
273,359,143233,1,0,0:0:0:0:
385,349,143447,1,8,0:0:0:0:
375,238,143661,1,0,0:0:0:0:
395,348,143875,5,6,0:0:0:0:
505,329,144090,1,2,0:0:0:0:
485,218,144304,1,8,0:0:0:0:
375,238,144518,1,0,0:0:0:0:
484,209,144733,5,6,0:0:0:0:
454,100,144947,1,2,0:0:0:0:
347,130,145161,1,10,0:0:0:0:
375,238,145375,1,0,0:0:0:0:
328,136,145590,5,6,0:0:0:0:
226,184,145804,1,2,0:0:0:0:
274,285,146018,1,10,0:0:0:0:
375,238,146233,1,2,0:0:0:0:
256,192,146447,5,4,0:0:0:0:
256,192,146875,1,8,0:0:0:0:
264,200,147090,1,0,0:0:0:0:
288,224,147304,1,2,0:0:0:0:
344,240,147518,1,0,0:0:0:0:
416,216,147733,1,8,0:0:0:0:
456,128,147947,1,2,0:0:0:0:
416,8,148161,1,4,0:0:0:0:
416,8,148590,1,8,0:0:0:0:
344,96,148804,1,0,0:0:0:0:
192,32,149018,1,2,0:0:0:0:
344,96,149233,1,0,0:0:0:0:
449,302,149447,1,8,0:0:0:0:
344,96,149661,1,0,0:0:0:0:
199,115,149875,5,4,0:0:0:0:
167,174,150090,1,0,0:0:0:0:
141,218,150304,1,8,0:0:0:0:
128,237,150518,1,0,0:0:0:0:
166,101,150733,5,4,0:0:0:0:
134,160,150947,1,0,0:0:0:0:
108,204,151161,1,8,0:0:0:0:
95,223,151375,1,0,0:0:0:0:
128,304,151590,5,4,0:0:0:0:
176,280,151804,1,0,0:0:0:0:
232,240,152018,1,8,0:0:0:0:
288,168,152233,1,0,0:0:0:0:
176,168,152447,1,2,0:0:0:0:
232,240,152661,1,0,0:0:0:0:
304,288,152875,1,8,0:0:0:0:
400,328,153090,1,0,0:0:0:0:
512,344,153304,2,0,B|490:324|490:324|530:289|472:197|505:163|505:163|481:136,1,225.000008583069,2|8,0:0|0:0,0:0:0:0:
400,40,153947,1,0,0:0:0:0:
312,144,154161,2,0,B|293:164|293:164|326:198|268:290|308:325|308:325|286:345,1,225.000008583069,2|8,0:0|0:0,0:0:0:0:
165,25,155018,2,0,B|116:103|9:190|9:190|75:224|97:263|97:263|137:241|218:246|218:246|162:115|166:33,1,675.000025749207,2|0,0:0|0:0,0:0:0:0:
347,165,156733,5,4,0:0:0:0:
379,224,156947,1,0,0:0:0:0:
405,268,157161,1,8,0:0:0:0:
418,287,157375,1,0,0:0:0:0:
380,151,157590,5,4,0:0:0:0:
412,210,157804,1,0,0:0:0:0:
438,254,158018,1,8,0:0:0:0:
451,273,158233,1,0,0:0:0:0:
384,304,158447,5,4,0:0:0:0:
336,280,158661,1,0,0:0:0:0:
280,240,158875,1,8,0:0:0:0:
224,168,159090,1,0,0:0:0:0:
280,240,159304,1,2,0:0:0:0:
224,168,159518,1,0,0:0:0:0:
192,64,159733,1,8,0:0:0:0:
112,144,159947,1,0,0:0:0:0:
224,168,160161,2,0,B|251:175|251:175|259:122|368:121|379:75|379:75|414:80,1,225.000008583069,2|8,2:0|2:0,2:0:0:0:
352,184,160804,1,0,0:0:0:0:
224,168,161018,2,0,B|231:140|231:140|281:159|336:66|381:79|381:79|391:54,1,225.000008583069,2|8,2:0|2:0,2:0:0:0:
213,318,161875,2,0,B|142:308|137:244|137:244|54:219|63:138|63:138|146:163|191:127|191:127|227:172|227:172|255:121|255:121|305:149|382:110|382:110|406:204|328:227|328:227|334:291|255:314,1,900.000034332277,2|0,0:0|0:0,0:0:0:0:
192,136,172161,6,0,P|168:160|144:192,1,56.2500021457673,2|0,0:0|0:0,0:0:0:0:
308,177,172590,2,0,P|274:177|234:182,1,56.2500021457673,8|0,0:0|0:0,0:0:0:0:
154,177,173018,2,0,P|178:201|202:233,1,56.2500021457673,2|0,0:0|0:0,0:0:0:0:
38,218,173447,2,0,P|71:218|111:223,1,56.2500021457673,8|0,0:0|0:0,0:0:0:0:
248,220,173875,2,0,P|214:220|174:214,1,56.2500021457673,2|0,0:0|0:0,0:0:0:0:
132,261,174304,2,0,P|108:237|84:205,1,56.2500021457673,8|0,0:0|0:0,0:0:0:0:
136,144,174733,5,2,0:0:0:0:
208,96,174947,1,0,0:0:0:0:
256,32,175161,1,8,0:0:0:0:
304,96,175375,1,2,0:0:0:0:
424,144,175590,1,2,0:0:0:0:
394,256,176233,5,2,0:0:0:0:
321,289,176447,1,2,0:0:0:0:
401,234,176661,1,0,0:0:0:0:
300,282,176875,1,8,0:0:0:0:
380,209,177090,1,0,0:0:0:0:
293,249,177304,1,2,0:0:0:0:
378,166,177518,1,0,0:0:0:0:
262,220,177733,1,8,0:0:0:0:
340,122,177947,1,0,0:0:0:0:
253,162,178161,1,2,0:0:0:0:
349,47,178375,1,0,0:0:0:0:
190,121,178590,1,8,0:0:0:0:
236,11,178804,1,2,0:0:0:0:
320,152,179018,5,4,0:0:0:0:
398,166,179233,1,0,0:0:0:0:
230,256,179447,1,8,0:0:0:0:
151,241,179661,1,0,0:0:0:0:
241,105,179875,1,2,0:0:0:0:
322,104,180090,1,0,0:0:0:0:
312,302,180304,1,8,0:0:0:0:
232,303,180518,1,0,0:0:0:0:
160,138,180733,1,2,0:0:0:0:
239,152,180947,1,0,0:0:0:0:
389,270,181161,1,8,0:0:0:0:
310,255,181375,1,0,0:0:0:0:
272,128,181590,5,4,0:0:0:0:
200,144,181804,1,0,0:0:0:0:
128,120,182018,1,8,0:0:0:0:
272,128,182233,1,2,0:0:0:0:
384,224,182447,1,2,0:0:0:0:
200,144,182875,1,8,0:0:0:0:
384,224,183304,5,2,0:0:0:0:
377,149,183518,1,0,0:0:0:0:
311,186,183733,1,8,0:0:0:0:
307,110,183947,1,0,0:0:0:0:
238,70,184161,1,2,0:0:0:0:
242,146,184375,1,2,0:0:0:0:
206,128,184483,1,0,0:0:0:0:
170,107,184590,1,8,0:0:0:0:
167,33,184804,1,0,0:0:0:0:
238,70,185018,1,2,0:0:0:0:
242,146,185233,1,0,0:0:0:0:
308,110,185447,1,8,0:0:0:0:
377,149,185661,1,0,0:0:0:0:
310,253,185875,5,4,0:0:0:0:
274,172,186090,1,0,0:0:0:0:
134,331,186304,1,8,0:0:0:0:
98,250,186518,1,0,0:0:0:0:
274,172,186733,1,2,0:0:0:0:
245,88,186947,1,0,0:0:0:0:
98,250,187161,1,8,0:0:0:0:
55,173,187375,1,0,0:0:0:0:
245,88,187590,1,2,0:0:0:0:
224,2,187804,1,0,0:0:0:0:
55,173,188018,1,8,0:0:0:0:
5,99,188233,1,0,0:0:0:0:
112,24,188447,5,4,0:0:0:0:
136,64,188661,1,0,0:0:0:0:
184,128,188875,1,8,0:0:0:0:
240,200,189090,1,2,0:0:0:0:
328,304,189304,1,2,0:0:0:0:
112,24,189733,1,8,0:0:0:0:
376,192,190161,5,2,0:0:0:0:
296,192,190375,1,0,0:0:0:0:
216,192,190590,1,8,0:0:0:0:
296,192,190804,1,0,0:0:0:0:
256,128,191018,1,2,0:0:0:0:
176,128,191233,1,2,0:0:0:0:
196,160,191340,1,0,0:0:0:0:
216,192,191447,1,8,0:0:0:0:
136,192,191661,1,0,0:0:0:0:
176,128,191875,1,2,0:0:0:0:
256,128,192090,1,0,0:0:0:0:
296,192,192304,1,8,0:0:0:0:
336,128,192518,1,0,0:0:0:0:
472,160,192733,5,4,0:0:0:0:
512,80,192947,1,0,0:0:0:0:
328,192,193161,1,8,0:0:0:0:
464,168,193375,1,0,0:0:0:0:
424,263,193590,1,2,0:0:0:0:
456,179,193804,1,0,0:0:0:0:
280,288,194018,1,8,0:0:0:0:
415,271,194233,1,0,0:0:0:0:
384,368,194447,1,2,0:0:0:0:
408,281,194661,1,0,0:0:0:0:
240,384,194875,1,8,0:0:0:0:
375,374,195090,1,0,0:0:0:0:
312,336,195304,5,4,0:0:0:0:
254,276,195518,1,0,0:0:0:0:
264,177,195733,1,8,0:0:0:0:
364,99,195947,1,2,0:0:0:0:
493,166,196161,1,2,0:0:0:0:
493,166,196804,5,2,0:0:0:0:
433,219,197018,1,2,0:0:0:0:
506,240,197233,1,0,0:0:0:0:
446,293,197447,1,8,0:0:0:0:
374,273,197661,1,0,0:0:0:0:
387,347,197875,1,2,0:0:0:0:
314,326,198090,1,0,0:0:0:0:
387,347,198304,1,8,0:0:0:0:
314,326,198518,1,0,0:0:0:0:
374,273,198733,1,2,0:0:0:0:
446,293,198947,1,0,0:0:0:0:
506,240,199161,1,8,0:0:0:0:
433,219,199375,1,0,0:0:0:0:
329,290,199590,5,4,0:0:0:0:
216,290,199804,1,0,0:0:0:0:
329,95,200018,1,8,0:0:0:0:
385,193,200233,1,0,0:0:0:0:
160,192,200447,1,2,0:0:0:0:
216,95,200661,1,0,0:0:0:0:
216,290,200875,1,8,0:0:0:0:
329,290,201090,1,0,0:0:0:0:
216,95,201304,1,2,0:0:0:0:
160,193,201518,1,0,0:0:0:0:
385,192,201733,1,8,0:0:0:0:
329,95,201947,1,0,0:0:0:0:
216,290,202161,5,4,0:0:0:0:
313,237,202375,1,0,0:0:0:0:
312,156,202590,1,8,0:0:0:0:
388,273,202804,1,2,0:0:0:0:
216,290,203018,1,2,0:0:0:0:
112,344,203661,1,2,0:0:0:0:
216,290,203875,1,2,0:0:0:0:
296,290,204304,5,8,0:0:0:0:
216,290,204518,1,0,0:0:0:0:
144,192,204733,1,2,0:0:0:0:
200,88,204947,1,0,0:0:0:0:
312,88,205161,1,8,0:0:0:0:
368,192,205375,1,0,0:0:0:0:
328,336,205590,1,2,0:0:0:0:
184,336,205804,1,2,0:0:0:0:
144,320,205911,1,0,0:0:0:0:
128,280,206018,1,8,0:0:0:0:
152,108,206233,1,0,0:0:0:0:
283,34,206447,5,4,0:0:0:0:
94,68,206661,1,0,0:0:0:0:
117,194,206875,1,8,0:0:0:0:
211,177,207090,1,0,0:0:0:0:
283,34,207304,5,4,0:0:0:0:
441,62,207518,1,0,0:0:0:0:
419,188,207733,1,8,0:0:0:0:
324,171,207947,1,0,0:0:0:0:
211,177,208161,5,4,0:0:0:0:
119,249,208375,1,0,0:0:0:0:
228,293,208590,1,8,0:0:0:0:
123,179,208804,1,0,0:0:0:0:
50,258,209018,1,2,0:0:0:0:
138,313,209233,1,0,0:0:0:0:
254,230,209447,1,8,0:0:0:0:
187,239,209661,1,0,0:0:0:0:
50,258,209875,1,4,0:0:0:0:
50,258,210304,1,8,0:0:0:0:
49,367,210518,1,2,0:0:0:0:
220,350,211161,5,8,0:0:0:0:
138,271,211375,1,0,0:0:0:0:
250,237,211590,1,2,0:0:0:0:
138,271,212018,1,10,0:0:0:0:
250,237,212447,1,2,0:0:0:0:
138,271,212661,1,0,0:0:0:0:
220,350,212875,1,8,0:0:0:0:
250,237,213090,1,0,0:0:0:0:
134,175,213304,5,6,0:0:0:0:
295,181,213518,1,0,0:0:0:0:
214,169,213733,1,8,0:0:0:0:
376,175,213947,1,0,0:0:0:0:
388,120,214161,5,6,0:0:0:0:
217,207,214375,1,2,0:0:0:0:
294,144,214590,1,8,0:0:0:0:
123,231,214804,1,0,0:0:0:0:
123,109,215018,5,6,0:0:0:0:
288,229,215233,1,2,0:0:0:0:
225,130,215447,1,10,0:0:0:0:
391,251,215661,1,0,0:0:0:0:
256,339,215875,5,6,0:0:0:0:
306,135,216090,1,2,0:0:0:0:
205,237,216304,1,10,0:0:0:0:
256,33,216518,1,2,0:0:0:0:
256,346,216733,1,4,0:0:0:0:
96,336,217161,5,8,0:0:0:0:
416,336,217375,1,0,0:0:0:0:
160,224,217590,1,2,0:0:0:0:
352,224,217804,1,0,0:0:0:0:
96,32,218018,1,8,0:0:0:0:
416,32,218233,1,0,0:0:0:0:
256,0,218447,1,4,0:0:0:0:
256,296,218661,1,0,0:0:0:0:
256,64,218875,1,8,0:0:0:0:
416,296,219090,1,2,0:0:0:0:
400,232,219197,1,0,0:0:0:0:
416,168,219304,1,2,0:0:0:0:
96,296,219518,1,2,0:0:0:0:
112,232,219625,1,0,0:0:0:0:
96,168,219733,1,8,0:0:0:0:
256,192,219947,1,0,0:0:0:0:
240,368,220161,6,0,B|144:368|48:336|48:336|48:320|48:320|64:304|64:304|80:288|80:208|64:128|80:112|64:96|64:96|32:96|32:96|32:80|32:80|82:47|112:16|112:16|112:0|112:0|128:16|128:16|144:16|224:32|240:32|240:32|256:0|256:0|272:32|272:32|288:32|368:16|384:16|384:16|400:0|400:0|400:16|400:16|432:48|480:80|480:80|480:96|480:96|448:96|448:96|432:112|448:128|431:206|432:288|448:304|448:304|464:320|464:320|464:336|464:336|368:368|272:368,1,1559.99992858887,4|0,0:0|3:0,0:0:0:0:
148,249,224018,6,0,L|135:132,1,112.5,8|0,0:3|0:0,0:0:0:0:
356,189,224554,2,0,L|350:152,3,37.5,0|2|0|4,0:0|0:0|0:0|0:0,0:0:0:0:
256,192,225304,5,2,0:0:0:0:
337,263,225733,2,0,L|370:151,1,112.5,8|0,0:3|0:0,0:0:0:0:
160,182,226268,2,0,L|169:143,3,37.5,0|2|0|4,0:0|0:0|0:0|0:0,0:0:0:0:
256,192,227018,5,2,0:0:0:0:
203,269,227447,2,0,L|151:164,1,112.5,8|0,0:3|0:0,0:0:0:0:
346,157,227983,2,0,L|327:122,3,37.5,0|2|0|4,0:0|0:0|0:0|0:0,0:0:0:0:
256,192,228733,5,2,0:0:0:0:
281,268,229161,2,0,L|347:177,1,112.5,8|0,0:3|0:0,0:0:0:0:
195,168,229697,2,0,L|216:136,3,37.5,0|2|0|4,0:0|0:0|0:0|0:0,0:0:0:0:
256,192,230447,5,2,0:0:0:0:
257,262,230875,2,0,L|169:190,1,112.5,8|0,0:3|0:0,0:0:0:0:
299,162,231411,2,0,L|266:137,3,37.5,0|2|0|4,0:0|0:0|0:0|0:0,0:0:0:0:
256,192,232161,5,2,0:0:0:0:
320,206,232590,1,8,0:3:0:0:
502,131,233018,2,0,L|486:108,3,18.75,2|0|2|0,0:0|0:0|0:0|0:0,0:0:0:0:
440,159,233447,1,8,0:3:0:0:
464,384,233875,5,4,0:0:0:0:
