osu file format v14

[General]
AudioFilename: audio.mp3
AudioLeadIn: 0
PreviewTime: 108075
Countdown: 0
SampleSet: Normal
StackLeniency: 0.7
Mode: 0
LetterboxInBreaks: 0
WidescreenStoryboard: 0

[Editor]
DistanceSpacing: 1.1
BeatDivisor: 4
GridSize: 16
TimelineZoom: 2

[Metadata]
Title:Gomen Ne Gomen Ne
TitleUnicode:Gomen Ne Gomen Ne
Artist:Kikou
ArtistUnicode:Kikou
Creator:Vietz
Version:Digital Vomit
Source:
Tags:
BeatmapID:1221942
BeatmapSetID:577335

[Difficulty]
HPDrainRate:7
CircleSize:4
OverallDifficulty:8
ApproachRate:9.6
SliderMultiplier:1.89999990463257
SliderTickRate:1

[Events]
//Background and Video events
0,0,"1487478996427.jpg",0,0
//Break Periods
//Storyboard Layer 0 (Background)
//Storyboard Layer 1 (Fail)
//Storyboard Layer 2 (Pass)
//Storyboard Layer 3 (Foreground)
//Storyboard Sound Samples

[TimingPoints]
34986,545.454545454546,4,1,0,100,1,0
34986,-100,4,1,0,20,0,0
45895,-100,4,1,0,50,0,0
51895,-100,4,1,0,75,0,0
55713,-133.333333333333,4,1,0,5,0,0
56258,272.727272727273,4,1,0,100,1,0
56258,-66.6666666666667,4,1,0,100,0,1
58849,-66.6666666666667,4,1,0,100,0,1
70985,-50,4,1,0,100,0,1
73712,-66.6666666666667,4,1,0,100,0,1
91439,545.454545454546,4,1,0,100,1,0
91439,-100,4,1,0,50,0,0
108484,-66.6666666666667,4,1,0,70,0,0
128120,272.727272727273,4,1,0,100,1,0
128120,-66.6666666666667,4,1,0,100,0,1

[HitObjects]
320,256,34986,6,0,B|176:208|128:384|80:288|-4:283|15:207|16:127|123:120|173:179,1,474.999976158143
135,65,36622,2,0,P|203:92|229:154,1,142.499992847443
256,192,37167,2,0,P|320:176|352:144,2,63.333330154419
176,240,37713,2,0,P|112:224|80:208,2,63.333330154419
240,304,38258,2,0,P|304:288|336:272,2,63.333330154419
128,288,38804,1,0,0:0:0:0:
256,192,39076,1,0,0:0:0:0:
304,352,39349,2,0,B|416:352|448:256|448:256|336:224|256:304,1,379.999980926514
222,237,40713,6,0,P|274:194|310:139,1,94.9999952316285
336,111,41258,1,0,0:0:0:0:
252,105,41531,2,0,P|186:156|336:162,1,379.999980926514
388,105,42895,2,0,P|411:163|396:237,1,94.9999952316285
181,315,43440,2,0,P|280:293|327:186,1,189.999990463257
209,199,44258,2,0,L|156:116,1,63.333330154419
176,32,44804,2,0,P|100:57|64:112,2,142.499992847443,0|0|0,0:0|0:0|0:0,3:3:0:0:
250,95,45895,6,0,P|226:151|314:218,1,189.999990463257
299,148,46986,6,0,P|277:210|163:202,1,189.999990463257
113,155,47804,1,0,0:0:0:0:
132,81,48076,1,0,0:0:0:0:
202,110,48349,1,0,0:0:0:0:
171,179,48622,5,0,0:0:0:0:
246,168,48895,1,0,0:0:0:0:
265,92,49167,1,0,0:0:0:0:
189,103,49440,1,0,0:0:0:0:
185,178,49713,5,0,0:0:0:0:
260,190,49986,1,0,0:0:0:0:
284,118,50258,1,0,0:0:0:0:
357,137,50531,1,0,0:0:0:0:
343,214,50804,5,0,0:0:0:0:
278,253,51076,1,0,0:0:0:0:
204,232,51349,1,0,0:0:0:0:
162,168,51622,1,0,0:0:0:0:
206,106,51895,1,0,0:0:0:0:
252,115,52031,1,0,0:0:0:0:
299,109,52167,1,0,0:0:0:0:
341,87,52304,1,0,0:0:0:0:
368,114,52440,5,0,0:0:0:0:
363,160,52576,1,0,0:0:0:0:
375,206,52712,1,0,0:0:0:0:
403,244,52849,1,0,0:0:0:0:
378,273,52986,5,0,0:0:0:0:
331,272,53122,1,0,0:0:0:0:
285,283,53258,1,0,0:0:0:0:
243,306,53395,1,0,0:0:0:0:
202,279,53531,6,0,L|143:252,1,47.4999976158143
85,221,53804,2,0,L|98:131,1,47.4999976158143
143,137,54076,5,0,0:0:0:0:
166,134,54144,1,0,0:0:0:0:
189,136,54212,1,0,0:0:0:0:
214,139,54280,1,0,0:0:0:0:
237,147,54348,1,0,0:0:0:0:
257,157,54416,1,0,0:0:0:0:
278,170,54485,1,0,0:0:0:0:
295,184,54553,1,0,0:0:0:0:
311,202,54621,1,0,0:0:0:0:
323,216,54690,5,0,0:0:0:0:
287,215,54758,1,0,0:0:0:0:
253,225,54826,1,0,0:0:0:0:
222,243,54894,1,0,0:0:0:0:
198,269,54962,1,0,0:0:0:0:
181,300,55030,1,0,0:0:0:0:
174,335,55099,1,0,0:0:0:0:
178,370,55167,1,0,0:0:0:0:
413,146,55713,6,0,P|396:93|371:139,1,106.87499871254
292,101,56258,2,0,B|259:71|259:71|255:103|255:103|201:55|73:174,1,284.999996566773
250,148,56804,6,0,B|104:35|104:35|154:148,1,284.999996566773
192,224,57213,2,0,B|338:341|366:359|366:359|334:278,1,284.999996566773
145,127,57622,6,0,B|189:88|189:88|309:83,1,142.499998283386
256,227,57895,2,0,B|223:161|223:161|324:154,1,142.499998283386
431,197,58167,6,0,L|291:242,1,142.499998283386
220,351,58440,2,0,B|257:307|257:307|262:337|262:337|466:265,1,284.999996566773
403,77,58849,5,0,0:0:0:0:
448,272,58986,1,0,0:0:0:0:
250,102,59122,1,0,0:0:0:0:
304,304,59258,1,0,0:0:0:0:
136,188,59395,1,0,0:0:0:0:
371,217,59531,2,0,L|512:235,1,142.499998283386
141,357,59804,2,0,L|0:339,1,142.499998283386
145,147,60076,5,0,0:0:0:0:
145,147,60145,1,0,0:0:0:0:
145,147,60213,1,0,0:0:0:0:
327,48,60348,1,0,0:0:0:0:
224,336,60485,1,0,0:0:0:0:
397,279,60622,2,0,B|407:223|407:223|386:208|386:208|474:219|503:62,1,284.999996566773
164,108,61167,5,0,0:0:0:0:
406,194,61304,1,0,0:0:0:0:
245,346,61440,1,0,0:0:0:0:
305,62,61576,1,0,0:0:0:0:
327,271,61713,1,0,0:0:0:0:
405,82,61849,1,0,0:0:0:0:
299,341,61986,1,0,0:0:0:0:
172,71,62122,1,0,0:0:0:0:
368,310,62258,6,0,L|506:358,1,142.499998283386
123,125,62531,2,0,L|-17:80,1,142.499998283386
440,258,62804,1,0,0:0:0:0:
141,206,62940,1,0,0:0:0:0:
358,285,63076,1,0,0:0:0:0:
117,129,63213,1,0,0:0:0:0:
419,65,63349,1,0,0:0:0:0:
250,336,63486,1,0,0:0:0:0:
156,33,63622,1,0,0:0:0:0:
457,268,63758,1,0,0:0:0:0:
106,159,63894,6,0,L|51:115,1,71.2499991416931
289,308,64030,2,0,L|178:220,1,142.499998283386
422,300,64303,2,0,L|348:241,1,71.2499991416931
285,199,64439,1,0,0:0:0:0:
83,87,64576,1,0,0:0:0:0:
60,324,64712,1,0,0:0:0:0:
155,203,64849,2,0,L|200:147,1,71.2499991416931
47,50,64985,2,0,P|111:42|31:81,1,284.999996566773
283,361,65530,6,0,B|338:282|303:190|303:190|307:261|242:312,1,284.999996566773
321,117,65939,2,0,B|208:125|156:210|156:210|228:177|267:154,1,284.999996566773
198,45,66349,2,0,B|150:172|150:172|219:203,1,142.499998283386
168,327,66621,2,0,B|187:312|195:301|195:301|235:201,1,142.499998283386
317,87,66894,2,0,B|306:167|233:202|233:202|298:296|298:296|349:273|355:237,1,284.999996566773
454,170,67303,5,0,0:0:0:0:
243,282,67439,1,0,0:0:0:0:
389,61,67576,1,0,0:0:0:0:
125,212,67712,1,0,0:0:0:0:
304,54,67849,1,0,0:0:0:0:
152,324,67985,1,0,0:0:0:0:
412,110,68121,1,0,0:0:0:0:
57,268,68258,1,0,0:0:0:0:
421,303,68394,1,0,0:0:0:0:
64,91,68530,1,0,0:0:0:0:
337,346,68667,1,0,0:0:0:0:
203,69,68803,2,0,L|192:146,1,71.2499991416931
165,314,68939,1,0,0:0:0:0:
372,53,69076,1,0,0:0:0:0:
330,299,69212,1,0,0:0:0:0:
111,113,69349,2,0,B|82:95|82:95|147:348,1,284.999996566773
190,263,69894,6,0,P|220:194|211:287,1,284.999996566773
190,263,70303,5,0,0:0:0:0:
166,139,70439,2,0,P|282:127|355:280,1,284.999996566773
266,169,70849,5,0,0:0:0:0:
334,40,70985,2,0,P|402:98|350:376,1,379.999980926514
359,114,71394,5,0,0:0:0:0:
498,209,71530,2,0,P|434:321|130:353,1,379.999980926514
439,174,71939,5,0,0:0:0:0:
255,306,72076,2,0,B|31:267|-1:50,1,379.999980926514
316,235,72485,5,0,0:0:0:0:
95,340,72621,2,0,P|78:212|238:-28,1,379.999980926514
234,357,73030,5,0,0:0:0:0:
140,149,73167,2,0,P|415:76|268:341,1,664.999966621399
237,337,73712,2,0,B|85:272|119:140|119:140|154:168,1,284.999996566773
224,224,74258,2,0,B|224:59|359:39|359:39|346:82,1,284.999996566773
128,96,74667,2,0,B|224:229|346:165|346:165|310:138,1,284.999996566773
208,272,75076,6,0,B|144:252|98:206|98:206|79:269,1,142.499998283386,0|0,0:3|0:3,0:3:0:0:
384,336,75348,1,0,0:0:0:0:
256,208,75485,2,0,B|208:176|208:176|128:64,1,142.499998283386
448,256,75758,1,0,0:0:0:0:
304,96,75894,2,0,L|208:-16,1,94.9999988555908
96,192,76167,6,0,L|160:256,1,71.2499991416931
352,336,76303,2,0,L|288:272,1,71.2499991416931
144,128,76439,2,0,L|288:272,1,142.499998283386
432,336,76712,1,0,0:0:0:0:
224,32,76848,2,0,B|235:75|299:123|299:123|267:187,1,142.499998283386
176,336,77121,1,0,0:0:0:0:
336,240,77258,2,0,L|432:176,1,71.2499991416931
304,48,77394,2,0,L|259:103,1,71.2499991416931
176,224,77530,2,0,P|48:272|176:128,1,498.749993991852
224,128,78076,6,0,B|256:160|256:160|288:96|288:96|320:160|320:160|400:144|432:224,1,284.999996566773
272,237,78621,2,0,B|105:374|105:374|124:300,1,284.999996566773
210,34,79030,2,0,B|230:133|90:128|90:128|194:256,1,284.999996566773
261,193,79439,2,0,P|307:133|310:15,1,142.499998283386
452,14,79712,2,0,P|433:131|383:191,1,142.499998283386
230,340,79985,2,0,P|334:297|366:263,1,142.499998283386
426,43,80258,6,0,L|398:174,1,71.2499991416931
373,296,80394,2,0,L|387:226,1,71.2499991416931
311,114,80530,2,0,L|283:245,1,71.2499991416931
256,350,80667,2,0,L|270:280,1,71.2499991416931
176,191,80803,2,0,B|180:102|311:114|311:114|202:-5,1,284.999996566773
375,177,81212,2,0,P|395:244|378:312,1,142.499998283386
312,97,81485,6,0,L|254:160,1,71.2499991416931
253,336,81621,2,0,L|180:263,1,71.2499991416931
30,237,81758,2,0,L|80:186,1,71.2499991416931
172,99,81894,2,0,B|270:4|270:4|272:122,1,213.749997425079
269,206,82167,2,0,L|260:360,1,142.499998283386
380,256,82439,2,0,B|402:209|402:209|377:157|377:157|427:161|427:161|472:109|488:29,1,284.999996566773
33,92,82985,6,0,L|103:219,1,142.499998283386
228,259,83258,1,0,0:0:0:0:
172,15,83394,2,0,L|249:162,1,142.499998283386
332,188,83667,1,0,0:0:0:0:
512,336,83803,2,0,L|430:194,1,142.499998283386
292,289,84076,1,0,0:0:0:0:
182,302,84212,2,0,L|135:203,1,71.2499991416931
214,34,84348,2,0,L|254:128,1,71.2499991416931
315,254,84485,2,0,L|274:167,1,71.2499991416931
50,54,84621,6,0,B|142:63|182:144|182:144|273:331|273:331|331:307|421:329,1,498.749993991852
453,259,85167,2,0,P|343:243|253:255,1,142.499998283386
102,280,85439,1,0,0:0:0:0:
402,109,85576,2,0,P|332:115|260:98,1,142.499998283386
77,44,85848,1,0,0:0:0:0:
219,172,85985,2,0,P|281:220|321:300,1,142.499998283386
353,126,86258,2,0,B|405:79|405:79|459:133|459:133|401:185|401:185|358:138,1,284.999996566773
143,347,86803,6,0,B|88:308|88:308|144:261|144:261|66:192|111:73,1,284.999996566773
323,151,87212,2,0,L|470:114,1,142.499998283386
258,236,87621,2,0,L|422:255,1,142.499998283386
187,130,87894,2,0,L|336:80,1,142.499998283386
175,255,88167,2,0,L|339:290,1,142.499998283386
77,119,88439,5,0,0:0:0:0:
217,93,88576,1,0,0:0:0:0:
88,271,88712,1,0,0:0:0:0:
227,297,88848,1,0,0:0:0:0:
76,120,88985,1,0,0:0:0:0:
283,207,89121,1,0,0:0:0:0:
456,342,89258,1,0,0:0:0:0:
422,195,89394,1,0,0:0:0:0:
412,146,89462,1,0,0:0:0:0:
400,98,89530,2,0,B|216:40|216:40|201:94|138:96,1,284.999996566773
102,202,89939,6,0,L|258:183,1,142.499998283386
102,202,90212,6,0,B|213:180|213:180|269:182,1,142.499998283386
102,202,90485,6,0,B|203:167|203:167|280:202,1,142.499998283386
102,202,90758,5,0,0:0:0:0:
171,292,90894,1,0,0:0:0:0:
277,332,91030,1,0,0:0:0:0:
448,286,91167,1,0,0:0:0:0:
383,256,91439,6,0,L|275:256,1,94.9999952316285
206,183,91985,1,0,0:0:0:0:
160,243,92257,1,0,0:0:0:0:
224,40,92802,6,0,P|240:101|301:140,1,94.9999952316285
295,139,93211,1,0,0:0:0:0:
327,159,93348,2,0,P|298:222|304:264,1,94.9999952316285
221,194,93893,1,0,0:0:0:0:
189,231,94029,1,0,0:0:0:0:
211,274,94166,1,0,0:0:0:0:
259,270,94302,1,0,0:0:0:0:
300,247,94439,2,0,P|349:222|411:225,1,94.9999952316285
436,150,94984,2,0,P|342:147|255:186,1,189.999990463257
174,249,95802,5,0,0:0:0:0:
315,313,96075,1,0,0:0:0:0:
415,203,96348,1,0,0:0:0:0:
217,155,96620,2,0,P|287:127|348:135,1,94.9999952316285
452,155,97166,2,0,P|436:209|437:267,1,94.9999952316285
442,292,97575,1,0,0:0:0:0:
473,326,97711,1,0,0:0:0:0:
312,293,97984,6,0,P|220:284|186:298,1,94.9999952316285
182,306,98393,1,0,0:0:0:0:
148,335,98529,1,0,0:0:0:0:
107,313,98666,1,0,0:0:0:0:
66,299,98802,2,0,P|47:248|64:196,1,94.9999952316285
106,53,99348,2,0,P|134:153|139:158,1,94.9999952316285
281,50,99893,2,0,P|276:116|253:158,1,94.9999952316285
190,278,100439,1,0,0:0:0:0:
100,149,100711,5,0,0:0:0:0:
141,124,100848,1,0,0:0:0:0:
188,127,100984,2,0,P|234:151|285:154,1,94.9999952316285
321,142,101393,1,0,0:0:0:0:
359,111,101529,2,0,L|421:75,1,47.4999976158143
371,234,101802,2,0,L|418:210,1,47.4999976158143
381,351,102075,5,0,0:0:0:0:
234,260,102348,1,0,0:0:0:0:
413,212,102620,1,0,0:0:0:0:
169,188,102893,1,0,0:0:0:0:
392,70,103166,2,0,L|484:12,1,94.9999952316285
355,98,103575,1,0,0:0:0:0:
316,126,103711,1,0,0:0:0:0:
277,154,103848,2,0,P|225:203|197:250,1,94.9999952316285
193,261,104257,6,0,L|179:289,7,23.7499988079071
317,196,104802,2,0,L|365:218,3,47.4999976158143
156,134,105348,2,0,L|112:114,3,47.4999976158143
269,102,105893,2,0,L|293:55,3,47.4999976158143
181,287,106439,2,0,L|169:317,5,31.6666650772095
205,229,106985,1,0,0:0:0:0:
230,171,107075,1,0,0:0:0:0:
277,130,107166,1,0,0:0:0:0:
338,113,107257,1,0,0:0:0:0:
400,122,107348,1,0,0:0:0:0:
452,158,107439,1,0,0:0:0:0:
483,212,107529,2,0,L|481:293,1,47.4999976158143
336,354,108075,6,0,L|342:200,1,142.499992847443
346,118,108620,2,0,P|253:133|206:64,1,142.499998283386
38,101,109166,2,0,P|134:103|162:154,1,142.499998283386
121,205,109711,2,0,P|185:207|233:141,1,142.499998283386
211,79,110257,6,0,P|250:74|290:115,1,71.2499991416931
418,230,110529,2,0,P|369:226|329:201,1,71.2499991416931
232,152,110802,1,0,0:0:0:0:
153,257,111075,1,0,0:0:0:0:
337,320,111348,6,0,L|409:343,1,71.2499991416931
237,232,111620,2,0,L|340:261,1,71.2499991416931
148,138,111893,1,0,0:0:0:0:
353,97,112166,2,0,P|396:114|414:213,2,142.499998283386
279,195,112984,5,0,0:0:0:0:
89,141,113257,2,0,B|110:184|110:184|151:108|207:84,1,142.499998283386
279,195,113802,1,0,0:0:0:0:
337,248,114075,1,0,0:0:0:0:
159,309,114348,1,0,0:0:0:0:
89,141,114620,2,0,P|166:64|165:27,1,142.499998283386
326,169,115166,5,0,0:0:0:0:
79,219,115439,1,0,0:0:0:0:
114,223,115575,1,0,0:0:0:0:
144,241,115711,1,0,0:0:0:0:
165,270,115848,1,0,0:0:0:0:
173,304,115984,1,0,0:0:0:0:
166,336,116120,1,0,0:0:0:0:
192,119,116257,2,0,P|207:194|266:242,2,142.499998283386
386,283,117075,5,0,0:0:0:0:
434,174,117348,2,0,P|341:164|307:71,1,142.499998283386
393,93,117893,1,0,0:0:0:0:
300,332,118166,1,0,0:0:0:0:
390,307,118439,6,0,P|348:245|278:240,1,142.499998283386
255,251,118848,1,0,0:0:0:0:
233,222,118984,1,0,0:0:0:0:
205,200,119120,1,0,0:0:0:0:
173,186,119257,1,0,0:0:0:0:
138,179,119393,1,0,0:0:0:0:
103,186,119529,6,0,P|176:149|252:167,1,142.499998283386
267,170,119939,1,0,0:0:0:0:
302,176,120075,1,0,0:0:0:0:
337,172,120211,1,0,0:0:0:0:
367,146,120348,1,0,0:0:0:0:
382,117,120484,1,0,0:0:0:0:
386,80,120620,2,0,P|326:117|258:102,2,142.499998283386
106,187,121439,5,0,0:0:0:0:
164,329,121711,2,0,P|198:257|259:222,1,142.499998283386
249,224,122257,1,0,0:0:0:0:
367,313,122529,1,0,0:0:0:0:
127,139,122802,1,0,0:0:0:0:
219,79,123075,2,0,P|242:168|198:216,1,142.499998283386
216,204,123620,1,0,0:0:0:0:
322,83,123893,6,0,P|347:170|407:207,1,142.499998283386
421,375,124439,2,0,P|398:308|346:262,1,142.499998283386
246,214,124984,1,0,0:0:0:0:
246,214,125257,1,0,0:0:0:0:
150,313,125529,1,0,0:0:0:0:
150,313,125802,1,0,0:0:0:0:
239,346,126075,6,0,P|226:251|141:212,1,142.499998283386
345,209,126620,2,0,P|313:125|325:70,1,142.499998283386
93,99,127166,2,0,P|172:53|191:-14,1,142.499998283386
47,270,127711,2,0,B|92:287|150:315|121:284|121:284|117:329|159:261|179:219,1,213.749997425079
393,321,128256,6,0,B|422:295|422:295|361:283|361:283|424:169|341:103|368:45,1,284.999996566773
302,143,128801,2,0,B|312:199|312:199|220:105|181:14,1,284.999996566773,0|0,3:3|3:3,3:3:0:0:
144,104,129210,2,0,B|116:55|116:55|106:186|135:282,1,284.999996566773,0|0,3:3|3:3,3:3:0:0:
208,222,129620,2,0,B|219:263|219:263|327:155,1,142.499998283386
421,74,129892,1,0,0:0:0:0:
289,192,130029,2,0,L|178:298,1,142.499998283386
471,24,130438,5,0,0:0:0:0:
118,72,130710,2,0,L|26:48,1,71.2499991416931
241,187,130847,2,0,L|163:189,1,71.2499991416931
401,311,130983,2,0,B|326:362|326:362|249:255|142:302,1,284.999996566773
35,230,131392,2,0,B|64:168|64:168|149:243,1,142.499998283386
374,141,131665,2,0,B|303:142|303:142|249:94,1,142.499998283386
64,16,131938,2,0,L|182:120,1,142.499998283386
327,220,132210,1,0,0:0:0:0:
48,288,132347,2,0,L|162:175,1,142.499998283386
281,91,132620,6,0,B|315:94|315:94|294:118|294:118|397:120|464:260,1,284.999996566773
64,144,133165,2,0,L|240:160,1,142.499998283386
464,192,133438,1,0,0:0:0:0:
64,256,133574,2,0,L|256:224,1,142.499998283386
464,192,133847,1,0,0:0:0:0:
32,64,133983,2,0,L|192:112,1,142.499998283386
464,192,134256,2,0,L|336:144,1,71.2499991416931
80,160,134392,2,0,L|148:179,1,71.2499991416931
448,352,134529,2,0,L|288:304,1,142.499998283386
64,240,134801,6,0,L|160:272,1,71.2499991416931
368,160,134938,2,0,L|304:208,1,71.2499991416931
67,89,135074,1,0,0:0:0:0:
362,15,135210,1,0,0:0:0:0:
58,181,135347,1,0,0:0:0:0:
323,94,135483,1,0,0:0:0:0:
51,274,135620,1,0,0:0:0:0:
282,176,135756,1,0,0:0:0:0:
37,363,135892,1,0,0:0:0:0:
239,256,136029,1,0,0:0:0:0:
51,274,136165,1,0,0:0:0:0:
323,359,136301,2,0,P|259:377|177:334,1,142.499998283386
374,73,136574,2,0,P|463:177|362:317,1,284.999996566773
208,192,136983,6,0,B|256:112|256:112|272:176|272:176|320:112|320:320,1,284.999996566773
211,43,137529,2,0,B|146:161|34:158|34:158|91:192,1,284.999996566773
83,338,137938,2,0,B|147:219|260:223|260:223|202:188,1,284.999996566773
85,126,138347,2,0,B|-4:101|-4:101|96:61,1,142.499998283386
247,91,138620,2,0,B|308:16|308:16|254:30,1,142.499998283386
101,262,138892,2,0,L|-8:390,1,142.499998283386
42,82,139165,6,0,B|88:25|88:25|116:66|116:66|159:28|159:28|394:149,1,427.499994850159
171,116,139710,5,0,0:0:0:0:
246,341,139847,1,0,0:0:0:0:
401,90,139983,1,0,0:0:0:0:
109,210,140120,1,0,0:0:0:0:
375,260,140256,2,0,L|562:300,1,142.499998283386
101,132,140529,1,0,0:0:0:0:
437,166,140665,1,0,0:0:0:0:
191,328,140801,1,0,0:0:0:0:
258,42,140938,1,0,0:0:0:0:
354,342,141074,1,0,0:0:0:0:
444,125,141210,1,0,0:0:0:0:
201,255,141347,2,0,B|62:330|62:330|207:327,1,284.999996566773
444,125,141892,6,0,B|271:213|271:213|337:120,1,284.999996566773
380,40,142301,1,0,0:0:0:0:
444,125,142438,2,0,B|271:213|271:213|331:116,1,284.999996566773
374,35,142847,1,0,0:0:0:0:
444,125,142984,2,0,B|271:213|271:213|325:113,1,284.999996566773
371,29,143392,1,0,0:0:0:0:
444,125,143529,2,0,L|311:194,1,142.499998283386
188,261,143801,2,0,L|251:228,1,71.2499991416931
476,190,143938,2,0,L|412:223,1,71.2499991416931
