osu file format v14

[General]
AudioFilename: audio.mp3
AudioLeadIn: 0
PreviewTime: -1
Countdown: 0
SampleSet: Normal
StackLeniency: 1
Mode: 0
LetterboxInBreaks: 0
WidescreenStoryboard: 0

[Editor]
DistanceSpacing: 1
BeatDivisor: 4
GridSize: 32
TimelineZoom: 1

[Metadata]
Title:Halozy
TitleUnicode:Halozy
Artist:Kikoku Doukoku Jigokuraku (chorus only)
ArtistUnicode:Kikoku Doukoku Jigokuraku (chorus only)
Creator:chezbananas
Version:yes haha
Source:
Tags:
BeatmapID:1969214
BeatmapSetID:942957

[Difficulty]
HPDrainRate:0
CircleSize:4
OverallDifficulty:9
ApproachRate:9.3
SliderMultiplier:3.59999990463257
SliderTickRate:4

[Events]
//Background and Video events
//Break Periods
//Storyboard Layer 0 (Background)
//Storyboard Layer 1 (Fail)
//Storyboard Layer 2 (Pass)
//Storyboard Layer 3 (Foreground)
//Storyboard Sound Samples

[TimingPoints]
-1506,387.096774193548,4,1,0,100,1,0
113074,-50,4,1,0,100,0,0
119074,1548.38709677419,4,1,0,100,1,0
119174,-133.333333333333,4,1,0,100,0,0
119274,387.096774193548,4,1,0,100,1,0
119374,-50,4,1,0,100,0,0
140951,1548.38709677419,4,1,0,100,1,0
141051,-133.333333333333,4,1,0,100,0,0
144042,387.096774193548,4,1,0,100,1,0
144142,-50,4,1,0,100,0,0

[HitObjects]
4,53,106881,5,0,0:0:0:0:
43,15,106977,1,0,0:0:0:0:
4,53,107074,1,0,0:0:0:0:
45,21,107171,1,0,0:0:0:0:
4,53,107268,1,0,0:0:0:0:
37,25,107364,1,0,0:0:0:0:
37,66,107461,1,0,0:0:0:0:
66,39,107558,1,0,0:0:0:0:
7,47,107655,1,0,0:0:0:0:
64,43,107752,1,0,0:0:0:0:
37,66,107848,1,0,0:0:0:0:
60,50,107945,1,0,0:0:0:0:
37,66,108042,1,0,0:0:0:0:
68,49,108139,1,0,0:0:0:0:
33,59,108235,1,0,0:0:0:0:
59,39,108332,1,0,0:0:0:0:
433,350,108429,5,0,0:0:0:0:
462,323,108526,5,0,0:0:0:0:
403,331,108623,5,0,0:0:0:0:
460,327,108720,5,0,0:0:0:0:
433,350,108816,5,0,0:0:0:0:
456,334,108913,5,0,0:0:0:0:
433,350,109010,5,0,0:0:0:0:
464,333,109107,5,0,0:0:0:0:
429,343,109203,5,0,0:0:0:0:
455,323,109300,5,0,0:0:0:0:
433,350,109397,5,0,0:0:0:0:
462,323,109494,5,0,0:0:0:0:
403,331,109591,5,0,0:0:0:0:
460,327,109688,5,0,0:0:0:0:
433,350,109784,5,0,0:0:0:0:
456,334,109881,5,0,0:0:0:0:
433,350,109978,5,0,0:0:0:0:
86,239,110074,5,0,0:0:0:0:
115,212,110171,5,0,0:0:0:0:
56,220,110268,5,0,0:0:0:0:
113,216,110365,5,0,0:0:0:0:
86,239,110461,5,0,0:0:0:0:
109,223,110558,5,0,0:0:0:0:
86,239,110655,5,0,0:0:0:0:
117,222,110752,5,0,0:0:0:0:
82,232,110848,5,0,0:0:0:0:
108,212,110945,5,0,0:0:0:0:
86,239,111042,5,0,0:0:0:0:
115,212,111139,5,0,0:0:0:0:
56,220,111236,5,0,0:0:0:0:
113,216,111333,5,0,0:0:0:0:
86,239,111429,5,0,0:0:0:0:
131,200,111526,6,0,P|341:108|341:108,3,179.999995231629
131,200,112106,6,0,L|146:317,10,89.9999976158143
142,289,113074,6,0,B|417:190|416:192|375:83,10,359.999990463257
192,182,115203,6,0,L|42:58,1,179.999995231629
192,182,115397,2,0,L|362:63,1,179.999995231629
192,182,115590,2,0,L|46:323,1,179.999995231629
192,182,115784,2,0,L|55:319,1,179.999995231629
64,309,115977,2,0,L|211:167,22,179.999995231629
180,130,118300,6,0,L|-2:57,1,179.999995231629
186,126,118493,2,0,L|426:101,1,179.999995231629
178,132,118687,2,0,L|129:316,1,179.999995231629
317,291,118881,2,0,L|180:123,1,179.999995231629
212,153,119074,2,0,L|442:97,2,179.999995231629
204,157,120628,1,0,0:0:0:0:
2,5,121596,1,0,0:0:0:0:
511,380,121983,1,0,0:0:0:0:
178,181,122370,2,0,B|306:323|428:206|429:207|426:206|425:206|429:78|326:30|310:18|310:18|237:34|205:51|200:55|165:103|168:141|167:157|168:172|175:187|182:198,5,719.999980926514
256,192,124499,12,0,124596,0:0:0:0:
256,192,124693,12,0,124790,0:0:0:0:
256,192,124886,12,0,124983,0:0:0:0:
256,192,125080,12,0,125177,0:0:0:0:
256,192,125274,12,0,125370,0:0:0:0:
256,192,125467,12,0,126532,0:0:0:0:
16,18,126628,5,0,0:0:0:0:
256,192,126725,12,0,127015,0:0:0:0:
20,56,127596,5,0,0:0:0:0:
491,137,127790,1,0,0:0:0:0:
17,205,127983,1,0,0:0:0:0:
483,279,128177,1,0,0:0:0:0:
19,363,128370,1,0,0:0:0:0:
489,34,128564,1,0,0:0:0:0:
489,34,128757,1,0,0:0:0:0:
323,89,128951,5,0,0:0:0:0:
308,69,129048,1,0,0:0:0:0:
151,160,129241,1,0,0:0:0:0:
268,207,129435,1,0,0:0:0:0:
176,276,129532,1,0,0:0:0:0:
373,77,129725,1,0,0:0:0:0:
404,176,129822,1,0,0:0:0:0:
454,231,129919,1,0,0:0:0:0:
90,183,130112,5,0,0:0:0:0:
54,122,130306,1,0,0:0:0:0:
323,89,130499,5,0,0:0:0:0:
395,70,130596,1,0,0:0:0:0:
149,139,130789,1,0,0:0:0:0:
284,105,130983,1,0,0:0:0:0:
222,164,131080,1,0,0:0:0:0:
373,77,131273,1,0,0:0:0:0:
264,213,131370,1,0,0:0:0:0:
203,256,131467,1,0,0:0:0:0:
111,310,131661,6,0,B|112:90|112:90|328:85|328:85|353:87|367:130|368:128|374:83|374:83|367:212|367:212|360:327|361:326|362:326,3,719.999980926514
362,282,132822,2,0,L|367:78,1,179.999995231629
367,78,133015,2,0,L|164:83,1,179.999995231629
170,79,133209,2,0,B|170:284|170:284|393:286,4,359.999990463257
175,81,133983,2,0,B|401:61|401:61|383:241|383:241|237:273|237:273|172:177|172:177|255:127|255:127|322:155,2,719.999980926514
117,51,134757,6,0,B|302:50|302:50|116:50|116:50|112:235|111:235|110:235|110:235|306:232|306:232|110:236|110:236|109:369|109:369|318:369|318:369|316:371,4,1259.9999666214
247,43,137854,6,0,B|442:42|456:243|456:243|339:330|338:332|131:349|2:283|12:185|58:52|197:23|330:11,2,1079.99997138977
260,45,139015,5,0,0:0:0:0:
260,45,139209,1,0,0:0:0:0:
260,45,139403,1,0,0:0:0:0:
261,39,139790,1,0,0:0:0:0:
261,39,140177,1,0,0:0:0:0:
261,39,140371,1,0,0:0:0:0:
261,39,140564,1,0,0:0:0:0:
263,53,140951,6,0,B|393:131|402:291|155:350|5:295|13:178|5:39|6:36|247:36|246:36,1,719.999980926514
496,361,144042,1,0,0:0:0:0:
7,3,145590,1,0,0:0:0:0:
256,191,147138,1,0,0:0:0:0:
22,219,148687,1,0,0:0:0:0:
235,173,150235,6,0,L|59:63,32,179.999995231629
277,173,150235,6,0,L|453:63,32,179.999995231629
235,211,150235,6,0,L|82:306,32,179.999995231629
277,211,150235,6,0,L|429:306,32,179.999995231629
255,190,153332,1,0,0:0:0:0:
512,7,156429,1,0,0:0:0:0:
1,380,156816,1,0,0:0:0:0:
1,1,157106,1,0,0:0:0:0:
508,381,157299,1,0,0:0:0:0:
510,100,157590,1,0,0:0:0:0:
256,194,157783,5,0,0:0:0:0:
