osu file format v14

[General]
AudioFilename: audio.mp3
AudioLeadIn: 0
PreviewTime: 128
Countdown: 0
SampleSet: Soft
StackLeniency: 0.7
Mode: 2
LetterboxInBreaks: 0
WidescreenStoryboard: 1

[Editor]
Bookmarks: 32378
DistanceSpacing: 1.8
BeatDivisor: 1
GridSize: 8
TimelineZoom: 2.3

[Metadata]
Title:Yume Nikki
TitleUnicode:ゆめにっき
Artist:Kikiyama
ArtistUnicode:ききやま
Creator:Vaqu
Version:phob's salad
Source:ゆめにっき
Tags:dream diary playism サウンドトラック ゆめのおと 1 original soundtrack ost video game vgm bgm instrumental phob
BeatmapID:3891034
BeatmapSetID:1813822

[Difficulty]
HPDrainRate:4
CircleSize:4
OverallDifficulty:5
ApproachRate:5
SliderMultiplier:2
SliderTickRate:0.5

[Events]
//Background and Video events
0,0,"MallRooftop.png",0,0
//Break Periods
//Storyboard Layer 0 (Background)
//Storyboard Layer 1 (Fail)
//Storyboard Layer 2 (Pass)
//Storyboard Layer 3 (Foreground)
//Storyboard Layer 4 (Overlay)
//Storyboard Sound Samples

[TimingPoints]
378,1000,4,2,1,55,1,0
378,-17.8571428571429,4,2,1,55,0,0
48378,-17.8571428571429,4,2,1,50,0,0
48878,-17.8571428571429,4,2,1,45,0,0
49378,-17.8571428571429,4,2,1,40,0,0
49878,-17.8571428571429,4,2,1,35,0,0
50378,-17.8571428571429,4,2,1,30,0,0
50878,-17.8571428571429,4,2,1,25,0,0
51378,-17.8571428571429,4,2,1,20,0,0
51878,-17.8571428571429,4,2,1,15,0,0
52378,-17.8571428571429,4,2,1,10,0,0
52878,-17.8571428571429,4,2,1,5,0,0

[Colours]
Combo1 : 172,172,172
Combo2 : 60,1,233
Combo3 : 77,117,255

[HitObjects]
56,336,378,5,2,0:0:0:0:
120,336,878,1,0,0:0:0:0:
256,336,1378,1,0,0:0:0:0:
88,248,1878,1,0,0:0:0:0:
424,248,2378,5,2,0:0:0:0:
420,248,2440,1,0,0:0:0:0:
256,336,2878,1,0,0:0:0:0:
320,336,3378,1,0,0:0:0:0:
456,336,3878,1,0,0:0:0:0:
112,336,4378,5,2,0:0:0:0:
88,336,4440,2,0,B|84:270|84:270|65:206|65:206|45:142|45:142|20:80|20:80|12:14|12:14|27:79|27:79|29:146|29:146|49:210|49:210|51:277|51:277|67:342|67:342|74:276|74:276|74:209|74:209|104:150|104:150|138:93|138:93|148:27|148:27|194:75|194:75|208:140|208:140|205:206|205:206|229:268|229:268|254:330|254:330|293:384|293:384|319:323|319:323|304:258|304:258|332:198|332:198|331:131|331:131|354:68|354:68|343:2|343:2|337:68|337:68|317:131|317:131|335:195|335:195|326:261|326:261|281:358|281:358,1,2170,0|2,0:0|0:0,0:0:0:0:
256,336,6440,1,0,0:0:0:0:
48,336,7378,1,0,0:0:0:0:
120,336,7878,1,0,0:0:0:0:
456,248,8378,5,2,0:0:0:0:
452,248,8440,1,0,0:0:0:0:
288,336,8878,1,0,0:0:0:0:
224,336,9378,1,0,0:0:0:0:
400,336,9878,1,0,0:0:0:0:
48,192,10378,5,2,0:0:0:0:
52,192,10440,2,0,B|74:288|74:288|65:386|65:386|89:291|89:291|140:207|140:207|181:118|181:118|205:23|205:23|207:121|207:121|240:213|240:213|226:310|226:310|201:215|201:215|171:122|171:122|137:30|137:30|105:123|105:123|71:215|71:215|56:312|56:312|52:174|52:174,1,1610
424,248,12378,5,2,0:0:0:0:
420,248,12440,1,0,0:0:0:0:
256,336,12878,1,0,0:0:0:0:
320,336,13378,1,0,0:0:0:0:
456,336,13878,1,0,0:0:0:0:
88,248,14378,5,2,0:0:0:0:
92,248,14440,1,0,0:0:0:0:
256,336,14878,1,0,0:0:0:0:
120,336,15378,1,0,0:0:0:0:
456,336,16378,5,2,0:0:0:0:
392,336,16878,1,0,0:0:0:0:
256,336,17378,1,0,0:0:0:0:
424,248,17878,1,0,0:0:0:0:
88,248,18378,5,2,0:0:0:0:
92,248,18440,1,0,0:0:0:0:
256,336,18878,1,0,0:0:0:0:
192,336,19378,1,0,0:0:0:0:
56,336,19878,1,0,0:0:0:0:
400,336,20378,5,2,0:0:0:0:
424,336,20440,2,0,B|458:279|458:279|452:213|452:213|480:152|480:152|491:86|491:86|465:25|465:25|491:86|491:86|467:148|467:148|474:214|474:214|477:280|477:280|455:343|455:343|450:277|450:277|424:216|424:216|421:150|421:150|397:88|397:88|351:40|351:40|348:106|348:106|331:170|331:170|293:224|293:224|276:288|276:288|237:342|237:342|227:276|227:276|192:219|192:219|211:155|211:155|179:96|179:96|158:33|158:33|162:99|162:99|162:166|162:166|171:232|171:232|174:298|174:298|175:365|175:365|218:315|218:315|231:209|231:209,1,2170,0|2,0:0|0:0,0:0:0:0:
256,336,22440,1,0,0:0:0:0:
464,336,23378,1,0,0:0:0:0:
392,336,23878,1,0,0:0:0:0:
56,248,24378,5,2,0:0:0:0:
60,248,24440,1,0,0:0:0:0:
224,336,24878,1,0,0:0:0:0:
288,336,25378,1,0,0:0:0:0:
120,336,25878,1,0,0:0:0:0:
464,192,26378,5,2,0:0:0:0:
460,192,26440,2,0,B|455:290|455:290|443:193|443:193|401:105|401:105|363:15|363:15|333:108|333:108|316:205|316:205|295:301|295:301|270:206|270:206|267:108|267:108|291:13|291:13|312:109|312:109|356:197|356:197|410:279|410:279|440:373|440:373|444:275|444:275|460:138|460:138,1,1610
88,248,28378,5,2,0:0:0:0:
92,248,28440,1,0,0:0:0:0:
256,336,28878,1,0,0:0:0:0:
192,336,29378,1,0,0:0:0:0:
56,336,29878,1,0,0:0:0:0:
424,248,30378,5,2,0:0:0:0:
420,248,30440,1,0,0:0:0:0:
256,336,30878,1,0,0:0:0:0:
392,336,31378,1,0,0:0:0:0:
400,104,32378,5,2,0:0:0:0:
232,48,32878,1,0,0:0:0:0:
296,48,33378,1,0,0:0:0:0:
432,48,33878,1,0,0:0:0:0:
112,104,34378,5,2,0:0:0:0:
116,104,34440,1,0,0:0:0:0:
280,48,34878,1,0,0:0:0:0:
144,48,35378,1,0,0:0:0:0:
80,48,35878,1,0,0:0:0:0:
416,192,36378,5,2,0:0:0:0:
440,192,36440,2,0,B|448:258|448:258|474:319|474:319|471:385|471:385|476:319|476:319|452:257|452:257|475:194|475:194|432:143|432:143|442:77|442:77|395:30|395:30|368:91|368:91|363:157|363:157|339:219|339:219|313:280|313:280|291:343|291:343|299:277|299:277|271:217|271:217|268:151|268:151|292:89|292:89|292:22|292:22|300:88|300:88|336:144|336:144|353:208|353:208|390:264|390:264|398:330|398:330|404:264|404:264|444:211|444:211|458:146|458:146|486:85|486:85|487:18|487:18|474:83|474:83|451:146|451:146|448:253|448:253,1,2170,0|2,0:0|0:0,0:0:0:0:
424,44,38440,1,0,0:0:0:0:
316,336,39378,1,0,0:0:0:0:
452,336,39878,1,0,0:0:0:0:
80,192,40378,5,2,0:0:0:0:
84,192,40440,1,0,0:0:0:0:
144,112,40878,1,0,0:0:0:0:
280,112,41378,1,0,0:0:0:0:
112,64,41878,1,0,0:0:0:0:
456,0,42378,5,2,0:0:0:0:
432,0,42440,2,0,B|385:86|385:86|351:178|351:178|330:274|330:274|279:358|279:358|274:260|274:260|222:177|222:177|224:79|224:79|199:174|199:174|165:266|165:266|164:364|164:364|125:274|125:274|143:178|143:178|128:81|128:81|139:178|139:178|136:276|136:276|143:138|143:138,1,1610
456,248,44378,5,2,0:0:0:0:
452,248,44440,1,0,0:0:0:0:
288,336,44878,1,0,0:0:0:0:
224,336,45378,1,0,0:0:0:0:
400,336,45878,1,0,0:0:0:0:
56,248,46378,5,2,0:0:0:0:
60,248,46440,1,0,0:0:0:0:
224,336,46878,1,0,0:0:0:0:
88,336,47378,1,0,0:0:0:0:
464,192,48378,5,2,0:0:0:0:
432,192,48440,1,0,0:0:0:0:
256,192,48878,12,0,49878,0:0:0:0:
112,192,50378,5,2,0:0:0:0:
136,192,50440,1,0,0:0:0:0:
256,192,50878,12,0,51878,0:0:0:0:
344,192,52378,5,2,0:0:0:0:
328,192,52440,1,0,0:0:0:0:
256,192,52878,12,0,53878,0:0:0:0:
216,192,54378,5,2,0:0:0:0:
224,192,54440,1,0,0:0:0:0:
256,192,54878,12,0,55878,0:0:0:0:
256,192,56378,5,2,0:0:0:0:
256,192,56440,1,0,0:0:0:0:
256,192,56878,12,2,58378,0:0:0:0:
