osu file format v14

[General]
AudioFilename: audio.mp3
AudioLeadIn: 0
PreviewTime: 162806
Countdown: 0
SampleSet: Normal
StackLeniency: 0.7
Mode: 1
LetterboxInBreaks: 0
WidescreenStoryboard: 1

[Editor]
Bookmarks: 29614,40818,64312,84553,96842
DistanceSpacing: 1.7
BeatDivisor: 6
GridSize: 32
TimelineZoom: 2.300001

[Metadata]
Title:w/WWW feat. Hoshimiya Toto
TitleUnicode:w/WWW feat. 星宮とと
Artist:Kijibato
ArtistUnicode:Kijibato
Creator:Haypzeh
Version:Lenkon's Futsuu
Source:
Tags:hardcore future bass electronic japanese kawaii my usual box stardrop records m3春 Antti -_Lenkon Eloxrad Kijibato 3rd Mini Album “MY USUAL BOX” track 2 house anime pop Utsuru Alicemetix filmiiz Individualism psytrance
BeatmapID:3828375
BeatmapSetID:1846890

[Difficulty]
HPDrainRate:8
CircleSize:7
OverallDifficulty:5
ApproachRate:9
SliderMultiplier:1.4
SliderTickRate:1

[Events]
//Background and Video events
0,0,"www w bg full.png",0,0
//Break Periods
2,147283,151544
//Storyboard Layer 0 (Background)
//Storyboard Layer 1 (Fail)
//Storyboard Layer 2 (Pass)
//Storyboard Layer 3 (Foreground)
//Storyboard Layer 4 (Overlay)
//Storyboard Sound Samples

[TimingPoints]
337,361.44578313253,4,1,0,100,1,0
337,-100,4,1,0,80,0,0
11903,-100,4,1,0,80,0,1
23288,-100,4,1,0,80,0,0
32144,-100,4,1,0,80,0,1
35035,-100,4,1,0,80,0,0
37927,-100,4,1,0,80,0,1
40818,-100,4,1,0,80,0,0
41541,-105.263157894737,4,1,0,80,0,0
51662,-117.647058823529,4,1,0,80,0,0
52385,361.44578313253,3,1,0,100,1,0
52385,-117.647058823529,4,1,0,80,0,0
58891,361.44578313253,4,1,0,100,1,0
58891,-117.647058823529,4,1,0,80,0,0
64674,-90.9090909090909,4,1,0,80,0,1
84553,-90.9090909090909,4,1,0,80,0,1
84915,-91.743119266055,4,1,0,80,0,0
85276,-92.6998841251448,4,1,0,80,0,0
85637,-93.6768149882904,4,1,0,80,0,0
85999,-94.6745562130178,4,1,0,80,0,0
86360,-95.6937799043062,4,1,0,80,0,0
86722,-96.7351874244256,4,1,0,80,0,0
87083,-97.799511002445,4,1,0,80,0,0
87445,-98.8875154511743,4,1,0,80,0,0
87806,-100,4,1,0,80,0,0
99372,-100,4,1,0,80,0,1
101903,-100,4,1,0,80,0,0
105156,-100,4,1,0,80,0,1
108047,-100,4,1,0,80,0,0
108770,-105.263157894737,4,1,0,80,0,0
118168,-117.647058823529,4,1,0,80,0,0
148529,-100,4,1,0,80,0,0
163890,-90.9090909090909,4,1,0,80,0,0
164433,-90.9090909090909,4,1,0,80,0,1
187565,-90.9090909090909,4,1,0,80,0,0
190457,-90.9090909090909,4,1,0,80,0,1
213228,-90.9090909090909,4,1,0,80,0,0

[HitObjects]
64,128,337,5,12,0:0:0:0:
63,64,1059,1,8,0:0:0:0:
63,64,1421,1,8,0:0:0:0:
128,64,1782,1,0,0:0:0:0:
63,64,1963,1,8,0:0:0:0:
128,64,2144,1,0,0:0:0:0:
128,64,2505,1,0,0:0:0:0:
63,64,2867,1,8,0:0:0:0:
128,64,3228,1,0,0:0:0:0:
128,64,3409,1,0,0:0:0:0:
63,64,3590,1,8,0:0:0:0:
128,64,3951,1,0,0:0:0:0:
63,64,4132,1,8,0:0:0:0:
128,64,4312,1,0,0:0:0:0:
64,160,4674,1,12,0:0:0:0:
64,160,5035,1,12,0:0:0:0:
64,160,5397,1,12,0:0:0:0:
64,160,5758,1,12,0:0:0:0:
129,160,6120,1,4,0:0:0:0:
128,64,6843,1,0,0:0:0:0:
63,64,7204,1,8,0:0:0:0:
128,64,7565,1,0,0:0:0:0:
63,64,7746,1,8,0:0:0:0:
128,64,7927,1,0,0:0:0:0:
128,64,8288,1,0,0:0:0:0:
63,64,8650,1,8,0:0:0:0:
128,64,9011,1,0,0:0:0:0:
128,64,9192,1,0,0:0:0:0:
63,64,9373,1,8,0:0:0:0:
128,64,9734,1,0,0:0:0:0:
63,64,9915,1,8,0:0:0:0:
128,64,10095,1,0,0:0:0:0:
64,128,10457,1,12,0:0:0:0:
64,128,10818,1,12,0:0:0:0:
64,128,11180,1,12,0:0:0:0:
129,128,11541,1,4,0:0:0:0:
64,128,11903,1,12,0:0:0:0:
128,64,12626,1,0,0:0:0:0:
128,64,12806,1,0,0:0:0:0:
63,64,12987,1,8,0:0:0:0:
128,64,13349,1,0,0:0:0:0:
63,64,13529,1,8,0:0:0:0:
63,64,13710,1,8,0:0:0:0:
128,64,14071,1,0,0:0:0:0:
63,64,14433,1,8,0:0:0:0:
128,64,14614,1,0,0:0:0:0:
63,64,14794,1,8,0:0:0:0:
128,64,15156,1,0,0:0:0:0:
63,64,15517,1,8,0:0:0:0:
63,64,15697,1,8,0:0:0:0:
128,64,15879,1,0,0:0:0:0:
64,128,16240,1,12,0:0:0:0:
64,128,16602,1,12,0:0:0:0:
64,128,16963,1,12,0:0:0:0:
128,64,17324,1,0,0:0:0:0:
128,64,17505,1,0,0:0:0:0:
64,128,17686,1,12,0:0:0:0:
63,64,18409,1,8,0:0:0:0:
63,64,18590,1,8,0:0:0:0:
128,64,18770,1,0,0:0:0:0:
128,64,19132,1,0,0:0:0:0:
63,64,19312,1,8,0:0:0:0:
63,64,19493,1,8,0:0:0:0:
128,64,19854,1,0,0:0:0:0:
63,64,20216,1,8,0:0:0:0:
128,64,20397,1,0,0:0:0:0:
63,64,20577,1,8,0:0:0:0:
128,64,20939,1,0,0:0:0:0:
63,64,21300,1,8,0:0:0:0:
63,64,21480,1,8,0:0:0:0:
128,64,21662,1,0,0:0:0:0:
64,128,22023,1,12,0:0:0:0:
64,128,22385,1,12,0:0:0:0:
64,128,22746,1,12,0:0:0:0:
128,64,23107,1,0,0:0:0:0:
128,64,23288,1,0,0:0:0:0:
63,64,23469,1,8,0:0:0:0:
128,64,23830,1,0,0:0:0:0:
63,64,24192,1,8,0:0:0:0:
63,64,24373,1,8,0:0:0:0:
63,64,24553,1,8,0:0:0:0:
128,64,25999,1,0,0:0:0:0:
64,128,26361,1,12,0:0:0:0:
128,64,26722,1,0,0:0:0:0:
128,64,27083,1,0,0:0:0:0:
63,64,27445,1,8,0:0:0:0:
128,64,27626,1,0,0:0:0:0:
63,64,27806,1,8,0:0:0:0:
128,64,28168,1,0,0:0:0:0:
128,64,28529,1,0,0:0:0:0:
63,64,28710,1,8,0:0:0:0:
128,64,28891,1,0,0:0:0:0:
128,64,29071,1,0,0:0:0:0:
63,64,29252,1,8,0:0:0:0:
128,64,30156,1,0,0:0:0:0:
63,64,30336,1,8,0:0:0:0:
128,64,30517,1,0,0:0:0:0:
63,64,30698,1,8,0:0:0:0:
63,64,31602,1,8,0:0:0:0:
128,64,31782,1,0,0:0:0:0:
128,64,31963,1,0,0:0:0:0:
64,160,32144,1,12,0:0:0:0:
128,64,32505,1,0,0:0:0:0:
63,64,32867,1,8,0:0:0:0:
63,64,33047,1,8,0:0:0:0:
128,64,33228,1,0,0:0:0:0:
128,64,33590,1,0,0:0:0:0:
128,64,33770,1,0,0:0:0:0:
63,64,33951,1,8,0:0:0:0:
63,64,34132,1,8,0:0:0:0:
128,64,34312,1,0,0:0:0:0:
128,64,34674,1,0,0:0:0:0:
63,64,35035,1,8,0:0:0:0:
128,64,35939,1,0,0:0:0:0:
63,64,36120,1,8,0:0:0:0:
128,64,36300,1,0,0:0:0:0:
63,64,36481,1,8,0:0:0:0:
63,64,37385,1,8,0:0:0:0:
63,64,37566,1,8,0:0:0:0:
128,64,37746,1,0,0:0:0:0:
64,128,37927,1,12,0:0:0:0:
63,64,38288,1,8,0:0:0:0:
128,64,38650,1,0,0:0:0:0:
128,64,38830,1,0,0:0:0:0:
63,64,39011,1,8,0:0:0:0:
128,64,39373,1,0,0:0:0:0:
128,64,39553,1,0,0:0:0:0:
63,64,39734,1,8,0:0:0:0:
63,64,39915,1,8,0:0:0:0:
128,64,40095,1,0,0:0:0:0:
128,64,40457,1,0,0:0:0:0:
64,128,40818,1,12,0:0:0:0:
128,64,41541,1,0,0:0:0:0:
128,64,41903,1,0,0:0:0:0:
63,64,42264,1,8,0:0:0:0:
128,64,42626,1,0,0:0:0:0:
128,64,42806,1,0,0:0:0:0:
63,64,42987,1,8,0:0:0:0:
63,64,43349,1,8,0:0:0:0:
63,64,43529,1,8,0:0:0:0:
128,64,43710,1,0,0:0:0:0:
128,64,44433,1,0,0:0:0:0:
63,64,44794,1,8,0:0:0:0:
128,64,44975,1,0,0:0:0:0:
63,64,45156,1,8,0:0:0:0:
63,64,45517,1,8,0:0:0:0:
128,64,45879,1,0,0:0:0:0:
128,64,46240,1,0,0:0:0:0:
63,64,46602,1,8,0:0:0:0:
63,64,46963,1,8,0:0:0:0:
128,64,47324,1,0,0:0:0:0:
128,64,47686,1,0,0:0:0:0:
128,64,47867,1,0,0:0:0:0:
64,128,48047,1,12,0:0:0:0:
64,128,48409,1,12,0:0:0:0:
64,128,48770,1,12,0:0:0:0:
256,192,48951,12,0,50577,0:0:0:0:
128,64,51662,5,0,0:0:0:0:
128,64,52023,1,0,0:0:0:0:
63,64,52385,1,8,0:0:0:0:
63,64,53469,1,8,0:0:0:0:
63,64,53830,1,8,0:0:0:0:
128,64,54192,1,0,0:0:0:0:
128,64,54553,1,0,0:0:0:0:
128,64,55638,1,0,0:0:0:0:
63,64,55999,1,8,0:0:0:0:
63,64,56360,1,8,0:0:0:0:
128,64,56722,1,0,0:0:0:0:
128,64,57806,1,0,0:0:0:0:
63,64,58168,1,8,0:0:0:0:
128,64,58529,1,0,0:0:0:0:
63,64,58891,1,8,0:0:0:0:
63,64,59071,1,8,0:0:0:0:
128,64,59252,1,0,0:0:0:0:
63,64,59613,1,8,0:0:0:0:
128,64,59975,1,0,0:0:0:0:
63,64,60336,1,8,0:0:0:0:
128,64,60517,1,0,0:0:0:0:
63,64,60698,1,8,0:0:0:0:
128,64,61059,1,0,0:0:0:0:
128,64,61240,1,0,0:0:0:0:
63,64,61421,1,8,0:0:0:0:
63,64,61601,1,8,0:0:0:0:
128,64,61782,1,0,0:0:0:0:
63,64,63228,1,8,0:0:0:0:
64,160,64674,1,12,0:0:0:0:
128,64,65035,1,0,0:0:0:0:
128,64,65216,1,0,0:0:0:0:
63,64,65397,1,8,0:0:0:0:
63,64,65758,1,8,0:0:0:0:
128,64,65939,1,0,0:0:0:0:
63,64,66119,1,8,0:0:0:0:
128,64,66481,1,0,0:0:0:0:
63,64,66842,1,8,0:0:0:0:
128,64,67204,1,0,0:0:0:0:
128,64,67384,1,0,0:0:0:0:
63,64,67565,1,8,0:0:0:0:
128,64,67746,1,0,0:0:0:0:
63,64,67927,1,8,0:0:0:0:
63,64,68288,1,8,0:0:0:0:
128,64,68469,1,0,0:0:0:0:
128,64,68650,1,0,0:0:0:0:
128,64,69011,1,0,0:0:0:0:
63,64,69372,1,8,0:0:0:0:
128,64,69553,1,0,0:0:0:0:
63,64,69734,1,8,0:0:0:0:
64,128,70457,1,12,0:0:0:0:
128,64,70818,1,0,0:0:0:0:
63,64,71180,1,8,0:0:0:0:
63,64,71541,1,8,0:0:0:0:
63,64,71722,1,8,0:0:0:0:
128,64,71903,1,0,0:0:0:0:
63,64,72264,1,8,0:0:0:0:
128,64,72445,1,0,0:0:0:0:
63,64,72625,1,8,0:0:0:0:
128,64,72987,1,0,0:0:0:0:
128,64,73168,1,0,0:0:0:0:
63,64,73348,1,8,0:0:0:0:
128,64,73529,1,0,0:0:0:0:
63,64,73710,1,8,0:0:0:0:
128,64,74071,1,0,0:0:0:0:
128,64,74252,1,0,0:0:0:0:
63,64,74433,1,8,0:0:0:0:
63,64,74613,1,8,0:0:0:0:
128,128,74794,1,4,0:0:0:0:
63,128,75156,1,12,0:0:0:0:
128,128,75517,1,4,0:0:0:0:
128,128,75878,1,4,0:0:0:0:
64,128,76240,1,12,0:0:0:0:
63,64,76963,1,8,0:0:0:0:
63,64,77686,1,8,0:0:0:0:
128,64,77866,1,0,0:0:0:0:
63,64,78047,1,8,0:0:0:0:
128,64,78228,1,0,0:0:0:0:
128,64,78409,1,0,0:0:0:0:
128,64,78770,1,0,0:0:0:0:
64,128,79131,1,12,0:0:0:0:
128,64,79312,1,0,0:0:0:0:
63,64,79493,1,8,0:0:0:0:
128,64,79854,1,0,0:0:0:0:
63,64,80035,1,8,0:0:0:0:
128,64,80216,1,0,0:0:0:0:
128,64,80397,1,0,0:0:0:0:
63,128,80577,1,12,0:0:0:0:
63,128,80939,1,12,0:0:0:0:
128,128,81300,1,4,0:0:0:0:
63,128,81662,1,12,0:0:0:0:
128,64,82023,1,0,0:0:0:0:
128,64,82384,1,0,0:0:0:0:
63,64,82746,1,8,0:0:0:0:
63,64,83469,1,8,0:0:0:0:
128,64,83830,1,0,0:0:0:0:
63,64,84192,1,8,0:0:0:0:
128,128,84553,1,4,0:0:0:0:
63,128,84915,1,12,0:0:0:0:
63,64,85276,1,8,0:0:0:0:
128,64,85637,1,0,0:0:0:0:
128,64,85999,1,0,0:0:0:0:
63,64,86360,1,8,0:0:0:0:
128,64,86722,1,0,0:0:0:0:
63,64,87083,1,8,0:0:0:0:
63,64,87445,1,8,0:0:0:0:
128,64,87806,1,0,0:0:0:0:
63,64,88168,1,8,0:0:0:0:
63,64,88529,1,8,0:0:0:0:
128,64,88890,1,0,0:0:0:0:
128,64,89252,1,0,0:0:0:0:
128,64,89613,1,0,0:0:0:0:
63,64,89975,1,8,0:0:0:0:
64,128,90698,1,12,0:0:0:0:
128,64,91059,1,0,0:0:0:0:
63,64,91421,1,8,0:0:0:0:
63,64,91782,1,8,0:0:0:0:
128,64,92144,1,0,0:0:0:0:
63,64,92505,1,8,0:0:0:0:
128,64,92866,1,0,0:0:0:0:
128,64,93589,1,0,0:0:0:0:
63,64,93951,1,8,0:0:0:0:
128,64,94312,1,0,0:0:0:0:
63,64,94674,1,8,0:0:0:0:
63,64,95035,1,8,0:0:0:0:
63,64,95216,1,8,0:0:0:0:
128,64,95397,1,0,0:0:0:0:
128,64,95758,1,0,0:0:0:0:
63,64,95939,1,8,0:0:0:0:
63,64,96119,1,8,0:0:0:0:
128,64,96300,1,0,0:0:0:0:
63,64,96481,1,8,0:0:0:0:
63,64,97384,1,8,0:0:0:0:
128,64,97565,1,0,0:0:0:0:
128,64,97746,1,0,0:0:0:0:
63,64,97927,1,8,0:0:0:0:
128,64,98830,1,0,0:0:0:0:
63,64,99011,1,8,0:0:0:0:
128,64,99192,1,0,0:0:0:0:
64,128,99372,1,12,0:0:0:0:
63,64,99734,1,8,0:0:0:0:
63,64,100095,1,8,0:0:0:0:
128,64,100456,1,0,0:0:0:0:
128,64,100637,1,0,0:0:0:0:
63,64,100818,1,8,0:0:0:0:
63,64,101180,1,8,0:0:0:0:
128,64,101360,1,0,0:0:0:0:
63,64,101541,1,8,0:0:0:0:
63,64,101903,1,8,0:0:0:0:
128,64,102264,1,0,0:0:0:0:
63,64,103168,1,8,0:0:0:0:
63,64,103348,1,8,0:0:0:0:
128,64,103529,1,0,0:0:0:0:
63,64,103710,1,8,0:0:0:0:
63,64,104613,1,8,0:0:0:0:
128,64,104794,1,0,0:0:0:0:
128,64,104975,1,0,0:0:0:0:
64,128,105156,1,12,0:0:0:0:
63,64,105517,1,8,0:0:0:0:
128,64,105878,1,0,0:0:0:0:
128,64,106059,1,0,0:0:0:0:
63,64,106240,1,8,0:0:0:0:
63,64,106601,1,8,0:0:0:0:
128,64,106782,1,0,0:0:0:0:
63,64,106963,1,8,0:0:0:0:
63,64,107324,1,8,0:0:0:0:
63,64,107505,1,8,0:0:0:0:
128,64,107686,1,0,0:0:0:0:
128,64,107866,1,0,0:0:0:0:
64,160,108047,1,12,0:0:0:0:
63,64,108770,1,8,0:0:0:0:
128,64,109131,1,0,0:0:0:0:
63,64,109493,1,8,0:0:0:0:
128,64,109674,1,0,0:0:0:0:
128,64,109854,1,0,0:0:0:0:
63,64,110216,1,8,0:0:0:0:
128,64,110577,1,0,0:0:0:0:
128,64,110758,1,0,0:0:0:0:
63,64,110939,1,8,0:0:0:0:
63,64,111662,1,8,0:0:0:0:
128,64,112023,1,0,0:0:0:0:
128,64,112384,1,0,0:0:0:0:
128,64,112746,1,0,0:0:0:0:
63,64,112927,1,8,0:0:0:0:
63,64,113107,1,8,0:0:0:0:
128,64,113469,1,0,0:0:0:0:
128,64,113650,1,0,0:0:0:0:
64,160,113830,1,12,0:0:0:0:
63,64,114192,1,8,0:0:0:0:
128,64,114553,1,0,0:0:0:0:
128,64,114915,1,0,0:0:0:0:
128,64,115095,1,0,0:0:0:0:
64,128,115276,1,12,0:0:0:0:
64,128,115637,1,12,0:0:0:0:
64,128,115999,1,12,0:0:0:0:
128,64,116722,1,0,0:0:0:0:
128,64,118890,1,0,0:0:0:0:
128,64,121059,1,0,0:0:0:0:
128,64,121782,1,0,0:0:0:0:
63,64,122505,1,8,0:0:0:0:
128,64,122866,1,0,0:0:0:0:
128,64,123228,1,0,0:0:0:0:
128,64,123499,1,0,0:0:0:0:
128,64,123770,1,0,0:0:0:0:
128,128,123951,1,4,0:0:0:0:
63,64,124312,1,8,0:0:0:0:
63,64,124674,1,8,0:0:0:0:
63,64,124945,1,8,0:0:0:0:
63,64,125216,1,8,0:0:0:0:
128,64,125397,1,0,0:0:0:0:
128,64,125758,1,0,0:0:0:0:
128,64,126119,1,0,0:0:0:0:
128,64,126390,1,0,0:0:0:0:
128,64,126662,1,0,0:0:0:0:
63,64,126842,1,8,0:0:0:0:
63,64,127204,1,8,0:0:0:0:
63,64,127565,1,8,0:0:0:0:
63,64,127836,1,8,0:0:0:0:
63,64,128107,1,8,0:0:0:0:
128,64,128288,1,0,0:0:0:0:
128,64,128650,1,0,0:0:0:0:
128,64,129011,1,0,0:0:0:0:
128,64,129282,1,0,0:0:0:0:
128,64,129553,1,0,0:0:0:0:
63,64,129734,1,8,0:0:0:0:
63,64,130457,1,8,0:0:0:0:
63,64,130728,1,8,0:0:0:0:
63,64,130999,1,8,0:0:0:0:
128,64,131180,1,0,0:0:0:0:
128,64,131541,1,0,0:0:0:0:
128,64,131903,1,0,0:0:0:0:
128,64,132174,1,0,0:0:0:0:
128,64,132445,1,0,0:0:0:0:
63,64,132625,1,8,0:0:0:0:
63,64,132987,1,8,0:0:0:0:
63,64,133348,1,8,0:0:0:0:
63,64,133619,1,8,0:0:0:0:
63,64,133890,1,8,0:0:0:0:
128,64,134071,1,0,0:0:0:0:
64,128,135517,1,12,0:0:0:0:
64,128,136240,1,12,0:0:0:0:
129,128,136511,1,4,0:0:0:0:
129,128,136782,1,4,0:0:0:0:
64,128,136963,1,12,0:0:0:0:
129,128,137324,1,4,0:0:0:0:
129,128,137686,1,4,0:0:0:0:
129,128,137957,1,4,0:0:0:0:
129,128,138228,1,4,0:0:0:0:
64,128,138409,1,12,0:0:0:0:
129,64,139854,1,0,0:0:0:0:
129,64,140216,1,0,0:0:0:0:
129,64,140577,1,0,0:0:0:0:
129,64,140848,1,0,0:0:0:0:
129,64,141119,1,0,0:0:0:0:
63,64,141300,1,8,0:0:0:0:
63,64,141662,1,8,0:0:0:0:
63,64,142023,1,8,0:0:0:0:
128,64,142204,1,0,0:0:0:0:
63,64,142384,1,8,0:0:0:0:
63,64,142746,1,8,0:0:0:0:
63,64,143107,1,8,0:0:0:0:
128,64,143469,1,0,0:0:0:0:
128,64,143740,1,0,0:0:0:0:
128,64,144011,1,0,0:0:0:0:
63,64,144192,1,8,0:0:0:0:
63,64,144553,1,8,0:0:0:0:
63,64,144915,1,8,0:0:0:0:
128,64,145637,1,0,0:0:0:0:
128,64,145818,1,0,0:0:0:0:
63,64,145998,1,8,0:0:0:0:
63,64,146179,1,8,0:0:0:0:
63,64,146541,1,8,0:0:0:0:
63,64,146722,1,8,0:0:0:0:
63,64,146903,1,8,0:0:0:0:
128,64,147083,1,0,0:0:0:0:
63,64,152144,5,8,0:0:0:0:
63,64,152505,1,8,0:0:0:0:
128,64,152686,1,0,0:0:0:0:
64,128,152866,1,12,0:0:0:0:
63,64,153228,1,8,0:0:0:0:
128,64,153589,1,0,0:0:0:0:
128,64,153951,1,0,0:0:0:0:
128,64,154131,1,0,0:0:0:0:
64,160,154312,1,12,0:0:0:0:
64,160,154674,1,12,0:0:0:0:
64,160,155035,1,12,0:0:0:0:
128,64,155758,1,0,0:0:0:0:
128,64,156119,1,0,0:0:0:0:
128,64,156300,1,0,0:0:0:0:
63,64,156481,1,8,0:0:0:0:
63,64,156842,1,8,0:0:0:0:
128,64,157204,1,0,0:0:0:0:
128,64,157565,1,0,0:0:0:0:
128,64,157746,1,0,0:0:0:0:
63,64,157927,1,8,0:0:0:0:
63,64,158288,1,8,0:0:0:0:
128,64,158650,1,0,0:0:0:0:
63,64,159011,1,8,0:0:0:0:
128,64,159372,1,0,0:0:0:0:
63,64,159734,1,8,0:0:0:0:
63,64,160095,1,8,0:0:0:0:
63,64,160276,1,8,0:0:0:0:
128,64,160457,1,0,0:0:0:0:
128,64,160818,1,0,0:0:0:0:
128,64,160999,1,0,0:0:0:0:
63,64,161180,1,8,0:0:0:0:
128,64,161360,1,0,0:0:0:0:
63,64,161541,1,8,0:0:0:0:
128,128,163890,1,4,0:0:0:0:
128,128,164162,1,4,0:0:0:0:
352,128,164433,1,12,0:0:0:0:
352,64,164794,1,8,0:0:0:0:
417,64,164975,1,0,0:0:0:0:
352,64,165156,1,8,0:0:0:0:
417,64,165517,1,0,0:0:0:0:
417,64,165698,1,0,0:0:0:0:
352,64,165878,1,8,0:0:0:0:
417,64,166240,1,0,0:0:0:0:
352,64,166601,1,8,0:0:0:0:
352,64,166963,1,8,0:0:0:0:
417,64,167144,1,0,0:0:0:0:
352,64,167324,1,8,0:0:0:0:
352,64,167505,1,8,0:0:0:0:
417,64,167686,1,0,0:0:0:0:
352,64,168047,1,8,0:0:0:0:
352,64,168228,1,8,0:0:0:0:
417,64,168409,1,0,0:0:0:0:
352,64,168770,1,8,0:0:0:0:
352,64,169131,1,8,0:0:0:0:
417,64,169312,1,0,0:0:0:0:
352,64,169493,1,8,0:0:0:0:
352,128,170216,1,12,0:0:0:0:
352,64,170577,1,8,0:0:0:0:
417,64,170939,1,0,0:0:0:0:
352,64,171300,1,8,0:0:0:0:
417,64,171481,1,0,0:0:0:0:
352,64,171662,1,8,0:0:0:0:
352,64,172023,1,8,0:0:0:0:
352,64,172204,1,8,0:0:0:0:
417,64,172384,1,0,0:0:0:0:
417,64,172746,1,0,0:0:0:0:
417,64,172927,1,0,0:0:0:0:
352,64,173107,1,8,0:0:0:0:
417,64,173288,1,0,0:0:0:0:
352,64,173469,1,8,0:0:0:0:
417,64,173830,1,0,0:0:0:0:
352,64,174011,1,8,0:0:0:0:
417,64,174192,1,0,0:0:0:0:
417,64,174372,1,0,0:0:0:0:
352,128,174553,1,12,0:0:0:0:
352,128,174915,1,12,0:0:0:0:
417,128,175276,1,4,0:0:0:0:
417,128,175637,1,4,0:0:0:0:
352,64,175999,1,8,0:0:0:0:
352,64,176722,1,8,0:0:0:0:
352,64,177445,1,8,0:0:0:0:
417,64,177625,1,0,0:0:0:0:
352,64,177806,1,8,0:0:0:0:
417,64,177987,1,0,0:0:0:0:
417,64,178168,1,0,0:0:0:0:
417,64,178529,1,0,0:0:0:0:
352,128,178890,1,12,0:0:0:0:
417,64,179071,1,0,0:0:0:0:
352,64,179252,1,8,0:0:0:0:
417,64,179613,1,0,0:0:0:0:
417,64,179794,1,0,0:0:0:0:
352,64,179975,1,8,0:0:0:0:
352,64,180156,1,8,0:0:0:0:
416,128,180336,1,4,0:0:0:0:
351,128,180698,1,12,0:0:0:0:
416,128,181059,1,4,0:0:0:0:
351,128,181421,1,12,0:0:0:0:
417,64,181782,1,0,0:0:0:0:
352,64,182505,1,8,0:0:0:0:
417,64,183228,1,0,0:0:0:0:
352,64,183589,1,8,0:0:0:0:
417,64,183770,1,0,0:0:0:0:
352,64,183951,1,8,0:0:0:0:
417,64,184312,1,0,0:0:0:0:
352,160,184674,1,12,0:0:0:0:
417,64,184854,1,0,0:0:0:0:
352,64,185035,1,8,0:0:0:0:
352,64,185397,1,8,0:0:0:0:
352,64,185577,1,8,0:0:0:0:
417,64,185758,1,0,0:0:0:0:
417,64,185939,1,0,0:0:0:0:
352,128,186119,1,12,0:0:0:0:
417,128,186481,1,4,0:0:0:0:
352,128,186842,1,12,0:0:0:0:
417,128,187204,1,4,0:0:0:0:
352,64,187565,1,8,0:0:0:0:
417,64,187927,1,0,0:0:0:0:
352,64,188288,1,8,0:0:0:0:
352,64,188650,1,8,0:0:0:0:
416,128,190095,1,4,0:0:0:0:
351,128,190457,1,12,0:0:0:0:
417,64,190818,1,0,0:0:0:0:
352,64,191180,1,8,0:0:0:0:
352,64,191360,1,8,0:0:0:0:
417,64,191541,1,0,0:0:0:0:
352,128,191903,1,12,0:0:0:0:
352,128,192264,1,12,0:0:0:0:
352,128,192625,1,12,0:0:0:0:
417,64,192987,1,0,0:0:0:0:
417,64,193168,1,0,0:0:0:0:
352,64,193348,1,8,0:0:0:0:
352,64,194071,1,8,0:0:0:0:
417,64,194433,1,0,0:0:0:0:
417,64,194613,1,0,0:0:0:0:
352,64,194794,1,8,0:0:0:0:
352,64,195156,1,8,0:0:0:0:
417,64,195517,1,0,0:0:0:0:
352,64,195878,1,8,0:0:0:0:
417,64,196059,1,0,0:0:0:0:
352,64,196240,1,8,0:0:0:0:
128,64,196601,1,0,0:0:0:0:
63,64,196962,1,8,0:0:0:0:
63,64,197144,1,8,0:0:0:0:
128,64,197324,1,0,0:0:0:0:
64,128,197685,1,12,0:0:0:0:
64,128,198047,1,12,0:0:0:0:
64,128,198408,1,12,0:0:0:0:
128,64,198769,1,0,0:0:0:0:
128,64,198950,1,0,0:0:0:0:
64,128,199131,1,12,0:0:0:0:
63,64,199854,1,8,0:0:0:0:
63,64,200035,1,8,0:0:0:0:
128,64,200215,1,0,0:0:0:0:
128,64,200577,1,0,0:0:0:0:
63,64,200757,1,8,0:0:0:0:
63,64,200938,1,8,0:0:0:0:
128,64,201299,1,0,0:0:0:0:
63,64,201661,1,8,0:0:0:0:
128,64,201842,1,0,0:0:0:0:
63,64,202022,1,8,0:0:0:0:
128,64,202384,1,0,0:0:0:0:
63,64,202745,1,8,0:0:0:0:
63,64,202927,1,8,0:0:0:0:
128,64,203107,1,0,0:0:0:0:
64,128,203468,1,12,0:0:0:0:
64,128,203830,1,12,0:0:0:0:
64,128,204191,1,12,0:0:0:0:
128,64,204552,1,0,0:0:0:0:
128,64,204733,1,0,0:0:0:0:
64,128,204915,1,12,0:0:0:0:
63,64,205637,1,8,0:0:0:0:
128,64,205999,1,0,0:0:0:0:
128,64,206180,1,0,0:0:0:0:
63,64,206360,1,8,0:0:0:0:
128,64,206722,1,0,0:0:0:0:
63,64,207083,1,8,0:0:0:0:
128,64,207264,1,0,0:0:0:0:
63,64,207445,1,8,0:0:0:0:
63,64,207806,1,8,0:0:0:0:
128,64,208168,1,0,0:0:0:0:
128,64,208890,1,0,0:0:0:0:
64,128,209252,1,12,0:0:0:0:
64,128,209613,1,12,0:0:0:0:
64,128,209975,1,12,0:0:0:0:
128,64,210336,1,0,0:0:0:0:
128,64,210517,1,0,0:0:0:0:
63,64,210698,1,8,0:0:0:0:
63,64,211059,1,8,0:0:0:0:
128,64,211421,1,0,0:0:0:0:
128,64,211601,1,0,0:0:0:0:
63,64,212144,1,8,0:0:0:0:
63,64,212324,1,8,0:0:0:0:
128,64,212505,1,0,0:0:0:0:
128,64,212686,1,0,0:0:0:0:
63,64,212866,1,8,0:0:0:0:
128,128,213228,1,4,0:0:0:0:
