osu file format v14

[General]
AudioFilename: audio.mp3
AudioLeadIn: 0
PreviewTime: 98918
Countdown: 0
SampleSet: None
StackLeniency: 0.4
Mode: 0
LetterboxInBreaks: 0
EpilepsyWarning: 1
WidescreenStoryboard: 1

[Editor]
Bookmarks: 56918,106696,113807
DistanceSpacing: 1
BeatDivisor: 4
GridSize: 4
TimelineZoom: 1

[Metadata]
Title:Feels (Jai Wolf Remix)
TitleUnicode:Feels (Jai Wolf Remix)
Artist:Kiiara
ArtistUnicode:Kiiara
Creator:BounceBabe
Version:Beginner
Source:
Tags:explicit drug drugs feelings pop electro bass trap indie electropop single edit short
BeatmapID:1066208
BeatmapSetID:500758

[Difficulty]
HPDrainRate:4.5
CircleSize:3
OverallDifficulty:4
ApproachRate:4.5
SliderMultiplier:0.8
SliderTickRate:1

[Events]
//Background and Video events
0,0,"feels.jpg",0,0
//Break Periods
2,129111,130319
2,132667,133875
2,136668,137430
//Storyboard Layer 0 (Background)
//Storyboard Layer 1 (Fail)
//Storyboard Layer 2 (Pass)
//Storyboard Layer 3 (Foreground)
//Storyboard Sound Samples

[TimingPoints]
24,444.444444444444,4,3,1,80,1,0
14246,-100,4,3,1,40,0,0
22468,-100,4,3,1,20,0,0
24912,-100,4,3,1,40,0,0
26023,-100,4,3,1,30,0,0
28468,-100,4,2,2,70,0,0
42690,-100,4,2,1,70,0,0
71135,-100,4,3,2,70,0,0
85357,-100,4,3,1,80,0,0
99579,-100,4,3,1,100,0,1
128023,-100,4,2,1,100,0,0
128135,-100,4,2,1,100,0,0
128912,-100,4,2,1,50,0,0
140135,-100,4,2,1,15,0,0
142246,-100,4,2,1,40,0,0

[Colours]
Combo1 : 128,255,255
Combo2 : 0,128,255
Combo3 : 255,0,0
Combo4 : 128,255,128
Combo5 : 255,128,0
Combo6 : 175,0,175
Combo7 : 255,128,255
Combo8 : 255,255,0

[HitObjects]
156,36,14246,6,0,P|216:84|180:148,1,160,2|0,0:0|0:0,0:0:0:0:
120,196,15579,2,0,P|87:262|147:306,1,160,2|0,0:0|0:0,0:0:0:0:
228,320,16912,1,0,0:0:0:0:
388,344,17801,6,0,B|388:292|476:268|476:212,1,160,2|0,0:0|0:0,0:0:0:0:
396,204,19135,2,0,B|395:151|483:127|483:75,1,160,2|0,0:0|0:0,0:0:0:0:
404,60,20468,1,0,0:0:0:0:
256,192,21357,12,0,23135,0:2:0:0:
256,192,24912,12,0,26690,0:2:0:0:
179,349,28468,102,0,L|99:317,1,80,2|0,0:0|0:0,0:0:0:0:
125,242,29357,2,0,L|199:271,1,80,8|0,0:0|0:0,0:0:0:0:
252,211,30246,1,2,0:0:0:0:
248,131,30690,1,0,0:0:0:0:
184,83,31135,1,8,0:0:0:0:
341,53,32023,6,0,L|413:19,1,80,2|0,0:0|0:0,0:0:0:0:
453,89,32912,2,0,L|380:122,1,80,8|0,0:0|0:0,0:0:0:0:
306,152,33801,1,2,0:0:0:0:
249,208,34246,1,0,0:0:0:0:
247,287,34690,1,8,0:0:0:0:
400,334,35579,102,0,P|440:320|466:286,2,80,2|0|8,0:0|0:0|0:0,0:0:0:0:
360,334,36690,2,0,L|276:334,1,80
240,334,37357,2,0,L|160:334,1,80,2|0,0:0|0:0,0:0:0:0:
80,334,38246,1,8,0:0:0:0:
120,266,38690,1,0,0:0:0:0:
143,189,39135,6,0,L|93:125,2,80,2|0|8,0:0|0:0|0:0,0:0:0:0:
213,227,40468,1,0,0:0:0:0:
144,266,40912,2,0,P|152:302|188:330,1,80,2|0,0:0|0:0,0:0:0:0:
264,328,41801,2,0,P|294:303|304:265,1,80,8|0,0:0|0:0,0:0:0:0:
328,188,42690,6,0,L|384:132,1,80,4|0,0:0|0:0,0:0:0:0:
438,72,43579,2,0,P|376:72|348:24,1,120,8|0,0:0|0:0,0:0:0:0:
308,28,44468,1,2,0:0:0:0:
148,28,45357,1,8,0:0:0:0:
80,70,45801,1,0,0:0:0:0:
24,128,46246,6,0,L|64:200,1,80,2|0,0:0|0:0,0:0:0:0:
104,268,47135,2,0,P|136:268|180:340,1,120,8|0,0:0|0:0,0:0:0:0:
220,336,48023,1,2,0:0:0:0:
374,294,48912,1,8,0:0:0:0:
386,214,49357,1,0,0:0:0:0:
399,135,49801,70,0,L|415:51,2,80,2|0|8,0:0|0:0|0:0,0:0:0:0:
376,168,50912,2,0,L|361:246,1,80
337,279,51579,2,0,P|297:283|265:315,1,80,2|0,0:0|0:0,0:0:0:0:
193,339,52468,2,0,P|163:365|124:369,1,80,8|0,0:0|0:0,0:0:0:0:
44,372,53357,6,0,L|44:208,1,160,2|8,0:0|0:0,0:0:0:0:
156,96,55135,2,0,L|156:256,1,160,2|8,0:0|0:0,0:0:0:0:
156,336,56468,1,0,0:0:0:0:
224,296,56912,38,0,P|260:276|312:284,1,80,4|0,0:0|0:0,0:0:0:0:
376,284,57801,2,0,L|407:168,1,120,8|0,0:0|0:0,0:0:0:0:
416,129,58690,2,0,P|344:113|336:29,1,160,2|8,0:0|0:0,0:0:0:0:
172,36,60468,5,2,0:0:0:0:
92,36,60912,1,0,0:0:0:0:
48,104,61357,2,0,L|48:228,1,120,8|0,0:0|0:0,0:0:0:0:
52,264,62246,2,0,B|112:268|112:268|112:328|172:340,1,160,2|8,0:0|0:0,0:0:0:0:
328,332,64023,70,0,L|400:280,1,80,2|0,0:0|0:0,0:0:0:0:
364,212,64912,2,0,L|436:160,1,80,8|0,0:0|0:0,0:0:0:0:
388,96,65801,1,2,0:0:0:0:
322,141,66246,1,0,0:0:0:0:
259,190,66690,2,0,L|194:236,1,80,8|0,0:0|0:0,0:0:0:0:
127,280,67579,6,0,P|66:242|67:158,1,160,2|8,0:0|0:0,0:0:0:0:
135,200,68912,1,0,0:0:0:0:
205,240,69357,2,0,P|206:163|143:120,1,160,2|8,0:0|0:0,0:0:0:0:
296,72,71135,6,0,L|384:72,1,80,4|2,0:0|0:3,0:0:0:0:
456,72,72023,1,10,0:0:0:0:
416,140,72468,1,4,0:3:0:0:
372,208,72912,2,0,B|335:216|321:264|321:264|273:278|264:315,1,160,2|8,0:0|0:1,0:0:0:0:
104,332,74690,6,0,P|76:300|72:224,1,120,6|4,0:3|0:3,0:0:0:0:
84,188,75579,2,0,P|108:152|112:116,1,80,8|4,0:0|0:3,0:0:0:0:
155,49,76468,2,0,B|203:69|203:69|255:61|255:61|315:85,1,160,2|8,0:0|0:1,0:0:0:0:
371,127,77801,1,0,0:0:0:0:
440,168,78246,38,0,P|468:132|468:88,2,80,6|0|8,0:3|0:0|0:0,0:0:0:0:
376,216,79579,1,0,0:0:0:0:
308,260,80023,2,0,P|282:290|276:329,2,80,2|0|8,0:0|0:0|0:1,0:0:0:0:
284,100,81801,6,0,P|312:64|312:20,2,80,6|0|8,0:3|0:0|0:0,0:0:0:0:
220,148,83135,1,0,0:0:0:0:
152,192,83579,2,0,P|126:222|120:261,2,80,2|0|8,0:0|0:0|0:1,0:0:0:0:
148,112,84912,1,0,0:0:0:0:
76,76,85357,70,0,P|140:32|212:64,1,160,4|8,0:0|0:0,0:0:0:0:
328,172,87135,2,0,P|398:201|461:157,1,160,2|8,0:0|0:0,0:0:0:0:
390,122,88468,1,0,0:0:0:0:
316,96,88912,6,0,P|272:92|252:56,1,80,2|0,0:0|0:0,0:0:0:0:
172,64,89801,2,0,P|128:108|36:100,1,160,8|2,0:0|0:0,0:0:0:0:
20,180,91135,1,0,0:0:0:0:
24,259,91579,1,8,0:0:0:0:
71,324,92023,1,0,0:0:0:0:
144,356,92468,6,0,L|304:356,1,160,2|8,0:0|0:0,0:0:0:0:
416,244,94246,2,0,L|256:244,1,160,2|8,0:0|0:0,0:0:0:0:
176,244,95579,1,0,0:0:0:0:
96,244,96023,6,0,L|48:172,1,80,2|0,0:0|0:0,0:0:0:0:
116,128,96912,2,0,L|68:56,2,80,8|0|2,0:0|0:0|0:0,0:0:0:0:
212,200,98468,1,8,0:0:0:0:
252,200,98690,2,0,L|328:200,2,60,4|10|6,0:0|0:0|0:0,0:0:0:0:
212,200,99579,6,0,B|172:200|172:200|160:244|112:252|112:252|112:292,1,160,0|8,0:0|0:1,0:0:0:0:
168,348,100912,1,0,0:0:0:0:
248,352,101357,2,0,B|288:352|288:352|300:308|348:300|348:300|348:260,1,160,2|8,0:0|0:1,0:0:0:0:
416,120,103135,6,0,P|364:120|336:28,1,160,2|8,0:0|0:1,0:0:0:0:
256,32,104468,1,0,0:0:0:0:
177,30,104912,2,0,P|169:104|96:120,1,160,2|8,0:0|0:1,0:0:0:0:
60,192,106246,1,0,0:0:0:0:
96,263,106690,6,0,L|124:340,1,80,2|0,0:0|0:0,0:0:0:0:
204,348,107579,1,8,0:1:0:0:
284,356,108023,1,0,0:0:0:0:
340,300,108468,2,0,P|344:252|376:232,1,80,2|0,0:0|0:0,0:0:0:0:
400,160,109357,2,0,P|436:120|424:60,1,120,8|0,0:1|0:0,0:0:0:0:
388,44,110246,6,0,B|328:52|328:52|268:32,1,120,2|0,0:0|0:0,0:0:0:0:
232,32,111135,2,0,L|152:36,1,80,8|0,0:1|0:0,0:0:0:0:
84,76,112023,2,0,L|64:240,1,160,2|8,0:0|0:1,0:0:0:0:
56,314,113357,1,2,0:0:0:0:
131,341,113801,6,0,L|295:358,2,160,4|8|2,0:1|0:1|0:0,0:0:0:0:
56,314,116023,1,0,0:0:0:0:
64,234,116468,2,0,L|84:76,1,160,8|2,0:1|0:0,0:0:0:0:
164,64,117801,1,0,0:0:0:0:
244,52,118246,6,0,L|328:52,1,80,8|0,0:1|0:0,0:0:0:0:
404,52,119135,2,0,B|432:92|380:176|408:220,1,160,2|8,0:0|0:1,0:0:0:0:
416,288,120468,1,0,0:0:0:0:
344,320,120912,6,0,L|260:344,1,80,2|0,0:0|0:0,0:0:0:0:
192,316,121801,2,0,L|108:340,1,80,8|0,0:1|0:0,0:0:0:0:
36,348,122690,1,2,0:0:0:0:
24,268,123135,1,0,0:0:0:0:
104,256,123579,2,0,B|168:236|168:236|228:240,1,120,8|0,0:1|0:0,0:0:0:0:
240,204,124468,6,0,B|292:207|292:207|356:187,1,120,2|0,0:0|0:0,0:0:0:0:
376,152,125357,1,8,0:1:0:0:
449,184,125801,1,0,0:0:0:0:
448,104,126246,2,0,P|400:67|340:73,1,120,2|0,0:0|0:0,0:0:0:0:
304,84,127135,2,0,P|246:87|199:51,1,120,8|4,0:1|0:3,0:0:0:0:
163,57,128023,6,0,B|144:100|144:100|80:132|80:132|64:184,1,160,4|8,0:1|0:0,0:0:0:0:
349,327,131579,6,0,B|368:284|368:284|432:252|432:252|448:200,1,160,0|8,0:0|0:0,0:0:0:0:
256,52,135135,6,0,L|256:172,2,120,2|2|2,0:0|0:0|0:0,0:0:0:0:
312,348,138690,6,0,P|256:368|200:348,2,120,2|2|2,0:0|0:0|0:0,0:0:0:0:
256,192,140135,12,2,142246,0:0:0:0:
