osu file format v14

[General]
AudioFilename: audio.mp3
AudioLeadIn: 0
PreviewTime: 319
Countdown: 0
SampleSet: Soft
StackLeniency: 0.7
Mode: 0
LetterboxInBreaks: 0
WidescreenStoryboard: 0

[Editor]
Bookmarks: 15080
DistanceSpacing: 1
BeatDivisor: 4
GridSize: 32
TimelineZoom: 2.799999

[Metadata]
Title:pupa
TitleUnicode:pupa
Artist:Kido Ibuki & Yamazaki Erii
ArtistUnicode:木戸衣吹&山崎エリイ
Creator:bite you death
Version:Normal
Source:pupa
Tags:anime op opening short ver version gore mogeko moge ko moge-ko hc hc13 hydrocannon13 shyotamaze shyo byd kawashiro a_r_m_i_n armin ピューパ every♥ing! every-ing everying
BeatmapID:1466692
BeatmapSetID:691223

[Difficulty]
HPDrainRate:3
CircleSize:3.4
OverallDifficulty:4
ApproachRate:5.5
SliderMultiplier:1
SliderTickRate:1

[Events]
//Background and Video events
0,0,"bgpupa.jpg",0,0
//Break Periods
//Storyboard Layer 0 (Background)
//Storyboard Layer 1 (Fail)
//Storyboard Layer 2 (Pass)
//Storyboard Layer 3 (Foreground)
//Storyboard Sound Samples

[TimingPoints]
569,250,4,2,1,55,1,0
14569,-100,4,2,1,55,0,0
14694,-100,4,2,1,40,0,0
15444,-100,4,2,1,55,0,0
15694,-100,4,2,1,40,0,0
16569,-100,4,2,1,55,0,0
16694,-100,4,2,1,40,0,0
18569,-100,4,2,1,55,0,0
18694,-100,4,2,1,40,0,0
19444,-100,4,2,1,55,0,0
19694,-100,4,2,1,40,0,0
20569,-100,4,2,1,55,0,0
20694,-100,4,2,1,40,0,0
22069,-100,4,2,1,30,0,0
22319,-100,4,2,1,65,0,0
22507,187.5,4,2,1,70,1,1
22507,-125,4,2,1,70,0,1
24944,-125,4,2,1,80,0,1
25507,-125,4,2,1,70,0,1
27944,-125,4,2,1,80,0,1
28694,-125,4,2,1,80,0,0
28882,-125,4,2,1,60,0,0
29257,-125,4,2,1,45,0,0
29632,-125,4,2,1,30,0,0
30007,-125,4,2,1,15,0,0
30288,-125,4,2,1,10,0,0
30569,-125,4,2,1,5,0,0

[Colours]
Combo1 : 197,166,255
Combo2 : 255,162,121
Combo3 : 255,219,145
Combo4 : 255,155,155

[HitObjects]
159,127,319,5,8,0:0:0:0:
231,197,569,6,0,B|300:213|300:213|394:192,2,150,6|2|10,3:2|3:2|0:0,0:0:0:0:
144,377,1819,1,10,0:0:0:0:
68,312,2069,2,0,P|47:263|55:204,1,100,2|10,3:2|0:0,0:0:0:0:
78,176,2444,1,2,0:0:0:0:
78,176,2569,6,0,B|86:117|86:117|75:92|75:92|89:15,2,150,6|2|10,3:2|3:2|0:0,0:0:0:0:
145,248,3569,2,0,P|201:261|257:246,1,100,2|10,3:2|0:0,0:0:0:0:
323,193,4069,2,0,L|315:74,1,100,2|10,3:2|0:0,0:0:0:0:
344,53,4444,1,0,0:0:0:0:
344,53,4569,6,0,P|388:39|463:115,2,150,6|2|10,3:2|3:2|0:0,0:0:0:0:
145,66,5818,1,10,0:0:0:0:
178,161,6069,2,0,L|189:266,1,100,2|10,3:2|0:0,0:0:0:0:
175,309,6444,1,2,0:0:0:0:
175,309,6569,6,0,B|103:289|103:289|24:308,2,150,6|2|14,3:2|3:2|0:2,0:0:0:0:
267,348,7569,1,2,3:2:0:0:
337,276,7819,1,10,0:0:0:0:
407,348,8069,1,2,3:2:0:0:
477,276,8319,2,0,L|466:205,1,50,10|0,0:0|0:0,0:0:0:0:
436,188,8569,6,0,P|416:125|444:44,2,150,6|2|10,3:2|3:2|0:0,0:0:0:0:
385,274,9569,2,0,P|340:322|256:339,2,150,6|2|10,3:2|3:2|0:0,0:0:0:0:
329,190,10569,6,0,B|275:184|275:184|239:196|239:196|176:188,2,150,6|2|10,3:2|3:2|0:0,0:0:0:0:
385,274,11569,1,6,3:2:0:0:
416,127,11944,1,6,3:2:0:0:
269,96,12319,1,6,3:2:0:0:
200,169,12569,6,0,P|129:195|45:159,2,150,6|2|10,3:2|3:2|0:0,0:0:0:0:
323,11,13819,1,10,0:0:0:0:
369,100,14069,2,0,L|362:162,1,50,10|8,0:0|0:0,0:0:0:0:
328,185,14319,2,0,L|335:247,1,50,10|8,0:0|0:0,0:0:0:0:
340,289,14569,6,0,P|248:252|141:286,1,200,14|0,3:2|0:0,0:0:0:0:
9,357,15444,1,14,3:2:0:0:
9,357,15569,2,0,B|-5:284|-5:284|10:237|10:237|0:145,1,200,14|0,3:2|0:0,0:0:0:0:
167,16,16569,1,14,3:2:0:0:
121,324,18569,6,0,B|137:250|137:250|122:212|122:212|138:125,1,200,14|0,3:2|0:0,0:0:0:0:
231,13,19444,1,14,3:2:0:0:
231,13,19569,2,0,B|210:85|210:85|227:126|227:126|213:208,1,200,14|0,3:2|0:0,0:0:0:0:
398,281,20569,5,14,3:2:0:0:
367,202,22319,5,8,0:0:0:0:
313,271,22507,6,0,P|242:284|191:262,2,120,14|2|10,3:0|3:2|0:2,0:0:0:0:
367,202,23257,2,0,L|357:113,2,80,0|10|2,3:2|0:0|3:2,0:0:0:0:
427,265,23819,1,10,0:0:0:0:
484,198,24007,2,0,L|470:67,2,120,2|2|10,3:2|3:2|0:0,0:0:0:0:
364,327,24944,5,14,3:2:0:0:
364,327,25132,1,14,3:2:0:0:
189,352,25507,6,0,L|59:325,2,120,14|2|10,3:0|3:2|0:2,0:0:0:0:
260,299,26257,2,0,P|273:253|267:205,1,80,0|10,3:2|0:0,0:0:0:0:
209,158,26632,2,0,P|196:112|202:64,1,80,2|10,3:2|0:0,0:0:0:0:
266,24,27007,2,0,P|326:19|399:30,2,120,2|2|10,3:2|3:2|0:0,0:0:0:0:
127,36,27944,5,14,3:2:0:0:
127,36,28132,1,14,3:2:0:0:
256,155,28507,5,14,3:2:0:0:
256,155,28694,1,14,3:2:0:0:
256,192,28882,12,0,30569,0:0:0:0:
