osu file format v14

[General]
AudioFilename: audio.mp3
AudioLeadIn: 0
PreviewTime: 319
Countdown: 0
SampleSet: Soft
StackLeniency: 0.3
Mode: 0
LetterboxInBreaks: 0
WidescreenStoryboard: 1

[Editor]
Bookmarks: 15080
DistanceSpacing: 1.5
BeatDivisor: 2
GridSize: 32
TimelineZoom: 2.799999

[Metadata]
Title:pupa
TitleUnicode:pupa
Artist:Kido Ibuki & Yamazaki Erii
ArtistUnicode:木戸衣吹&山崎エリイ
Creator:bite you death
Version:Light Insane
Source:pupa
Tags:anime op opening short ver version gore mogeko moge ko moge-ko hc hc13 hydrocannon13 shyotamaze shyo byd kawashiro a_r_m_i_n armin ピューパ every♥ing! every-ing everying
BeatmapID:1462807
BeatmapSetID:691223

[Difficulty]
HPDrainRate:5
CircleSize:3.8
OverallDifficulty:7.2
ApproachRate:8.2
SliderMultiplier:1.3
SliderTickRate:1

[Events]
//Background and Video events
0,0,"bgpupa.jpg",0,0
//Break Periods
//Storyboard Layer 0 (Background)
//Storyboard Layer 1 (Fail)
//Storyboard Layer 2 (Pass)
//Storyboard Layer 3 (Foreground)
//Storyboard Sound Samples

[TimingPoints]
569,250,4,2,1,55,1,0
14569,-100,4,2,1,55,0,0
14694,-100,4,2,1,40,0,0
15444,-100,4,2,1,55,0,0
15694,-100,4,2,1,40,0,0
16569,-100,4,2,1,55,0,0
16694,-100,4,2,1,40,0,0
18569,-100,4,2,1,55,0,0
18694,-100,4,2,1,40,0,0
19444,-100,4,2,1,55,0,0
19694,-100,4,2,1,40,0,0
20569,-100,4,2,1,55,0,0
20694,-100,4,2,1,40,0,0
22069,-100,4,2,1,30,0,0
22319,-100,4,2,1,65,0,0
22507,187.5,4,2,1,70,1,1
22507,-125,4,2,1,70,0,1
24944,-125,4,2,1,80,0,1
25507,-125,4,2,1,70,0,1
27944,-125,4,2,1,80,0,1
28694,-125,4,2,1,80,0,0
28788,-125,4,2,1,80,0,0
28882,-125,4,2,1,60,0,0
29257,-125,4,2,1,45,0,0
29632,-125,4,2,1,30,0,0
30007,-125,4,2,1,15,0,0
30288,-125,4,2,1,10,0,0
30569,-125,4,2,1,5,0,0

[Colours]
Combo1 : 197,166,255
Combo2 : 255,162,121
Combo3 : 255,219,145
Combo4 : 255,155,155

[HitObjects]
401,198,319,5,8,0:0:0:0:
401,198,569,6,0,B|434:142|434:142|412:0,2,195,6|2|10,3:2|3:2|0:0,0:0:0:0:
401,198,1819,2,0,L|267:185,1,130,10|2,0:0|3:2,0:0:0:0:
208,114,2194,1,2,0:0:0:0:
176,206,2319,1,10,0:0:0:0:
271,185,2444,1,2,0:0:0:0:
89,65,2569,6,0,B|122:170|53:157|90:261,2,195,6|2|10,3:2|3:2|0:0,0:0:0:0:
89,65,3569,2,0,P|119:64|169:88,1,65,2|2,3:2|0:2,0:0:0:0:
259,174,3819,2,0,L|194:163,1,65,10|0,0:0|0:0,0:0:0:0:
341,126,4069,1,2,3:2:0:0:
341,126,4194,2,0,P|317:186|316:261,1,130,2|0,0:0|0:0,0:0:0:0:
405,364,4569,6,0,B|348:304|267:348|267:348|302:351|327:376,2,195,6|2|10,3:2|3:2|0:0,0:0:0:0:
405,364,5819,2,0,L|414:224,1,130,8|2,0:0|3:2,0:0:0:0:
485,168,6194,1,2,0:0:0:0:
393,138,6319,1,10,0:0:0:0:
413,234,6444,1,2,0:0:0:0:
464,73,6569,6,0,B|262:87,2,195,6|2|14,3:2|3:2|0:2,0:0:0:0:
464,73,7569,2,0,L|456:149,1,65,2|2,3:2|0:0,0:0:0:0:
417,238,7819,1,10,0:0:0:0:
417,238,7944,1,2,0:0:0:0:
297,254,8069,6,0,P|353:225|416:237,1,130,2|10,3:2|0:0,0:0:0:0:
417,238,8569,6,0,B|388:335|388:335|357:302,1,130,6|8,3:2|0:0,0:0:0:0:
390,146,8944,2,0,P|453:149|509:209,1,130,2|0,3:2|0:0,0:0:0:0:
417,238,9319,1,10,0:0:0:0:
417,238,9569,6,0,L|265:252,1,130,6|8,3:2|0:0,0:0:0:0:
215,372,9944,2,0,L|367:386,1,130,2|0,3:2|0:0,0:0:0:0:
163,295,10319,2,0,P|137:320|123:356,1,65,10|0,0:0|0:0,0:0:0:0:
106,230,10569,6,0,B|166:270|166:270|306:246,2,195,6|2|10,3:2|3:2|0:0,0:0:0:0:
214,0,11569,5,6,3:2:0:0:
106,230,11944,1,6,3:2:0:0:
32,58,12319,1,6,3:2:0:0:
206,162,12569,6,0,P|145:178|103:235,1,130,6|8,3:2|0:0,0:0:0:0:
200,268,12944,2,0,L|343:251,1,130,2|0,3:2|0:0,0:0:0:0:
423,269,13319,1,10,0:0:0:0:
423,269,13569,6,0,P|471:229|483:141,1,130,2|10,3:2|0:0,0:0:0:0:
378,113,13944,1,0,0:0:0:0:
378,113,14069,2,0,L|397:200,1,65,10|8,0:0|0:0,0:0:0:0:
315,316,14319,2,0,L|334:229,1,65,10|8,0:0|0:0,0:0:0:0:
454,361,14569,5,14,3:2:0:0:
454,361,15444,5,14,3:2:0:0:
176,271,15569,1,14,3:2:0:0:
176,271,16569,5,14,3:2:0:0:
405,38,18569,5,14,3:2:0:0:
405,38,19444,5,14,3:2:0:0:
315,316,19569,1,14,3:2:0:0:
315,316,20569,5,14,3:2:0:0:
256,192,20694,12,0,22069,0:0:0:0:
410,183,22319,5,8,0:0:0:0:
410,183,22507,6,0,B|436:129|436:129|417:22,2,156,14|2|10,3:0|3:2|0:2,0:0:0:0:
315,253,23163,1,0,0:0:0:0:
315,253,23256,2,0,L|202:242,1,104,0|10,3:2|0:0,0:0:0:0:
147,88,23631,2,0,L|260:77,1,104,2|10,3:2|0:0,0:0:0:0:
105,182,24006,5,2,3:2:0:0:
44,99,24194,1,8,0:0:0:0:
69,96,24287,1,2,3:2:0:0:
95,93,24381,1,0,0:0:0:0:
121,91,24475,1,0,3:2:0:0:
147,88,24569,1,10,0:0:0:0:
173,85,24944,5,14,3:2:0:0:
64,352,25132,1,14,3:2:0:0:
64,352,25507,6,0,B|24:381|24:381|48:258,2,156,14|2|10,3:0|3:2|0:2,0:0:0:0:
107,210,26163,1,0,0:0:0:0:
107,210,26256,2,0,P|63:189|-4:201,1,104,0|10,3:2|0:0,0:0:0:0:
135,296,26631,2,0,P|179:317|246:305,1,104,2|10,3:2|0:0,0:0:0:0:
393,150,27006,5,2,3:2:0:0:
313,231,27194,1,8,0:0:0:0:
316,256,27288,1,2,3:2:0:0:
320,282,27381,1,0,0:0:0:0:
324,308,27475,1,0,3:2:0:0:
327,333,27569,1,10,0:0:0:0:
330,358,27944,5,14,3:2:0:0:
423,76,28131,1,14,3:2:0:0:
435,53,28506,5,14,3:2:0:0:
493,384,28694,1,14,3:2:0:0:
256,192,28882,12,0,30569,0:0:0:0:
