osu file format v14

[General]
AudioFilename: audio.mp3
AudioLeadIn: 0
PreviewTime: 569
Countdown: 1
SampleSet: Soft
StackLeniency: 0.7
Mode: 0
LetterboxInBreaks: 0
WidescreenStoryboard: 1

[Editor]
DistanceSpacing: 1.3
BeatDivisor: 4
GridSize: 4
TimelineZoom: 2.2

[Metadata]
Title:pupa
TitleUnicode:pupa
Artist:Kido Ibuki & Yamazaki Erii
ArtistUnicode:木戸衣吹&山崎エリイ
Creator:KeRLi_
Version:KeRuoko's Extra
Source:pupa
Tags:bite you death biteyoudeath anime op opening short ver version ピューパ maruoko rolniczy
BeatmapID:1910993
BeatmapSetID:915023

[Difficulty]
HPDrainRate:5
CircleSize:4.3
OverallDifficulty:8.5
ApproachRate:9.3
SliderMultiplier:1.6
SliderTickRate:1

[Events]
//Background and Video events
0,0,"bg.jpg",0,0
//Break Periods
//Storyboard Layer 0 (Background)
//Storyboard Layer 1 (Fail)
//Storyboard Layer 2 (Pass)
//Storyboard Layer 3 (Foreground)
//Storyboard Sound Samples

[TimingPoints]
569,250,4,2,1,75,1,0
12569,-80,4,2,1,85,0,0
14569,-80,4,2,1,80,0,0
14694,-125,4,2,1,50,0,0
15444,-125,4,2,1,80,0,0
15694,-125,4,2,1,50,0,0
16569,-125,4,2,1,80,0,0
16694,-125,4,2,1,50,0,0
18569,-125,4,2,1,80,0,0
18694,-125,4,2,1,50,0,0
19444,-125,4,2,1,80,0,0
19694,-125,4,2,1,50,0,0
20569,-125,4,2,1,80,0,0
20694,-125,4,2,1,50,0,0
22069,-166.666666666667,4,2,1,50,0,0
22194,-166.666666666667,4,2,1,5,0,0
22319,-166.666666666667,4,2,1,75,0,0
22507,187.5,4,3,1,90,1,0
24757,-66.6666666666667,4,3,1,100,0,0
25507,-100,4,3,1,90,0,0
27944,-66.6666666666667,4,3,1,100,0,0
28507,-57.1428571428571,4,3,1,100,0,0
28882,-100,4,3,1,50,0,0
29257,-100,4,3,1,40,0,0
29632,-100,4,3,1,30,0,0
30007,-100,4,3,1,20,0,0
30382,-100,4,3,1,10,0,0
30569,-100,4,3,1,5,0,0

[Colours]
Combo1 : 128,128,128
Combo2 : 191,64,64

[HitObjects]
332,216,319,5,8,0:0:0:0:
332,216,569,6,0,B|316:176|316:176|340:52,1,160,4|8,0:0|0:0,0:0:0:0:
456,24,944,1,0,0:0:0:0:
436,112,1069,2,0,L|418:203,1,80,0|0,0:0|0:0,0:0:0:0:
384,340,1319,6,0,B|344:356|344:356|220:332,1,160,8|0,0:0|0:0,0:0:0:0:
156,216,1694,1,0,0:0:0:0:
244,236,1819,2,0,L|335:254,1,80,8|0,0:0|0:0,0:0:0:0:
112,348,2069,5,2,0:0:0:0:
68,200,2194,1,2,0:0:0:0:
232,320,2319,1,10,0:0:0:0:
214,166,2444,1,2,0:0:0:0:
344,352,2569,6,0,L|501:323,1,160,2|8,0:0|0:0,0:0:0:0:
383,201,2944,2,0,L|225:172,1,160,0|0,0:0|0:0,0:0:0:0:
106,353,3319,2,0,L|264:323,1,160,8|0,0:0|0:0,0:0:0:0:
128,120,3694,5,0,0:0:0:0:
116,264,3819,2,0,L|216:245,1,80,8|0,0:0|0:0,0:0:0:0:
140,132,4069,1,0,0:0:0:0:
128,276,4194,2,0,L|228:257,1,80,0|8,0:0|0:0,0:0:0:0:
308,244,4444,1,0,0:0:0:0:
381,105,4569,6,0,B|309:77|309:77|225:105,1,160,4|8,0:0|0:0,0:0:0:0:
144,176,4944,1,0,0:0:0:0:
233,213,5069,2,0,L|321:249,1,80,0|0,0:0|0:0,0:0:0:0:
456,296,5319,6,0,B|484:224|484:224|456:139,1,160,8|0,0:0|0:0,0:0:0:0:
408,44,5694,1,0,0:0:0:0:
312,56,5819,2,0,L|217:68,1,80,8|0,0:0|0:0,0:0:0:0:
104,256,6069,5,2,0:0:0:0:
134,104,6194,1,2,0:0:0:0:
208,292,6319,1,10,0:0:0:0:
263,147,6444,1,2,0:0:0:0:
387,289,6569,6,0,B|394:347|394:347|280:312,1,160,2|8,0:0|0:0,0:0:0:0:
220,76,6944,2,0,B|266:40|266:40|293:157,1,160,0|0,0:0|0:0,0:0:0:0:
120,328,7319,2,0,B|66:305|66:305|153:223,1,160,8|0,0:0|0:0,0:0:0:0:
288,138,7694,1,0,0:0:0:0:
377,210,7819,2,0,L|389:304,1,80,8|0,0:0|0:0,0:0:0:0:
232,364,8069,2,0,L|220:270,1,80,0|0,0:0|0:0,0:0:0:0:
460,220,8319,6,0,L|472:314,1,80,8|0,0:0|0:0,0:0:0:0:
315,374,8569,2,0,L|293:206,1,160,4|8,0:0|0:0,0:0:0:0:
356,51,8944,2,0,L|377:218,1,160,0|0,0:0|0:0,0:0:0:0:
52,220,9319,6,0,L|40:314,1,80,8|0,0:0|0:0,0:0:0:0:
197,374,9569,2,0,L|218:206,1,160,0|8,0:0|0:0,0:0:0:0:
156,51,9944,2,0,L|134:218,1,160,0|0,0:0|0:0,0:0:0:0:
375,209,10319,6,0,L|308:157,1,80,8|0,0:0|0:0,0:0:0:0:
128,319,10569,2,0,L|283:254,1,160,4|8,0:0|0:0,0:0:0:0:
392,48,10944,2,0,B|334:69|334:69|302:63|302:63|261:78|261:78|240:103|240:103|173:128,1,240,0|8,0:0|0:0,3:0:0:0:
56,324,11569,5,4,0:0:0:0:
304,364,11944,1,4,0:0:0:0:
504,244,12319,2,0,B|496:152,1,80,8|0,0:0|0:0,0:0:0:0:
488,64,12569,6,0,B|408:68|408:68|372:92|372:92|288:100,1,200,0|8,0:0|0:0,0:0:0:0:
24,164,12944,2,0,B|104:168|104:168|140:192|140:192|224:200,1,200,0|0,0:0|0:0,0:0:0:0:
488,264,13319,2,0,B|408:268|408:268|372:292|372:292|288:300,1,200,8|0,0:0|0:0,0:0:0:0:
216,199,13694,1,0,0:0:0:0:
300,96,13819,2,0,L|409:85,1,100,8|0,0:0|0:0,0:0:0:0:
224,306,14069,5,10,0:0:0:0:
224,55,14194,1,8,0:0:0:0:
369,256,14319,1,10,0:0:0:0:
132,180,14444,1,8,0:0:0:0:
369,103,14569,5,14,3:2:0:0:
300,208,14694,1,0,0:0:0:0:
284,192,14819,1,0,0:0:0:0:
276,164,14944,2,0,L|284:96,1,64,0|0,0:0|0:0,0:0:0:0:
384,96,15194,2,0,L|387:159,1,64,0|0,0:0|0:0,0:0:0:0:
280,284,15444,5,14,3:2:0:0:
200,124,15569,1,14,3:2:0:0:
128,208,15694,1,0,0:0:0:0:
112,220,15819,1,0,0:0:0:0:
104,236,15944,1,0,0:0:0:0:
120,320,16069,1,0,0:0:0:0:
185,265,16194,1,0,0:0:0:0:
104,236,16319,2,0,L|40:232,1,64,0|0,0:0|0:0,0:0:0:0:
224,372,16569,5,14,3:2:0:0:
236,360,16694,1,0,0:0:0:0:
252,352,16819,1,0,0:0:0:0:
301,264,16944,1,0,0:0:0:0:
300,282,17069,1,0,0:0:0:0:
367,372,17194,1,0,0:0:0:0:
351,368,17319,1,0,0:0:0:0:
335,358,17444,1,0,0:0:0:0:
392,144,17694,5,0,0:0:0:0:
396,168,17819,1,0,0:0:0:0:
392,192,17944,1,0,0:0:0:0:
324,164,18069,2,0,L|260:156,2,64,0|0|0,0:0|0:0|0:0,0:0:0:0:
504,24,18569,5,14,3:2:0:0:
480,16,18694,1,0,0:0:0:0:
452,20,18819,1,0,0:0:0:0:
472,112,18944,2,0,L|476:36,1,64,0|0,0:0|0:0,0:0:0:0:
348,12,19194,2,0,L|351:75,1,64,0|0,0:0|0:0,0:0:0:0:
452,232,19444,5,14,3:2:0:0:
292,144,19569,1,14,3:2:0:0:
212,212,19694,1,0,0:0:0:0:
184,220,19819,1,0,0:0:0:0:
152,212,19944,1,0,0:0:0:0:
176,124,20069,1,0,0:0:0:0:
205,241,20194,1,0,0:0:0:0:
172,108,20319,2,0,L|180:32,1,64,0|0,0:0|0:0,0:0:0:0:
300,212,20569,5,14,3:2:0:0:
256,192,20694,12,0,22194,0:0:0:0:
64,44,22319,5,8,0:0:0:0:
64,44,22507,6,0,B|100:18|100:18|220:26,1,160,6|8,0:0|0:2,0:0:0:0:
320,46,22788,2,0,B|340:128,1,80,0|0,0:2|0:2,3:2:0:0:
300,212,22975,1,0,0:2:0:0:
300,212,23069,2,0,B|320:294,1,80,8|0,0:2|0:2,3:2:0:0:
240,364,23257,5,0,0:2:0:0:
240,364,23350,1,0,0:2:0:0:
240,364,23444,2,0,B|220:282,1,80,8|0,0:2|0:2,3:2:0:0:
160,132,23632,2,0,B|98:190,1,80,0|0,0:2|0:2,3:2:0:0:
0,318,23819,2,0,B|81:341,1,80,8|0,0:2|0:2,3:2:0:0:
288,280,24007,2,0,B|112:226,1,160,0|8,0:2|0:2,3:2:0:0:
48,356,24288,5,0,0:2:0:0:
48,356,24382,2,0,B|129:379,1,80,0|0,0:2|0:2,3:2:0:0:
260,376,24569,2,0,B|341:353,1,80,8|0,0:2|0:2,3:2:0:0:
188,44,24944,5,10,0:0:0:0:
56,336,25132,1,10,0:0:0:0:
412,224,25507,6,0,B|438:188|438:188|430:68,1,160,6|8,0:0|0:2,3:0:0:0:
336,12,25788,2,0,B|334:96,1,80,0|0,0:2|0:2,3:2:0:0:
296,164,25975,1,0,0:2:0:0:
296,164,26069,2,0,B|294:248,1,80,8|0,0:2|0:2,3:2:0:0:
392,316,26257,5,0,0:2:0:0:
392,316,26350,1,0,0:2:0:0:
392,316,26444,2,0,B|393:231,1,80,8|0,0:2|0:2,3:2:0:0:
192,240,26632,2,0,B|190:324,1,80,0|0,0:2|0:2,3:2:0:0:
296,164,26819,2,0,B|297:79,1,80,8|0,0:2|0:2,3:2:0:0:
104,84,27007,2,0,B|100:251,1,160,0|8,0:2|0:2,3:2:0:0:
190,319,27288,5,0,0:2:0:0:
190,319,27382,2,0,B|271:342,1,80,0|0,0:2|0:2,3:2:0:0:
378,363,27569,2,0,B|459:340,1,80,8|0,0:2|0:2,3:2:0:0:
324,44,27944,5,10,0:0:0:0:
256,364,28132,1,10,0:0:0:0:
188,44,28507,5,10,0:0:0:0:
256,376,28695,1,10,0:0:0:0:
256,192,28882,12,0,30569,0:0:0:0:
