osu file format v14

[General]
AudioFilename: audiopupa.mp3
AudioLeadIn: 0
PreviewTime: 319
Countdown: 0
SampleSet: Normal
StackLeniency: 0.7
Mode: 0
LetterboxInBreaks: 0
WidescreenStoryboard: 1

[Editor]
Bookmarks: 15080,22505,25505
DistanceSpacing: 1.2
BeatDivisor: 2
GridSize: 8
TimelineZoom: 2.799999

[Metadata]
Title:pupa
TitleUnicode:pupa
Artist:Kido Ibuki & Yamazaki Erii
ArtistUnicode:木戸 衣吹 & 山崎 エリイ
Creator:-Sakurasaki
Version:Hard
Source:Pupa
Tags:Anime Opening pupa Crissaegrim -Tatan- -Squishi Lissel Zyl Trent83 FruityEnLoops Gore Terror Gothic
BeatmapID:1454454
BeatmapSetID:687350

[Difficulty]
HPDrainRate:4
CircleSize:3
OverallDifficulty:5
ApproachRate:8
SliderMultiplier:1.2
SliderTickRate:1

[Events]
//Background and Video events
0,0,"bgpupa.jpg",0,0
//Break Periods
//Storyboard Layer 0 (Background)
//Storyboard Layer 1 (Fail)
//Storyboard Layer 2 (Pass)
//Storyboard Layer 3 (Foreground)
//Storyboard Sound Samples

[TimingPoints]
569,250,4,1,1,65,1,0
11569,-200,4,1,1,65,0,0
12319,-100,4,1,1,65,0,0
12569,-100,4,1,1,65,0,0
14694,-100,4,1,1,65,0,0
15569,-100,4,1,1,65,0,0
16569,-100,4,1,1,65,0,0
18569,-125,4,1,1,65,0,0
19569,-100,4,1,1,65,0,0
22505,187.5,4,1,1,65,1,0
22505,-76.9230769230769,4,1,1,65,0,1
24567,-76.9230769230769,4,1,1,65,0,0
24943,-76.9230769230769,4,1,1,35,0,0
25130,-76.9230769230769,4,1,1,35,0,0
25505,-76.9230769230769,4,1,1,85,0,1
26068,-76.9230769230769,4,1,1,80,0,1
26630,-76.9230769230769,4,1,1,80,0,1
26818,-76.9230769230769,4,1,1,80,0,1
27005,-76.9230769230769,4,1,1,80,0,1
27943,-76.9230769230769,4,1,1,80,0,1
28130,-76.9230769230769,4,1,1,65,0,1
28505,-76.9230769230769,4,1,1,80,0,1
28692,-76.9230769230769,4,1,1,65,0,0
30755,-76.9230769230769,4,1,1,5,0,0

[Colours]
Combo1 : 197,166,255
Combo2 : 255,162,121
Combo3 : 255,219,145
Combo4 : 255,155,155

[HitObjects]
72,120,319,5,8,0:0:0:0:
120,120,569,2,0,P|192:96|256:112,1,120,4|8,0:0|0:0,0:0:0:0:
320,56,944,2,0,B|364:116|308:184,1,120
368,248,1319,2,0,P|304:264|240:228,1,120,8|0,0:0|0:0,0:0:0:0:
144,160,1819,1,0,0:0:0:0:
60,264,2069,6,0,L|120:280,1,60,8|0,0:0|0:0,0:0:0:0:
136,280,2319,2,0,L|224:300,1,60,8|0,0:0|0:0,0:0:0:0:
256,360,2569,6,0,P|292:316|264:240,1,120,4|8,0:0|0:0,0:0:0:0:
288,160,2944,2,0,P|348:180|408:160,1,120
480,116,3319,1,0,0:0:0:0:
448,256,3569,5,0,0:0:0:0:
440,264,3694,1,0,0:0:0:0:
432,272,3819,2,0,P|360:288|312:272,1,120,8|0,0:0|0:0,0:0:0:0:
248,224,4194,1,0,0:0:0:0:
256,128,4319,1,8,0:0:0:0:
328,64,4569,6,0,B|276:32|276:32|204:40,1,120,4|8,0:0|0:0,0:0:0:0:
144,88,4944,2,0,B|120:152|120:152|148:200,1,120
212,260,5319,2,0,B|276:276|276:276|344:248,1,120,8|0,0:0|0:0,0:0:0:0:
452,180,5819,2,0,L|412:124,1,60,8|0,0:0|0:0,0:0:0:0:
352,40,6069,6,0,L|272:80,1,60,8|0,0:0|0:0,0:0:0:0:
208,112,6319,1,8,0:0:0:0:
112,96,6444,1,8,0:0:0:0:
64,168,6569,2,0,P|80:240|136:272,1,120,4|8,0:0|0:0,0:0:0:0:
160,176,6944,2,0,P|208:208|224:272,1,120
300,308,7319,2,0,B|368:312|360:217|479:285|479:285|509:206|416:140,1,360,8|0,0:0|0:0,0:0:0:0:
144,72,8319,6,0,L|88:120,1,60,8|0,0:0|0:0,0:0:0:0:
24,72,8569,2,0,P|16:144|152:176,1,240,4|0,0:0|0:0,0:0:0:0:
272,36,9319,2,0,P|268:80|280:104,1,60,8|0,0:0|0:0,0:0:0:0:
288,112,9569,2,0,B|360:128|416:80|440:120|440:120|416:168|440:200,1,240
96,256,10319,6,0,P|144:264|176:248,1,60,8|0,0:0|0:0,0:0:0:0:
224,208,10569,2,0,P|232:168|216:136,1,60
152,96,10819,2,0,P|112:85|79:100,1,60,8|0,0:0|0:0,0:0:0:0:
24,148,11069,2,0,P|16:204|40:240,1,60,0|8,0:0|0:0,0:0:0:0:
24,248,11319,1,0,0:0:0:0:
360,80,11569,5,12,0:0:0:0:
424,280,11944,1,12,0:0:0:0:
176,80,12319,5,12,0:0:0:0:
176,80,12444,1,0,0:0:0:0:
176,80,12569,2,0,P|168:144|120:176,1,120,4|8,0:0|0:0,0:0:0:0:
40,264,13069,2,0,P|100:288|160:256,1,120,0|8,0:0|0:0,0:0:0:0:
224,188,13569,2,0,P|272:248|224:328,1,180
180,336,14069,5,0,0:0:0:0:
180,336,14194,1,0,0:0:0:0:
180,336,14319,1,0,0:0:0:0:
48,256,14694,5,0,0:0:0:0:
48,256,14819,1,0,0:0:0:0:
48,256,14944,1,0,0:0:0:0:
48,256,15069,2,0,L|52:72,1,180,0|8,0:0|0:0,0:0:0:0:
208,56,15694,1,0,0:0:0:0:
208,56,15819,1,0,0:0:0:0:
200,48,15944,1,0,0:0:0:0:
208,56,16069,2,0,L|448:56,1,240
448,160,16694,6,0,L|404:204,1,60
340,240,16944,2,0,L|252:236,1,60
204,228,17194,2,0,L|128:184,1,60
96,148,17444,2,0,L|52:84,1,60
16,36,17694,1,0,0:0:0:0:
16,36,17819,1,0,0:0:0:0:
16,36,17944,1,0,0:0:0:0:
20,40,18069,2,0,L|204:44,1,180
276,40,18569,5,12,0:0:0:0:
276,48,18694,1,0,0:0:0:0:
276,56,18819,1,0,0:0:0:0:
276,64,18944,2,0,L|280:248,1,144
384,348,19569,5,12,0:0:0:0:
384,336,19694,1,0,0:0:0:0:
384,324,19819,1,0,0:0:0:0:
384,316,19944,1,0,0:0:0:0:
382,303,20069,2,0,L|376:80,1,180
256,192,20694,12,8,22319,0:0:0:0:
344,236,22505,6,0,P|312:288|224:288,1,155.999992858887,6|8,0:0|0:0,0:0:0:0:
256,200,22880,2,0,P|180:192|124:248,1,155.999992858887,2|8,0:0|0:0,0:0:0:0:
64,328,23255,1,2,0:0:0:0:
16,184,23442,1,8,0:0:0:0:
140,60,23630,2,0,P|216:48|280:88,1,155.999992858887,2|8,0:0|0:0,0:0:0:0:
292,188,24005,2,0,P|364:168|392:96,1,155.999992858887,6|8,0:0|0:0,0:0:0:0:
272,79,24380,1,2,0:0:0:0:
140,60,24567,1,8,0:0:0:0:
272,192,24942,6,0,P|292:244|268:228,1,155.999992858887,12|12,0:0|0:0,0:0:0:0:
160,124,25505,6,0,P|220:56|288:92,1,155.999992858887,6|8,0:0|0:0,0:0:0:0:
272,192,25880,2,0,P|352:180|376:104,1,155.999992858887,2|8,0:0|0:0,0:0:0:0:
448,56,26255,1,2,0:0:0:0:
480,176,26442,2,0,P|464:256|384:280,1,155.999992858887,8|2,0:0|0:0,0:0:0:0:
388,176,26817,2,0,P|324:144|236:176,1,155.999992858887,8|2,0:0|0:0,0:0:0:0:
156,248,27192,1,10,0:0:0:0:
72,164,27380,1,2,0:0:0:0:
152,72,27567,1,8,0:0:0:0:
246,166,27755,1,2,0:0:0:0:
156,248,27942,6,0,L|100:312,2,77.9999964294435,4|0|4,0:0|0:0|0:0,0:0:0:0:
344,248,28505,6,0,L|408:304,2,77.9999964294435,4|0|4,0:0|0:0|0:0,0:0:0:0:
256,192,28786,12,0,30755,0:0:0:0:
