osu file format v14

[General]
AudioFilename: audiopupa.mp3
AudioLeadIn: 0
PreviewTime: 319
Countdown: 0
SampleSet: Normal
StackLeniency: 0.7
Mode: 0
LetterboxInBreaks: 0
WidescreenStoryboard: 1

[Editor]
Bookmarks: 15080
DistanceSpacing: 1.2
BeatDivisor: 4
GridSize: 4
TimelineZoom: 2.799999

[Metadata]
Title:pupa
TitleUnicode:pupa
Artist:Kido Ibuki & Yamazaki Erii
ArtistUnicode:木戸 衣吹 & 山崎 エリイ
Creator:-Sakurasaki
Version:Extra
Source:Pupa
Tags:Anime Opening pupa Crissaegrim -Tatan- -Squishi Lissel Zyl Trent83 FruityEnLoops Gore Terror Gothic
BeatmapID:1463061
BeatmapSetID:687350

[Difficulty]
HPDrainRate:6.5
CircleSize:3.5
OverallDifficulty:8.5
ApproachRate:9.2
SliderMultiplier:1.8
SliderTickRate:1

[Events]
//Background and Video events
0,0,"bgpupa.jpg",0,0
//Break Periods
//Storyboard Layer 0 (Background)
//Storyboard Layer 1 (Fail)
//Storyboard Layer 2 (Pass)
//Storyboard Layer 3 (Foreground)
//Storyboard Sound Samples

[TimingPoints]
569,250,4,1,1,75,1,0
12319,-76.9230769230769,4,1,1,75,0,0
12569,-100,4,1,1,75,0,0
14569,-125,4,1,1,75,0,0
14819,-100,4,1,1,75,0,0
15569,-125,4,1,1,75,0,0
16569,-100,4,1,1,75,0,0
16694,-83.3333333333333,4,1,1,75,0,0
18569,-125,4,1,1,75,0,0
19569,-100,4,1,1,75,0,0
22505,187.5,4,1,1,75,1,0
22505,-76.9230769230769,4,1,1,75,0,1
24567,-83.3333333333333,4,1,1,75,0,0
24943,-83.3333333333333,4,1,1,30,0,0
25130,-83.3333333333333,4,1,1,30,0,0
25505,-76.9230769230769,4,1,1,85,0,1
26068,-76.9230769230769,4,1,1,80,0,1
26630,-76.9230769230769,4,1,1,80,0,1
26818,-76.9230769230769,4,1,1,80,0,1
27005,-76.9230769230769,4,1,1,80,0,1
27286,-76.9230769230769,4,1,1,25,0,1
27755,-76.9230769230769,4,1,1,25,0,0
27943,-76.9230769230769,4,1,1,80,0,1
28130,-76.9230769230769,4,1,1,65,0,1
28505,-76.9230769230769,4,1,1,80,0,1
28693,-83.3333333333333,4,1,1,65,0,0
30755,-83.3333333333333,4,1,1,5,0,0

[Colours]
Combo1 : 197,166,255
Combo2 : 255,162,121
Combo3 : 255,219,145
Combo4 : 255,155,155

[HitObjects]
376,84,319,5,8,0:0:0:0:
192,76,569,2,0,B|152:112|96:116|96:116|124:132|160:184,1,180,4|8,0:0|0:0,0:0:0:0:
312,240,944,2,0,B|308:292|264:344|264:344|240:324|176:304,1,180
142,159,1319,2,0,B|76:184|39:225|39:225|100:220,2,180,8|0|8,0:0|0:0|0:0,0:0:0:0:
268,134,2069,6,0,L|268:44,1,90
108,120,2319,6,0,L|108:210,1,90
192,312,2569,2,0,B|100:352|16:308,1,180,4|8,0:0|0:0,0:0:0:0:
56,56,2944,2,0,B|152:8|252:64,1,180
308,164,3319,5,0,0:0:0:0:
308,172,3444,1,0,0:0:0:0:
156,160,3569,6,0,P|156:212|164:264,1,90
416,136,3819,6,0,P|416:84|408:32,1,90
248,56,4069,1,8,0:0:0:0:
410,259,4194,1,0,0:0:0:0:
248,192,4319,1,10,0:0:0:0:
252,332,4444,1,8,0:0:0:0:
420,96,4569,54,0,P|448:176|403:266,1,180,4|0,0:0|0:0,0:0:0:0:
184,176,4944,2,0,B|296:124|256:208|360:168,1,180
392,72,5319,2,0,P|356:44|284:40,2,90,8|0|0,0:0|0:0|0:0,0:0:0:0:
488,96,5694,1,0,0:0:0:0:
488,96,5819,2,0,P|468:140|408:168,1,90,8|0,0:0|0:0,0:0:0:0:
248,144,6069,5,8,0:0:0:0:
252,332,6194,1,8,0:0:0:0:
336,236,6319,1,0,0:0:0:0:
168,236,6444,1,8,0:0:0:0:
144,56,6569,2,0,B|100:96|56:124|52:124|56:128|52:128|52:128|104:144|112:176,1,180,4|8,0:0|0:0,0:0:0:0:
168,248,6944,2,0,B|136:298|116:346|117:350|112:347|113:351|113:351|88:302|76:296,1,180
92,128,7319,6,8,P|80:72|96:24,1,90,8|0,0:0|0:0,0:0:0:0:
324,92,7569,2,8,P|344:144|328:204,1,90,8|0,0:0|0:0,0:0:0:0:
248,248,7819,1,8,0:0:0:0:
180,100,7944,1,0,0:0:0:0:
208,340,8069,2,0,P|252:352|304:332,1,90,8|0,0:0|0:0,0:0:0:0:
384,280,8319,1,8,0:0:0:0:
428,160,8444,1,8,0:0:0:0:
340,80,8569,6,0,P|256:108|164:68,1,180,4|8,0:0|0:0,0:0:0:0:
52,108,8944,1,0,0:0:0:0:
52,216,9069,1,0,0:0:0:0:
136,296,9194,1,0,0:0:0:0:
252,320,9319,2,0,P|304:280|320:228,1,90,8|0,0:0|0:0,0:0:0:0:
364,100,9569,2,0,P|324:128|304:172,1,90
152,220,9819,2,0,P|192:180|204:140,1,90,8|0,0:0|0:0,0:0:0:0:
172,24,10069,2,0,P|124:60|108:104,1,90
152,220,10319,5,8,0:0:0:0:
240,124,10444,1,8,0:0:0:0:
364,80,10569,2,0,P|432:136|424:224,1,180,4|0,0:0|0:0,0:0:0:0:
360,308,10944,1,0,0:0:0:0:
252,328,11069,2,0,P|196:300|184:252,1,90
148,80,11319,1,8,0:0:0:0:
76,180,11444,1,0,0:0:0:0:
76,180,11569,6,0,P|180:208|240:176,1,180,12|0,0:0|0:0,0:0:0:0:
420,176,11944,6,0,P|316:204|252:180,1,180,8|0,0:0|0:0,0:0:0:0:
168,48,12319,2,0,P|168:80|188:104,1,58.4999973220826,8|0,0:0|0:0,0:0:0:0:
184,52,12444,2,0,P|188:88|208:112,1,58.4999973220826
204,52,12569,6,0,P|284:72|388:48,1,180,4|8,0:0|0:0,0:0:0:0:
500,192,12944,2,0,P|408:164|324:184,1,180,2|0,0:0|0:0,0:0:0:0:
144,352,13319,2,0,P|136:308|144:252,1,90,8|0,0:0|0:0,0:0:0:0:
316,124,13569,2,0,P|320:72|304:20,1,90
48,136,13819,2,0,P|44:176|52:232,1,90,8|0,0:0|0:0,0:0:0:0:
224,328,14069,53,8,0:0:0:0:
352,320,14194,1,8,0:0:0:0:
392,180,14319,5,8,0:0:0:0:
240,200,14444,1,8,0:0:0:0:
216,328,14569,6,0,L|120:328,1,72,4|0,0:0|0:0,0:0:0:0:
24,168,14819,2,0,L|128:168,1,90
216,176,15069,1,0,0:0:0:0:
320,248,15194,1,0,0:0:0:0:
420,176,15319,1,0,0:0:0:0:
392,60,15444,1,8,0:0:0:0:
392,60,15506,1,0,0:0:0:0:
392,60,15569,1,8,0:0:0:0:
236,32,15694,5,0,0:0:0:0:
120,44,15819,1,0,0:0:0:0:
56,144,15944,1,0,0:0:0:0:
108,248,16069,1,0,0:0:0:0:
224,272,16194,1,0,0:0:0:0:
468,272,16319,2,8,L|316:272,1,144,8|0,0:0|0:0,0:0:0:0:
224,304,16694,6,0,P|224:248|252:204,1,107.999996704102
112,240,16944,2,0,P|136:176|176:152,1,107.999996704102
32,144,17194,2,0,P|76:88|140:72,1,107.999996704102
248,52,17444,2,0,L|332:124,1,107.999996704102
408,176,17694,1,8,0:0:0:0:
420,272,17819,1,8,0:0:0:0:
328,300,17944,1,8,0:0:0:0:
248,296,18069,2,0,B|180:296|176:292|176:292|176:300|176:300|172:292|172:292|172:300|172:300|168:292|168:292|168:300|168:300|164:296|164:296|52:296,1,203.999993774414,8|0,0:0|0:0,0:0:0:0:
48,64,18569,5,12,0:0:0:0:
108,128,18694,1,0,0:0:0:0:
196,120,18819,1,0,0:0:0:0:
272,72,18944,1,0,0:0:0:0:
348,116,19069,1,0,0:0:0:0:
328,208,19194,1,0,0:0:0:0:
248,272,19319,2,0,P|200:288|160:272,1,68,0|8,0:0|0:0,0:0:0:0:
68,136,19569,1,0,0:0:0:0:
68,136,19694,6,0,L|108:224,2,90
260,52,20069,2,0,L|368:76,1,90
352,268,20319,2,0,L|400:368,1,90
256,192,20569,5,12,0:0:0:0:
256,192,20694,12,8,22319,0:0:0:0:
392,52,22506,6,0,B|400:136|400:136|356:172|356:172|364:280,1,233.999989288331,6|8,0:0|0:0,0:0:0:0:
432,312,22786,2,0,B|376:360|376:360|336:344|336:344|296:356|296:356|200:328,1,233.999989288331,2|0,0:0|0:0,0:0:0:0:
76,232,23067,2,0,P|136:256|188:236,1,116.999994644165,8|0,0:0|0:0,0:0:0:0:
336,144,23255,2,0,P|276:184|216:168,1,116.999994644165,2|0,0:0|0:0,0:0:0:0:
64,88,23442,2,0,P|128:124|192:104,1,116.999994644165,8|0,0:0|0:0,0:0:0:0:
288,52,23630,2,0,B|352:56|436:48|436:48|396:84|416:132,1,233.999989288331
416,296,24005,6,0,B|352:268|340:224|340:224|280:252|216:240,1,233.999989288331,6|8,0:0|0:0,0:0:0:0:
24,292,24286,2,0,B|80:256|144:260|144:260|168:320|228:316,1,233.999989288331
232,316,24567,1,8,0:0:0:0:
256,44,24942,53,12,0:0:0:0:
332,340,25130,1,12,0:0:0:0:
64,60,25505,6,0,B|112:140|112:140|160:172|160:172|172:272|172:272,1,233.999989288331,6|8,0:0|0:0,0:0:0:0:
84,296,25785,2,0,B|136:332|192:352|192:352|232:308|296:304,1,220.999989883423,2|0,0:0|0:0,0:0:0:0:
440,220,26066,2,0,P|376:248|328:236,1,110.499994941712,8|0,0:0|0:0,0:0:0:0:
180,148,26254,2,0,P|232:188|300:168,1,110.499994941712,2|0,0:0|0:0,0:0:0:0:
448,88,26441,2,0,P|384:120|332:108,1,110.499994941712,8|0,0:0|0:0,0:0:0:0:
208,52,26629,2,0,B|144:56|60:48|60:48|92:108|72:168,1,220.999989883423
112,248,27005,6,0,P|176:256|224:200,1,110.499994941712
248,184,27192,1,0,0:0:0:0:
296,216,27286,2,0,P|364:248|416:244,1,110.499994941712
444,256,27473,1,0,0:0:0:0:
484,296,27567,1,0,0:0:0:0:
464,348,27661,1,0,0:0:0:0:
404,352,27755,1,0,0:0:0:0:
156,36,27942,21,4,0:0:0:0:
324,352,28130,1,4,0:0:0:0:
300,40,28505,5,4,0:0:0:0:
128,344,28692,1,4,0:0:0:0:
256,192,28786,12,0,30755,0:0:0:0:
