osu file format v14

[General]
AudioFilename: audio.mp3
AudioLeadIn: 0
PreviewTime: 22444
Countdown: 0
SampleSet: Soft
StackLeniency: 0.7
Mode: 0
LetterboxInBreaks: 0
WidescreenStoryboard: 0

[Editor]
DistanceSpacing: 1.2
BeatDivisor: 4
GridSize: 4
TimelineZoom: 2.1

[Metadata]
Title:pupa
TitleUnicode:pupa
Artist:Kido Ibuki & Yamazaki Erii
ArtistUnicode:木戸 衣吹 & 山崎 エリイ
Creator:[AngelMegum1n]
Version:Extra
Source:pupa
Tags:benqbenq nyu Heppy Stormiverse
BeatmapID:1325265
BeatmapSetID:626340

[Difficulty]
HPDrainRate:6
CircleSize:4.5
OverallDifficulty:8
ApproachRate:9.3
SliderMultiplier:1.6
SliderTickRate:2

[Events]
//Background and Video events
0,0,"8utmvy9.jpg",0,0
//Break Periods
//Storyboard Layer 0 (Background)
//Storyboard Layer 1 (Fail)
//Storyboard Layer 2 (Pass)
//Storyboard Layer 3 (Foreground)
//Storyboard Sound Samples

[TimingPoints]
569,250,4,2,0,65,1,0
22505,187.5,4,2,0,65,1,0
22505,-200,4,2,0,65,0,1
28692,-100,4,2,0,65,0,0

[HitObjects]
84,144,319,5,0,0:0:0:0:
84,144,569,6,0,P|148:188|260:188,1,160
308,116,944,2,0,P|348:184|296:268,1,160
239,333,1319,2,0,P|199:265|251:181,1,160
336,160,1694,2,0,L|252:104,1,80
169,59,1944,1,0,0:0:0:0:
169,59,2069,2,0,P|115:59|79:95,1,80
36,224,2319,1,0,0:0:0:0:
136,348,2444,1,0,0:0:0:0:
212,208,2569,6,0,P|280:204|372:252,1,160
400,276,2944,2,0,P|380:192|424:100,1,160
424,76,3319,2,0,P|356:100|288:72,1,120
288,72,3569,6,0,P|256:132|164:164,1,160
64,96,3944,1,0,0:0:0:0:
32,204,4069,1,0,0:0:0:0:
80,304,4194,1,0,0:0:0:0:
164,232,4319,1,0,0:0:0:0:
188,340,4444,1,0,0:0:0:0:
272,264,4569,6,0,P|292:200|376:140,1,160
344,256,4944,2,0,P|316:324|232:324,1,160
128,312,5319,2,0,P|144:268|256:232,1,160
344,256,5694,1,0,0:0:0:0:
384,156,5819,2,0,L|312:92,1,80
212,68,6069,1,0,0:0:0:0:
100,48,6194,1,0,0:0:0:0:
204,80,6319,2,0,P|204:132|184:172,1,80
136,252,6569,6,0,P|172:304|276:332,1,160
296,228,6944,2,0,P|356:240|364:356,1,160
260,333,7319,2,0,L|380:217,1,160
268,192,7694,5,0,0:0:0:0:
268,192,7819,2,0,L|148:308,2,160
364,132,8444,1,0,0:0:0:0:
403,244,8569,6,0,P|323:244|259:168,1,160
200,100,8944,2,0,L|64:212,1,160
8,292,9319,2,0,L|176:352,1,160
256,292,9694,5,0,0:0:0:0:
356,340,9819,2,0,P|376:288|380:176,1,160
296,112,10194,1,0,0:0:0:0:
196,160,10319,2,0,P|148:200|108:176,1,80
96,180,10569,6,0,L|196:324,1,160
280,352,10944,2,0,B|320:312|320:312|292:248|368:200,1,160
384,280,11319,2,0,L|476:300,1,80
462,296,11569,5,0,0:0:0:0:
208,76,11944,1,0,0:0:0:0:
240,320,12319,1,0,0:0:0:0:
380,144,12569,6,0,P|304:184|224:164,1,160
324,100,12944,2,0,P|408:80|451:140,1,160
460,244,13319,2,0,L|408:316,1,80
308,272,13569,6,0,P|208:240|152:288,1,160
96,352,13944,1,0,0:0:0:0:
48,248,14069,1,0,0:0:0:0:
72,140,14194,1,0,0:0:0:0:
140,48,14319,1,0,0:0:0:0:
200,144,14444,1,0,0:0:0:0:
116,216,14569,6,0,P|144:264|192:288,1,80
224,200,14819,1,0,0:0:0:0:
308,84,14944,1,0,0:0:0:0:
352,220,15069,1,0,0:0:0:0:
240,312,15194,2,0,L|128:316,1,80
16,320,15444,1,0,0:0:0:0:
16,320,15569,5,0,0:0:0:0:
60,188,15694,1,0,0:0:0:0:
192,136,15819,1,0,0:0:0:0:
52,176,15944,1,0,0:0:0:0:
88,96,16069,1,0,0:0:0:0:
152,224,16194,1,0,0:0:0:0:
96,84,16319,2,0,L|188:52,1,80
352,208,16569,5,0,0:0:0:0:
212,172,16694,1,0,0:0:0:0:
348,128,16819,1,0,0:0:0:0:
268,248,16944,1,0,0:0:0:0:
364,356,17069,1,0,0:0:0:0:
224,332,17194,1,0,0:0:0:0:
360,280,17319,1,0,0:0:0:0:
260,176,17444,1,0,0:0:0:0:
384,104,17569,6,0,L|304:80,1,80
164,88,17819,1,0,0:0:0:0:
24,116,17944,1,0,0:0:0:0:
176,100,18069,1,0,0:0:0:0:
68,200,18194,2,0,P|140:232|160:316,1,160
161,305,18569,5,0,0:0:0:0:
304,280,18694,1,0,0:0:0:0:
220,164,18819,1,0,0:0:0:0:
356,208,18944,1,0,0:0:0:0:
326,50,19069,2,0,L|358:222,1,160
384,348,19444,1,0,0:0:0:0:
384,348,19569,5,0,0:0:0:0:
244,320,19694,1,0,0:0:0:0:
356,208,19819,2,0,P|296:184|260:92,1,160
348,120,20194,1,0,0:0:0:0:
348,120,20319,2,0,L|284:184,1,80
188,276,20569,5,0,0:0:0:0:
72,192,20694,1,0,0:0:0:0:
216,192,20819,1,0,0:0:0:0:
140,68,20944,1,0,0:0:0:0:
144,212,21069,1,0,0:0:0:0:
56,100,21194,1,0,0:0:0:0:
220,100,21319,1,0,0:0:0:0:
144,212,21444,1,0,0:0:0:0:
220,100,21569,6,0,P|268:120|296:148,1,80
288,138,21756,1,0,0:0:0:0:
288,138,21819,1,0,0:0:0:0:
344,272,21944,1,0,0:0:0:0:
204,300,22069,1,0,0:0:0:0:
336,264,22194,2,0,P|360:220|416:208,1,80
300,368,22505,6,0,P|216:344|184:292,1,120
176,276,22880,1,0,0:0:0:0:
160,180,23067,2,0,P|244:204|268:260,1,120
272,276,23442,1,0,0:0:0:0:
193,291,23630,6,0,L|297:271,1,80
372,228,24005,2,0,P|312:192|284:140,1,120
276,104,24380,1,0,0:0:0:0:
164,88,24567,5,0,0:0:0:0:
200,308,24942,1,0,0:0:0:0:
200,308,25130,1,0,0:0:0:0:
88,76,25505,6,0,P|140:88|188:156,1,120
200,184,25880,1,0,0:0:0:0:
176,292,26067,2,0,P|268:268|320:288,1,120
332,296,26442,1,0,0:0:0:0:
432,244,26630,1,0,0:0:0:0:
432,244,26723,1,0,0:0:0:0:
432,244,26817,1,0,0:0:0:0:
376,148,27005,6,0,L|236:164,1,120
208,172,27381,1,0,0:0:0:0:
140,260,27567,2,0,L|248:268,1,80
448,80,27942,5,0,0:0:0:0:
448,80,28130,1,0,0:0:0:0:
120,148,28505,5,0,0:0:0:0:
120,148,28692,1,0,0:0:0:0:
