osu file format v14

[General]
AudioFilename: Lantern 1_3399540208_Bandcamp.mp3
AudioLeadIn: 0
PreviewTime: 6563
Countdown: 0
SampleSet: None
StackLeniency: 0.7
Mode: 1
LetterboxInBreaks: 0
WidescreenStoryboard: 0

[Editor]
DistanceSpacing: 0.8
BeatDivisor: 8
GridSize: 32
TimelineZoom: 3.199999

[Metadata]
Title:Lantern 1
TitleUnicode:Lantern 1
Artist:Kidkanevil
ArtistUnicode:Kidkanevil
Creator:Nwolf
Version:Spectre
Source:
Tags:basho basho downtempo idm bass glitch pls stop mapping
BeatmapID:1517792
BeatmapSetID:718631

[Difficulty]
HPDrainRate:7
CircleSize:4
OverallDifficulty:8
ApproachRate:9
SliderMultiplier:1.4
SliderTickRate:1

[Events]
//Background and Video events
0,0,"1497846338321.jpg",0,0
//Break Periods
2,49818,59092
//Storyboard Layer 0 (Background)
//Storyboard Layer 1 (Fail)
//Storyboard Layer 2 (Pass)
//Storyboard Layer 3 (Foreground)
//Storyboard Sound Samples

[TimingPoints]
1260,447.761194,4,1,0,60,1,0
49618,-133.333333333333,4,1,0,30,0,0
63946,-100,4,1,0,60,0,0
107043,-100,4,1,0,30,0,0
109618,-66.6666666666667,4,1,0,60,0,0
110513,-80,4,1,0,60,0,1
121259,-80,4,1,0,60,0,0

[HitObjects]
288,160,5738,5,8,0:0:0:0:
288,160,6073,1,8,0:0:0:0:
288,160,6409,1,8,0:0:0:0:
224,160,6633,1,0,0:0:0:0:
224,160,6689,1,0,0:0:0:0:
224,160,6745,1,0,0:0:0:0:
224,160,6801,1,0,0:0:0:0:
288,160,6857,1,8,0:0:0:0:
288,160,6913,1,8,0:0:0:0:
288,160,6969,1,8,0:0:0:0:
288,160,7025,1,8,0:0:0:0:
224,160,7081,1,0,0:0:0:0:
224,160,7137,1,0,0:0:0:0:
288,160,7193,1,8,0:0:0:0:
288,160,7249,1,8,0:0:0:0:
224,160,7305,1,0,0:0:0:0:
224,160,7361,1,0,0:0:0:0:
224,160,7417,1,0,0:0:0:0:
224,160,7473,1,0,0:0:0:0:
288,160,7529,1,8,0:0:0:0:
224,160,7753,1,0,0:0:0:0:
224,160,7976,1,0,0:0:0:0:
288,160,8200,1,8,0:0:0:0:
288,160,8274,1,8,0:0:0:0:
224,160,8424,1,0,0:0:0:0:
224,160,8648,1,0,0:0:0:0:
288,160,8722,1,8,0:0:0:0:
288,160,8946,1,8,0:0:0:0:
224,160,9096,1,0,0:0:0:0:
224,160,9208,1,0,0:0:0:0:
224,160,9263,1,0,0:0:0:0:
288,160,9320,1,8,0:0:0:0:
224,160,9544,1,0,0:0:0:0:
288,160,9656,1,8,0:0:0:0:
288,160,9767,1,8,0:0:0:0:
288,160,9879,1,8,0:0:0:0:
224,160,9991,1,0,0:0:0:0:
224,160,10103,1,0,0:0:0:0:
288,160,10215,1,8,0:0:0:0:
288,160,10271,1,8,0:0:0:0:
288,160,10327,1,8,0:0:0:0:
288,160,10383,1,8,0:0:0:0:
224,160,10439,1,0,0:0:0:0:
224,160,10495,1,0,0:0:0:0:
288,160,10551,1,8,0:0:0:0:
288,160,10607,1,8,0:0:0:0:
288,160,10662,1,8,0:0:0:0:
288,160,10718,1,8,0:0:0:0:
224,160,10774,1,0,0:0:0:0:
224,160,10830,1,0,0:0:0:0:
288,160,10886,1,8,0:0:0:0:
288,160,10942,1,8,0:0:0:0:
224,160,10998,1,0,0:0:0:0:
224,160,11054,1,0,0:0:0:0:
288,160,11110,1,8,0:0:0:0:
224,160,11334,1,0,0:0:0:0:
224,160,11558,1,0,0:0:0:0:
288,160,11782,1,8,0:0:0:0:
288,160,11857,1,8,0:0:0:0:
224,160,12006,1,0,0:0:0:0:
224,160,12230,1,0,0:0:0:0:
288,160,12304,1,8,0:0:0:0:
288,160,12528,1,8,0:0:0:0:
224,160,12677,1,0,0:0:0:0:
224,160,12789,1,0,0:0:0:0:
224,160,12845,1,0,0:0:0:0:
288,160,12901,1,8,0:0:0:0:
288,160,13237,1,8,0:0:0:0:
288,160,13573,1,8,0:0:0:0:
224,160,13797,1,0,0:0:0:0:
224,160,13853,1,0,0:0:0:0:
288,160,13909,1,8,0:0:0:0:
288,160,13965,1,8,0:0:0:0:
224,160,14021,1,0,0:0:0:0:
224,160,14077,1,0,0:0:0:0:
288,160,14133,1,8,0:0:0:0:
288,160,14189,1,8,0:0:0:0:
288,160,14245,1,8,0:0:0:0:
288,160,14301,1,8,0:0:0:0:
224,160,14357,1,0,0:0:0:0:
224,160,14412,1,0,0:0:0:0:
288,160,14468,1,8,0:0:0:0:
288,160,14524,1,8,0:0:0:0:
224,160,14580,1,0,0:0:0:0:
224,160,14636,1,0,0:0:0:0:
288,160,14692,1,8,0:0:0:0:
224,160,14916,1,0,0:0:0:0:
224,160,15140,1,0,0:0:0:0:
288,160,15364,1,8,0:0:0:0:
288,160,15439,1,8,0:0:0:0:
224,160,15588,1,0,0:0:0:0:
224,160,15812,1,0,0:0:0:0:
288,160,15886,1,8,0:0:0:0:
288,160,16110,1,8,0:0:0:0:
224,160,16259,1,0,0:0:0:0:
224,160,16371,1,0,0:0:0:0:
224,160,16427,1,0,0:0:0:0:
288,160,16483,1,8,0:0:0:0:
224,160,16707,1,0,0:0:0:0:
288,160,16819,1,8,0:0:0:0:
288,160,16931,1,8,0:0:0:0:
288,160,17043,1,8,0:0:0:0:
224,160,17155,1,0,0:0:0:0:
224,160,17267,1,0,0:0:0:0:
288,160,17379,1,8,0:0:0:0:
288,160,17435,1,8,0:0:0:0:
224,160,17491,1,0,0:0:0:0:
224,160,17547,1,0,0:0:0:0:
288,160,17603,1,8,0:0:0:0:
288,160,17659,1,8,0:0:0:0:
224,160,17715,1,0,0:0:0:0:
224,160,17771,1,0,0:0:0:0:
288,160,17827,1,8,0:0:0:0:
288,160,17883,1,8,0:0:0:0:
288,160,17939,1,8,0:0:0:0:
288,160,17995,1,8,0:0:0:0:
224,160,18051,1,0,0:0:0:0:
224,160,18107,1,0,0:0:0:0:
224,160,18162,1,0,0:0:0:0:
224,160,18218,1,0,0:0:0:0:
288,160,18274,1,8,0:0:0:0:
224,160,18498,1,0,0:0:0:0:
224,160,18722,1,0,0:0:0:0:
288,160,18946,1,8,0:0:0:0:
288,160,19021,1,8,0:0:0:0:
224,160,19170,1,0,0:0:0:0:
224,160,19394,1,0,0:0:0:0:
288,160,19468,1,8,0:0:0:0:
288,160,19692,1,8,0:0:0:0:
224,160,19842,1,0,0:0:0:0:
224,160,19954,1,0,0:0:0:0:
224,160,20009,1,0,0:0:0:0:
288,160,20065,1,8,0:0:0:0:
288,160,20401,1,8,0:0:0:0:
288,160,20737,1,8,0:0:0:0:
224,160,20961,5,0,0:0:0:0:
224,160,21017,1,0,0:0:0:0:
224,160,21073,1,0,0:0:0:0:
224,160,21129,1,0,0:0:0:0:
224,160,21185,1,0,0:0:0:0:
224,160,21241,1,0,0:0:0:0:
288,160,21297,1,8,0:0:0:0:
288,160,21353,1,8,0:0:0:0:
288,160,21409,1,8,0:0:0:0:
288,160,21465,1,8,0:0:0:0:
288,160,21521,1,8,0:0:0:0:
288,160,21577,1,8,0:0:0:0:
224,160,21633,1,0,0:0:0:0:
224,160,21689,1,0,0:0:0:0:
224,160,21745,1,0,0:0:0:0:
224,160,21801,1,0,0:0:0:0:
288,160,21857,1,8,0:0:0:0:
224,160,22080,1,0,0:0:0:0:
224,160,22304,1,0,0:0:0:0:
288,160,22528,1,8,0:0:0:0:
288,160,22603,1,8,0:0:0:0:
224,160,22752,1,0,0:0:0:0:
288,160,22976,1,8,0:0:0:0:
224,160,23051,1,0,0:0:0:0:
288,160,23274,1,8,0:0:0:0:
224,160,23424,1,0,0:0:0:0:
224,160,23573,1,0,0:0:0:0:
288,160,23648,1,8,0:0:0:0:
224,160,23871,1,0,0:0:0:0:
224,160,23983,1,0,0:0:0:0:
288,160,24095,1,8,0:0:0:0:
288,160,24207,1,8,0:0:0:0:
224,160,24319,1,0,0:0:0:0:
224,160,24431,1,0,0:0:0:0:
288,160,24543,1,8,0:0:0:0:
288,160,24599,1,8,0:0:0:0:
288,160,24655,1,8,0:0:0:0:
288,160,24711,1,8,0:0:0:0:
288,160,24767,1,8,0:0:0:0:
288,160,24823,1,8,0:0:0:0:
288,160,24879,1,8,0:0:0:0:
288,160,24935,1,8,0:0:0:0:
224,160,24991,1,0,0:0:0:0:
224,160,25047,1,0,0:0:0:0:
224,160,25103,1,0,0:0:0:0:
224,160,25159,1,0,0:0:0:0:
224,160,25215,1,0,0:0:0:0:
224,160,25271,1,0,0:0:0:0:
224,160,25327,1,0,0:0:0:0:
224,160,25383,1,0,0:0:0:0:
288,160,25439,1,8,0:0:0:0:
224,160,25662,1,0,0:0:0:0:
224,160,25886,1,0,0:0:0:0:
288,160,26110,1,8,0:0:0:0:
288,160,26185,1,8,0:0:0:0:
224,160,26334,1,0,0:0:0:0:
224,160,26558,1,0,0:0:0:0:
288,160,26633,1,8,0:0:0:0:
288,160,26857,1,8,0:0:0:0:
224,160,27006,1,0,0:0:0:0:
224,160,27118,1,0,0:0:0:0:
224,160,27174,1,0,0:0:0:0:
288,160,27230,1,8,0:0:0:0:
288,160,27565,1,8,0:0:0:0:
288,160,27901,1,8,0:0:0:0:
224,160,28125,1,0,0:0:0:0:
224,160,28181,1,0,0:0:0:0:
288,160,28237,1,8,0:0:0:0:
288,160,28293,1,8,0:0:0:0:
224,160,28349,1,0,0:0:0:0:
224,160,28405,1,0,0:0:0:0:
288,160,28461,1,8,0:0:0:0:
224,160,28517,1,0,0:0:0:0:
288,160,28573,1,8,0:0:0:0:
288,160,28629,1,8,0:0:0:0:
224,160,28685,1,0,0:0:0:0:
224,160,28741,1,0,0:0:0:0:
288,160,28797,1,8,0:0:0:0:
288,160,28853,1,8,0:0:0:0:
224,160,28909,1,0,0:0:0:0:
224,160,28965,1,0,0:0:0:0:
288,160,29021,1,8,0:0:0:0:
224,160,29245,1,0,0:0:0:0:
224,160,29468,1,0,0:0:0:0:
288,160,29692,1,8,0:0:0:0:
288,160,29767,1,8,0:0:0:0:
224,160,29916,1,0,0:0:0:0:
288,160,30140,1,8,0:0:0:0:
224,160,30215,1,0,0:0:0:0:
288,160,30439,1,8,0:0:0:0:
224,160,30588,1,0,0:0:0:0:
224,160,30700,1,0,0:0:0:0:
224,160,30756,1,0,0:0:0:0:
288,160,30812,1,8,0:0:0:0:
224,160,30924,1,0,0:0:0:0:
288,160,31036,1,8,0:0:0:0:
224,160,31148,1,0,0:0:0:0:
288,160,31259,1,8,0:0:0:0:
288,160,31371,1,8,0:0:0:0:
224,160,31483,1,0,0:0:0:0:
224,160,31595,1,0,0:0:0:0:
288,160,31707,1,8,0:0:0:0:
288,160,31763,1,8,0:0:0:0:
224,160,31819,1,0,0:0:0:0:
224,160,31875,1,0,0:0:0:0:
288,160,31931,1,8,0:0:0:0:
224,160,31987,1,0,0:0:0:0:
288,160,32043,1,8,0:0:0:0:
288,160,32099,1,8,0:0:0:0:
224,160,32155,1,0,0:0:0:0:
224,160,32211,1,0,0:0:0:0:
288,160,32267,1,8,0:0:0:0:
224,160,32323,1,0,0:0:0:0:
288,160,32379,1,8,0:0:0:0:
288,160,32435,1,8,0:0:0:0:
224,160,32491,1,0,0:0:0:0:
224,160,32547,1,0,0:0:0:0:
288,160,32603,1,8,0:0:0:0:
224,160,32827,1,0,0:0:0:0:
224,160,33051,1,0,0:0:0:0:
288,160,33274,1,8,0:0:0:0:
288,160,33349,1,8,0:0:0:0:
224,160,33498,1,0,0:0:0:0:
224,160,33722,1,0,0:0:0:0:
288,160,33797,1,8,0:0:0:0:
224,160,33946,1,0,0:0:0:0:
288,160,34021,1,8,0:0:0:0:
288,160,34170,1,8,0:0:0:0:
224,160,34245,1,0,0:0:0:0:
224,160,34319,1,0,0:0:0:0:
288,160,34394,1,8,0:0:0:0:
288,160,34450,1,8,0:0:0:0:
288,160,34506,1,8,0:0:0:0:
288,160,34562,1,8,0:0:0:0:
224,160,34618,1,0,0:0:0:0:
224,160,34674,1,0,0:0:0:0:
224,160,34730,1,0,0:0:0:0:
224,160,34786,1,0,0:0:0:0:
288,160,34842,1,8,0:0:0:0:
224,160,35065,1,0,0:0:0:0:
224,160,35121,1,0,0:0:0:0:
288,160,35177,1,8,0:0:0:0:
288,160,35233,1,8,0:0:0:0:
224,160,35289,1,0,0:0:0:0:
224,160,35345,1,0,0:0:0:0:
288,160,35401,1,8,0:0:0:0:
288,160,35457,1,8,0:0:0:0:
224,160,35513,1,0,0:0:0:0:
224,160,35569,1,0,0:0:0:0:
288,160,35625,1,8,0:0:0:0:
224,160,35681,1,0,0:0:0:0:
288,160,35737,1,8,0:0:0:0:
288,160,35793,1,8,0:0:0:0:
288,160,35849,1,8,0:0:0:0:
288,160,35905,1,8,0:0:0:0:
224,160,35961,1,0,0:0:0:0:
224,160,36017,1,0,0:0:0:0:
224,160,36073,1,0,0:0:0:0:
224,160,36129,1,0,0:0:0:0:
288,160,36185,1,8,0:0:0:0:
224,160,36409,1,0,0:0:0:0:
224,160,36633,1,0,0:0:0:0:
288,160,36857,1,8,0:0:0:0:
288,160,36931,1,8,0:0:0:0:
224,160,37080,1,0,0:0:0:0:
224,160,37304,1,0,0:0:0:0:
288,160,37379,1,8,0:0:0:0:
288,160,37603,1,8,0:0:0:0:
224,160,37752,1,0,0:0:0:0:
224,160,37864,1,0,0:0:0:0:
224,160,37920,1,0,0:0:0:0:
288,160,37976,1,8,0:0:0:0:
224,160,38200,1,0,0:0:0:0:
288,160,38312,1,8,0:0:0:0:
288,160,38424,1,8,0:0:0:0:
288,160,38536,1,8,0:0:0:0:
224,160,38648,1,0,0:0:0:0:
224,160,38759,1,0,0:0:0:0:
288,160,38871,1,8,0:0:0:0:
288,160,38927,1,8,0:0:0:0:
224,160,38983,1,0,0:0:0:0:
224,160,39039,1,0,0:0:0:0:
288,160,39095,1,0,0:0:0:0:
224,160,39151,1,0,0:0:0:0:
288,160,39207,1,8,0:0:0:0:
224,160,39263,1,0,0:0:0:0:
288,160,39319,1,8,0:0:0:0:
288,160,39375,1,8,0:0:0:0:
288,160,39431,1,8,0:0:0:0:
288,160,39487,1,8,0:0:0:0:
224,160,39543,1,0,0:0:0:0:
224,160,39599,1,0,0:0:0:0:
224,160,39655,1,0,0:0:0:0:
224,160,39711,1,0,0:0:0:0:
288,160,39767,1,8,0:0:0:0:
224,160,39991,1,0,0:0:0:0:
224,160,40215,1,0,0:0:0:0:
288,160,40439,1,8,0:0:0:0:
288,160,40513,1,8,0:0:0:0:
224,160,40662,1,0,0:0:0:0:
224,160,40886,1,0,0:0:0:0:
288,160,40961,1,8,0:0:0:0:
288,160,41185,1,8,0:0:0:0:
224,160,41334,1,0,0:0:0:0:
224,160,41446,1,0,0:0:0:0:
224,160,41502,1,0,0:0:0:0:
288,160,41558,1,8,0:0:0:0:
288,160,41894,1,8,0:0:0:0:
288,160,42230,1,8,0:0:0:0:
224,160,42454,1,0,0:0:0:0:
224,160,42509,1,0,0:0:0:0:
288,160,42565,1,8,0:0:0:0:
224,160,42621,1,0,0:0:0:0:
288,160,42677,1,8,0:0:0:0:
288,160,42733,1,8,0:0:0:0:
224,160,42789,1,0,0:0:0:0:
288,160,42845,1,8,0:0:0:0:
224,160,42901,1,0,0:0:0:0:
224,160,42957,1,0,0:0:0:0:
288,160,43013,1,8,0:0:0:0:
224,160,43069,1,0,0:0:0:0:
288,160,43125,1,8,0:0:0:0:
288,160,43181,1,8,0:0:0:0:
224,160,43237,1,0,0:0:0:0:
224,160,43293,1,0,0:0:0:0:
288,160,43349,1,8,0:0:0:0:
224,160,43573,1,0,0:0:0:0:
224,160,43797,1,0,0:0:0:0:
288,160,44021,1,8,0:0:0:0:
288,160,44095,1,8,0:0:0:0:
224,160,44245,1,0,0:0:0:0:
224,160,44468,1,0,0:0:0:0:
288,160,44543,1,8,0:0:0:0:
288,160,44767,1,8,0:0:0:0:
224,160,44916,1,0,0:0:0:0:
224,160,45028,1,0,0:0:0:0:
224,160,45084,1,0,0:0:0:0:
288,160,45140,1,8,0:0:0:0:
224,160,45364,1,0,0:0:0:0:
288,160,45476,1,8,0:0:0:0:
224,160,45588,1,0,0:0:0:0:
288,160,45700,1,8,0:0:0:0:
224,160,45812,1,0,0:0:0:0:
224,160,45924,1,0,0:0:0:0:
288,160,46036,1,8,0:0:0:0:
288,160,46092,1,8,0:0:0:0:
224,160,46148,1,0,0:0:0:0:
288,160,46204,1,8,0:0:0:0:
224,160,46259,1,0,0:0:0:0:
224,160,46315,1,0,0:0:0:0:
288,160,46371,1,8,0:0:0:0:
224,160,46427,1,0,0:0:0:0:
288,160,46483,1,8,0:0:0:0:
288,160,46539,1,8,0:0:0:0:
224,160,46595,1,0,0:0:0:0:
288,160,46651,1,8,0:0:0:0:
224,160,46707,1,0,0:0:0:0:
224,160,46763,1,0,0:0:0:0:
288,160,46819,1,8,0:0:0:0:
224,160,46875,1,0,0:0:0:0:
288,160,46931,1,8,0:0:0:0:
224,160,47155,1,0,0:0:0:0:
224,160,47379,1,0,0:0:0:0:
288,160,47603,1,8,0:0:0:0:
288,160,47677,1,8,0:0:0:0:
224,160,47827,1,0,0:0:0:0:
224,160,48051,1,0,0:0:0:0:
288,160,48125,1,8,0:0:0:0:
288,160,48349,1,8,0:0:0:0:
224,160,48498,1,0,0:0:0:0:
288,160,48722,1,12,0:0:0:0:
224,224,49618,5,4,0:0:0:0:
256,192,59692,12,0,61483,0:0:0:0:
224,160,61707,5,0,0:0:0:0:
224,160,61931,1,0,0:0:0:0:
256,192,62155,12,0,63722,0:0:0:0:
224,160,63946,5,0,0:0:0:0:
224,160,64002,1,0,0:0:0:0:
224,160,64058,1,0,0:0:0:0:
224,160,64114,1,0,0:0:0:0:
224,160,64170,1,0,0:0:0:0:
224,160,64226,1,0,0:0:0:0:
224,160,64282,1,0,0:0:0:0:
224,160,64338,1,0,0:0:0:0:
224,160,64394,1,0,0:0:0:0:
224,160,64450,1,0,0:0:0:0:
224,160,64506,1,0,0:0:0:0:
224,160,64562,1,0,0:0:0:0:
224,160,64618,1,0,0:0:0:0:
224,160,64674,1,0,0:0:0:0:
224,160,64730,1,0,0:0:0:0:
224,160,64786,1,0,0:0:0:0:
288,160,64842,1,8,0:0:0:0:
224,224,65065,1,4,0:0:0:0:
224,160,65289,1,0,0:0:0:0:
288,160,65401,1,8,0:0:0:0:
288,160,65513,1,8,0:0:0:0:
288,160,65625,1,8,0:0:0:0:
224,160,65737,1,0,0:0:0:0:
224,160,65961,1,0,0:0:0:0:
288,160,66036,1,8,0:0:0:0:
288,160,66259,1,8,0:0:0:0:
224,160,66409,1,0,0:0:0:0:
224,160,66521,1,0,0:0:0:0:
224,160,66577,1,0,0:0:0:0:
288,160,66633,1,8,0:0:0:0:
224,160,66857,1,0,0:0:0:0:
288,160,66968,1,8,0:0:0:0:
288,160,67080,1,8,0:0:0:0:
288,160,67192,1,8,0:0:0:0:
224,160,67304,1,0,0:0:0:0:
224,160,67416,1,0,0:0:0:0:
288,160,67528,1,8,0:0:0:0:
288,160,67584,1,8,0:0:0:0:
288,160,67640,1,8,0:0:0:0:
288,160,67696,1,8,0:0:0:0:
288,160,67752,1,8,0:0:0:0:
288,160,67808,1,8,0:0:0:0:
288,160,67864,1,8,0:0:0:0:
288,160,67920,1,8,0:0:0:0:
288,160,67976,1,8,0:0:0:0:
288,160,68032,1,8,0:0:0:0:
288,160,68088,1,8,0:0:0:0:
288,160,68144,1,8,0:0:0:0:
288,160,68200,1,8,0:0:0:0:
288,160,68256,1,8,0:0:0:0:
288,160,68312,1,8,0:0:0:0:
288,160,68368,1,8,0:0:0:0:
224,160,68424,1,0,0:0:0:0:
224,160,68648,1,0,0:0:0:0:
224,160,68871,1,0,0:0:0:0:
288,160,69095,1,8,0:0:0:0:
288,160,69170,1,8,0:0:0:0:
224,160,69319,1,0,0:0:0:0:
224,160,69543,1,0,0:0:0:0:
288,160,69618,1,8,0:0:0:0:
288,160,69842,1,8,0:0:0:0:
224,160,69991,1,0,0:0:0:0:
224,160,70103,1,0,0:0:0:0:
224,160,70159,1,0,0:0:0:0:
288,160,70215,1,8,0:0:0:0:
288,160,70551,1,8,0:0:0:0:
288,160,70886,1,8,0:0:0:0:
224,160,71110,1,0,0:0:0:0:
224,160,71166,1,0,0:0:0:0:
288,160,71222,1,8,0:0:0:0:
288,160,71278,1,8,0:0:0:0:
224,160,71334,1,0,0:0:0:0:
224,160,71390,1,0,0:0:0:0:
288,160,71446,1,8,0:0:0:0:
224,160,71502,1,0,0:0:0:0:
288,160,71558,1,8,0:0:0:0:
224,160,71614,1,0,0:0:0:0:
288,160,71670,1,8,0:0:0:0:
224,160,71726,1,0,0:0:0:0:
288,160,71782,1,8,0:0:0:0:
224,160,71838,1,0,0:0:0:0:
288,160,71894,1,8,0:0:0:0:
224,160,71950,1,0,0:0:0:0:
288,160,72006,1,8,0:0:0:0:
224,160,72230,1,0,0:0:0:0:
224,160,72454,1,0,0:0:0:0:
288,160,72677,1,8,0:0:0:0:
288,160,72752,1,8,0:0:0:0:
224,160,72901,1,0,0:0:0:0:
224,160,73125,1,0,0:0:0:0:
288,160,73200,1,8,0:0:0:0:
288,160,73424,1,8,0:0:0:0:
224,160,73573,1,0,0:0:0:0:
224,160,73685,1,0,0:0:0:0:
224,160,73741,1,0,0:0:0:0:
288,160,73797,1,8,0:0:0:0:
288,160,73853,1,8,0:0:0:0:
224,160,73909,1,0,0:0:0:0:
288,160,74021,1,8,0:0:0:0:
288,160,74133,1,8,0:0:0:0:
224,160,74245,1,0,0:0:0:0:
288,160,74357,1,8,0:0:0:0:
224,160,74468,1,0,0:0:0:0:
224,160,74580,1,0,0:0:0:0:
288,160,74692,1,8,0:0:0:0:
288,160,74748,1,8,0:0:0:0:
224,160,74804,1,0,0:0:0:0:
224,160,74860,1,0,0:0:0:0:
288,160,74916,1,8,0:0:0:0:
288,160,74972,1,8,0:0:0:0:
224,160,75028,1,0,0:0:0:0:
224,160,75084,1,0,0:0:0:0:
288,160,75140,1,8,0:0:0:0:
224,160,75196,1,0,0:0:0:0:
288,160,75252,1,8,0:0:0:0:
224,160,75308,1,0,0:0:0:0:
288,160,75364,1,8,0:0:0:0:
224,160,75420,1,0,0:0:0:0:
288,160,75476,1,8,0:0:0:0:
224,160,75532,1,0,0:0:0:0:
288,160,75588,1,8,0:0:0:0:
224,160,75812,1,0,0:0:0:0:
224,160,76036,1,0,0:0:0:0:
288,160,76259,1,8,0:0:0:0:
288,160,76334,1,8,0:0:0:0:
224,160,76483,1,0,0:0:0:0:
224,160,76707,1,0,0:0:0:0:
288,160,76782,1,8,0:0:0:0:
288,160,77006,1,8,0:0:0:0:
224,160,77155,1,0,0:0:0:0:
224,160,77267,1,0,0:0:0:0:
224,160,77323,1,0,0:0:0:0:
288,160,77379,1,8,0:0:0:0:
288,160,77435,1,8,0:0:0:0:
224,160,77491,1,0,0:0:0:0:
224,160,77547,1,0,0:0:0:0:
224,160,77603,1,0,0:0:0:0:
224,160,77659,1,0,0:0:0:0:
288,160,77715,1,8,0:0:0:0:
288,160,77771,1,8,0:0:0:0:
224,160,77827,1,0,0:0:0:0:
224,160,77883,1,0,0:0:0:0:
288,160,78051,1,8,0:0:0:0:
288,160,78107,1,8,0:0:0:0:
288,160,78162,1,8,0:0:0:0:
288,160,78218,1,8,0:0:0:0:
224,160,78274,1,0,0:0:0:0:
288,160,78330,1,8,0:0:0:0:
288,160,78386,1,8,0:0:0:0:
288,160,78442,1,8,0:0:0:0:
224,160,78498,1,0,0:0:0:0:
288,160,78554,1,8,0:0:0:0:
288,160,78610,1,8,0:0:0:0:
288,160,78666,1,8,0:0:0:0:
224,160,78722,1,0,0:0:0:0:
288,160,78778,1,8,0:0:0:0:
288,160,78834,1,8,0:0:0:0:
288,160,78890,1,8,0:0:0:0:
224,160,78946,1,0,0:0:0:0:
288,160,79002,1,8,0:0:0:0:
288,160,79058,1,8,0:0:0:0:
288,160,79114,1,8,0:0:0:0:
224,160,79170,1,0,0:0:0:0:
224,160,79394,1,0,0:0:0:0:
224,160,79618,1,0,0:0:0:0:
288,160,79842,1,8,0:0:0:0:
288,160,79916,1,8,0:0:0:0:
224,160,80065,1,0,0:0:0:0:
224,160,80289,1,0,0:0:0:0:
288,160,80364,1,8,0:0:0:0:
288,160,80588,1,8,0:0:0:0:
224,160,80737,1,0,0:0:0:0:
224,160,80849,1,0,0:0:0:0:
224,160,80905,1,0,0:0:0:0:
288,160,80961,1,8,0:0:0:0:
224,160,81185,1,0,0:0:0:0:
224,160,81297,1,0,0:0:0:0:
288,160,81409,1,8,0:0:0:0:
288,160,81521,1,8,0:0:0:0:
224,160,81633,1,0,0:0:0:0:
224,160,81745,1,0,0:0:0:0:
288,160,81857,1,8,0:0:0:0:
224,160,81912,1,0,0:0:0:0:
224,160,81968,1,0,0:0:0:0:
224,160,82024,1,0,0:0:0:0:
288,160,82080,1,8,0:0:0:0:
224,160,82136,1,0,0:0:0:0:
224,160,82192,1,0,0:0:0:0:
224,160,82248,1,0,0:0:0:0:
288,160,82304,1,8,0:0:0:0:
224,160,82360,1,0,0:0:0:0:
224,160,82416,1,0,0:0:0:0:
224,160,82472,1,0,0:0:0:0:
288,160,82528,1,8,0:0:0:0:
224,160,82584,1,0,0:0:0:0:
224,160,82640,1,0,0:0:0:0:
224,160,82696,1,0,0:0:0:0:
288,160,82752,1,8,0:0:0:0:
224,160,82976,1,0,0:0:0:0:
224,160,83200,1,0,0:0:0:0:
288,160,83424,1,8,0:0:0:0:
288,160,83498,1,8,0:0:0:0:
224,160,83648,1,0,0:0:0:0:
224,160,83871,1,0,0:0:0:0:
288,160,83946,1,8,0:0:0:0:
288,160,84170,1,8,0:0:0:0:
224,160,84319,1,0,0:0:0:0:
224,160,84431,1,0,0:0:0:0:
224,160,84487,1,0,0:0:0:0:
288,160,84543,1,8,0:0:0:0:
288,160,84879,1,8,0:0:0:0:
288,160,85215,1,8,0:0:0:0:
224,160,85439,1,0,0:0:0:0:
224,160,85495,1,0,0:0:0:0:
224,160,85550,1,0,0:0:0:0:
288,160,85606,1,8,0:0:0:0:
288,160,85662,1,8,0:0:0:0:
288,160,85718,1,8,0:0:0:0:
224,160,85774,1,0,0:0:0:0:
224,160,85830,1,0,0:0:0:0:
288,160,85886,1,8,0:0:0:0:
288,160,85942,1,8,0:0:0:0:
288,160,85998,1,8,0:0:0:0:
224,160,86054,1,0,0:0:0:0:
224,160,86110,1,0,0:0:0:0:
224,160,86166,1,0,0:0:0:0:
288,160,86222,1,8,0:0:0:0:
224,160,86278,1,0,0:0:0:0:
288,160,86334,1,8,0:0:0:0:
224,160,86558,1,0,0:0:0:0:
224,160,86782,1,0,0:0:0:0:
288,160,87006,1,8,0:0:0:0:
288,160,87080,1,8,0:0:0:0:
224,160,87230,1,0,0:0:0:0:
224,160,87454,1,0,0:0:0:0:
288,160,87528,1,8,0:0:0:0:
288,160,87752,1,8,0:0:0:0:
224,160,87901,1,0,0:0:0:0:
224,160,88013,1,0,0:0:0:0:
224,160,88069,1,0,0:0:0:0:
288,160,88125,1,8,0:0:0:0:
224,160,88349,1,0,0:0:0:0:
288,160,88461,1,8,0:0:0:0:
288,160,88573,1,8,0:0:0:0:
288,160,88685,1,8,0:0:0:0:
224,160,88797,1,0,0:0:0:0:
224,160,88909,1,0,0:0:0:0:
288,160,89021,1,8,0:0:0:0:
288,160,89077,1,8,0:0:0:0:
288,160,89133,1,8,0:0:0:0:
224,160,89189,1,0,0:0:0:0:
224,160,89245,1,0,0:0:0:0:
224,160,89301,1,0,0:0:0:0:
288,160,89357,1,8,0:0:0:0:
288,160,89412,1,8,0:0:0:0:
224,160,89468,1,0,0:0:0:0:
224,160,89524,1,0,0:0:0:0:
224,160,89580,1,0,0:0:0:0:
288,160,89636,1,8,0:0:0:0:
288,160,89692,1,8,0:0:0:0:
288,160,89748,1,8,0:0:0:0:
224,160,89804,1,0,0:0:0:0:
224,160,89860,1,0,0:0:0:0:
288,160,89916,1,8,0:0:0:0:
224,160,90140,1,0,0:0:0:0:
224,160,90364,1,0,0:0:0:0:
288,160,90588,1,8,0:0:0:0:
288,160,90662,1,8,0:0:0:0:
224,160,90812,1,0,0:0:0:0:
224,160,91036,1,0,0:0:0:0:
288,160,91110,1,8,0:0:0:0:
288,160,91334,1,8,0:0:0:0:
224,160,91483,1,0,0:0:0:0:
288,160,91707,1,8,0:0:0:0:
288,160,91763,1,8,0:0:0:0:
224,160,91819,1,0,0:0:0:0:
224,160,91875,1,0,0:0:0:0:
288,160,91931,1,8,0:0:0:0:
288,160,91987,1,8,0:0:0:0:
288,160,92043,1,8,0:0:0:0:
288,160,92099,1,8,0:0:0:0:
224,160,92155,1,0,0:0:0:0:
224,160,92211,1,0,0:0:0:0:
288,160,92379,1,8,0:0:0:0:
288,160,92435,1,8,0:0:0:0:
288,160,92491,1,8,0:0:0:0:
288,160,92547,1,8,0:0:0:0:
224,160,92603,1,0,0:0:0:0:
224,160,92659,1,0,0:0:0:0:
224,160,92715,1,0,0:0:0:0:
224,160,92771,1,0,0:0:0:0:
288,160,92827,1,8,0:0:0:0:
224,160,92883,1,0,0:0:0:0:
224,160,92939,1,0,0:0:0:0:
224,160,92995,1,0,0:0:0:0:
288,160,93051,1,8,0:0:0:0:
288,160,93107,1,8,0:0:0:0:
288,160,93162,1,8,0:0:0:0:
224,160,93330,1,0,0:0:0:0:
224,160,93386,1,0,0:0:0:0:
224,160,93442,1,0,0:0:0:0:
224,160,93498,1,0,0:0:0:0:
224,160,93554,1,0,0:0:0:0:
224,160,93610,1,0,0:0:0:0:
224,160,93666,1,0,0:0:0:0:
288,160,93834,1,8,0:0:0:0:
288,160,93890,1,8,0:0:0:0:
288,160,93946,1,8,0:0:0:0:
288,160,94002,1,8,0:0:0:0:
224,160,94058,1,0,0:0:0:0:
224,160,94114,1,0,0:0:0:0:
224,160,94170,1,0,0:0:0:0:
224,160,94226,1,0,0:0:0:0:
288,160,94282,1,8,0:0:0:0:
288,160,94338,1,8,0:0:0:0:
224,160,94562,1,0,0:0:0:0:
288,160,94618,1,8,0:0:0:0:
224,160,94692,1,0,0:0:0:0:
288,160,94916,1,8,0:0:0:0:
224,160,95065,1,0,0:0:0:0:
224,160,95215,1,0,0:0:0:0:
288,160,95289,1,8,0:0:0:0:
288,160,95345,1,8,0:0:0:0:
224,160,95513,1,0,0:0:0:0:
224,160,95625,1,0,0:0:0:0:
288,160,95737,1,8,0:0:0:0:
224,160,95793,1,0,0:0:0:0:
288,160,95849,1,8,0:0:0:0:
224,160,95905,1,0,0:0:0:0:
288,160,95961,1,8,0:0:0:0:
224,160,96185,1,0,0:0:0:0:
224,160,96241,1,0,0:0:0:0:
224,160,96297,1,0,0:0:0:0:
224,160,96353,1,0,0:0:0:0:
224,160,96409,1,0,0:0:0:0:
224,160,96465,1,0,0:0:0:0:
288,160,96521,1,8,0:0:0:0:
288,160,96577,1,8,0:0:0:0:
224,160,96633,1,0,0:0:0:0:
224,160,96689,1,0,0:0:0:0:
224,160,96745,1,0,0:0:0:0:
224,160,96801,1,0,0:0:0:0:
288,160,96857,1,8,0:0:0:0:
288,160,96912,1,8,0:0:0:0:
288,160,96968,1,8,0:0:0:0:
288,160,97024,1,8,0:0:0:0:
224,160,97080,1,0,0:0:0:0:
288,160,97192,1,8,0:0:0:0:
288,160,97248,1,8,0:0:0:0:
288,160,97304,1,8,0:0:0:0:
288,160,97360,1,8,0:0:0:0:
288,160,97416,1,8,0:0:0:0:
288,160,97472,1,8,0:0:0:0:
224,160,97528,1,0,0:0:0:0:
224,160,97603,1,0,0:0:0:0:
288,160,97752,1,8,0:0:0:0:
288,160,97827,1,8,0:0:0:0:
224,160,97976,1,0,0:0:0:0:
224,160,98200,1,0,0:0:0:0:
288,160,98274,1,8,0:0:0:0:
224,160,98498,1,0,0:0:0:0:
288,160,98648,1,8,0:0:0:0:
288,160,98871,1,8,0:0:0:0:
288,160,99207,1,8,0:0:0:0:
288,160,99543,1,8,0:0:0:0:
288,160,99767,1,8,0:0:0:0:
224,160,99823,1,0,0:0:0:0:
224,160,99879,1,0,0:0:0:0:
288,160,99935,1,8,0:0:0:0:
224,160,99991,1,0,0:0:0:0:
224,160,100047,1,0,0:0:0:0:
288,160,100103,1,8,0:0:0:0:
224,160,100159,1,0,0:0:0:0:
224,160,100215,1,0,0:0:0:0:
288,160,100271,1,8,0:0:0:0:
224,160,100327,1,0,0:0:0:0:
224,160,100383,1,0,0:0:0:0:
288,160,100439,1,8,0:0:0:0:
224,160,100476,1,0,0:0:0:0:
224,160,100513,1,0,0:0:0:0:
288,160,100551,1,8,0:0:0:0:
224,160,100588,1,0,0:0:0:0:
224,160,100625,1,0,0:0:0:0:
288,160,100662,1,8,0:0:0:0:
224,160,100886,1,0,0:0:0:0:
224,160,101110,1,0,0:0:0:0:
288,160,101334,1,8,0:0:0:0:
288,160,101483,1,8,0:0:0:0:
224,160,101558,1,0,0:0:0:0:
224,160,101782,1,0,0:0:0:0:
288,160,101857,1,8,0:0:0:0:
288,160,102080,1,8,0:0:0:0:
224,160,102230,1,0,0:0:0:0:
224,160,102342,1,0,0:0:0:0:
224,160,102398,1,0,0:0:0:0:
288,160,102454,1,8,0:0:0:0:
224,160,102677,1,0,0:0:0:0:
224,160,102789,1,0,0:0:0:0:
288,160,102901,1,8,0:0:0:0:
288,160,103013,1,8,0:0:0:0:
224,160,103125,1,0,0:0:0:0:
288,160,103237,1,8,0:0:0:0:
224,160,103349,1,0,0:0:0:0:
288,160,103405,1,8,0:0:0:0:
288,160,103461,1,8,0:0:0:0:
224,160,103517,1,0,0:0:0:0:
288,160,103573,1,8,0:0:0:0:
288,160,103629,1,8,0:0:0:0:
224,160,103685,1,0,0:0:0:0:
288,160,103741,1,8,0:0:0:0:
288,160,103797,1,8,0:0:0:0:
224,160,103853,1,0,0:0:0:0:
288,160,103909,1,8,0:0:0:0:
288,160,103965,1,8,0:0:0:0:
224,160,104021,1,0,0:0:0:0:
288,160,104058,1,8,0:0:0:0:
288,160,104095,1,8,0:0:0:0:
224,160,104133,1,0,0:0:0:0:
288,160,104170,1,8,0:0:0:0:
288,160,104207,1,8,0:0:0:0:
224,160,104245,1,0,0:0:0:0:
224,160,104468,1,0,0:0:0:0:
288,160,104580,1,8,0:0:0:0:
288,160,104692,1,8,0:0:0:0:
224,160,105140,1,0,0:0:0:0:
224,160,105364,1,0,0:0:0:0:
288,160,105439,1,8,0:0:0:0:
288,160,105662,1,8,0:0:0:0:
224,160,105812,1,0,0:0:0:0:
288,160,106036,1,8,0:0:0:0:
288,160,106371,1,8,0:0:0:0:
288,160,106707,1,8,0:0:0:0:
224,160,106931,1,0,0:0:0:0:
256,192,107155,12,0,109506,0:0:0:0:
288,224,109618,5,12,0:0:0:0:
288,224,110065,1,12,0:0:0:0:
224,160,110513,5,0,0:0:0:0:
224,160,110569,1,0,0:0:0:0:
224,160,110625,1,0,0:0:0:0:
288,160,110681,1,8,0:0:0:0:
288,160,110737,1,8,0:0:0:0:
288,160,110793,1,8,0:0:0:0:
224,160,110849,1,0,0:0:0:0:
224,160,110905,1,0,0:0:0:0:
224,160,110961,1,0,0:0:0:0:
288,160,111017,1,8,0:0:0:0:
288,160,111073,1,8,0:0:0:0:
288,160,111129,1,8,0:0:0:0:
224,160,111185,1,0,0:0:0:0:
224,160,111222,1,0,0:0:0:0:
224,160,111259,1,0,0:0:0:0:
288,160,111297,1,8,0:0:0:0:
288,160,111334,1,8,0:0:0:0:
288,160,111371,1,8,0:0:0:0:
224,160,111409,1,0,0:0:0:0:
224,224,111633,1,4,0:0:0:0:
224,160,111857,1,0,0:0:0:0:
288,160,112080,1,8,0:0:0:0:
288,160,112155,1,8,0:0:0:0:
224,160,112304,1,0,0:0:0:0:
224,160,112528,1,0,0:0:0:0:
288,160,112603,1,8,0:0:0:0:
288,160,112827,1,8,0:0:0:0:
224,160,112976,1,0,0:0:0:0:
224,160,113088,1,0,0:0:0:0:
224,160,113144,1,0,0:0:0:0:
288,160,113200,1,8,0:0:0:0:
288,160,113536,1,8,0:0:0:0:
288,160,113871,1,8,0:0:0:0:
288,160,114095,1,8,0:0:0:0:
224,160,114151,1,0,0:0:0:0:
288,160,114207,1,8,0:0:0:0:
288,160,114263,1,8,0:0:0:0:
224,160,114319,1,0,0:0:0:0:
288,160,114375,1,8,0:0:0:0:
224,160,114431,1,0,0:0:0:0:
224,160,114487,1,0,0:0:0:0:
288,160,114543,1,8,0:0:0:0:
224,160,114599,1,0,0:0:0:0:
288,160,114711,1,8,0:0:0:0:
224,160,114767,1,0,0:0:0:0:
288,160,114823,1,8,0:0:0:0:
224,160,114879,1,0,0:0:0:0:
224,160,114935,1,0,0:0:0:0:
288,160,114991,1,8,0:0:0:0:
224,160,115047,1,0,0:0:0:0:
288,160,115103,1,8,0:0:0:0:
288,160,115159,1,8,0:0:0:0:
224,160,115271,1,0,0:0:0:0:
288,160,115327,1,8,0:0:0:0:
224,160,115383,1,0,0:0:0:0:
288,160,115439,1,8,0:0:0:0:
224,160,115476,1,0,0:0:0:0:
288,160,115513,1,8,0:0:0:0:
288,160,115551,1,8,0:0:0:0:
224,160,115588,1,0,0:0:0:0:
288,160,115625,1,8,0:0:0:0:
224,160,115662,1,0,0:0:0:0:
224,160,115700,1,0,0:0:0:0:
288,160,115737,1,8,0:0:0:0:
224,160,115774,1,0,0:0:0:0:
288,160,115812,1,8,0:0:0:0:
288,160,115849,1,8,0:0:0:0:
224,160,115886,1,0,0:0:0:0:
224,224,116110,1,4,0:0:0:0:
224,224,116334,1,4,0:0:0:0:
288,160,116558,1,8,0:0:0:0:
224,160,116633,1,0,0:0:0:0:
288,160,116782,1,8,0:0:0:0:
224,160,116838,1,0,0:0:0:0:
224,160,116894,1,0,0:0:0:0:
224,160,116950,1,0,0:0:0:0:
288,160,117006,1,8,0:0:0:0:
224,160,117230,1,0,0:0:0:0:
224,160,117286,1,0,0:0:0:0:
288,160,117454,1,8,0:0:0:0:
288,160,117509,1,8,0:0:0:0:
224,160,117565,1,0,0:0:0:0:
288,160,117677,1,8,0:0:0:0:
288,160,117733,1,8,0:0:0:0:
288,160,117789,1,8,0:0:0:0:
224,160,117845,1,0,0:0:0:0:
224,160,117901,1,0,0:0:0:0:
224,160,117957,1,0,0:0:0:0:
288,160,118013,1,8,0:0:0:0:
288,160,118069,1,8,0:0:0:0:
288,160,118125,1,8,0:0:0:0:
224,160,118181,1,0,0:0:0:0:
224,160,118237,1,0,0:0:0:0:
224,160,118293,1,0,0:0:0:0:
288,160,118349,1,8,0:0:0:0:
288,160,118386,1,8,0:0:0:0:
288,160,118424,1,8,0:0:0:0:
224,160,118461,1,0,0:0:0:0:
224,160,118498,1,0,0:0:0:0:
224,160,118536,1,0,0:0:0:0:
288,160,118573,1,8,0:0:0:0:
224,160,118797,1,0,0:0:0:0:
224,160,118909,1,0,0:0:0:0:
224,160,119021,1,0,0:0:0:0:
288,160,119133,1,8,0:0:0:0:
288,160,119301,1,8,0:0:0:0:
224,160,119468,1,0,0:0:0:0:
224,160,119524,1,0,0:0:0:0:
288,160,119580,1,8,0:0:0:0:
288,160,119748,1,8,0:0:0:0:
288,160,119804,1,8,0:0:0:0:
224,160,119860,1,0,0:0:0:0:
224,160,119916,1,0,0:0:0:0:
288,160,119972,1,8,0:0:0:0:
224,160,120140,1,0,0:0:0:0:
288,160,120196,1,8,0:0:0:0:
224,160,120252,1,0,0:0:0:0:
224,160,120308,1,0,0:0:0:0:
288,160,120364,1,8,0:0:0:0:
224,160,120476,1,0,0:0:0:0:
224,160,120532,1,0,0:0:0:0:
288,160,120588,1,8,0:0:0:0:
288,160,120644,1,8,0:0:0:0:
288,160,120700,1,8,0:0:0:0:
288,160,120756,1,8,0:0:0:0:
224,160,120812,1,0,0:0:0:0:
224,160,120868,1,0,0:0:0:0:
224,160,121036,1,0,0:0:0:0:
288,160,121092,1,8,0:0:0:0:
288,160,121148,1,8,0:0:0:0:
288,160,121204,1,8,0:0:0:0:
224,160,121259,1,0,0:0:0:0:
