osu file format v14

[General]
AudioFilename: audio.mp3
AudioLeadIn: 0
PreviewTime: 23713
Countdown: 0
SampleSet: Soft
StackLeniency: 0.7
Mode: 0
LetterboxInBreaks: 0
WidescreenStoryboard: 1

[Editor]
Bookmarks: 23786,47201,70615,94030,117445,140859,164274,187689,214030,237445,260859,284274
DistanceSpacing: 1.4
BeatDivisor: 8
GridSize: 32
TimelineZoom: 1.4

[Metadata]
Title:404 Not Found
TitleUnicode:404 Not Found
Artist:Kide feat. Chiyu
ArtistUnicode:Kide feat. 赤羽
Creator:mintIceCream_
Version:we continue dreaming
Source:
Tags:浓缩排骨 坐标p Zeno kieed Quadimension 平行四界 Medium V 五维介质 Synthesizer V pop chinese
BeatmapID:3580179
BeatmapSetID:1750011

[Difficulty]
HPDrainRate:5
CircleSize:4
OverallDifficulty:8
ApproachRate:9
SliderMultiplier:3.4
SliderTickRate:1

[Events]
//Background and Video events
0,0,"mint_bg.jpg",0,0
//Break Periods
//Storyboard Layer 0 (Background)
//Storyboard Layer 1 (Fail)
//Storyboard Layer 2 (Pass)
//Storyboard Layer 3 (Foreground)
//Storyboard Layer 4 (Overlay)
//Storyboard Sound Samples

[TimingPoints]
372,731.707317073171,4,2,1,42,1,0
372,-133.333333333333,4,2,1,42,0,0
1835,-100,4,2,1,72,0,0
2567,-133.333333333333,4,2,1,42,0,0
7689,-100,4,2,1,72,0,0
8420,-133.333333333333,4,2,1,42,0,0
11347,-100,4,2,1,42,0,0
11713,-133.333333333333,4,2,1,42,0,0
12079,-100,4,2,1,52,0,0
14640,-133.333333333333,4,2,1,52,0,0
15006,-100,4,2,1,52,0,0
22963,-100,4,2,1,15,0,0
23054,-66.6666666666667,4,2,1,72,0,0
26347,-100,4,2,1,72,0,0
26713,-66.6666666666667,4,2,1,72,0,0
28908,-100,4,2,1,72,0,0
29640,-66.6666666666667,4,2,1,72,0,0
30920,-100,4,2,1,72,0,0
31469,-66.6666666666667,4,2,1,72,0,0
41347,-100,4,2,1,72,0,0
42079,-66.6666666666667,4,2,1,72,0,0
42811,-100,4,2,1,72,0,0
43542,-66.6666666666667,4,2,1,72,0,0
47109,-66.6666666666667,4,2,1,15,0,0
47201,-66.6666666666667,4,2,1,42,0,0
48298,-133.333333333333,4,2,1,42,0,0
49762,-200,4,2,1,42,0,0
54152,-133.333333333333,4,2,1,42,0,0
58908,-200,4,2,1,42,0,0
60371,-133.333333333333,4,2,1,42,0,0
61835,-200,4,2,1,52,0,0
64030,-133.333333333333,4,2,1,52,0,0
67689,-133.333333333333,4,2,1,62,0,0
69884,-133.333333333333,4,2,1,72,0,0
70615,-100,4,2,1,72,0,0
76469,-100,4,2,1,72,0,0
82323,-66.6666666666667,4,2,1,72,0,0
82689,-100,4,2,1,72,0,0
88176,-200,4,2,1,72,0,0
92567,-66.6666666666667,4,2,1,72,0,0
93664,-200,4,2,1,72,0,0
94030,-66.6666666666667,4,2,1,72,0,0
94762,-100,4,2,1,72,0,0
95128,-66.6666666666667,4,2,1,72,0,0
100615,-100,4,2,1,72,0,0
102079,-66.6666666666667,4,2,1,72,0,0
111957,-66.6666666666667,4,2,1,72,0,0
120006,-100,4,2,1,72,0,0
120371,-66.6666666666667,4,2,1,72,0,0
122567,-100,4,2,1,72,0,0
123298,-66.6666666666667,4,2,1,72,0,0
124579,-100,4,2,1,72,0,0
125128,-66.6666666666667,4,2,1,72,0,0
126957,-100,4,2,1,72,0,0
127323,-66.6666666666667,4,2,1,72,0,0
130432,-100,4,2,1,72,0,0
130981,-66.6666666666667,4,2,1,72,0,0
132079,-100,4,2,1,72,0,0
132445,-66.6666666666667,4,2,1,72,0,0
135006,-100,4,2,1,72,0,0
135737,-66.6666666666667,4,2,1,72,0,0
136469,-100,4,2,1,72,0,0
137201,-66.6666666666667,4,2,1,72,0,0
140768,-66.6666666666667,4,2,1,15,0,0
140859,-66.6666666666667,4,2,1,42,0,0
149640,-200,4,2,1,42,0,0
163451,-200,4,2,1,15,0,0
163542,-200,4,2,1,72,0,0
164274,-66.6666666666667,4,2,1,72,0,0
169396,-133.333333333333,4,2,1,72,0,0
170128,-66.6666666666667,4,2,1,72,0,0
172323,-50,4,2,1,72,0,0
173054,-66.6666666666667,4,2,1,72,0,0
175250,-33.3333333333333,4,2,1,82,0,0
175981,-50,4,2,1,82,0,0
176713,-66.6666666666667,4,2,1,82,0,0
177079,-50,4,2,1,82,0,0
177811,-66.6666666666667,4,2,1,82,0,0
181286,-50,4,2,1,82,0,0
181835,-66.6666666666667,4,2,1,82,0,0
182932,-50,4,2,1,82,0,0
183298,-66.6666666666667,4,2,1,82,0,0
184030,-50,4,2,1,82,0,0
185128,-100,4,2,1,82,0,0
185493,-50,4,2,1,82,0,0
187689,-50,4,2,1,72,0,0
188054,-100,4,2,1,72,0,0
188420,-50,4,2,1,72,0,0
188786,-100,4,2,1,72,0,0
189884,-50,4,2,1,72,0,0
190250,-100,4,2,1,72,0,0
191164,-66.6666666666667,4,2,1,72,0,0
193542,-50,4,2,1,72,0,0
193908,-100,4,2,1,72,0,0
194274,-50,4,2,1,72,0,0
194640,-100,4,2,1,72,0,0
195006,-50,4,2,1,72,0,0
195371,-100,4,2,1,72,0,0
195737,-50,4,2,1,72,0,0
196103,-66.6666666666667,4,2,1,72,0,0
204884,-50,4,2,1,72,0,0
205615,-100,4,2,1,72,0,0
205981,-66.6666666666667,4,2,1,72,0,0
210920,-66.6666666666667,4,2,1,52,0,0
212384,-100,4,2,1,52,0,0
214030,-125,4,2,1,42,0,0
227201,-250,4,2,1,42,0,0
227932,-125,4,2,1,42,0,0
230128,-250,4,2,1,42,0,0
234335,-125,4,2,1,15,0,0
234518,-125,4,2,1,72,0,0
235615,-66.6666666666667,4,2,1,72,0,0
237445,-66.6666666666667,4,2,1,72,0,0
238176,-100,4,2,1,72,0,0
238542,-66.6666666666667,4,2,1,72,0,0
244396,-100,4,2,1,72,0,0
246225,-66.6666666666667,4,2,1,72,0,0
248786,-66.6666666666667,4,2,1,72,0,0
249884,-100,4,2,1,72,0,0
250250,-66.6666666666667,4,2,1,72,0,0
265981,-100,4,2,1,72,0,0
266713,-66.6666666666667,4,2,1,72,0,0
267993,-100,4,2,1,72,0,0
268542,-66.6666666666667,4,2,1,72,0,0
270371,-100,4,2,1,72,0,0
270737,-66.6666666666667,4,2,1,72,0,0
273847,-100,4,2,1,72,0,0
274396,-66.6666666666667,4,2,1,72,0,0
278420,-100,4,2,1,72,0,0
279152,-66.6666666666667,4,2,1,72,0,0
279884,-100,4,2,1,72,0,0
280615,-66.6666666666667,4,2,1,72,0,0
284182,-66.6666666666667,4,2,1,15,0,0
284274,-200,4,2,1,42,0,0
301835,-232.568204074414,4,2,1,42,0,0

[Colours]
Combo1 : 255,202,249
Combo2 : 28,187,255
Combo3 : 255,180,38

[HitObjects]
55,308,372,6,0,P|13:328|-17:357,1,63.7500024318696,2|0,0:1|0:0,0:0:0:0:
139,275,737,2,0,P|111:249|80:237,1,63.7500024318696,2|0,0:0|0:0,0:0:0:0:
226,311,1103,2,0,P|225:270|211:243,2,63.7500024318696,2|0|0,0:0|0:0|0:0,0:0:0:0:
144,351,1652,1,2,0:0:0:0:
283,192,1835,6,0,B|413:166|293:49|440:21,1,255,2|0,0:1|0:0,0:0:0:0:
448,100,2567,2,0,L|515:110,2,63.7500024318696,2|0|0,0:0|0:0|0:0,0:0:0:0:
512,32,3115,1,2,0:0:0:0:
281,26,3298,6,0,P|251:35|181:62,1,95.6250036478044,2|0,0:1|0:0,0:0:0:0:
188,50,3664,2,0,P|119:76|105:83,1,63.7500024318696,2|0,0:0|0:0,0:0:0:0:
273,111,4030,2,0,P|230:127|191:147,2,63.7500024318696,2|0|0,0:0|0:0|0:0,0:0:0:0:
271,198,4579,1,2,0:0:0:0:
170,275,4762,2,0,P|178:235|192:201,2,63.7500024318696,2|0|0,0:0|0:0|0:1,0:0:0:0:
283,325,5311,2,0,P|296:354|308:402,2,63.7500024318696,2|0|0,0:0|0:0|0:0,0:0:0:0:
201,352,5859,1,2,0:0:0:0:
248,250,6042,1,0,0:0:0:0:
424,233,6225,6,0,P|431:173|395:144,1,95.6250036478044,2|0,0:1|0:0,0:0:0:0:
398,152,6591,2,0,L|327:169,1,63.7500024318696,2|0,0:0|0:0,0:0:0:0:
434,243,6957,2,0,L|501:223,2,63.7500024318696,2|0|0,0:0|0:0|0:0,0:0:0:0:
338,271,7506,1,2,0:0:0:0:
207,165,7689,6,0,B|60:130|188:25|37:-2,1,255,2|0,0:1|0:0,0:0:0:0:
20,88,8420,2,0,P|49:77|106:74,1,63.7500024318696,2|0,0:0|0:0,0:0:0:0:
44,179,8786,2,0,P|75:174|104:160,1,63.7500024318696,2|0,0:0|0:0,0:0:0:0:
170,92,9152,2,0,P|208:73|244:71,2,63.7500024318696,2|0|0,0:0|0:0|0:0,0:0:0:0:
255,156,9701,2,0,P|227:175|191:178,2,63.7500024318696,2|0|0,0:0|0:0|0:0,0:0:0:0:
342,135,10250,1,2,0:0:0:0:
387,44,10432,1,0,0:0:0:0:
306,4,10615,2,0,P|299:44|326:80,1,63.7500024318696,2|0,0:0|0:0,0:0:0:0:
447,152,10981,2,0,P|454:106|430:80,1,63.7500024318696,2|0,0:0|0:0,0:0:0:0:
374,187,11347,6,0,P|354:248|339:310,1,127.500004863739,2|0,0:1|0:0,0:0:0:0:
331,305,11713,2,0,L|323:267,3,31.8750012159348,2|0|0|0,0:0|0:0|0:0|0:0,0:0:0:0:
415,292,12079,5,2,0:1:0:0:
347,381,12262,1,0,0:0:0:0:
338,303,12445,1,0,0:0:0:0:
427,367,12628,1,2,0:0:0:0:
260,338,12811,2,0,P|224:351|181:371,2,85
217,257,13359,5,2,0:0:0:0:
260,191,13542,1,0,0:0:0:0:
218,121,13725,1,0,0:0:0:0:
290,81,13908,2,0,P|311:36|338:3,2,85,2|0|2,0:0|0:0|0:0,0:0:0:0:
207,0,14457,2,0,L|220:48,1,42.5
281,162,14640,6,0,L|321:173,3,31.8750012159348,2|0|0|0,0:0|0:0|0:0|0:0,0:0:0:0:
209,121,15006,5,2,0:1:0:0:
109,184,15189,1,0,0:0:0:0:
191,202,15371,1,2,0:0:0:0:
128,102,15555,1,0,0:0:0:0:
24,185,15737,2,0,L|49:266,2,85,2|0|0,0:0|0:0|0:0,0:0:0:0:
39,81,16286,2,0,P|89:94|131:114,1,85,2|0,0:0|0:0,0:0:0:0:
198,196,16652,2,0,P|237:212|278:222,2,85,0|2|0,0:0|0:0|0:0,0:0:0:0:
281,140,17201,5,2,0:0:0:0:
363,224,17384,1,0,0:0:0:0:
363,224,17475,1,0,0:0:0:0:
363,224,17567,1,2,0:0:0:0:
298,311,17750,1,0,0:0:0:0:
367,215,17932,6,0,P|425:225|471:234,1,85,2|0,0:1|0:0,0:0:0:0:
478,338,18298,2,0,P|437:327|396:320,1,85,2|0,0:0|0:0,0:0:0:0:
280,229,18664,1,2,0:0:0:0:
258,139,18847,1,0,0:0:0:0:
348,120,19030,1,0,0:0:0:0:
411,0,19213,6,0,L|420:46,1,42.5,2|0,0:0|0:0,0:0:0:0:
464,141,19396,2,0,P|377:118|320:110,1,127.5
352,220,19762,2,0,L|361:305,1,85,2|0,0:0|0:0,0:0:0:0:
383,384,20128,5,2,0:0:0:0:
462,353,20311,1,0,0:0:0:0:
429,279,20493,1,2,0:0:0:0:
353,310,20676,2,0,L|306:328,1,42.5
256,192,20859,12,0,22963,0:0:0:0:
132,0,23054,6,0,P|297:76|295:257,1,382.500014591218,0|0,3:1|0:0,0:0:0:0:
0,380,23786,2,0,P|23:291|33:187,1,191.250007295609,4|0,0:0|2:0,0:0:0:0:
160,146,24152,2,0,P|222:130|292:121,1,127.500004863739,0|0,3:0|0:0,0:0:0:0:
354,384,24518,5,8,0:0:0:0:
117,280,24701,1,0,0:0:0:0:
100,62,24884,1,2,0:0:0:0:
195,228,25067,6,0,P|206:277|214:354,2,127.500004863739,0|0|0,3:0|0:0|0:0,0:0:0:0:
474,59,25615,6,0,P|406:77|355:203,1,191.250007295609,2|0,3:2|2:0,0:0:0:0:
512,266,25981,1,10,0:0:0:0:
462,153,26164,1,0,0:0:0:0:
258,65,26347,6,0,L|239:163,1,85,2|0,0:0|0:0,0:0:0:0:
102,357,26713,2,0,P|25:312|36:202,1,191.250007295609,0|0,3:0|2:0,0:0:0:0:
97,40,27079,2,0,L|130:163,1,127.500004863739,0|0,3:0|0:0,0:0:0:0:
114,265,27445,5,8,0:0:0:0:
14,103,27628,1,0,0:0:0:0:
179,0,27811,1,2,3:2:0:0:
215,232,27993,6,0,P|275:251|336:271,2,127.500004863739,0|0|0,3:0|0:0|0:0,0:0:0:0:
331,380,28542,6,0,P|411:346|520:316,1,191.250007295609,2|0,3:2|0:0,0:0:0:0:
511,208,28908,2,0,P|471:191|431:178,1,85,10|0,0:0|3:0,0:0:0:0:
326,156,29274,1,2,0:0:0:0:
415,257,29457,1,0,0:0:0:0:
69,286,29640,6,0,P|59:184|147:128,1,191.250007295609,0|0,3:2|2:0,0:0:0:0:
218,136,30006,2,0,L|236:-19,1,127.500004863739,0|0,3:0|3:0,0:0:0:0:
1,55,30371,5,8,0:0:0:0:
150,240,30554,1,0,0:0:0:0:
333,107,30737,1,2,3:2:0:0:
228,123,30920,2,0,L|245:226,2,85,0|0|0,3:0|0:0|0:0,0:0:0:0:
399,268,31469,6,0,B|379:295|347:351|347:351|303:325|262:312,1,191.250007295609,2|0,3:1|0:0,0:0:0:0:
338,1,31835,6,0,B|387:6|434:1|434:1|426:39|424:93,1,191.250007295609,10|0,0:1|0:0,0:0:0:0:
506,111,32201,6,0,B|486:146|471:204|471:204|432:185|382:172,1,191.250007295609,2|0,0:1|0:0,0:0:0:0:
135,121,32567,6,0,P|50:162|57:264,1,191.250007295609,0|0,3:0|0:0,0:0:0:0:
138,384,32932,1,0,3:0:0:0:
138,210,33115,1,2,0:0:0:0:
0,354,33298,6,0,P|58:327|209:278,1,191.250007295609,8|0,0:0|0:0,0:0:0:0:
247,242,33664,2,0,B|264:211|281:189|281:189|249:179|223:162,1,127.500004863739,2|0,3:1|3:0,3:0:0:0:
232,356,34030,5,0,0:0:0:0:
512,320,34213,1,0,0:0:0:0:
362,279,34396,2,0,B|338:294|304:303|304:303|317:330|329:362,1,127.500004863739,2|0,3:1|3:0,3:0:0:0:
425,349,34762,6,0,P|456:207|470:151,1,191.250007295609,8|0,0:0|2:0,0:0:0:0:
428,84,35128,1,0,3:0:0:0:
222,161,35311,1,10,0:0:0:0:
30,0,35493,6,0,P|108:15|95:149,1,191.250007295609,4|0,0:0|0:0,0:0:0:0:
43,188,35859,2,0,P|16:291|5:359,1,127.500004863739,0|0,3:0|0:0,0:0:0:0:
120,321,36225,5,8,0:0:0:0:
257,130,36408,1,0,0:0:0:0:
36,98,36591,1,2,0:0:0:0:
192,251,36774,2,0,P|252:271|312:292,2,127.500004863739,0|0|0,3:0|0:0|0:0,0:0:0:0:
394,128,37323,6,0,P|411:38|496:3,1,191.250007295609,2|0,3:2|2:0,0:0:0:0:
512,106,37688,1,10,0:0:0:0:
294,207,37871,1,0,0:0:0:0:
183,15,38054,2,0,P|242:39|301:64,1,127.500004863739,2|0,0:0|0:0,0:0:0:0:
499,361,38420,6,0,P|482:224|457:124,1,191.250007295609,0|0,3:0|0:0,0:0:0:0:
512,104,38786,1,2,3:2:0:0:
456,276,38969,1,0,0:0:0:0:
308,236,39152,2,0,P|241:315|296:396,1,191.250007295609,8|0,0:0|0:0,0:0:0:0:
449,287,39518,5,2,3:2:0:0:
308,150,39701,1,0,0:2:0:0:
424,0,39884,2,0,P|440:72|376:116,1,127.500004863739,0|0,3:2|0:0,0:0:0:0:
181,86,40250,6,0,P|66:113|-11:147,1,191.250007295609,2|0,3:2|0:0,0:0:0:0:
191,0,40615,2,0,P|260:33|261:111,1,127.500004863739,10|0,0:0|3:0,0:0:0:0:
128,197,40981,1,0,3:2:0:0:
0,46,41164,1,10,0:0:0:0:
245,207,41347,6,0,P|248:249|227:333,1,127.5,0|0,3:0|0:0,0:0:0:0:
146,298,41713,1,2,0:0:0:0:
93,369,41896,1,0,3:0:0:0:
380,164,42079,6,0,P|371:97|390:17,1,127.500004863739,8|0,0:0|0:0,0:0:0:0:
480,193,42445,1,2,3:2:0:0:
370,366,42628,1,0,3:0:0:0:
348,259,42811,6,0,P|382:261|470:309,1,127.5,0|0,3:0|0:0,0:0:0:0:
264,349,43176,2,0,P|232:308|231:273,1,85,2|0,0:0|3:0,0:0:0:0:
311,57,43542,6,0,P|242:96|164:116,1,127.500004863739,8|0,0:0|3:0,0:0:0:0:
498,94,43908,2,0,P|488:24|408:4,1,127.500004863739,2|0,3:2|0:0,0:0:0:0:
224,11,44274,5,4,0:0:0:0:
256,192,44365,12,0,47109,0:0:0:0:
170,136,47201,5,0,3:0:0:0:
196,56,47932,1,8,0:3:0:0:
50,123,48664,6,0,P|65:192|68:280,2,127.500004863739,0|0|8,0:3|3:0|0:3,0:3:0:0:
117,68,49762,2,0,L|124:27,2,42.5,0|0|0,0:0|0:0|3:0,0:0:0:0:
226,180,50859,6,0,L|214:84,1,85,8|0,0:3|0:0,0:0:0:0:
334,0,52323,6,0,L|314:136,1,127.5,8|0,0:3|0:0,0:0:0:0:
374,177,53054,1,0,3:0:0:0:
290,198,53786,5,8,0:3:0:0:
446,244,54152,2,0,P|414:249|385:260,2,63.7500024318696
375,261,54884,6,0,P|322:278|296:289,1,63.7500024318696,0|0,3:0|0:0,0:0:0:0:
238,338,55250,2,0,P|290:350|436:387,1,191.250007295609,8|0,0:3|0:0,0:0:0:0:
470,317,55981,1,0,3:0:0:0:
67,170,56713,5,8,0:3:0:0:
87,282,57079,2,0,P|114:294|146:305,2,63.7500024318696,0|0|0,3:0|0:0|0:0,0:0:0:0:
148,315,57811,2,0,P|195:324|224:336,1,63.7500024318696,0|0,3:0|0:0,0:0:0:0:
315,305,58176,2,0,P|316:268|328:229,1,63.7500024318696,8|0,0:3|0:0,0:0:0:0:
286,168,58542,1,0,3:0:0:0:
241,239,58725,1,0,3:0:0:0:
335,241,58908,6,0,P|365:248|380:254,3,42.5,0|0|0|0,3:0|0:0|0:0|0:0,0:0:0:0:
424,182,59640,2,0,P|464:170|476:165,1,42.5,8|0,0:3|0:0,0:0:0:0:
512,240,60006,1,0,0:0:0:0:
232,257,60371,6,0,P|232:228|263:201,1,63.7500024318696
342,158,60737,2,0,P|396:170|429:180,1,63.7500024318696,0|0,3:0|0:0,0:0:0:0:
462,102,61103,2,0,P|491:99|515:58,1,63.7500024318696,8|0,0:3|0:0,0:0:0:0:
453,19,61469,1,0,0:0:0:0:
277,92,61835,6,0,P|280:60|285:47,3,42.5,0|0|0|0,3:0|0:0|0:0|0:0,0:0:0:0:
177,77,62567,2,0,P|167:89|127:106,1,42.5,8|0,0:3|0:0,0:0:0:0:
105,178,62932,1,0,0:0:0:0:
61,107,63115,2,0,P|31:93|8:89,1,42.5
340,187,63664,6,0,P|361:193|387:204,1,42.5,0|0,3:0|0:0,0:0:0:0:
460,202,64030,2,0,P|492:182|499:145,1,63.7500024318696,8|0,0:3|0:0,0:0:0:0:
399,275,64396,2,0,P|349:315|340:334,1,63.7500024318696
492,345,64762,6,0,P|482:304|481:275,3,63.7500024318696,0|0|0|0,3:0|0:0|0:0|0:0,0:0:0:0:
294,249,65493,2,0,P|236:260|182:276,1,95.6250036478044,8|0,0:3|0:0,0:0:0:0:
116,309,65859,1,0,3:0:0:0:
78,168,66591,6,0,P|116:191|128:237,1,63.7500024318696,0|0,3:0|0:0,0:0:0:0:
182,365,66957,1,8,0:3:0:0:
28,306,67323,6,0,L|42:239,1,63.7500024318696,0|0,3:0|0:0,0:0:0:0:
203,157,67689,2,0,P|209:121|176:87,2,63.7500024318696,0|0|0,3:0|0:0|0:0,0:0:0:0:
189,17,68237,5,0,3:0:0:0:
26,42,68420,2,0,P|88:52|133:72,1,95.6250036478044,8|0,0:3|0:0,0:0:0:0:
271,57,68786,6,0,P|325:75|342:76,1,63.7500024318696,0|0,3:2|3:0,3:0:0:0:
455,19,69152,1,0,3:0:0:0:
421,219,69518,5,0,3:0:0:0:
358,162,69701,1,0,3:0:0:0:
444,110,69884,6,0,L|436:150,1,31.8750012159348,8|0,0:0|0:0,0:0:0:0:
403,311,70067,1,0,0:0:0:0:
512,361,70250,5,8,0:0:0:0:
482,283,70432,1,0,3:0:0:0:
245,218,70615,6,0,P|222:281|207:355,1,127.5,4|0,0:0|0:0,0:0:0:0:
356,384,70981,1,0,3:0:0:0:
313,302,71164,1,0,3:0:0:0:
141,227,71347,6,0,P|110:182|120:131,1,85,8|0,0:0|0:0,0:0:0:0:
281,48,71713,6,0,L|270:104,1,42.5,0|0,3:0|0:0,0:0:0:0:
389,99,71896,2,0,P|389:163|326:201,1,127.5,0|0,3:0|0:0,0:0:0:0:
183,82,72262,6,0,L|198:122,1,42.5,0|0,3:0|0:0,0:0:0:0:
40,103,72445,2,0,P|34:42|84:9,1,127.5,0|0,3:0|0:0,0:0:0:0:
37,186,72811,6,0,P|20:260|3:359,2,170,8|0|0,0:0|0:0|3:0,0:0:0:0:
117,137,73725,1,0,0:0:0:0:
195,297,73908,5,0,3:0:0:0:
117,265,74091,2,0,L|104:199,1,42.5,0|0,3:0|0:0,0:0:0:0:
250,212,74274,2,0,P|286:238|274:334,1,127.5,8|0,0:0|0:0,0:0:0:0:
211,382,74640,6,0,L|128:366,1,85,0|0,3:0|3:0,3:0:0:0:
290,322,75006,2,0,P|350:300|412:285,1,127.5
417,291,75371,5,0,3:0:0:0:
369,168,75554,2,0,L|361:227,1,42.5
505,275,75737,2,0,P|520:236|503:198,1,85,8|0,0:0|3:0,0:0:0:0:
303,118,76103,2,0,B|233:97|296:61|208:40,1,127.5
462,12,76469,6,0,P|389:23|307:64,1,127.5,0|0,3:0|0:0,0:0:0:0:
246,190,76835,2,0,L|234:247,1,42.5,0|0,3:0|0:0,0:0:0:0:
377,161,77018,1,0,0:0:0:0:
171,115,77201,6,0,P|158:177|248:239,2,170,8|0|0,0:0|3:0|3:0,0:0:0:0:
334,233,78115,2,0,L|345:288,1,42.5,0|0,3:0|0:0,0:0:0:0:
438,255,78298,6,0,P|447:336|382:385,2,170,0|8|0,3:0|0:0|3:0,0:0:0:0:
434,168,79213,6,0,L|380:185,1,42.5,0|0,3:0|0:0,0:0:0:0:
303,340,79396,2,0,P|242:324|171:312,1,127.5,0|0,3:0|0:0,0:0:0:0:
13,384,79762,1,0,3:0:0:0:
103,343,79945,1,0,3:0:0:0:
74,190,80128,6,0,P|75:237|124:264,1,85,8|0,0:0|0:0,0:0:0:0:
209,209,80493,2,0,L|154:235,1,42.5,0|0,3:0|0:0,0:0:0:0:
28,291,80676,1,0,3:0:0:0:
62,102,80859,2,0,P|121:117|167:136,1,85
275,123,81225,5,0,3:0:0:0:
350,82,81408,1,0,0:0:0:0:
224,0,81591,2,0,P|199:35|211:74,1,85,8|0,0:0|0:0,0:0:0:0:
356,170,81957,5,8,0:0:0:0:
282,46,82140,1,0,0:0:0:0:
463,24,82323,2,0,P|476:84|430:124,1,127.5,4|0,0:2|0:0,0:0:0:0:
447,289,82689,6,0,P|440:234|429:180,1,85,0|0,3:0|0:0,0:0:0:0:
509,167,83054,1,8,0:0:0:0:
362,261,83237,1,0,0:0:0:0:
252,204,83420,6,0,L|271:144,1,42.5,0|0,3:0|0:0,0:0:0:0:
283,354,83603,2,0,P|267:306|225:284,1,85,8|0,0:0|0:0,0:0:0:0:
0,344,83969,5,0,3:0:0:0:
71,303,84152,1,0,3:0:0:0:
85,224,84335,1,0,3:0:0:0:
167,216,84518,2,0,P|151:299|140:384,2,170,8|0|0,0:0|3:0|3:0,0:0:0:0:
267,203,85432,1,0,0:0:0:0:
212,87,85615,6,0,L|202:131,1,42.5,0|0,3:0|0:0,0:0:0:0:
111,136,85798,1,0,3:0:0:0:
250,9,85981,2,0,P|300:46|302:108,1,127.5,8|0,0:0|0:0,0:0:0:0:
373,161,86347,5,0,3:0:0:0:
512,75,86530,1,8,0:0:0:0:
402,41,86713,2,0,L|381:92,1,42.5,0|0,3:0|0:0,0:0:0:0:
345,235,86896,5,0,3:0:0:0:
454,170,87079,1,0,3:0:0:0:
492,280,87262,1,0,3:0:0:0:
184,358,87445,6,0,P|276:321|338:307,1,127.5,8|0,0:0|0:0,0:0:0:0:
400,308,87811,2,0,L|415:359,1,42.5,8|0,0:0|0:0,0:0:0:0:
259,232,87993,1,0,3:0:0:0:
334,90,88176,6,0,P|196:131|5:387,1,467.5,4|0,0:0|0:0,0:0:0:0:
156,319,90371,6,0,P|148:294|139:269,1,42.5,2|0,0:0|0:0,0:0:0:0:
221,226,90737,1,0,0:0:0:0:
304,264,90920,1,0,0:0:0:0:
77,332,91103,6,0,P|69:219|178:154,1,233.75,2|0,0:0|0:0,0:0:0:0:
118,66,92201,5,0,3:0:0:0:
15,30,92384,1,0,3:0:0:0:
236,141,92567,2,0,P|316:114|398:72,1,127.500004863739,8|0,0:0|0:0,0:0:0:0:
501,237,92932,2,0,P|417:206|369:197,1,127.500004863739,8|0,0:0|0:0,0:0:0:0:
435,129,93298,5,8,0:0:0:0:
462,42,93481,1,0,3:0:0:0:
297,211,93664,2,0,P|299:242|308:273,1,63.75,2|0,0:0|0:0,0:0:0:0:
476,324,94030,6,0,P|476:268|367:196,1,191.250007295609,12|0,0:0|0:0,0:0:0:0:
304,360,94396,1,0,3:0:0:0:
392,292,94579,1,0,3:0:0:0:
224,285,94762,2,0,P|146:258|76:241,1,127.5,8|0,0:0|0:0,0:0:0:0:
15,262,95128,2,0,P|14:200|59:157,1,127.500004863739,0|0,3:0|3:0,3:0:0:0:
161,168,95493,5,0,3:0:0:0:
69,339,95676,1,0,3:0:0:0:
264,186,95859,2,0,P|243:119|219:62,1,127.500004863739,0|0,3:0|0:0,0:0:0:0:
490,139,96225,6,0,P|478:49|393:19,1,191.250007295609,8|0,0:0|0:0,0:0:0:0:
368,140,96591,2,0,P|359:204|358:266,1,127.500004863739,0|0,3:0|0:0,0:0:0:0:
503,333,96957,1,0,3:0:0:0:
434,212,97140,1,0,3:0:0:0:
187,350,97323,2,0,P|211:289|268:256,1,127.500004863739,0|0,3:0|0:0,0:0:0:0:
412,384,97689,2,0,L|247:328,1,127.500004863739,8|0,0:0|0:0,0:0:0:0:
27,245,98054,5,0,3:0:0:0:
79,354,98237,1,0,3:0:0:0:
138,137,98420,2,0,P|128:195|123:264,1,127.500004863739,0|0,3:0|3:0,3:0:0:0:
46,162,98786,2,0,P|-9:90|26:6,1,191.250007295609,0|0,3:0|0:0,0:0:0:0:
142,29,99152,2,0,P|227:52|324:100,1,191.250007295609,8|0,0:0|0:0,0:0:0:0:
361,183,99518,5,0,3:0:0:0:
512,114,99701,1,0,3:0:0:0:
278,167,99884,2,0,P|229:241|282:306,1,127.500004863739,4|0,0:0|0:0,0:0:0:0:
512,374,100250,2,0,P|498:301|426:183,1,191.250007295609,0|0,3:0|0:0,0:0:0:0:
322,92,100615,2,0,P|311:28|312:-17,1,85,8|0,0:0|0:0,0:0:0:0:
412,98,100981,6,0,P|421:80|428:59,1,42.5,0|0,3:0|0:0,0:0:0:0:
509,15,101164,1,0,3:0:0:0:
208,95,101347,5,0,3:0:0:0:
232,222,101530,1,0,3:0:0:0:
358,180,101713,2,0,P|419:211|440:293,1,127.5,0|0,3:0|0:0,0:0:0:0:
327,323,102079,5,8,0:0:0:0:
119,248,102262,1,0,3:0:0:0:
425,384,102445,2,0,P|432:297|444:234,1,127.500004863739,8|0,0:0|3:0,0:0:0:0:
209,320,102811,6,0,P|138:344|58:383,1,127.500004863739,0|0,3:0|0:0,0:0:0:0:
192,177,103176,1,0,3:0:0:0:
327,237,103359,1,0,3:0:0:0:
5,213,103542,6,0,L|129:249,1,127.500004863739,8|0,0:0|0:0,0:0:0:0:
136,44,103908,1,0,3:0:0:0:
87,147,104091,1,8,0:0:0:0:
224,65,104274,5,0,3:0:0:0:
3,9,104457,1,0,3:0:0:0:
190,177,104640,2,0,P|261:139|326:119,1,127.500004863739,0|0,3:0|0:0,0:0:0:0:
499,180,105006,6,0,P|524:93|457:32,1,191.250007295609,12|0,0:0|0:0,0:0:0:0:
377,4,105371,2,0,L|369:96,1,63.7500024318696,0|0,3:0|0:0,0:0:0:0:
224,65,105554,1,0,3:0:0:0:
393,300,105737,6,0,P|412:197|442:92,1,191.250007295609,12|0,0:0|0:0,0:0:0:0:
486,268,106103,1,0,3:0:0:0:
291,208,106286,1,0,3:0:0:0:
300,297,106469,6,0,P|256:375|167:361,1,191.250007295609,8|0,0:0|0:0,0:0:0:0:
95,207,106835,2,0,P|127:216|242:277,1,127.500004863739,0|0,3:0|3:0,3:0:0:0:
10,361,107201,1,0,3:0:0:0:
103,297,107384,1,0,3:0:0:0:
5,188,107567,2,0,P|23:81|37:44,1,127.500004863739,0|0,3:0|0:0,0:0:0:0:
296,133,107932,6,0,P|285:45|173:25,1,191.250007295609,8|0,0:0|0:0,0:0:0:0:
93,124,108298,2,0,L|232:95,1,127.500004863739,0|0,3:0|3:0,3:0:0:0:
354,239,108664,1,0,3:0:0:0:
428,86,108847,1,0,3:0:0:0:
256,224,109030,2,0,L|289:372,1,127.500004863739,0|0,3:0|0:0,0:0:0:0:
512,170,109396,6,0,P|453:204|455:272,1,127.500004863739,8|0,0:0|0:0,0:0:0:0:
387,384,109762,1,0,3:0:0:0:
505,334,109945,1,8,0:0:0:0:
354,239,110128,1,0,3:0:0:0:
433,92,110311,1,0,3:0:0:0:
199,212,110493,2,0,P|203:303|283:348,1,191.250007295609,0|0,3:0|0:0,0:0:0:0:
282,177,110859,1,8,0:0:0:0:
28,212,111042,1,0,3:0:0:0:
100,278,111225,1,0,3:0:0:0:
10,308,111408,5,0,3:0:0:0:
10,308,111500,1,0,3:0:0:0:
10,308,111591,2,0,P|102:318|227:381,1,191.250007295609,12|0,0:0|0:0,0:0:0:0:
119,195,111957,2,0,L|106:129,1,63.7500024318696,0|0,3:0|0:0,0:0:0:0:
19,97,112140,1,0,3:0:0:0:
283,90,112323,6,0,P|225:114|203:172,1,127.500004863739,8|0,0:0|0:0,0:0:0:0:
108,62,112689,2,0,L|119:128,1,63.7500024318696,0|0,3:0|0:0,0:0:0:0:
186,15,112871,1,0,3:0:0:0:
298,174,113054,6,0,P|389:208|459:220,1,127.500004863739,0|0,3:0|0:0,0:0:0:0:
506,87,113420,1,0,3:0:0:0:
367,115,113603,1,0,3:0:0:0:
289,355,113786,6,0,P|362:318|511:286,1,191.250007295609,8|0,0:0|0:0,0:0:0:0:
477,370,114152,1,0,3:0:0:0:
271,261,114335,1,0,3:0:0:0:
183,381,114518,6,0,P|127:361|126:301,1,127.500004863739,12|0,0:0|0:0,0:0:0:0:
29,194,114884,1,0,3:0:0:0:
154,111,115067,5,0,3:0:0:0:
154,111,115158,1,0,3:0:0:0:
154,111,115250,2,0,L|123:319,1,191.250007295609,12|0,0:0|0:0,0:0:0:0:
27,295,115615,5,0,3:0:0:0:
244,163,115798,2,0,P|256:83|165:7,1,191.250007295609,12|0,0:0|0:0,0:0:0:0:
63,89,116164,5,0,3:0:0:0:
227,268,116347,1,0,3:0:0:0:
437,165,116530,1,0,3:0:0:0:
437,165,116621,1,0,3:0:0:0:
437,165,116713,2,0,L|513:190,1,63.7500024318696,8|0,0:0|0:0,0:0:0:0:
425,321,116896,1,0,3:0:0:0:
343,98,117079,1,0,3:0:0:0:
512,0,117262,5,0,3:0:0:0:
512,0,117353,1,0,3:0:0:0:
512,0,117445,2,0,P|422:83|424:147,1,191.250007295609,4|0,3:2|0:0,0:0:0:0:
312,184,117811,2,0,L|163:234,1,127.500004863739
247,378,118176,1,8,0:0:0:0:
401,244,118359,1,0,0:0:0:0:
275,85,118542,1,2,0:0:0:0:
305,191,118725,2,0,P|292:251|317:311,2,127.500004863739,0|0|0,3:0|0:0|0:0,0:0:0:0:
23,255,119274,6,0,P|120:261|177:340,1,191.250007295609,2|0,3:2|0:0,0:0:0:0:
62,358,119640,1,10,0:0:0:0:
11,158,119823,1,0,0:0:0:0:
197,107,120006,2,0,P|214:145|211:208,1,85,2|0,0:0|0:0,0:0:0:0:
447,246,120371,6,0,P|455:177|359:92,1,191.250007295609,0|0,3:0|0:0,0:0:0:0:
218,7,120737,2,0,P|149:31|66:51,1,127.500004863739,0|0,3:0|0:0,0:0:0:0:
295,120,121103,1,8,0:0:0:0:
336,21,121286,1,0,0:0:0:0:
483,36,121469,1,2,3:2:0:0:
320,228,121652,2,0,P|261:197|152:166,2,127.500004863739,0|0|0,3:0|0:0|0:0,0:0:0:0:
341,384,122201,6,0,P|445:316|520:286,1,191.250007295609,2|0,3:2|0:0,0:0:0:0:
225,355,122567,2,0,P|280:330|292:293,1,85,10|0,0:2|3:0,0:0:0:0:
376,158,122932,1,2,0:2:0:0:
406,244,123115,1,0,0:0:0:0:
203,271,123298,6,0,P|88:315|62:393,1,191.250007295609,0|0,3:0|0:0,0:0:0:0:
211,275,123664,2,0,L|236:118,1,127.500004863739,0|0,3:0|3:0,3:0:0:0:
8,101,124030,1,8,0:0:0:0:
149,185,124213,1,0,0:0:0:0:
158,22,124396,1,2,3:2:0:0:
0,201,124579,2,0,L|99:229,2,85,0|0|0,3:0|0:0|0:0,0:0:0:0:
344,133,125128,6,0,B|373:153|432:180|432:180|408:224|398:269,1,191.250007295609,2|0,3:1|0:0,0:0:0:0:
232,87,125493,6,0,B|251:56|277:-1|277:-1|322:22|365:31,1,191.250007295609,10|0,0:1|0:0,0:0:0:0:
178,189,125859,6,0,B|148:167|89:141|89:141|114:94|123:50,1,191.250007295609,2|0,0:1|0:0,0:0:0:0:
264,162,126225,5,0,3:0:0:0:
299,335,126408,1,0,0:0:0:0:
512,303,126591,2,0,P|449:269|383:251,1,127.500004863739,2|0,3:2|3:2,3:0:0:0:
137,363,126957,6,0,P|170:288|179:257,1,85,8|0,0:0|0:0,0:0:0:0:
109,112,127323,2,0,B|102:139|87:169|87:169|125:185|145:199,1,127.500004863739,2|0,3:1|3:0,3:0:0:0:
163,287,127689,5,0,0:0:0:0:
259,228,127871,1,0,0:0:0:0:
74,254,128054,2,0,B|47:261|13:263|13:263|18:304|16:328,1,127.500004863739,2|0,3:1|3:0,3:0:0:0:
262,357,128420,6,0,P|342:335|484:309,1,191.250007295609,8|0,0:0|0:0,0:0:0:0:
394,231,128786,2,0,P|405:175|414:136,1,63.7500024318696,8|0,0:0|0:0,0:0:0:0:
246,71,128969,2,0,P|255:115|258:164,1,63.7500024318696,8|0,0:0|0:0,0:0:0:0:
388,10,129152,6,0,P|499:47|503:140,1,191.250007295609,12|0,0:0|0:0,0:0:0:0:
480,190,129518,2,0,L|447:357,1,127.500004863739,0|0,3:0|3:0,3:0:0:0:
340,98,129884,5,8,0:0:0:0:
163,162,130067,1,0,0:0:0:0:
304,272,130250,1,2,3:2:0:0:
246,71,130432,2,0,L|139:43,2,85,0|0|0,3:0|0:0|0:0,0:0:0:0:
111,384,130981,6,0,P|149:278|255:235,1,191.250007295609,2|0,3:2|0:0,0:0:0:0:
378,323,131347,1,10,0:0:0:0:
199,335,131530,1,0,0:0:0:0:
123,179,131713,2,0,P|58:189|-26:226,1,127.500004863739,2|0,3:2|3:0,3:0:0:0:
215,139,132079,6,0,P|236:85|265:50,1,85,0|0,3:0|0:0,0:0:0:0:
84,0,132445,2,0,P|107:82|118:192,1,191.250007295609,0|0,3:0|0:0,0:0:0:0:
50,286,132811,1,8,0:0:0:0:
33,116,132993,1,0,0:0:0:0:
176,26,133176,1,2,3:2:0:0:
198,225,133359,2,0,P|262:260|305:305,2,127.500004863739,0|0|0,3:0|0:0|0:0,0:0:0:0:
450,86,133908,6,0,P|347:124|325:218,1,191.250007295609,2|0,3:2|0:0,0:0:0:0:
501,273,134274,2,0,P|505:227|423:182,1,127.500004863739,10|0,0:2|3:0,0:0:0:0:
99,360,134640,2,0,P|188:326|279:297,1,191.250007295609,10|0,0:2|0:0,0:0:0:0:
409,264,135006,6,0,P|402:306|386:345,1,85,0|0,3:2|0:0,0:0:0:0:
319,208,135371,1,2,3:2:0:0:
438,170,135554,1,0,3:0:0:0:
306,34,135737,6,0,P|229:86|222:179,1,191.250007295609,8|0,0:0|0:0,0:0:0:0:
160,249,136103,1,2,3:2:0:0:
328,211,136286,1,8,0:0:0:0:
360,130,136469,6,0,P|395:145|461:161,1,85,0|0,3:0|0:0,0:0:0:0:
418,239,136835,2,0,P|456:262|458:310,1,85,2|0,3:2|3:0,3:0:0:0:
342,307,137201,6,0,P|210:271|147:272,1,191.250007295609,8|0,0:0|0:0,0:0:0:0:
73,214,137567,1,2,3:2:0:0:
7,382,137750,1,8,0:0:0:0:
79,303,137932,1,4,0:0:0:0:
256,192,138024,12,0,140768,0:0:0:0:
334,226,140859,5,2,0:0:0:0:
333,212,141225,1,0,0:0:0:0:
344,200,141591,1,0,0:0:0:0:
358,198,141957,1,0,0:0:0:0:
314,318,143786,5,2,0:0:0:0:
287,309,144152,1,0,0:0:0:0:
286,287,144518,1,0,0:0:0:0:
298,323,144884,1,0,0:0:0:0:
149,340,146713,5,2,0:0:0:0:
83,354,147079,1,0,0:0:0:0:
108,351,147445,1,0,0:0:0:0:
133,330,147811,1,0,0:0:0:0:
81,139,148908,5,0,0:0:0:0:
63,97,149274,1,0,0:0:0:0:
86,49,149640,2,0,L|-7:80,2,85,2|0|0,0:0|0:0|0:0,0:0:0:0:
256,62,151103,6,0,B|408:23|341:173|493:120,1,255,2|0,0:1|0:0,0:0:0:0:
267,193,152567,5,2,0:0:0:0:
283,184,152932,1,0,0:0:0:0:
296,164,153298,1,0,0:0:0:0:
297,144,153664,1,0,0:0:0:0:
451,71,155493,5,2,0:0:0:0:
467,82,155859,1,0,0:0:0:0:
474,94,156225,1,0,0:0:0:0:
478,113,156591,1,0,0:0:0:0:
388,291,158420,5,2,0:0:0:0:
358,284,158786,1,0,0:0:0:0:
368,248,159152,1,0,0:0:0:0:
401,259,159518,1,0,0:0:0:0:
175,362,160615,5,0,0:0:0:0:
87,312,160981,1,2,0:1:0:0:
256,192,161073,12,0,163451,0:0:0:0:
227,193,163542,5,8,0:0:0:0:
11,83,163725,1,8,0:0:0:0:
0,84,164274,6,0,P|65:60|126:46,1,127.500004863739,4|0,3:2|0:0,0:0:0:0:
316,3,164640,2,0,P|364:79|310:151,1,191.250007295609,0|0,3:2|0:0,0:0:0:0:
113,291,165006,6,0,L|141:195,1,63.7500024318696,8|0,0:0|0:0,0:0:0:0:
252,255,165189,2,0,L|224:159,1,63.7500024318696,0|0,3:0|0:0,0:0:0:0:
68,184,165371,2,0,P|54:226|115:292,1,127.500004863739,10|0,0:0|0:0,0:0:0:0:
423,384,165737,5,2,3:2:0:0:
337,230,165920,1,2,3:2:0:0:
456,263,166103,5,2,3:2:0:0:
302,348,166286,1,2,3:2:0:0:
462,32,166469,6,0,P|366:74|255:101,1,191.250007295609,10|0,0:0|0:0,0:0:0:0:
512,124,166835,2,0,P|427:152|382:174,1,127.500004863739,10|0,0:0|0:0,0:0:0:0:
236,204,167201,5,2,3:2:0:0:
175,32,167384,1,2,3:2:0:0:
83,221,167567,2,0,L|185:189,1,63.7500024318696,2|0,0:0|0:0,0:0:0:0:
259,10,167750,1,2,3:2:0:0:
65,0,167932,6,0,P|81:61|96:123,2,127.500004863739,10|2|2,0:2|3:2|0:2,0:2:0:0:
200,329,168481,5,2,3:2:0:0:
200,329,168573,1,2,3:2:0:0:
200,329,168664,2,0,P|205:287|214:250,1,63.7500024318696,2|0,3:2|0:0,0:0:0:0:
17,166,168847,2,0,P|6:123|-6:81,1,63.7500024318696,2|0,3:2|0:0,0:0:0:0:
87,307,169030,2,0,P|80:272|71:225,1,63.7500024318696,2|0,3:2|0:0,0:0:0:0:
242,149,169213,2,0,P|258:96|270:71,1,63.7500024318696,2|0,3:2|0:0,0:0:0:0:
132,119,169396,6,0,P|137:160|148:209,2,63.7500024318696,10|2|0,0:0|3:2|3:0,0:0:0:0:
185,43,169945,1,10,0:0:0:0:
268,237,170128,6,0,P|345:242|428:273,1,127.500004863739,0|0,3:0|0:0,0:0:0:0:
508,290,170493,2,0,P|502:338|369:365,1,191.250007295609,0|0,3:0|0:0,0:0:0:0:
379,193,170859,2,0,L|392:255,1,63.7500024318696,8|0,0:0|0:0,0:0:0:0:
494,128,171042,2,0,L|483:190,1,63.7500024318696,0|0,3:0|0:0,0:0:0:0:
240,338,171225,6,0,L|75:377,1,127.500004863739,10|0,0:0|0:0,0:0:0:0:
119,198,171591,6,0,P|92:107|-6:102,1,191.250007295609,2|0,3:2|0:0,0:0:0:0:
177,83,171957,6,0,P|71:97|47:182,1,191.250007295609,2|0,3:2|0:0,0:0:0:0:
253,255,172323,6,0,L|306:-26,1,255,10|0,0:0|0:0,0:0:0:0:
196,165,172689,1,2,3:2:0:0:
370,303,172871,1,8,0:0:0:0:
190,157,173054,6,0,L|112:135,1,63.7500024318696,2|0,3:2|0:0,0:0:0:0:
369,119,173237,2,0,L|480:145,1,63.7500024318696,2|0,3:2|0:0,0:0:0:0:
252,323,173420,2,0,L|272:246,1,63.7500024318696,2|0,3:2|0:0,0:0:0:0:
164,330,173603,5,2,3:2:0:0:
164,330,173695,1,2,3:2:0:0:
164,330,173786,1,10,0:2:0:0:
359,311,173969,1,2,3:2:0:0:
150,221,174152,1,2,3:2:0:0:
0,369,174335,1,10,0:2:0:0:
41,211,174518,6,0,L|63:308,1,63.7500024318696,2|0,3:2|0:0,0:0:0:0:
263,311,174701,5,2,3:2:0:0:
263,311,174792,1,0,3:0:0:0:
263,311,174884,1,0,3:0:0:0:
461,343,175067,5,0,3:0:0:0:
351,117,175250,6,0,B|387:60|535:20|535:20|415:98|401:182|401:182|203:89|46:81|46:81|63:108|98:120|98:120|117:106|144:109,1,892.500034046174,14|0,0:0|0:0,0:0:0:0:
288,46,175981,6,0,B|258:64|258:64|214:238|214:238|251:289,1,255,10|0,0:0|0:0,0:0:0:0:
328,384,176347,1,0,3:0:0:0:
135,293,176530,1,0,3:0:0:0:
321,247,176713,6,0,L|396:225,1,63.7500024318696,8|0,0:0|0:0,0:0:0:0:
209,367,176896,2,0,L|122:388,1,63.7500024318696,0|0,3:0|0:0,0:0:0:0:
0,269,177079,2,0,B|-38:220|9:165|9:165|167:118,1,255,2|0,3:2|0:0,0:0:0:0:
209,168,177445,5,0,3:0:0:0:
161,0,177628,1,0,3:0:0:0:
118,208,177811,2,0,B|100:237|100:237|134:280,1,63.7500024318696,0|0,3:0|0:0,0:0:0:0:
251,84,177993,5,0,3:0:0:0:
251,84,178085,1,0,3:0:0:0:
251,84,178176,2,0,B|285:52|312:47|312:47|293:26|259:42,1,127.500004863739,10|0,0:0|0:0,0:0:0:0:
73,57,178451,2,0,B|38:88|12:94|12:94|31:114|64:98,1,127.500004863739,2|0,3:2|0:0,0:0:0:0:
228,200,178725,2,0,B|245:194|245:194|260:163|260:163|298:152,1,63.7500024318696,10|0,0:0|0:0,0:0:0:0:
479,112,178908,5,2,3:2:0:0:
360,81,179091,1,0,3:0:0:0:
360,81,179182,1,0,3:0:0:0:
360,81,179274,1,0,3:0:0:0:
275,165,179457,2,0,B|293:191|293:191|291:237,1,63.7500024318696,0|0,3:0|0:0,0:0:0:0:
209,292,179640,5,10,0:0:0:0:
479,333,179823,1,0,3:0:0:0:
376,244,180006,1,0,3:0:0:0:
304,348,180189,2,0,B|332:324|332:324|358:320,1,63.7500024318696,10|0,0:0|0:0,0:0:0:0:
504,186,180371,5,0,3:0:0:0:
461,254,180554,1,0,3:0:0:0:
461,254,180646,1,0,3:0:0:0:
461,254,180737,1,0,3:0:0:0:
269,169,180920,5,0,3:2:0:0:
372,254,181103,2,0,B|360:286|360:286|361:340,1,63.7500024318696,10|0,0:2|0:0,0:0:0:0:
153,245,181286,6,0,B|134:94|134:94|99:47,2,170,0|8|2,3:2|0:2|3:2,0:2:0:0:
216,85,181835,6,0,B|241:70|257:33|257:33|292:28|292:28|307:54,1,127.500004863739,0|0,3:0|0:0,0:0:0:0:
114,91,182201,6,0,B|89:106|73:143|73:143|37:147|37:147|23:122,1,127.500004863739,0|0,3:0|3:0,0:0:0:0:
103,0,182567,2,0,B|137:-4|137:-4|170:18,1,63.7500024318696,8|0,0:0|0:0,0:0:0:0:
304,147,182750,1,0,3:0:0:0:
175,342,182932,2,0,B|211:295|295:260|295:260|284:250|252:242,1,170,10|10,0:0|0:0,0:0:0:0:
28,352,183298,1,0,3:0:0:0:
139,256,183481,1,0,3:0:0:0:
24,156,183664,1,0,3:0:0:0:
185,338,183847,2,0,B|214:334|214:334|229:352|229:352|262:346,1,63.7500024318696,0|0,3:0|0:0,0:0:0:0:
423,228,184030,6,0,B|386:247|386:247|341:304|398:396,2,170,10|0|10,0:0|3:0|0:0,0:0:0:0:
248,168,184579,6,0,B|254:191|278:205|278:205|281:233|259:265,1,85,8|0,0:0|0:0,0:0:0:0:
338,0,184762,2,0,B|402:30|402:30|400:122|400:122|467:161,1,226.666666666667,14|0,0:0|0:0,0:0:0:0:
490,61,185128,6,0,L|513:0,2,56.6666666666667,0|0|0,3:0|3:0|3:0,3:0:0:0:
313,86,185493,6,0,B|273:63|232:60|232:60|194:85|151:162,1,170,14|0,0:0|0:0,0:0:0:0:
299,235,185768,2,0,B|336:204|352:172|352:172|336:127|273:65,1,170,2|0,3:2|0:0,0:0:0:0:
172,124,186042,2,0,B|160:156|147:167|147:167|107:168|72:157,1,85,10|0,0:0|0:0,0:0:0:0:
149,31,186225,6,0,L|173:141,1,85,0|0,3:0|0:0,0:0:0:0:
0,270,186408,2,0,L|14:166,1,85,0|0,3:0|0:0,0:0:0:0:
188,288,186591,2,0,L|84:263,1,85,4|0,3:2|0:0,0:0:0:0:
0,75,186774,5,0,3:0:0:0:
0,75,186865,1,0,3:0:0:0:
0,75,186957,2,0,L|87:91,1,85,8|0,0:0|0:0,0:0:0:0:
287,248,187140,2,0,L|393:221,1,85,8|0,0:0|0:0,0:0:0:0:
275,0,187323,5,8,0:0:0:0:
269,42,187414,1,8,0:0:0:0:
263,84,187505,1,8,0:0:0:0:
257,126,187597,1,8,0:0:0:0:
251,168,187689,2,0,P|143:224|123:350,1,255,12|0,0:0|0:0,0:0:0:0:
290,339,188054,2,0,L|278:250,1,85,0|0,3:0|3:0,3:0:0:0:
369,227,188420,6,0,P|475:154|462:20,1,255,8|0,0:0|0:0,0:0:0:0:
331,48,188786,2,0,L|346:137,1,85,0|0,3:0|3:0,3:0:0:0:
407,307,189152,5,8,0:0:0:0:
259,153,189335,1,8,0:0:0:0:
403,311,189518,2,0,L|493:284,1,85,0|0,3:0|0:0,0:0:0:0:
225,384,189884,6,0,P|224:250|120:183,1,255,8|0,0:0|0:0,0:0:0:0:
60,311,190250,2,0,L|149:344,1,85,0|0,3:0|3:0,3:0:0:0:
139,197,190615,5,8,0:0:0:0:
6,64,190798,1,8,0:0:0:0:
139,197,190981,2,0,L|128:251,1,42.5,0|0,3:0|0:0,0:0:0:0:
12,240,191164,6,8,P|98:105|215:96,2,255.000009727478,10|2|2,0:2|0:2|3:2,0:2:0:0:
230,265,192079,1,8,0:0:0:0:
88,305,192262,6,0,L|73:367,1,63.7500024318696,0|0,3:0|0:0,0:0:0:0:
169,184,192445,2,0,L|357:145,1,191.250007295609,8|0,0:0|0:0,0:0:0:0:
473,264,192811,2,0,P|480:310|407:365,1,127.500004863739,8|0,0:0|0:0,0:0:0:0:
353,136,193176,2,0,L|365:73,1,63.7500024318696,8|0,0:0|0:0,0:0:0:0:
385,265,193359,1,0,3:0:0:0:
229,341,193542,6,0,P|226:257|360:154,1,255,12|0,0:0|0:0,0:0:0:0:
377,63,193908,2,0,P|418:72|464:59,1,85,0|0,3:0|3:0,3:0:0:0:
154,5,194274,6,0,P|100:72|184:214,1,255,8|0,0:0|0:0,0:0:0:0:
298,89,194640,2,0,P|283:52|214:37,1,85,0|0,3:0|3:0,3:0:0:0:
182,207,195006,6,0,B|31:254|206:350|-18:398,1,255,8|0,0:0|0:0,0:0:0:0:
0,241,195371,2,0,L|60:263,1,42.5,0|0,3:0|0:0,0:0:0:0:
196,337,195554,1,0,3:0:0:0:
252,256,195737,6,0,P|398:229|445:223,1,170,8|0,0:0|0:0,0:0:0:0:
376,384,196103,5,0,3:0:0:0:
241,241,196286,1,8,0:0:0:0:
415,77,196469,2,0,P|470:119|382:216,1,191.250007295609,8|0,0:0|0:0,0:0:0:0:
313,123,196835,6,0,L|291:48,1,63.7500024318696,0|0,3:0|0:0,0:0:0:0:
379,0,197018,1,8,0:0:0:0:
232,144,197201,2,0,L|26:202,1,191.250007295609,8|0,0:0|0:0,0:0:0:0:
15,269,197567,5,0,3:0:0:0:
152,83,197750,2,0,P|158:46|84:1,1,127.500004863739,12|0,0:0|0:0,0:0:0:0:
159,258,198115,5,0,3:0:0:0:
29,47,198298,2,0,P|31:111|83:120,1,127.500004863739,12|0,0:0|3:0,0:0:0:0:
245,233,198664,6,0,P|350:228|411:322,1,191.250007295609,12|0,0:0|0:0,0:0:0:0:
462,199,199030,2,0,L|456:136,1,63.7500024318696,0|0,3:0|0:0,0:0:0:0:
304,313,199213,2,0,L|311:377,1,63.7500024318696,0|0,3:0|0:0,0:0:0:0:
462,365,199396,5,10,0:2:0:0:
215,315,199579,1,2,0:2:0:0:
266,87,199762,1,2,3:2:0:0:
304,166,199945,1,2,3:2:0:0:
148,253,200128,5,10,0:2:0:0:
228,10,200311,1,2,0:2:0:0:
354,87,200493,1,2,3:2:0:0:
443,40,200676,1,2,3:2:0:0:
203,168,200859,6,0,B|201:156|201:156|63:109,1,127.500004863739,10|2,0:2|0:2,0:2:0:0:
31,369,201225,2,0,B|50:349|50:349|223:312,1,191.250007295609,2|0,3:2|0:0,0:0:0:0:
314,168,201591,6,0,B|328:200|328:200|310:222,1,63.7500024318696,10|0,0:0|0:0,0:0:0:0:
132,300,201774,2,0,B|125:265|125:265|94:258,1,63.7500024318696,10|0,0:0|0:0,0:0:0:0:
14,100,201957,2,0,B|-23:125|-23:125|-15:161|-15:161|29:171,1,127.500004863739,2|0,3:2|0:0,0:0:0:0:
234,61,202323,6,0,B|215:35|215:35|180:39,1,63.7500024318696,10|0,0:0|0:0,0:0:0:0:
150,175,202506,2,0,P|271:136|395:108,2,255.000009727478,10|2|2,0:0|0:0|3:2,0:0:0:0:
109,100,203420,5,10,0:0:0:0:
308,226,203603,1,0,3:0:0:0:
190,372,203786,6,0,P|200:342|212:312,1,63.7500024318696,2|0,3:2|0:0,0:0:0:0:
414,187,203969,2,0,P|423:217|430:248,1,63.7500024318696,2|0,3:2|0:0,0:0:0:0:
512,384,204152,2,0,P|428:354|329:325,1,191.250007295609,8|0,0:0|0:0,0:0:0:0:
296,230,204518,5,0,3:0:0:0:
502,142,204701,1,0,3:0:0:0:
335,0,204884,2,0,P|301:82|412:189,1,255,12|0,0:0|0:0,0:0:0:0:
497,269,205250,5,0,3:0:0:0:
414,78,205432,1,0,3:0:0:0:
238,160,205615,2,0,L|144:204,1,85,8|0,0:0|3:0,0:0:0:0:
13,357,205981,6,0,P|14:273|71:240,1,127.500004863739,0|0,3:0|3:0,3:0:0:0:
154,338,206347,1,8,0:0:0:0:
80,164,206530,2,0,L|58:104,1,63.7500024318696,0|0,3:0|0:0,0:0:0:0:
0,174,206713,5,0,3:0:0:0:
136,262,206896,1,0,3:0:0:0:
238,160,207079,2,0,L|382:101,1,127.500004863739,8|0,0:0|3:0,0:0:0:0:
291,370,207445,2,0,P|274:262|341:214,1,191.250007295609,0|0,3:0|0:0,0:0:0:0:
459,97,207811,6,0,P|513:25|479:-19,1,127.500004863739,12|0,0:2|0:0,0:0:0:0:
481,241,208176,1,0,3:0:0:0:
270,49,208359,1,0,3:0:0:0:
49,184,208542,1,8,0:0:0:0:
319,200,208725,5,0,3:0:0:0:
126,50,208908,2,0,L|153:160,1,63.7500024318696,0|0,3:0|0:0,0:0:0:0:
183,339,209091,2,0,P|233:166|254:102,1,191.250007295609,12|0,0:0|0:0,0:0:0:0:
377,175,209457,6,0,L|285:214,1,63.7500024318696,0|0,3:0|0:0,0:0:0:0:
131,199,209640,2,0,P|219:243|313:313,1,191.250007295609,12|0,0:0|0:0,0:0:0:0:
350,355,210006,2,0,P|436:348|435:276,1,127.500004863739,0|0,3:0|3:0,3:0:0:0:
113,280,210371,6,0,L|35:337,1,63.7500024318696,0|0,3:0|0:0,0:0:0:0:
150,113,210554,2,0,P|104:42|2:92,1,191.250007295609,12|0,0:0|0:0,0:0:0:0:
36,161,210920,5,0,3:0:0:0:
36,161,211012,1,0,3:0:0:0:
36,161,211103,1,0,3:0:0:0:
476,223,211651,5,0,3:0:0:0:
476,223,211743,1,0,3:0:0:0:
476,223,211834,1,8,0:0:0:0:
176,244,212201,5,0,3:0:0:0:
305,143,212384,2,0,L|334:-13,1,127.500004863739,8|0,0:0|0:0,0:0:0:0:
291,282,212750,6,0,L|281:212,1,42.5,0|0,3:0|0:0,0:0:0:0:
204,151,212932,1,0,3:0:0:0:
419,45,213115,5,0,0:0:0:0:
419,45,213207,1,0,3:0:0:0:
419,45,213298,1,8,0:0:0:0:
475,118,213481,5,0,3:0:0:0:
438,185,213664,5,0,3:0:0:0:
398,192,213847,5,0,3:0:0:0:
162,80,214030,6,4,B|176:98|176:98|188:78|225:50|225:50|92:78|77:182|-18:183|-18:183|25:146|39:106|39:106|220:304|179:67|354:344|354:344|237:190|196:325|222:150|106:176|254:42|378:58|391:102|329:152|254:1|344:-25|184:389|244:107|200:181|156:210|154:285|154:285|91:271|58:238|58:238|-46:298|6:415|146:433|187:313|90:289|90:289,1,1904,4|0,0:0|0:0,0:0:0:0:
412,268,219518,6,0,P|398:244|354:214,1,68,2|0,0:0|0:0,0:0:0:0:
363,223,219884,2,0,B|519:192|489:40|489:40|374:53|388:132,1,408,2|0,0:0|0:0,0:0:0:0:
368,334,221347,6,0,B|219:283|297:225|149:182,1,272,2|0,0:0|0:0,0:0:0:0:
65,258,222445,1,2,0:0:0:0:
319,109,222811,6,0,B|327:135|297:188|297:188|322:166|445:104|445:104|352:64|93:112|332:200|-190:204|-186:183|112:192|261:288|-24:24|159:-68|197:152|204:132|248:129,1,952,2|0,0:0|0:0,0:0:0:0:
229,39,225737,5,2,0:0:0:0:
298,80,225920,1,0,0:0:0:0:
233,120,226103,1,0,0:0:0:0:
272,199,226286,5,2,0:0:0:0:
272,199,226378,1,0,0:0:0:0:
272,199,226469,1,0,0:0:0:0:
202,250,226652,2,0,P|192:312|189:338,2,68,0|0|2,0:0|0:0|0:0,0:0:0:0:
278,281,227201,2,0,L|287:323,1,34
294,315,227567,2,0,L|303:357,1,34
192,243,227932,6,0,P|159:232|126:224,1,68,2|0,0:0|0:0,0:0:0:0:
34,326,228298,2,0,P|64:312|119:296,1,68,2|0,0:0|0:0,0:0:0:0:
285,364,228664,5,0,0:0:0:0:
215,326,228847,1,2,0:0:0:0:
280,279,229030,1,0,0:0:0:0:
224,194,229213,5,0,0:0:0:0:
279,101,229396,2,0,P|283:62|290:30,1,68,2|0,0:0|0:0,0:0:0:0:
203,117,229762,5,0,0:0:0:0:
302,177,229945,1,2,0:0:0:0:
356,78,230128,6,0,P|366:74|401:63,2,34
405,156,230676,5,0,0:0:0:0:
405,156,230768,1,0,0:0:0:0:
405,156,230859,1,2,0:0:0:0:
277,70,231042,5,0,0:0:0:0:
277,70,231134,1,0,0:0:0:0:
277,70,231225,1,2,0:0:0:0:
396,0,231408,5,0,0:0:0:0:
256,192,231591,12,0,234335,0:0:0:0:
489,345,234518,5,12,0:0:0:0:
313,203,234701,2,0,P|321:89|397:44,1,204,12|0,0:0|0:0,0:0:0:0:
379,314,235432,5,0,3:0:0:0:
379,314,235524,1,0,3:0:0:0:
379,314,235615,2,0,L|278:295,1,63.7500024318696,12|0,0:0|0:0,0:0:0:0:
189,174,235798,2,0,L|118:192,1,63.7500024318696,12|0,0:0|0:0,0:0:0:0:
14,375,235981,5,0,3:0:0:0:
224,262,236164,1,0,3:0:0:0:
45,135,236347,1,0,3:0:0:0:
68,281,236530,5,0,3:0:0:0:
68,281,236621,1,0,3:0:0:0:
68,281,236713,2,0,P|130:229|114:169,1,127.500004863739,12|0,0:0|0:0,0:0:0:0:
314,127,237079,2,0,P|339:57|419:30,1,127.500004863739,0|0,3:0|0:0,0:0:0:0:
476,317,237445,2,0,P|410:266|280:213,1,191.250007295609,4|0,3:2|0:0,0:0:0:0:
396,162,237811,2,0,L|473:140,1,63.7500024318696,0|0,3:0|0:0,0:0:0:0:
308,309,237993,1,0,3:0:0:0:
237,180,238176,6,0,P|180:139|203:61,1,127.5,8|0,0:0|0:0,0:0:0:0:
115,24,238542,2,8,P|43:50|-21:92,1,127.500004863739,0|8,3:0|0:0,0:0:0:0:
101,210,238908,1,0,3:0:0:0:
31,160,239091,1,0,3:0:0:0:
18,243,239274,1,0,3:0:0:0:
261,97,239640,6,0,P|295:40|414:48,1,191.250007295609,8|0,0:0|0:0,0:0:0:0:
393,148,240006,2,0,P|451:172|512:193,1,127.500004863739,0|8,3:0|0:0,3:0:0:0:
289,292,240372,1,0,3:0:0:0:
164,336,240555,1,0,3:0:0:0:
344,224,240737,2,0,P|382:274|372:335,1,127.500004863739,0|0,3:0|0:0,0:0:0:0:
70,200,241103,6,0,P|132:211|207:240,1,127.500004863739,8|0,0:0|0:0,0:0:0:0:
87,296,241469,1,0,3:0:0:0:
16,116,241652,1,8,0:0:0:0:
210,48,241835,6,0,P|200:113|134:129,1,127.500004863739,0|8,3:0|0:0,3:0:0:0:
72,192,242201,2,0,P|18:223|6:353,1,191.250007295609,0|0,3:0|0:0,0:0:0:0:
277,213,242567,2,0,P|381:176|512:142,1,191.250007295609,8|0,0:0|0:0,0:0:0:0:
370,95,242933,5,0,3:0:0:0:
464,147,243116,1,8,0:0:0:0:
512,330,243298,6,0,P|448:287|386:261,1,127.500004863739,12|0,0:0|0:0,0:0:0:0:
223,146,243664,2,0,P|162:74|182:17,1,127.500004863739,0|0,3:0|0:0,0:0:0:0:
389,185,244030,6,0,L|252:229,1,127.500004863739,8|0,0:0|0:0,0:0:0:0:
193,345,244396,2,0,L|123:326,1,42.5,0|0,3:0|0:0,0:0:0:0:
75,250,244579,1,8,0:0:0:0:
27,358,244762,5,0,3:0:0:0:
180,234,244945,1,0,3:0:0:0:
51,118,245128,2,0,P|8:170|2:208,1,85,0|0,3:0|0:0,0:0:0:0:
151,147,245494,5,8,0:0:0:0:
244,0,245677,1,0,3:0:0:0:
375,137,245859,2,0,P|453:120|495:126,1,85,8|0,0:0|0:0,0:0:0:0:
123,57,246225,6,0,P|235:109|235:197,1,191.250007295609,0|0,3:0|0:0,0:0:0:0:
395,215,246591,1,0,3:0:0:0:
365,128,246774,1,0,3:0:0:0:
498,0,246957,6,0,L|457:150,1,127.500004863739,8|0,0:0|0:0,0:0:0:0:
421,296,247323,1,0,3:0:0:0:
176,334,247506,5,8,0:0:0:0:
309,384,247689,1,0,3:0:0:0:
336,310,247871,1,0,3:0:0:0:
198,254,248054,2,0,P|115:230|24:227,1,127.500004863739,0|0,3:0|0:0,0:0:0:0:
456,384,248420,6,0,P|516:277|485:215,1,191.250007295609,12|0,0:0|0:0,0:0:0:0:
220,189,248786,2,0,L|209:282,1,63.7500024318696,0|0,3:0|0:0,0:0:0:0:
310,219,248969,1,8,0:0:0:0:
44,140,249152,6,0,P|-16:206|27:301,1,191.250007295609,12|0,0:0|0:0,0:0:0:0:
220,189,249518,1,0,3:0:0:0:
158,0,249701,1,0,3:0:0:0:
366,43,249884,6,0,P|420:54|468:78,1,85,8|0,0:0|0:0,0:0:0:0:
307,133,250250,2,0,P|254:67|271:13,1,127.500004863739,0|8,3:0|0:0,0:0:0:0:
128,94,250616,1,0,3:0:0:0:
17,6,250799,1,8,0:0:0:0:
201,119,250981,2,0,P|177:205|170:321,1,191.250007295609,0|0,3:0|0:0,0:0:0:0:
314,339,251347,6,0,P|320:271|277:236,1,127.500004863739,8|0,0:0|0:0,0:0:0:0:
31,93,251713,2,0,P|0:146|70:241,1,191.250007295609,0|0,3:0|0:0,0:0:0:0:
82,323,252079,1,0,3:0:0:0:
278,156,252262,1,0,3:0:0:0:
272,237,252445,2,0,L|419:209,1,127.500004863739,0|0,3:0|0:0,0:0:0:0:
417,384,252811,6,0,P|428:293|512:257,1,191.250007295609,8|0,0:0|0:0,0:0:0:0:
472,181,253177,1,0,3:0:0:0:
422,68,253360,1,8,0:0:0:0:
512,28,253543,1,0,3:0:0:0:
358,129,253726,1,0,3:0:0:0:
199,18,253908,1,0,3:0:0:0:
326,328,254274,5,8,0:0:0:0:
198,191,254457,1,0,3:0:0:0:
22,252,254640,1,0,3:0:0:0:
84,148,254823,5,0,3:0:0:0:
84,148,254914,1,0,3:0:0:0:
84,148,255006,2,0,P|157:95|125:-7,1,191.250007295609,12|0,0:0|0:0,0:0:0:0:
115,236,255371,2,0,L|141:314,1,63.7500024318696,0|0,3:0|0:0,0:0:0:0:
0,369,255555,1,0,3:0:0:0:
210,198,255737,6,0,P|260:185|353:297,1,191.250007295609,8|0,0:0|0:0,0:0:0:0:
234,358,256103,2,0,L|251:272,1,63.7500024318696,0|0,3:0|0:0,0:0:0:0:
426,176,256286,1,8,0:0:0:0:
512,364,256469,6,0,P|465:345|483:252,1,127.500004863739,0|0,3:0|0:0,0:0:0:0:
426,176,256835,1,0,3:0:0:0:
270,60,257018,1,0,3:0:0:0:
512,44,257201,6,0,P|400:86|331:121,1,191.250007295609,8|0,0:0|0:0,0:0:0:0:
270,60,257567,1,8,0:0:0:0:
67,140,257750,1,0,3:0:0:0:
170,7,257932,2,0,P|185:64|129:106,1,127.500004863739,8|0,0:0|0:0,0:0:0:0:
184,217,258299,1,0,3:0:0:0:
305,195,258481,5,0,3:0:0:0:
305,195,258573,1,0,3:0:0:0:
305,195,258664,2,0,P|212:136|117:98,1,191.250007295609,12|0,0:0|0:0,0:0:0:0:
86,30,259030,5,0,3:0:0:0:
225,329,259213,2,0,P|305:285|304:194,1,191.250007295609,12|0,0:0|0:0,0:0:0:0:
379,137,259579,5,0,3:0:0:0:
185,224,259762,2,0,L|117:250,1,63.7500024318696,0|0,3:0|0:0,0:0:0:0:
338,383,259945,1,0,3:0:0:0:
338,383,260036,1,0,3:0:0:0:
338,383,260128,2,0,L|407:351,1,63.7500024318696,12|0,0:0|0:0,0:0:0:0:
512,231,260311,5,0,3:0:0:0:
412,263,260493,1,0,3:0:0:0:
494,336,260676,1,0,3:0:0:0:
494,336,260768,1,0,3:0:0:0:
494,336,260859,2,0,P|446:240|453:132,1,191.250007295609,4|0,3:2|0:0,0:0:0:0:
319,110,261225,2,0,L|200:64,1,127.500004863739,0|0,3:0|0:0,0:0:0:0:
173,245,261591,5,8,0:0:0:0:
338,203,261774,1,0,0:0:0:0:
406,32,261957,1,2,0:0:0:0:
194,67,262140,2,0,P|192:113|260:154,2,127.500004863739,0|0|0,3:0|0:0|0:0,0:0:0:0:
0,166,262689,6,0,P|90:195|173:243,1,191.250007295609,2|0,3:2|0:0,0:0:0:0:
32,287,263054,1,10,0:0:0:0:
72,69,263237,1,0,0:0:0:0:
264,235,263420,2,0,P|300:271|278:354,1,127.500004863739,2|0,0:0|0:0,0:0:0:0:
283,337,263786,6,0,P|372:302|464:278,1,191.250007295609,0|0,3:0|0:0,0:0:0:0:
501,179,264152,2,0,P|476:123|416:111,1,127.500004863739,0|0,3:0|0:0,3:0:0:0:
474,364,264518,5,8,0:0:0:0:
289,155,264701,1,0,0:0:0:0:
488,0,264884,1,2,3:2:0:0:
410,196,265067,2,0,L|255:144,2,127.500004863739,0|0|0,3:0|0:0|0:0,0:0:0:0:
177,113,265615,6,0,P|218:56|288:56,1,127.500004863739,2|0,3:2|0:0,0:0:0:0:
39,236,265981,2,0,P|15:230|9:165,1,85,10|0,0:0|0:0,0:0:0:0:
83,90,266347,1,2,3:2:0:0:
0,0,266530,1,8,0:0:0:0:
168,228,266713,6,0,P|233:203|384:184,1,191.250007295609,0|0,3:2|0:0,0:0:0:0:
211,132,267079,2,0,P|157:172|186:251,1,127.500004863739,0|0,3:0|3:0,3:0:0:0:
512,375,267445,5,8,0:0:0:0:
386,262,267628,1,0,0:0:0:0:
219,313,267811,1,2,3:2:0:0:
371,345,267993,2,0,L|390:236,2,85,0|0|0,3:0|0:0|0:0,0:0:0:0:
220,99,268542,6,0,B|250:86|309:59|309:59|328:106|354:142,1,191.250007295609,2|0,3:1|0:0,0:0:0:0:
124,149,268908,6,0,B|111:115|85:56|85:56|133:36|168:9,1,191.250007295609,10|0,0:1|0:0,0:0:0:0:
440,117,269274,6,0,B|450:147|476:206|476:206|429:225|393:251,1,191.250007295609,2|0,0:1|0:0,0:0:0:0:
75,207,269640,6,0,P|46:260|123:359,1,191.250007295609,0|0,3:0|0:0,0:0:0:0:
281,298,270006,1,0,3:0:0:0:
225,189,270189,1,2,0:0:0:0:
201,379,270371,6,0,P|194:327|185:287,1,85,8|0,0:0|0:0,0:0:0:0:
337,86,270737,6,0,B|358:78|396:61|396:61|409:92|427:115,1,127.500004863739,2|0,3:1|3:0,3:0:0:0:
296,298,271103,1,0,0:0:0:0:
358,169,271286,1,0,0:0:0:0:
512,162,271469,6,0,B|519:183|536:221|536:221|505:234|482:252,1,127.500004863739,2|0,3:1|3:0,3:0:0:0:
264,209,271835,1,8,0:0:0:0:
36,169,272018,1,0,3:0:0:0:
36,169,272109,1,8,0:0:0:0:
36,169,272201,2,0,L|100:193,1,63.7500024318696,0|0,3:0|0:0,0:0:0:0:
139,380,272384,2,0,L|75:356,1,63.7500024318696,8|0,0:0|0:0,0:0:0:0:
355,246,272567,6,0,P|358:133|302:89,1,191.250007295609,12|0,0:0|0:0,0:0:0:0:
149,42,272932,2,0,L|-6:78,1,127.500004863739,0|0,3:0|3:0,3:0:0:0:
16,280,273298,5,8,0:0:0:0:
270,262,273481,1,0,0:0:0:0:
258,4,273664,1,2,3:2:0:0:
188,148,273847,2,0,L|284:174,2,85,0|0|0,3:0|0:0|0:0,0:0:0:0:
450,300,274396,5,2,3:2:0:0:
293,372,274579,1,0,0:0:0:0:
331,82,274762,2,0,P|395:131|376:244,1,191.250007295609,10|0,0:0|0:0,0:0:0:0:
206,255,275128,2,0,P|181:313|164:375,1,127.500004863739,2|0,3:2|3:0,0:0:0:0:
59,350,275493,6,0,P|21:300|36:241,1,127.500004863739,0|0,3:0|0:0,0:0:0:0:
385,232,275859,2,0,P|482:212|549:204,1,127.500004863739,0|0,3:0|0:0,0:0:0:0:
206,255,276225,5,8,0:0:0:0:
300,274,276408,1,0,0:0:0:0:
271,185,276591,1,2,0:0:0:0:
114,52,276774,2,0,P|124:117|128:211,2,127.500004863739,0|0|0,3:0|0:0|0:0,0:0:0:0:
325,21,277323,6,0,P|395:40|417:147,1,191.250007295609,2|0,3:2|0:0,0:0:0:0:
359,207,277689,1,10,0:0:0:0:
203,107,277871,1,0,3:0:0:0:
405,384,278054,2,0,P|434:300|480:206,1,191.250007295609,10|0,0:0|0:0,0:0:0:0:
359,207,278420,6,0,P|293:247|295:301,1,127.5,0|0,3:2|0:0,0:0:0:0:
309,365,278786,1,2,3:2:0:0:
512,315,278969,1,0,3:0:0:0:
278,123,279152,6,0,P|205:95|70:84,1,191.250007295609,8|0,0:0|0:0,0:0:0:0:
0,122,279518,1,2,3:2:0:0:
58,0,279701,1,8,0:0:0:0:
132,173,279884,6,0,P|129:234|57:269,1,127.5,0|0,3:0|0:0,0:0:0:0:
211,238,280250,1,2,3:2:0:0:
329,365,280432,1,0,3:0:0:0:
177,334,280615,6,0,P|84:356|26:380,1,127.500004863739,8|0,0:0|0:0,0:0:0:0:
315,278,280981,2,0,P|343:208|408:182,1,127.500004863739,2|8,3:2|0:0,0:0:0:0:
506,144,281347,1,4,0:0:0:0:
256,192,281439,12,0,284182,0:0:0:0:
339,143,284274,6,0,B|319:122|267:117|267:117|316:81|366:90|366:90|439:106|476:16|476:16|503:95|469:233|359:237|283:219|283:219|288:207|288:207|172:169|54:257|51:374,1,1020,2|0,0:1|0:0,0:0:0:0:
149,380,290128,6,0,B|310:299|186:93|82:93|43:298|-120:234|-86:12|-46:-77|185:-40|163:155|16:124|19:110,1,680,2|0,0:1|0:0,0:0:0:0:
304,308,295250,6,0,P|355:254|432:242,1,148.75,2|0,0:1|0:0,0:0:0:0:
425,250,295981,2,0,B|450:262|523:240|523:240|211:490|312:124|-18:339|-18:339|85:314|148:361|148:361|161:283|238:240|238:240,1,1020,2|0,0:1|0:0,0:0:0:0:
340,118,301835,6,0,B|358:131|362:164|362:164|382:144|370:115|351:113|351:113|367:98|398:105|398:105|386:78|355:81|347:99|347:99|337:78|353:51|353:51|325:54|317:84|332:98|332:98|310:101|289:77|289:77|284:105|310:121|327:112|327:112|322:133|293:147|293:147|322:162|348:135|332:113,1,584.77469240157,2|2,0:1|0:1,0:0:0:0:
