osu file format v14

[General]
AudioFilename: audio.mp3
AudioLeadIn: 0
PreviewTime: 58139
Countdown: 0
SampleSet: Soft
StackLeniency: 0.4
Mode: 0
LetterboxInBreaks: 0
SkinPreference:Default
WidescreenStoryboard: 1

[Editor]
DistanceSpacing: 1
BeatDivisor: 8
GridSize: 16
TimelineZoom: 3.299999

[Metadata]
Title:Money and the Power
TitleUnicode:Money and the Power
Artist:Kid Ink
ArtistUnicode:Kid Ink
Creator:ent
Version:Normal
Source:
Tags:almost home my own lane english pop rap hip-hop
BeatmapID:3873038
BeatmapSetID:1861425

[Difficulty]
HPDrainRate:4
CircleSize:4
OverallDifficulty:6
ApproachRate:6
SliderMultiplier:2
SliderTickRate:1

[Events]
//Background and Video events
0,0,"grizzLY coreupt360 uncatchable.jpg",0,0
//Break Periods
2,47795,51578
2,81588,84682
2,108484,112112
2,152622,156751
//Storyboard Layer 0 (Background)
//Storyboard Layer 1 (Fail)
//Storyboard Layer 2 (Pass)
//Storyboard Layer 3 (Foreground)
//Storyboard Layer 4 (Overlay)
//Storyboard Sound Samples

[TimingPoints]
14008,689.655172413793,4,2,0,50,1,0
14352,-100,4,2,0,33,0,1
24007,-111.111111111111,4,2,0,33,0,0
25042,-111.111111111111,4,2,0,40,0,0
36076,-100,4,2,0,55,0,0
47111,-111.111111111111,4,2,1,45,0,0
57801,-111.111111111111,4,2,0,45,0,0
58145,-90.9090909090909,4,2,0,66,0,1
80214,-90.9090909090909,4,2,0,20,0,0
85732,-111.111111111111,4,2,0,40,0,0
96076,-111.111111111111,4,2,0,55,0,1
96766,-100,4,2,0,55,0,0
107801,-111.111111111111,4,2,1,45,0,0
118490,-111.111111111111,4,2,0,45,0,0
118835,-90.9090909090909,4,2,1,66,0,1
118921,-90.9090909090909,4,2,0,66,0,1
140904,-111.111111111111,4,2,0,50,0,0
151939,-111.111111111111,4,2,1,40,0,0
162283,-111.111111111111,4,2,0,40,0,0
162628,-111.111111111111,4,2,0,50,0,0
162714,-111.111111111111,4,2,0,55,0,0
162801,-111.111111111111,4,2,0,60,0,0
162887,-111.111111111111,4,2,0,66,0,0
162973,-83.3333333333333,4,2,2,70,0,1
163059,-83.3333333333333,4,2,0,70,0,1
174008,-83.3333333333333,4,2,3,75,0,1
174094,-83.3333333333333,4,2,0,75,0,1
184956,-83.3333333333333,4,2,0,75,0,0
185042,-83.3333333333333,4,2,2,85,0,1
185387,-100,4,2,0,70,0,1
186421,-100,4,2,0,66,0,1
187801,-100,4,2,0,60,0,1
189180,-100,4,2,0,55,0,1
190559,-100,4,2,0,50,0,1
194697,-100,4,2,2,5,0,0

[Colours]
Combo1 : 255,255,255
Combo2 : 173,255,95
Combo3 : 255,88,100
Combo4 : 255,94,55
Combo5 : 17,254,176

[HitObjects]
256,192,14007,5,6,0:0:0:0:
256,192,14697,12,12,25042,1:0:0:0:
124,58,25559,5,10,0:0:0:0:
124,58,25732,2,0,P|177:88|230:153,1,134.999995880127,10|10,0:0|0:0,0:0:0:0:
247,234,26594,1,10,0:0:0:0:
247,234,26766,1,10,0:0:0:0:
317,289,27111,1,10,0:0:0:0:
317,289,27283,1,10,0:0:0:0:
397,249,27628,1,10,0:0:0:0:
397,249,27801,2,0,P|395:191|411:115,1,134.999995880127,10|8,0:0|0:0,0:0:0:0:
444,86,28490,1,10,0:0:0:0:
501,208,29008,2,0,P|507:270|500:310,1,89.9999972534181,8|8,0:0|0:0,0:0:0:0:
486,339,29525,1,10,0:0:0:0:
352,317,30042,2,0,P|290:311|250:318,1,89.9999972534181,8|8,0:0|0:0,0:0:0:0:
222,334,30559,5,8,0:0:0:0:
92,360,31076,1,8,0:0:0:0:
92,360,31249,1,10,0:0:0:0:
11,251,31766,1,8,0:0:0:0:
71,184,32111,1,8,0:0:0:0:
71,184,32283,1,10,0:0:0:0:
13,115,32628,2,0,P|9:82|10:62,1,44.999998626709,10|10,0:0|0:0,0:0:0:0:
81,15,33145,1,8,0:0:0:0:
81,15,33318,2,0,P|144:24|225:17,1,134.999995880127,10|8,0:0|0:0,0:0:0:0:
256,0,34008,1,8,0:0:0:0:
374,65,34525,1,10,0:0:0:0:
124,58,36076,6,0,P|138:102|149:171,1,100,4|2,1:0|0:0,0:0:0:0:
145,200,36594,2,0,L|137:264,1,50,0|10,1:0|0:0,0:0:0:0:
38,366,37283,1,10,0:0:0:0:
38,366,37456,2,0,P|102:361|108:362,1,50,2|8,0:0|0:0,0:0:0:0:
130,371,37801,2,0,L|248:376,2,100,2|10|2,1:2|0:0|0:0,0:0:0:0:
192,289,38835,1,2,1:2:0:0:
314,312,39180,22,0,P|353:314|386:308,2,50,2|2|10,0:0|1:2|0:0,0:0:0:0:
320,211,39870,2,0,P|339:177|352:163,1,50,2|10,0:0|0:0,0:0:0:0:
438,124,40387,1,8,0:0:0:0:
438,124,40559,2,0,P|430:104|411:78,1,50,2|2,1:2|1:2,0:0:0:0:
374,58,40904,2,0,L|239:67,2,100,8|0|2,0:0|1:0|1:2,0:0:0:0:
327,147,41939,6,0,P|268:172|216:169,1,100,2|10,0:0|0:0,0:0:0:0:
189,160,42456,1,2,0:0:0:0:
146,145,42628,2,0,P|105:141|29:156,2,100,2|2|2,0:0|0:0|1:2,0:0:0:0:
106,237,43663,2,0,L|116:357,2,100,10|2|2,0:0|0:0|1:2,0:0:0:0:
197,276,44697,5,2,0:0:0:0:
197,276,44870,2,0,P|253:269|268:262,1,50,2|10,1:2|0:0,0:0:0:0:
345,256,45387,2,0,P|387:263|411:272,1,50,2|8,0:0|0:0,0:0:0:0:
457,351,45904,1,8,0:0:0:0:
457,351,46076,2,0,P|502:323|511:309,2,50,2|2|10,1:2|1:2|0:0,0:0:0:0:
360,377,46766,2,0,L|251:369,1,100,2|4,1:2|3:1,0:0:0:0:
256,192,52628,12,2,57456,0:0:0:0:
0,192,58145,6,0,P|2:246|16:300,2,110.000003356934,4|2|10,1:0|0:1|0:0,0:0:0:0:
95,57,59352,1,10,0:0:0:0:
171,135,59697,1,8,0:0:0:0:
171,135,59870,2,0,P|228:114|287:109,2,110.000003356934,0|10|2,1:0|0:0|0:0,0:0:0:0:
207,238,60904,2,2,P|150:259|91:264,2,110.000003356934,2|2|8,1:2|0:0|0:0,0:1:0:0:
314,205,61939,1,2,0:0:0:0:
314,205,62111,2,0,L|427:215,1,110.000003356934,10|10,0:0|0:0,0:0:0:0:
466,240,62628,2,0,L|475:305,1,55.0000016784668,2|2,1:2|1:2,0:0:0:0:
456,340,62973,2,0,L|343:350,2,110.000003356934,10|2|2,0:0|1:2|1:0,0:0:0:0:
318,265,64180,21,0,1:0:0:0:
318,265,64352,1,10,0:0:0:0:
223,321,64697,2,0,P|181:325|151:321,1,55.0000016784668,2|8,0:0|0:0,0:0:0:0:
120,311,65042,2,0,P|75:310|54:313,1,55.0000016784668,2|10,0:0|0:0,0:0:0:0:
17,323,65387,2,0,P|8:264|11:204,1,110.000003356934,0|10,1:2|0:0,0:0:0:0:
35,107,66076,2,0,P|44:80|42:50,1,55.0000016784668,2|8,0:0|0:0,0:0:0:0:
27,6,66421,6,2,P|97:2|209:13,1,165.000005035401,2|0,1:2|1:0,0:1:0:0:
241,31,67111,1,10,0:0:0:0:
241,31,67283,1,2,0:0:0:0:
351,26,67628,2,0,P|400:7|461:0,1,110.000003356934,10|10,0:0|0:0,0:0:0:0:
506,2,68145,2,0,L|513:69,2,55.0000016784668,2|2|10,1:2|1:2|0:0,0:0:0:0:
430,84,68835,2,0,L|423:151,1,55.0000016784668,2|2,1:2|1:2,0:0:0:0:
424,188,69180,6,0,P|437:267|468:319,1,110.000003356934,4|2,1:0|0:1,0:0:0:0:
483,336,69697,1,0,1:0:0:0:
483,336,69870,1,10,0:0:0:0:
324,363,70387,2,0,P|251:355|196:358,1,110.000003356934,10|8,0:0|0:0,0:0:0:0:
165,360,70904,2,0,L|154:244,2,110.000003356934,0|10|2,1:0|0:0|0:0,0:0:0:0:
72,299,71939,6,0,P|64:221|167:158,1,165.000005035401,2|2,1:2|1:2,0:0:0:0:
170,159,72628,1,10,0:0:0:0:
331,192,73145,2,0,P|373:200|397:197,1,55.0000016784668,10|2,0:0|0:0,0:0:0:0:
433,186,73490,1,8,0:0:0:0:
471,154,73663,2,0,P|479:121|478:84,2,55.0000016784668,2|2|10,1:2|1:2|0:0,0:0:0:0:
380,92,74352,2,0,P|316:63|260:45,1,110.000003356934,2|6,1:2|1:2,0:0:0:0:
172,49,75042,21,2,0:1:0:0:
172,49,75214,2,0,P|177:98|175:116,1,55.0000016784668,0|10,1:0|0:0,0:0:0:0:
20,158,75904,2,0,P|15:109|17:91,2,55.0000016784668,10|2|8,0:0|0:0|0:0,0:0:0:0:
44,201,76421,2,0,L|169:181,2,110.000003356934,0|10|2,1:2|0:0|0:0,0:0:0:0:
3,306,77456,6,0,P|55:344|163:329,1,165.000005035401,2|2,1:2|1:2,0:0:0:0:
190,306,78145,1,10,0:0:0:0:
349,259,78663,2,0,P|390:272|412:288,1,55.0000016784668,8|2,0:0|0:0,0:0:0:0:
430,317,79008,1,8,0:0:0:0:
456,358,79180,2,0,P|495:372|518:372,2,55.0000016784668,2|2|10,1:2|1:2|0:0,0:0:0:0:
346,362,79870,2,0,P|307:376|284:376,2,55.0000016784668,2|8|8,1:2|0:0|0:0,0:0:0:0:
412,1,85732,6,0,P|408:57|413:130,1,89.9999972534181,12|2,1:0|0:0,0:0:0:0:
415,135,86249,2,0,P|417:197|415:211,1,44.999998626709,10|10,0:0|0:0,0:0:0:0:
414,273,86766,1,2,0:1:0:0:
414,273,86939,2,0,P|376:309|333:322,1,89.9999972534181,10|10,0:0|0:0,0:0:0:0:
296,326,87456,1,10,0:0:0:0:
223,281,87801,1,10,0:0:0:0:
223,281,87973,1,10,0:0:0:0:
143,320,88318,1,10,0:0:0:0:
143,320,88490,6,0,P|80:305|61:210,1,134.999995880127,10|10,0:0|0:0,0:0:0:0:
57,200,89180,1,10,0:0:0:0:
174,133,89697,2,0,P|179:73|173:36,1,89.9999972534181,10|10,0:0|0:0,0:0:0:0:
153,3,90214,1,10,0:0:0:0:
21,34,90732,2,0,P|16:94|22:131,1,89.9999972534181,8|8,0:0|0:0,0:0:0:0:
42,164,91249,22,0,L|21:303,1,134.999995880127,10|8,0:0|0:0,0:0:0:0:
13,341,91939,1,10,0:0:0:0:
144,311,92456,2,0,P|209:316|255:326,1,89.9999972534181,8|8,0:0|0:0,0:0:0:0:
274,340,92973,1,10,0:0:0:0:
351,292,93318,1,10,0:0:0:0:
351,292,93490,1,8,0:0:0:0:
440,268,93835,1,8,0:0:0:0:
440,268,94007,2,0,P|436:212|419:170,2,89.9999972534181,10|2|10,0:0|0:1|0:0,0:0:0:0:
512,384,95214,1,10,0:0:0:0:
256,384,96076,2,0,P|242:326|248:243,1,134.999995880127,14|2,0:0|0:0,0:0:0:0:
262,203,96766,6,0,P|268:133|264:75,1,100,4|2,1:0|0:1,0:0:0:0:
255,64,97283,1,0,1:0:0:0:
255,64,97456,1,10,0:0:0:0:
104,28,97973,1,10,0:0:0:0:
14,71,98318,1,10,0:0:0:0:
14,71,98490,2,0,L|6:206,1,100,2|10,1:2|0:0,0:0:0:0:
16,270,99180,1,2,0:0:0:0:
60,359,99525,6,0,P|117:349|196:359,1,100,2|2,1:2|0:0,0:0:0:0:
202,361,100042,2,0,P|255:356|278:346,1,50,2|10,1:2|0:0,0:0:0:0:
334,296,100559,1,2,0:0:0:0:
334,296,100732,2,0,P|319:243|313:175,1,100,8|8,0:0|0:0,0:0:0:0:
343,165,101249,2,0,L|406:141,1,50,2|2,1:2|1:2,0:0:0:0:
415,109,101594,2,0,P|416:59|409:5,2,100,10|2|2,0:0|1:2|1:2,0:0:0:0:
495,175,102628,5,2,0:0:0:0:
495,175,102801,2,0,P|496:231|501:264,1,50,2|10,1:0|0:0,0:0:0:0:
510,323,103318,1,2,0:0:0:0:
510,323,103490,2,0,P|453:329|394:327,1,100,10|10,0:0|0:0,0:0:0:0:
365,325,104007,2,0,P|329:340|304:355,2,50,2|2|10,1:2|1:2|0:0,0:0:0:0:
391,228,104697,2,0,P|395:197|391:165,1,50,2|10,0:0|0:0,0:0:0:0:
380,135,105042,22,0,L|255:125,2,100,0|2|10,1:0|0:0|0:0,0:0:0:0:
354,43,106076,1,2,0:0:0:0:
354,43,106249,2,0,L|229:53,1,100,10|8,0:0|0:0,0:0:0:0:
212,54,106766,1,2,1:2:0:0:
212,54,106939,2,0,L|141:40,1,50,2|10,1:2|0:0,0:0:0:0:
79,0,107456,1,2,1:2:0:0:
79,0,107628,2,0,L|8:14,1,50,10|4,0:0|3:1,0:0:0:0:
256,192,113318,12,2,118145,0:0:0:0:
512,192,118835,6,0,P|510:138|496:84,2,110.000003356934,6|2|10,1:0|0:1|0:0,0:0:0:0:
493,239,119697,2,0,P|471:272|448:282,1,55.0000016784668,2|2,0:0|0:0,0:0:0:0:
408,282,120042,1,10,0:0:0:0:
320,223,120387,1,8,0:0:0:0:
320,223,120559,2,0,L|199:215,2,110.000003356934,2|10|2,1:2|0:0|0:0,0:0:0:0:
364,122,121594,2,2,L|485:114,2,110.000003356934,2|2|10,1:2|0:0|0:2,0:1:0:0:
286,43,122628,1,2,0:0:0:0:
286,43,122801,2,0,P|236:29|174:22,1,110.000003356934,10|10,0:0|0:0,0:0:0:0:
136,49,123318,2,0,L|127:114,1,55.0000016784668,2|2,1:2|1:2,0:0:0:0:
109,149,123663,2,0,P|24:170|-16:167,2,110.000003356934,10|2|2,0:0|1:2|1:0,0:0:0:0:
37,302,124870,5,0,1:0:0:0:
37,302,125042,1,10,0:0:0:0:
134,354,125387,2,0,L|201:345,1,55.0000016784668,2|10,0:0|0:0,0:0:0:0:
238,346,125732,2,0,L|305:355,1,55.0000016784668,2|10,0:0|0:0,0:0:0:0:
341,359,126076,2,0,P|360:301|364:245,1,110.000003356934,2|10,1:2|0:0,0:0:0:0:
264,209,126766,2,0,P|255:182|257:152,1,55.0000016784668,2|8,0:0|0:0,0:0:0:0:
276,110,127111,6,2,L|459:129,1,165.000005035401,2|0,1:2|1:0,0:1:0:0:
492,122,127801,1,10,0:0:0:0:
492,122,127973,1,2,0:0:0:0:
443,25,128318,2,0,P|382:11|328:11,1,110.000003356934,10|10,0:0|0:0,0:0:0:0:
286,21,128835,2,0,P|251:29|223:29,1,55.0000016784668,2|2,1:2|1:2,0:0:0:0:
185,11,129180,1,10,0:0:0:0:
87,25,129525,2,0,P|93:55|95:88,1,55.0000016784668,2|8,1:2|0:0,0:0:0:0:
98,128,129870,22,0,P|72:198|69:252,1,110.000003356934,4|2,1:0|0:1,0:0:0:0:
77,285,130387,1,0,1:0:0:0:
77,285,130559,1,10,0:0:0:0:
197,372,131076,2,0,P|267:374|325:367,1,110.000003356934,10|10,0:0|0:0,0:0:0:0:
351,348,131594,2,0,L|340:232,2,110.000003356934,0|10|2,1:2|0:0|0:0,0:0:0:0:
394,372,132456,1,8,0:0:0:0:
441,358,132628,6,0,P|489:296|463:182,1,165.000005035401,2|2,1:2|1:2,0:0:0:0:
459,169,133318,1,10,0:0:0:0:
352,174,133663,1,2,0:0:0:0:
352,174,133835,2,0,P|360:132|357:108,1,55.0000016784668,8|2,0:0|0:0,0:0:0:0:
342,73,134180,1,8,0:0:0:0:
303,41,134352,2,0,P|270:33|233:34,2,55.0000016784668,2|2|10,1:2|1:2|0:2,0:0:0:0:
255,137,135042,2,0,P|231:183|214:247,1,110.000003356934,2|6,1:2|1:2,0:0:0:0:
158,348,135732,5,2,0:1:0:0:
158,348,135904,2,0,P|151:302|138:279,1,55.0000016784668,0|10,1:0|0:0,0:0:0:0:
12,198,136594,2,0,P|13:158|25:125,1,55.0000016784668,10|2,0:0|0:0,0:0:0:0:
41,100,136939,1,8,0:0:0:0:
82,72,137111,2,0,L|207:52,2,110.000003356934,0|8|2,1:2|0:0|0:0,0:0:0:0:
96,181,138145,6,0,P|116:241|213:291,1,165.000005035401,2|2,1:2|1:2,0:0:0:0:
249,285,138835,1,10,0:0:0:0:
350,328,139180,1,2,0:0:0:0:
350,328,139352,2,0,P|353:296|374:261,1,55.0000016784668,8|2,0:0|0:0,0:0:0:0:
397,239,139697,1,8,0:0:0:0:
433,203,139870,2,0,P|443:170|445:140,2,55.0000016784668,2|2|10,1:2|1:2|0:0,0:0:0:0:
339,144,140559,2,0,P|306:134|276:132,1,55.0000016784668,2|8,1:2|0:0,0:0:0:0:
240,133,140904,22,0,P|250:79|188:13,1,134.999995880127,4|0,1:1|1:0,0:0:0:0:
159,10,141594,1,8,0:0:0:0:
42,78,142111,1,8,0:0:0:0:
60,170,142456,1,8,0:0:0:0:
60,170,142628,2,0,P|61:223|52:275,1,89.9999972534181,2|10,1:2|0:0,0:0:0:0:
178,383,143663,2,0,P|140:334|166:236,1,134.999995880127,2|2,1:2|1:2,0:0:0:0:
169,226,144352,1,10,0:0:0:0:
270,314,144870,1,10,0:2:0:0:
355,280,145214,1,10,0:0:0:0:
355,280,145387,2,0,L|412:278,1,44.999998626709,2|2,1:2|1:2,0:0:0:0:
444,286,145732,2,0,P|478:336|494:383,2,89.9999972534181,10|2|4,0:0|1:2|1:0,0:0:0:0:
345,378,146939,5,0,1:0:0:0:
345,378,147111,1,8,0:0:0:0:
219,329,147628,1,8,0:0:0:0:
172,252,147973,1,10,0:0:0:0:
172,252,148145,2,0,L|187:152,1,89.9999972534181,2|10,1:2|0:0,0:0:0:0:
256,0,149180,2,0,P|319:34|389:33,1,134.999995880127,2|2,1:2|1:2,0:0:0:0:
424,23,149870,1,10,0:0:0:0:
506,128,150387,2,0,P|488:181|483:221,1,89.9999972534181,10|10,0:0|0:0,0:0:0:0:
485,259,150904,1,2,1:2:0:0:
495,302,151076,2,0,L|509:366,1,44.999998626709,2|10,1:2|0:0,0:0:0:0:
423,384,151594,2,0,L|317:375,1,89.9999972534181,2|4,1:2|0:1,0:0:0:0:
256,192,157801,12,12,160904,0:1:0:0:
173,56,161594,5,2,0:0:0:0:
200,153,161939,1,2,0:0:0:0:
301,157,162283,1,2,0:0:0:0:
335,62,162628,1,2,0:1:0:0:
256,0,162973,6,0,P|249:69|254:145,1,119.999996337891,6|2,1:0|0:1,0:0:0:0:
269,175,163490,1,0,1:0:0:0:
269,175,163663,1,10,0:0:0:0:
392,208,164007,1,2,0:0:0:0:
392,208,164180,2,0,P|396:275|382:322,1,59.9999981689454,10|2,0:0|0:0,0:0:0:0:
378,318,164525,1,8,0:0:0:0:
339,355,164697,2,0,P|268:369|178:349,2,119.999996337891,0|10|2,1:2|0:0|0:0,0:0:0:0:
247,277,165732,2,2,P|176:262|86:282,2,119.999996337891,2|2|10,1:2|0:0|0:0,0:1:0:0:
168,186,166766,1,2,0:0:0:0:
168,186,166939,2,0,P|159:145|161:109,1,59.9999981689454,10|2,0:0|0:0,0:0:0:0:
168,74,167283,1,8,0:0:0:0:
197,28,167456,2,0,P|249:12|284:11,1,59.9999981689454,2|2,1:2|1:2,0:0:0:0:
308,11,167801,2,0,P|388:26|440:9,2,119.999996337891,10|2|2,0:0|1:2|1:1,0:0:0:0:
410,172,169007,21,0,1:0:0:0:
410,172,169180,2,0,P|456:220|481:365,1,179.999994506836,10|8,0:0|0:0,0:0:0:0:
380,384,170042,1,10,0:0:0:0:
380,384,170214,2,0,P|312:376|244:383,1,119.999996337891,2|10,1:2|0:0,0:0:0:0:
80,381,171076,1,8,0:0:0:0:
80,381,171249,2,2,L|68:242,2,119.999996337891,2|2|10,1:2|0:0|0:0,0:1:0:0:
185,321,172283,1,2,0:0:0:0:
185,321,172456,1,8,0:0:0:0:
222,209,172801,1,8,0:0:0:0:
222,209,172973,2,0,P|204:171|183:151,1,59.9999981689454,2|2,1:2|1:2,0:0:0:0:
144,132,173318,2,0,P|74:139|38:184,1,119.999996337891,10|2,0:0|1:2,0:0:0:0:
29,227,173835,1,8,0:0:0:0:
46,278,174007,5,6,1:0:0:0:
164,255,174352,1,2,0:1:0:0:
282,268,174697,2,0,L|344:275,1,59.9999981689454,10|2,0:0|0:0,0:0:0:0:
454,318,175214,2,0,L|461:255,1,59.9999981689454,10|2,0:0|0:0,0:0:0:0:
442,207,175559,1,8,0:0:0:0:
424,155,175732,2,0,L|438:31,2,119.999996337891,0|10|2,1:0|0:0|0:0,0:0:0:0:
305,173,176766,6,0,P|246:139|215:80,1,119.999996337891,2|0,1:2|0:0,0:0:0:0:
213,46,177283,1,2,1:2:0:0:
213,46,177456,1,10,0:0:0:0:
36,13,177973,1,8,0:0:0:0:
4,126,178318,1,8,0:0:0:0:
4,126,178490,2,0,P|13:164|17:205,1,59.9999981689454,2|2,1:2|1:2,0:0:0:0:
18,238,178835,2,0,L|10:367,2,119.999996337891,10|2|6,0:0|1:2|1:2,0:0:0:0:
124,305,179870,5,2,0:1:0:0:
124,305,180042,2,0,P|161:310|191:310,1,59.9999981689454,0|10,1:0|0:0,0:0:0:0:
264,223,180559,1,2,0:0:0:0:
264,223,180732,2,0,P|319:225|353:232,1,59.9999981689454,10|2,0:0|0:0,0:0:0:0:
374,244,181076,1,8,0:0:0:0:
415,279,181249,2,0,P|399:334|319:401,2,119.999996337891,2|10|2,1:2|0:0|0:0,0:0:0:0:
450,237,182111,1,8,0:0:0:0:
492,203,182283,22,0,L|506:51,1,119.999996337891,2|0,1:2|0:0,0:0:0:0:
512,32,182801,1,2,1:2:0:0:
512,32,182973,1,10,0:0:0:0:
396,48,183318,1,2,0:0:0:0:
396,48,183490,2,0,L|325:39,1,59.9999981689454,8|2,0:0|0:0,0:0:0:0:
283,53,183835,1,8,0:0:0:0:
231,66,184007,2,0,L|160:57,1,59.9999981689454,2|2,1:2|1:2,0:0:0:0:
128,25,184352,1,10,0:0:0:0:
41,125,184697,2,0,L|112:134,1,59.9999981689454,2|8,1:2|0:0,0:0:0:0:
144,166,185042,53,6,1:0:0:0:
256,192,185387,12,2,190559,1:2:0:0:
