osu file format v14

[General]
AudioFilename: audio.ogg
AudioLeadIn: 0
PreviewTime: 65044
Countdown: 0
SampleSet: Soft
StackLeniency: 0.7
Mode: 0
LetterboxInBreaks: 0
WidescreenStoryboard: 1

[Editor]
Bookmarks: 747,7625,18134,22911,35140,47369,53484,59598,65713,77942,88451,93228,102399,105075,108514
DistanceSpacing: 0.3
BeatDivisor: 4
GridSize: 16
TimelineZoom: 1.3

[Metadata]
Title:Arcana Alchemia
TitleUnicode:Arcana Alchemia
Artist:Kicco x Sasaki Sayaka
ArtistUnicode:Kicco×佐咲紗花
Creator:tomatas95
Version:Light Insane
Source:アルカナ・アルケミア
Tags:eroge galgame visual novel vn opening op lump of sugar ランプ オブ シュガー 方糖社 video game shirahane suou japanese j-pop jpop pop
BeatmapID:4043394
BeatmapSetID:1937756

[Difficulty]
HPDrainRate:4
CircleSize:3.6
OverallDifficulty:7
ApproachRate:8
SliderMultiplier:1.5
SliderTickRate:1

[Events]
//Background and Video events
0,0,"RuriDate.jpg",0,0
Video,0,"eroticvideoiya.mp4"
//Break Periods
//Storyboard Layer 0 (Background)
//Storyboard Layer 1 (Fail)
//Storyboard Layer 2 (Pass)
//Storyboard Layer 3 (Foreground)
//Storyboard Layer 4 (Overlay)
//Storyboard Sound Samples

[TimingPoints]
747,382.165605095541,4,2,1,35,1,0
747,-142.857142857143,4,2,1,35,0,0
938,-142.857142857143,4,2,8,45,0,0
1129,-142.857142857143,4,2,8,50,0,0
3804,-142.857142857143,4,2,1,35,0,0
3995,-142.857142857143,4,2,8,45,0,0
4186,-142.857142857143,4,2,8,50,0,0
6861,-142.857142857143,4,2,1,30,0,0
7625,382.165605095541,4,2,1,70,1,0
7625,-100,4,2,1,70,0,0
8198,-100,4,2,8,70,0,0
9153,-100,4,2,8,75,0,0
9535,-100,4,2,8,70,0,0
10682,-100,4,2,8,75,0,0
11064,-100,4,2,8,70,0,0
12210,-100,4,2,8,75,0,0
12402,-100,4,2,8,70,0,0
13357,-100,4,2,9,70,0,0
13548,-100,4,2,1,70,0,0
13739,-100,4,2,3,70,0,0
14121,-100,4,2,8,70,0,0
15268,-100,4,2,8,75,0,0
15650,-100,4,2,8,70,0,0
16796,-100,4,2,8,75,0,0
17179,-100,4,2,1,45,0,0
17370,-100,4,2,8,75,0,0
18134,-125,4,2,8,75,0,0
18325,-125,4,2,1,30,0,0
19281,-125,4,2,1,45,0,0
19472,-125,4,2,1,50,0,0
19758,-125,4,2,1,5,0,0
19854,-100,4,2,3,75,0,0
20236,-100,4,2,8,70,0,0
20427,-100,4,2,3,75,0,0
20809,-100,4,2,8,70,0,0
21000,-90.9090909090909,4,2,4,75,0,0
21382,-90.9090909090909,4,2,1,65,0,0
21574,-111.111111111111,4,2,1,60,0,0
21956,-111.111111111111,4,2,1,55,0,0
22338,-111.111111111111,4,2,1,50,0,0
22529,-111.111111111111,4,2,1,45,0,0
22911,382.165605095541,4,2,3,60,1,0
22911,-111.111111111111,4,2,3,60,0,0
23293,-111.111111111111,4,2,1,60,0,0
24439,-111.111111111111,4,2,1,65,0,0
24630,-111.111111111111,4,2,1,60,0,0
25968,-111.111111111111,4,2,1,65,0,0
26159,-111.111111111111,4,2,1,60,0,0
27496,-111.111111111111,4,2,1,65,0,0
27687,-111.111111111111,4,2,1,60,0,0
29025,-111.111111111111,4,2,1,65,0,0
29216,-111.111111111111,4,2,1,60,0,0
30554,-111.111111111111,4,2,1,65,0,0
30745,-111.111111111111,4,2,1,60,0,0
33611,-111.111111111111,4,2,7,60,0,0
33993,-111.111111111111,4,2,1,60,0,0
34375,-111.111111111111,4,2,7,60,0,0
34758,-111.111111111111,4,2,1,55,0,0
35140,-111.111111111111,4,2,3,60,0,0
35522,-111.111111111111,4,2,1,60,0,0
36668,-111.111111111111,4,2,1,65,0,0
36859,-111.111111111111,4,2,1,60,0,0
38197,-111.111111111111,4,2,1,65,0,0
38388,-111.111111111111,4,2,1,60,0,0
41254,-111.111111111111,4,2,1,65,0,0
41445,-111.111111111111,4,2,1,60,0,0
44312,-111.111111111111,4,2,1,65,0,0
44503,-111.111111111111,4,2,1,60,0,0
46414,-111.111111111111,4,2,1,55,0,0
46796,-111.111111111111,4,2,2,55,0,0
46987,-111.111111111111,4,2,3,55,0,0
47369,-125,4,2,9,55,0,0
47751,-125,4,2,1,55,0,0
48898,-125,4,2,9,60,0,0
49280,-125,4,2,1,55,0,0
50426,-125,4,2,9,60,0,0
50808,-125,4,2,1,55,0,0
53484,-100,4,2,3,65,0,0
53866,-100,4,2,1,65,0,0
59598,-125,4,2,7,65,0,0
59789,-125,4,2,1,50,0,0
61700,-125,4,2,1,55,0,0
62082,-125,4,2,2,55,0,0
62274,-125,4,2,1,45,0,0
62656,-142.857142857143,4,2,6,45,0,0
63229,-142.857142857143,4,2,1,45,0,0
63420,-142.857142857143,4,2,1,40,0,0
64184,-99.9999999999999,4,2,1,70,0,0
65713,-90.9090909090909,4,2,4,75,0,1
66095,-90.9090909090909,4,2,1,75,0,1
71827,-90.9090909090909,4,2,3,75,0,1
72018,-90.9090909090909,4,2,1,75,0,1
74884,-90.9090909090909,4,2,7,75,0,1
75076,-90.9090909090909,4,2,1,75,0,1
76222,-90.9090909090909,4,2,3,75,0,1
76413,-90.9090909090909,4,2,1,75,0,1
77560,-90.9090909090909,4,2,1,75,0,0
77942,-90.9090909090909,4,2,4,75,0,1
78324,-90.9090909090909,4,2,1,75,0,1
84056,-90.9090909090909,4,2,3,75,0,1
84248,-90.9090909090909,4,2,1,75,0,1
85585,-90.9090909090909,4,2,7,75,0,1
85776,-90.9090909090909,4,2,1,75,0,1
87114,-90.9090909090909,4,2,1,80,0,1
87496,-90.9090909090909,4,2,1,50,0,1
87687,-90.9090909090909,4,2,1,80,0,1
88452,-111.111111111111,4,2,1,80,0,0
89598,-111.111111111111,4,2,1,45,0,0
89789,-111.111111111111,4,2,9,60,0,0
90172,-90.9090909090909,4,2,7,75,0,1
90553,-90.9090909090909,4,2,1,70,0,1
90744,-90.9090909090909,4,2,7,75,0,1
91126,-90.9090909090909,4,2,1,70,0,1
91318,-100,4,2,4,75,0,1
91700,-100,4,2,1,70,0,1
92082,-100,4,2,1,70,0,1
92464,-100,4,2,1,60,0,1
93228,382.165605095541,4,2,1,70,1,0
93228,-100,4,2,1,70,0,0
93801,-100,4,2,8,70,0,0
94756,-100,4,2,8,75,0,0
95138,-100,4,2,8,70,0,0
96285,-100,4,2,8,75,0,0
96667,-100,4,2,8,70,0,0
97813,-100,4,2,8,75,0,0
98005,-100,4,2,8,70,0,0
98960,-100,4,2,9,70,0,0
99151,-100,4,2,1,70,0,0
99342,-100,4,2,3,70,0,0
99724,-100,4,2,8,70,0,0
100871,-100,4,2,8,75,0,0
101253,-100,4,2,8,70,0,0
102208,-100,4,2,1,65,0,0
102399,-125,4,2,1,55,0,0
103355,-125,4,2,1,45,0,0
103546,-125,4,2,1,50,0,0
103737,-125,4,2,1,45,0,0
103928,-100,4,2,7,70,0,0
104119,-100,4,2,1,70,0,0
104501,-100,4,2,7,70,0,0
104692,-100,4,2,1,70,0,0
105075,-100,4,2,4,75,0,0
105457,-100,4,2,1,75,0,0
105839,-100,4,2,1,70,0,0
106221,-100,4,2,1,60,0,0
106603,-100,4,2,1,50,0,0
106985,-100,4,2,1,40,0,0
107368,-100,4,2,1,30,0,0
107750,-100,4,2,1,20,0,0
108132,-100,4,2,1,10,0,0
108514,-100,4,2,1,5,0,0

[Colours]
Combo1 : 162,240,240
Combo2 : 252,201,231
Combo3 : 208,206,251
Combo4 : 250,241,190

[HitObjects]
23,96,747,6,0,L|82:88,1,52.4999983978272,4|2,3:0|0:0,0:0:0:0:
85,90,1033,1,2,0:0:0:0:
95,90,1129,2,0,P|93:65|83:38,1,52.4999983978272,2|0,0:0|0:0,0:0:0:0:
105,173,1511,2,0,P|84:187|65:209,1,52.4999983978272,2|0,0:0|0:0,0:0:0:0:
172,123,1893,2,0,L|193:120,3,17.4999994659424,2|2|2|2,0:0|0:0|0:0|0:0,0:0:0:0:
264,68,2275,6,0,P|261:38|253:6,1,52.4999983978272,2|2,0:0|0:0,0:0:0:0:
347,107,2657,2,0,P|371:90|395:66,1,52.4999983978272,2|2,0:0|0:0,0:0:0:0:
355,197,3039,2,0,P|368:203|383:206,3,17.4999994659424,2|2|2|2,0:0|0:0|0:0|0:0,0:0:0:0:
269,169,3422,2,0,P|264:194|260:220,1,52.4999983978272,2|2,0:0|0:0,0:0:0:0:
269,229,3995,5,2,0:0:0:0:
269,229,4090,1,2,0:0:0:0:
269,229,4186,2,0,P|239:230|202:216,1,52.4999983978272,2|0,0:0|0:0,0:0:0:0:
318,304,4568,2,0,P|347:305|384:291,1,52.4999983978272,2|0,0:0|0:0,0:0:0:0:
249,354,4950,2,0,P|240:354|229:350,3,17.4999994659424,2|2|2|2,0:0|0:0|0:0|0:0,0:0:0:0:
144,356,5332,6,0,L|152:304,1,52.4999983978272,2|2,0:0|0:0,0:0:0:0:
65,292,5715,2,0,L|56:343,1,52.4999983978272,2|2,0:0|0:0,0:0:0:0:
121,231,6097,2,0,L|123:213,3,17.4999994659424,2|2|2|2,0:0|0:0|0:0|0:0,0:0:0:0:
108,137,6479,2,0,B|135:131|135:131|171:149,1,52.4999983978272,2|2,0:0|0:0,0:0:0:0:
466,362,7625,6,0,P|471:287|482:213,1,150,4|0,3:2|0:0,0:0:0:0:
366,255,8198,1,2,0:0:0:0:
366,255,8293,1,2,0:0:0:0:
366,255,8389,2,0,P|371:292|374:329,1,75,2|2,0:0|0:0,0:0:0:0:
402,162,8771,2,0,P|400:149|398:137,3,25,2|2|2|2,0:0|0:0|0:0|3:2,0:0:0:0:
461,81,9153,6,0,P|409:54|323:101,1,150,2|0,3:2|0:0,0:0:0:0:
265,202,9726,2,0,B|284:165|258:132|258:132|231:97|250:61,1,150,2|2,0:0|3:2,0:0:0:0:
248,50,10204,1,2,3:2:0:0:
249,40,10300,2,0,L|174:46,1,75,10|2,0:0|0:0,0:0:0:0:
24,9,10682,6,0,B|68:-7|99:17|99:17|82:66|115:99,1,150,2|0,3:2|0:0,0:0:0:0:
182,220,11255,2,0,B|204:170|170:132|170:132|156:158|111:164,1,150,2|0,0:0|0:0,0:0:0:0:
33,151,11828,1,2,0:0:0:0:
109,307,12019,1,2,3:2:0:0:
109,307,12115,1,2,3:2:0:0:
109,307,12210,5,2,3:2:0:0:
51,230,12402,2,0,L|81:226,3,25,2|2|2|2,0:0|0:0|0:0|0:0,0:0:0:0:
21,306,12784,2,0,P|30:342|36:380,1,75,2|0,0:0|0:0,0:0:0:0:
158,238,13166,1,2,3:2:0:0:
158,238,13357,2,0,P|163:200|172:164,1,75,12|0,0:0|0:0,0:0:0:0:
167,366,13739,6,0,L|346:338,1,150,6|0,3:2|0:0,0:0:0:0:
444,360,14312,2,0,P|438:319|428:283,1,75,2|0,0:0|0:0,0:0:0:0:
403,137,14695,1,0,0:0:0:0:
461,211,14886,1,2,0:0:0:0:
461,211,14981,1,2,0:0:0:0:
461,211,15077,2,0,L|501:208,1,37.5,0|2,3:2|3:2,0:0:0:0:
372,215,15268,6,0,P|327:177|337:91,1,150,2|0,3:2|0:0,0:0:0:0:
456,32,15841,2,0,B|419:51|386:25|386:25|351:-2|315:17,1,150,2|0,0:0|3:0,0:0:0:0:
165,72,16414,1,8,0:0:0:0:
225,0,16605,1,2,0:0:0:0:
225,0,16701,1,2,0:0:0:0:
225,0,16796,5,10,3:2:0:0:
208,178,16988,1,10,3:2:0:0:
64,47,17370,1,10,3:2:0:0:
24,237,17752,1,10,0:2:0:0:
24,237,17943,1,10,0:2:0:0:
99,153,18134,1,10,3:2:0:0:
99,153,19281,5,0,3:0:0:0:
99,153,19472,2,0,L|108:212,1,60,8|0,0:0|0:0,0:0:0:0:
5,329,19854,6,0,B|-8:284|20:258|20:258|62:265|74:303,1,150,6|8,3:2|0:0,0:0:0:0:
221,326,20427,2,0,B|234:281|205:255|205:255|163:262|151:300,1,150,6|8,3:2|0:0,0:0:0:0:
116,377,21000,6,0,P|113:309|106:173,1,165.000005035401,12|0,0:0|3:0,0:0:0:0:
104,124,21574,2,0,P|52:120|12:43,2,134.999995880127,8|4|4,3:0|3:0|3:0,0:0:0:0:
90,45,22529,1,4,3:0:0:0:
102,46,22911,6,0,B|150:55|150:55|165:73|165:73|236:87,1,134.999995880127,4|0,3:2|0:0,0:0:0:0:
304,136,23484,2,0,L|325:-5,1,134.999995880127,10|0,0:0|0:0,0:0:0:0:
412,27,24057,2,0,L|402:93,1,67.4999979400635,2|0,0:0|3:0,0:0:0:0:
400,103,24344,1,0,3:0:0:0:
396,112,24439,6,0,P|454:98|517:147,1,134.999995880127,2|0,3:2|0:0,0:0:0:0:
443,180,25012,2,0,L|422:313,1,134.999995880127,10|0,0:0|3:0,0:0:0:0:
363,379,25586,1,8,0:0:0:0:
312,297,25777,1,0,3:0:0:0:
312,297,25872,5,0,3:0:0:0:
312,297,25968,2,0,P|244:289|149:278,1,134.999995880127,2|0,3:2|0:0,0:0:0:0:
106,354,26541,2,0,P|140:358|187:363,1,67.4999979400635,10|0,0:2|0:0,0:0:0:0:
181,202,26923,2,0,P|147:198|99:192,1,67.4999979400635,2|0,0:0|0:0,0:0:0:0:
7,145,27305,5,0,3:0:0:0:
7,145,27401,1,0,3:0:0:0:
7,145,27496,2,0,P|17:211|25:278,1,134.999995880127,2|0,3:2|0:0,0:0:0:0:
106,354,28070,1,10,0:0:0:0:
106,354,28261,2,0,P|109:320|115:287,1,67.4999979400635,2|2,0:0|3:2,0:0:0:0:
113,194,28643,2,0,B|144:206|144:206|186:194,1,67.4999979400635,10|0,0:0|3:2,0:0:0:0:
185,190,28930,1,0,3:2:0:0:
193,184,29025,6,0,P|189:135|164:40,1,134.999995880127,2|0,3:2|0:0,0:0:0:0:
327,87,29598,2,0,P|309:152|302:219,1,134.999995880127,10|0,0:0|0:0,0:0:0:0:
295,384,30172,1,2,0:0:0:0:
240,294,30363,1,0,3:2:0:0:
240,294,30458,1,0,3:2:0:0:
240,294,30554,6,0,L|387:311,1,134.999995880127,2|0,3:2|0:0,0:0:0:0:
512,244,31127,1,10,0:0:0:0:
463,319,31318,2,0,P|453:354|446:410,1,67.4999979400635,2|2,0:0|3:2,0:0:0:0:
430,236,31700,2,0,P|424:202|414:170,1,67.4999979400635,10|0,0:0|3:0,0:0:0:0:
412,160,31987,1,0,3:0:0:0:
406,151,32082,6,0,P|467:149|504:78,1,134.999995880127,2|0,3:2|0:0,0:0:0:0:
428,74,32656,2,0,B|395:56|365:80|365:80|334:103|302:87,1,134.999995880127,10|0,0:0|0:0,0:0:0:0:
251,8,33229,1,8,0:0:0:0:
208,90,33420,1,0,3:0:0:0:
208,90,33516,1,0,3:0:0:0:
208,90,33611,6,0,L|136:79,1,67.4999979400635,4|0,3:2|0:0,0:0:0:0:
6,9,33993,2,0,P|9:26|12:43,3,33.7499989700318,4|4|4|4,3:0|3:0|3:0|3:0,0:0:0:0:
0,122,34375,2,0,B|38:129|38:129|75:101,1,67.4999979400635,4|0,3:2|0:0,0:0:0:0:
136,194,34758,2,0,P|132:177|129:160,3,33.7499989700318,8|8|8|8,3:0|3:0|3:0|3:0,0:0:0:0:
156,270,35140,6,0,B|123:288|93:264|93:264|62:241|30:257,1,134.999995880127,4|0,3:2|0:0,0:0:0:0:
22,352,35713,2,0,B|55:334|85:358|85:358|116:381|148:365,1,134.999995880127,10|0,0:0|0:0,0:0:0:0:
312,322,36286,1,10,0:0:0:0:
312,322,36477,1,2,3:2:0:0:
244,372,36668,6,0,P|228:322|291:241,1,134.999995880127,2|0,3:2|0:0,0:0:0:0:
378,371,37242,2,0,P|394:321|331:240,1,134.999995880127,10|0,0:0|3:0,0:0:0:0:
294,94,37815,2,0,L|308:178,1,67.4999979400635,8|0,0:0|3:0,0:0:0:0:
306,170,38102,1,0,3:0:0:0:
308,179,38197,6,0,P|370:172|462:166,1,134.999995880127,2|0,3:2|0:0,0:0:0:0:
500,26,38770,2,0,P|486:66|485:102,1,67.4999979400635,10|0,3:2|0:0,0:0:0:0:
391,93,39153,2,0,P|387:59|375:28,1,67.4999979400635,2|8,0:0|0:0,0:0:0:0:
442,166,39535,6,0,L|462:305,1,134.999995880127,2|2,3:2|0:0,0:0:0:0:
361,359,40108,2,0,L|351:292,1,67.4999979400635,2|10,0:0|0:2,0:0:0:0:
272,193,40490,1,2,0:0:0:0:
361,203,40681,1,2,3:2:0:0:
262,282,40872,1,10,0:0:0:0:
262,282,40968,1,0,3:0:0:0:
262,282,41063,2,0,L|206:288,1,33.7499989700318,0|0,3:0|3:0,0:0:0:0:
168,349,41254,6,0,P|147:299|190:207,1,134.999995880127,2|0,3:2|0:0,0:0:0:0:
48,355,41828,1,10,0:0:0:0:
48,355,42019,2,0,P|64:303|13:215,1,134.999995880127,2|8,3:2|0:0,0:0:0:0:
93,116,42592,1,2,3:2:0:0:
93,116,42688,1,0,3:0:0:0:
93,116,42783,6,0,P|96:152|101:198,2,67.4999979400635,2|2|2,3:2|0:0|0:0,0:0:0:0:
143,46,43356,2,0,P|81:26|23:57,1,134.999995880127,10|2,0:0|0:0,0:0:0:0:
5,151,43930,1,10,0:0:0:0:
106,188,44121,1,0,3:0:0:0:
106,188,44216,1,0,3:0:0:0:
106,188,44312,6,0,P|176:178|264:169,1,134.999995880127,2|0,3:2|0:0,0:0:0:0:
219,80,44885,2,0,P|253:75|287:72,1,67.4999979400635,10|0,0:0|3:0,0:0:0:0:
456,115,45267,1,2,0:0:0:0:
456,115,45458,1,8,0:0:0:0:
363,147,45649,6,0,P|370:79|385:14,2,134.999995880127,2|4|8,3:2|3:0|3:0,0:0:0:0:
395,311,46796,1,4,3:0:0:0:
395,311,46987,2,0,L|470:319,1,67.4999979400635,8|0,3:0|0:0,0:0:0:0:
490,237,47369,6,0,P|431:230|370:224,1,120,6|2,3:2|0:0,0:0:0:0:
321,352,48133,2,0,P|261:345|201:339,1,120,2|2,0:0|0:0,0:0:0:0:
122,384,48707,1,0,3:0:0:0:
122,384,48898,6,0,B|92:312|145:262|145:262|193:213|163:132|54:144|50:219,1,360,6|2,3:2|0:0,0:0:0:0:
50,218,50426,6,0,P|44:158|31:99,1,120,6|2,3:2|0:0,0:0:0:0:
139,272,51191,2,0,P|144:212|157:153,1,120,2|2,0:0|0:0,0:0:0:0:
132,77,51764,1,0,3:0:0:0:
132,77,51955,6,0,B|180:57|220:94|220:94|260:131|308:111,1,180,2|0,3:2|3:0,0:0:0:0:
278,34,52719,1,2,3:2:0:0:
156,153,53102,1,8,0:0:0:0:
35,26,53484,6,0,B|28:81|28:81|34:108|34:108|20:182,1,150,4|8,3:2|0:0,0:0:0:0:
14,331,54057,2,0,P|15:286|-10:233,1,75,2|0,3:2|0:0,0:0:0:0:
182,248,54439,2,0,P|171:283|173:321,1,75,2|8,3:2|0:0,0:0:0:0:
101,378,54821,1,0,3:0:0:0:
101,378,54917,1,0,3:0:0:0:
101,378,55012,6,0,L|85:212,1,150,2|8,3:2|0:0,0:0:0:0:
111,60,55586,2,0,P|73:70|32:55,1,75,2|0,3:2|0:0,0:0:0:0:
48,159,55968,2,0,P|86:149|127:164,1,75,2|8,3:2|0:0,0:0:0:0:
254,99,56350,1,0,3:0:0:0:
254,99,56446,1,0,3:0:0:0:
254,99,56541,6,0,L|148:111,1,75,2|0,3:2|0:0,0:0:0:0:
359,154,56923,2,0,L|433:145,1,75,8|0,0:0|3:2,0:0:0:0:
334,74,57305,2,0,L|325:0,1,75,2|0,0:0|3:0,0:0:0:0:
279,179,57688,2,0,L|287:253,1,75,8|0,0:0|0:0,0:0:0:0:
422,367,58070,6,0,L|404:218,1,150,2|10,3:2|0:0,0:0:0:0:
432,59,58643,1,0,3:2:0:0:
433,145,58834,1,2,0:0:0:0:
508,99,59025,1,0,3:0:0:0:
354,103,59216,2,0,P|313:98|257:91,1,75,10|2,0:0|0:0,0:0:0:0:
132,32,59598,6,0,B|185:1|214:43|214:43|177:90|214:145,1,180,6|2,3:2|0:0,0:0:0:0:
232,200,60363,2,0,B|184:218|144:181|144:181|104:144|67:161,1,180,2|0,0:0|0:0,0:0:0:0:
2,111,61127,6,0,P|-15:167|7:221,1,120,2|0,0:0|0:0,0:0:0:0:
103,363,61700,2,0,P|97:306|84:227,1,120,4|4,3:0|3:0,0:0:0:0:
67,160,62274,1,8,0:0:0:0:
67,151,62656,6,0,B|62:113|56:78|56:78|84:38|134:56,1,157.499995193482,6|2,0:0|0:0,0:0:0:0:
205,18,63420,2,0,B|228:55|202:96|202:96|176:135|197:166,1,157.499995193482,2|0,0:0|0:0,0:0:0:0:
233,238,64184,6,0,B|197:252|197:252|140:228,1,75,10|0,3:2|0:0,0:0:0:0:
316,258,64567,2,0,B|346:282|346:282|350:318,1,75,8|0,0:0|3:0,0:0:0:0:
292,176,64949,2,0,B|297:137|297:137|326:115,1,75,8|2,0:0|3:2,0:0:0:0:
476,38,65331,1,10,0:0:0:0:
476,38,65426,1,8,0:0:0:0:
476,38,65522,2,0,L|468:97,1,37.5,10|8,0:0|0:0,0:0:0:0:
474,152,65713,6,0,B|426:158|403:120|403:120|362:95|326:115,1,165.000005035401,6|8,3:2|0:0,0:0:0:0:
211,20,66286,2,0,P|197:101|185:183,1,165.000005035401,2|0,0:0|0:0,0:0:0:0:
156,345,66860,1,10,0:0:0:0:
95,288,67051,6,0,P|152:261|236:324,1,165.000005035401,2|0,0:0|0:0,0:0:0:0:
365,269,67624,1,10,0:0:0:0:
330,357,67815,1,10,0:0:0:0:
330,357,67910,1,10,0:0:0:0:
330,357,68006,1,2,3:2:0:0:
315,192,68197,1,2,0:0:0:0:
468,262,68388,2,0,L|481:165,1,82.5000025177003,10|0,0:0|0:0,0:0:0:0:
481,167,68675,1,0,3:0:0:0:
483,154,68770,6,0,P|441:162|390:148,1,82.5000025177003,2|0,3:2|0:0,0:0:0:0:
252,82,69153,1,10,0:0:0:0:
342,29,69344,2,0,L|314:201,1,165.000005035401,2|0,0:0|0:0,0:0:0:0:
397,324,69917,2,0,L|410:242,1,82.5000025177003,10|2,0:0|0:0,0:0:0:0:
256,113,70298,5,2,3:2:0:0:
314,281,70490,1,2,0:0:0:0:
380,115,70681,1,10,0:0:0:0:
315,191,70872,2,0,P|248:204|138:224,1,165.000005035401,2|0,0:0|0:0,0:0:0:0:
0,350,71445,5,10,0:0:0:0:
17,339,71540,1,10,0:0:0:0:
38,336,71636,1,10,0:0:0:0:
58,341,71731,1,10,0:0:0:0:
74,355,71827,6,0,B|135:344|135:344|148:329|148:329|234:315,1,165.000005035401,6|8,3:2|0:0,0:0:0:0:
385,285,72400,1,2,0:0:0:0:
296,270,72591,2,0,P|307:310|314:351,1,82.5000025177003,2|0,3:2|0:0,0:0:0:0:
456,365,72974,1,2,3:2:0:0:
456,365,73165,6,0,P|468:288|496:195,1,165.000005035401,10|0,0:0|0:0,0:0:0:0:
376,202,73738,2,0,L|386:301,1,82.5000025177003,10|0,0:0|0:0,0:0:0:0:
441,118,74120,2,0,L|521:59,1,82.5000025177003,2|0,3:2|0:0,0:0:0:0:
336,104,74502,2,0,L|245:63,1,82.5000025177003,10|0,0:0|3:0,0:0:0:0:
42,38,74884,6,0,P|103:19|175:97,1,165.000005035401,6|8,3:2|0:0,0:0:0:0:
82,182,75458,1,2,0:0:0:0:
82,182,75649,2,0,P|87:141|93:100,1,82.5000025177003,0|0,3:0|0:0,0:0:0:0:
0,153,76031,1,2,3:2:0:0:
170,173,76222,6,0,B|230:187|230:187|241:211|241:211|325:231,1,165.000005035401,12|0,0:0|0:0,0:0:0:0:
418,170,76795,1,8,0:0:0:0:
421,267,76986,1,0,3:0:0:0:
330,125,77177,1,2,0:0:0:0:
498,117,77369,1,2,3:2:0:0:
327,231,77560,1,10,0:0:0:0:
327,231,77655,1,8,0:0:0:0:
327,231,77751,2,0,L|260:239,1,41.2500012588501,10|8,0:0|0:0,0:0:0:0:
193,339,77942,6,0,P|193:256|208:175,1,165.000005035401,6|8,3:2|0:0,0:0:0:0:
77,344,78515,2,0,P|78:292|56:162,1,165.000005035401,2|0,0:0|0:0,0:0:0:0:
47,19,79088,1,10,0:0:0:0:
0,104,79279,6,0,L|175:87,1,165.000005035401,2|0,0:0|0:0,0:0:0:0:
359,143,79853,1,10,0:0:0:0:
264,21,80044,1,10,0:0:0:0:
264,21,80139,1,8,3:2:0:0:
264,21,80235,1,2,3:2:0:0:
244,172,80426,1,2,0:0:0:0:
348,48,80617,2,0,L|453:34,1,82.5000025177003,8|0,0:0|3:0,0:0:0:0:
442,37,80904,1,0,3:0:0:0:
454,36,80999,6,0,P|463:83|468:132,1,82.5000025177003,2|0,3:2|0:0,0:0:0:0:
413,272,81381,1,10,0:0:0:0:
512,205,81572,2,0,L|348:183,1,165.000005035401,2|0,0:0|0:0,0:0:0:0:
365,351,82146,2,0,L|446:361,1,82.5000025177003,10|2,0:0|0:0,0:0:0:0:
215,193,82528,5,2,3:2:0:0:
293,263,82719,1,2,0:0:0:0:
214,93,82910,1,10,0:0:0:0:
147,256,83101,2,0,P|68:278|20:190,1,165.000005035401,2|0,0:0|0:0,0:0:0:0:
85,113,83674,5,8,0:0:0:0:
87,133,83770,1,8,0:0:0:0:
90,153,83865,1,8,0:0:0:0:
93,174,83961,1,8,0:0:0:0:
96,196,84056,6,0,L|71:363,1,165.000005035401,4|8,3:2|0:0,0:0:0:0:
268,329,84630,2,0,L|280:247,1,82.5000025177003,2|0,3:2|0:0,0:0:0:0:
193,238,85012,2,0,L|180:319,1,82.5000025177003,2|8,3:2|0:0,0:0:0:0:
354,359,85394,1,2,0:0:0:0:
354,359,85490,1,2,0:0:0:0:
354,359,85585,6,0,L|378:195,1,165.000005035401,6|8,3:2|0:0,0:0:0:0:
348,21,86158,2,0,P|384:34|440:16,1,82.5000025177003,2|0,3:2|0:0,0:0:0:0:
419,127,86541,2,0,P|383:114|327:132,1,82.5000025177003,2|8,3:2|0:0,0:0:0:0:
171,152,86923,1,2,0:0:0:0:
200,37,87114,5,10,0:0:0:0:
250,241,87305,1,10,0:0:0:0:
50,108,87687,5,10,0:0:0:0:
29,360,88069,1,10,0:0:0:0:
250,241,88452,1,10,0:2:0:0:
250,241,89598,5,0,3:0:0:0:
250,241,89789,2,0,P|246:205|232:144,1,67.4999979400635,12|0,0:0|0:0,0:0:0:0:
324,43,90172,6,0,B|267:8|216:53|216:53|240:97,1,165.000005035401,6|8,3:2|0:0,0:0:0:0:
61,135,90744,2,0,B|117:100|168:145|168:145|144:189,1,165.000005035401,6|0,3:2|3:0,0:0:0:0:
42,376,91318,6,0,B|-50:325|-26:221|41:189|96:216|116:270|91:294,1,300,12|8,0:0|0:0,0:0:0:0:
137,369,92273,2,0,L|227:358,1,75,2|2,3:2|0:0,0:0:0:0:
341,270,92655,1,2,3:2:0:0:
311,354,92846,1,2,0:0:0:0:
400,343,93037,1,2,3:2:0:0:
256,283,93228,6,0,B|247:239|247:239|251:210|251:210|227:125,1,150,4|0,3:2|3:0,0:0:0:0:
176,53,93801,1,2,0:0:0:0:
176,53,93896,1,2,0:0:0:0:
176,53,93992,2,0,P|136:62|83:69,1,75,2|2,3:2|0:0,0:0:0:0:
275,48,94374,2,0,P|294:52|321:56,3,25,10|2|2|2,0:2|0:0|0:0|0:0,0:0:0:0:
377,148,94756,6,0,P|386:87|402:-13,1,150,2|0,3:2|3:0,0:0:0:0:
481,81,95329,2,0,P|472:142|456:242,1,150,2|2,0:0|3:2,0:0:0:0:
455,240,95807,1,2,3:2:0:0:
452,251,95903,2,0,P|414:242|363:258,1,75,10|2,0:0|0:0,0:0:0:0:
299,379,96285,6,0,B|277:325|308:288|308:288|328:323|365:325,1,150,2|0,3:2|3:0,0:0:0:0:
194,375,96858,2,0,B|216:321|184:284|184:284|164:319|127:321,1,150,2|0,0:0|0:0,0:0:0:0:
94,384,97431,1,10,0:0:0:0:
111,242,97622,1,2,3:2:0:0:
111,242,97718,1,2,3:2:0:0:
111,242,97813,5,2,3:2:0:0:
62,309,98005,2,0,L|25:301,3,25,2|2|2|2,0:0|0:0|0:0|3:2,0:0:0:0:
144,318,98387,2,0,L|217:333,1,75,2|0,0:0|3:0,0:0:0:0:
380,295,98769,1,2,3:2:0:0:
304,362,98960,2,0,P|301:330|292:272,1,75,12|0,0:0|0:0,0:0:0:0:
199,207,99342,6,0,B|231:232|269:212|269:212|307:192|340:216,1,150,6|0,3:2|3:0,0:0:0:0:
426,218,99915,2,0,P|430:181|436:144,1,75,2|0,0:0|3:0,0:0:0:0:
336,23,100298,1,2,0:0:0:0:
421,55,100489,1,10,0:0:0:0:
421,55,100584,1,2,0:0:0:0:
421,55,100680,2,0,L|476:50,1,37.5,0|2,3:2|3:2,0:0:0:0:
351,112,100871,6,0,L|197:98,1,150,2|0,3:2|3:0,0:0:0:0:
51,37,101444,2,0,B|100:22|127:57|127:57|106:97|131:130,1,150,2|0,0:0|3:0,0:0:0:0:
217,234,102017,5,10,0:0:0:0:
85,192,102208,1,4,3:0:0:0:
89,331,102399,1,4,3:0:0:0:
89,331,103355,5,0,3:0:0:0:
89,331,103546,2,0,L|102:244,1,60,8|0,0:0|3:0,0:0:0:0:
228,159,103928,6,0,L|216:233,1,75,6|0,3:2|0:0,0:0:0:0:
215,244,104215,1,8,0:0:0:0:
213,255,104310,1,8,0:0:0:0:
167,103,104501,2,0,P|231:72|307:139,1,150,6|0,0:0|3:0,0:0:0:0:
212,266,105075,1,6,3:2:0:0:
256,192,105170,12,0,108514,0:0:0:0:
