osu file format v14

[General]
AudioFilename: audio.ogg
AudioLeadIn: 0
PreviewTime: 65044
Countdown: 0
SampleSet: Soft
StackLeniency: 0.7
Mode: 0
LetterboxInBreaks: 0
WidescreenStoryboard: 1

[Editor]
Bookmarks: 747,7625,18134,22911,35140,47369,53484,59598,65713,77942,88451,93228,102399,105075,108514
DistanceSpacing: 0.3
BeatDivisor: 6
GridSize: 16
TimelineZoom: 1.7

[Metadata]
Title:Arcana Alchemia
TitleUnicode:Arcana Alchemia
Artist:Kicco x Sasaki Sayaka
ArtistUnicode:Kicco×佐咲紗花
Creator:tomatas95
Version:Insane
Source:アルカナ・アルケミア
Tags:eroge galgame visual novel vn opening op lump of sugar ランプ オブ シュガー 方糖社 video game shirahane suou japanese j-pop jpop pop
BeatmapID:4043393
BeatmapSetID:1937756

[Difficulty]
HPDrainRate:4.5
CircleSize:3.8
OverallDifficulty:7.5
ApproachRate:8.2
SliderMultiplier:1.6
SliderTickRate:1

[Events]
//Background and Video events
0,0,"SaraHazukashii.jpg",0,0
Video,0,"eroticvideoiya.mp4"
//Break Periods
//Storyboard Layer 0 (Background)
//Storyboard Layer 1 (Fail)
//Storyboard Layer 2 (Pass)
//Storyboard Layer 3 (Foreground)
//Storyboard Layer 4 (Overlay)
//Storyboard Sound Samples

[TimingPoints]
747,382.165605095541,4,2,1,35,1,0
747,-142.857142857143,4,2,1,35,0,0
938,-142.857142857143,4,2,8,45,0,0
1129,-142.857142857143,4,2,8,50,0,0
3804,-142.857142857143,4,2,1,35,0,0
3995,-142.857142857143,4,2,8,45,0,0
4186,-142.857142857143,4,2,8,50,0,0
6861,-142.857142857143,4,2,1,30,0,0
7625,382.165605095541,4,2,1,70,1,0
7625,-100,4,2,1,70,0,0
8007,-100,4,2,1,70,0,0
8198,-100,4,2,8,70,0,0
9153,-100,4,2,8,75,0,0
9535,-100,4,2,8,70,0,0
10682,-100,4,2,8,75,0,0
11064,-100,4,2,8,70,0,0
12210,-100,4,2,8,75,0,0
12402,-100,4,2,8,70,0,0
13357,-100,4,2,9,70,0,0
13548,-100,4,2,1,70,0,0
13739,-100,4,2,3,70,0,0
14121,-100,4,2,8,70,0,0
15268,-100,4,2,8,75,0,0
15650,-100,4,2,8,70,0,0
16796,-100,4,2,8,75,0,0
17179,-100,4,2,1,45,0,0
17370,-100,4,2,8,75,0,0
18134,-125,4,2,8,75,0,0
18325,-125,4,2,1,30,0,0
19281,-125,4,2,1,45,0,0
19472,-166.666666666667,4,2,1,50,0,0
19758,-166.666666666667,4,2,1,5,0,0
19854,-100,4,2,3,75,0,0
20236,-100,4,2,8,70,0,0
20427,-100,4,2,3,75,0,0
20809,-100,4,2,8,70,0,0
21000,-90.9090909090909,4,2,4,75,0,0
21382,-90.9090909090909,4,2,1,65,0,0
21574,-125,4,2,1,60,0,0
21956,-111.111111111111,4,2,1,55,0,0
22338,-111.111111111111,4,2,1,50,0,0
22529,-111.111111111111,4,2,1,45,0,0
22911,382.165605095541,4,2,3,60,1,0
22911,-125,4,2,3,60,0,0
23293,-125,4,2,1,60,0,0
24439,-125,4,2,1,65,0,0
24630,-125,4,2,1,60,0,0
25968,-125,4,2,1,65,0,0
26159,-125,4,2,1,60,0,0
27496,-125,4,2,1,65,0,0
27687,-125,4,2,1,60,0,0
29025,-125,4,2,1,65,0,0
29216,-125,4,2,1,60,0,0
30554,-125,4,2,1,65,0,0
30745,-125,4,2,1,60,0,0
33611,-125,4,2,7,60,0,0
33993,-125,4,2,1,60,0,0
34375,-125,4,2,7,60,0,0
34758,-125,4,2,1,55,0,0
35140,-125,4,2,3,60,0,0
35522,-125,4,2,1,60,0,0
36668,-125,4,2,1,65,0,0
36859,-125,4,2,1,60,0,0
38197,-125,4,2,1,65,0,0
38388,-125,4,2,1,60,0,0
41254,-125,4,2,1,65,0,0
41445,-125,4,2,1,60,0,0
44312,-125,4,2,1,65,0,0
44503,-125,4,2,1,60,0,0
45649,-125,4,2,1,60,0,0
46414,-125,4,2,1,55,0,0
46796,-125,4,2,2,55,0,0
46987,-166.666666666667,4,2,3,55,0,0
47274,-166.666666666667,4,2,3,5,0,0
47369,-142.857142857143,4,2,9,55,0,0
47751,-142.857142857143,4,2,1,55,0,0
48898,-142.857142857143,4,2,9,60,0,0
49280,-142.857142857143,4,2,1,55,0,0
50426,-142.857142857143,4,2,9,60,0,0
50808,-142.857142857143,4,2,1,55,0,0
53484,-100,4,2,3,65,0,0
53866,-100,4,2,1,65,0,0
56828,-166.666666666667,4,2,3,5,0,0
56923,-100,4,2,1,65,0,0
58356,-166.666666666667,4,2,3,5,0,0
58452,-100,4,2,1,65,0,0
59598,-142.857142857143,4,2,7,65,0,0
59789,-142.857142857143,4,2,1,50,0,0
61700,-142.857142857143,4,2,1,55,0,0
62082,-142.857142857143,4,2,2,55,0,0
62274,-142.857142857143,4,2,1,45,0,0
62656,-166.666666666667,4,2,6,45,0,0
63229,-166.666666666667,4,2,1,45,0,0
63420,-250.000000000001,4,2,1,40,0,0
64184,-111.111111111111,4,2,1,70,0,0
64567,-100,4,2,1,70,0,0
64949,-90.9090909090909,4,2,1,70,0,0
65713,-90.9090909090909,4,2,4,75,0,1
66095,-90.9090909090909,4,2,1,75,0,1
71827,-90.9090909090909,4,2,3,75,0,1
72018,-90.9090909090909,4,2,1,75,0,1
74789,-90.9090909090909,4,2,1,5,0,1
74884,-90.9090909090909,4,2,7,75,0,1
75076,-90.9090909090909,4,2,1,75,0,1
76222,-90.9090909090909,4,2,3,75,0,1
76413,-90.9090909090909,4,2,1,75,0,1
77560,-90.9090909090909,4,2,1,75,0,0
77942,-90.9090909090909,4,2,4,75,0,1
78324,-90.9090909090909,4,2,1,75,0,1
84056,-90.9090909090909,4,2,3,75,0,1
84248,-90.9090909090909,4,2,1,75,0,1
85585,-90.9090909090909,4,2,7,75,0,1
85776,-90.9090909090909,4,2,1,75,0,1
86063,-90.9090909090909,4,2,1,5,0,1
86158,-90.9090909090909,4,2,1,75,0,1
87114,-90.9090909090909,4,2,1,80,0,1
87496,-90.9090909090909,4,2,1,50,0,1
87687,-90.9090909090909,4,2,1,80,0,1
88452,-111.111111111111,4,2,1,80,0,0
89598,-111.111111111111,4,2,1,45,0,0
89789,-166.666666666666,4,2,9,60,0,0
90076,-166.666666666666,4,2,9,5,0,0
90172,-90.9090909090909,4,2,7,75,0,1
90553,-90.9090909090909,4,2,1,70,0,1
90744,-90.9090909090909,4,2,7,75,0,1
91126,-90.9090909090909,4,2,1,70,0,1
91318,-90.9090909090909,4,2,4,75,0,1
91700,-90.9090909090909,4,2,1,70,0,1
92082,-100,4,2,1,70,0,1
92464,-100,4,2,1,60,0,1
93228,382.165605095541,4,2,1,70,1,0
93228,-100,4,2,1,70,0,0
93801,-100,4,2,8,70,0,0
94756,-100,4,2,8,75,0,0
95138,-100,4,2,8,70,0,0
96285,-100,4,2,8,75,0,0
96667,-100,4,2,8,70,0,0
97813,-100,4,2,8,75,0,0
98005,-100,4,2,8,70,0,0
98960,-100,4,2,9,70,0,0
99151,-100,4,2,1,70,0,0
99342,-100,4,2,3,70,0,0
99724,-100,4,2,8,70,0,0
100871,-100,4,2,8,75,0,0
101253,-100,4,2,8,70,0,0
102208,-100,4,2,1,65,0,0
102399,-125,4,2,1,55,0,0
103355,-125,4,2,1,45,0,0
103546,-125,4,2,1,50,0,0
103737,-125,4,2,1,45,0,0
103928,-100,4,2,7,70,0,0
104119,-100,4,2,1,70,0,0
104501,-100,4,2,7,70,0,0
104692,-100,4,2,1,70,0,0
105075,-100,4,2,4,75,0,0
105457,-100,4,2,1,75,0,0
105839,-100,4,2,1,70,0,0
106221,-100,4,2,1,60,0,0
106603,-100,4,2,1,50,0,0
106985,-100,4,2,1,40,0,0
107368,-100,4,2,1,30,0,0
107750,-100,4,2,1,20,0,0
108132,-100,4,2,1,10,0,0
108514,-100,4,2,1,5,0,0

[Colours]
Combo1 : 162,240,240
Combo2 : 252,201,231
Combo3 : 208,206,251
Combo4 : 250,241,190

[HitObjects]
5,87,747,6,0,L|85:80,1,55.9999982910157,4|2,3:0|0:0,0:0:0:0:
68,82,1033,1,2,0:0:0:0:
76,81,1129,2,0,P|71:53|65:25,1,55.9999982910157,2|0,0:0|0:0,0:0:0:0:
165,70,1511,2,0,P|159:98|155:126,1,55.9999982910157,2|0,0:0|0:0,0:0:0:0:
158,242,1893,2,0,L|151:273,3,18.6666660970052,2|2|2|2,0:0|0:0|0:0|0:0,0:0:0:0:
98,185,2275,6,0,L|33:177,1,55.9999982910157,2|2,0:0|0:0,0:0:0:0:
215,182,2657,2,0,L|279:189,1,55.9999982910157,2|2,0:0|0:0,0:0:0:0:
337,270,3039,2,0,L|325:242,3,18.6666660970052,2|2|2|2,0:0|0:0|0:0|0:0,0:0:0:0:
354,168,3422,2,0,L|387:123,1,55.9999982910157,2|2,0:0|0:0,0:0:0:0:
387,123,3995,5,2,0:0:0:0:
387,123,4090,1,2,0:0:0:0:
397,135,4186,2,0,P|391:94|385:71,1,55.9999982910157,2|0,0:0|0:0,0:0:0:0:
484,190,4568,2,0,P|490:149|496:126,1,55.9999982910157,2|0,0:0|0:0,0:0:0:0:
430,271,4950,2,0,P|428:261|425:242,3,18.6666660970052,2|2|2|2,0:0|0:0|0:0|0:0,0:0:0:0:
461,347,5332,6,0,P|436:353|390:335,1,55.9999982910157,2|2,0:0|0:0,0:0:0:0:
329,293,5715,2,0,P|311:274|303:225,1,55.9999982910157,2|2,0:0|0:0,0:0:0:0:
294,160,6097,2,0,L|271:158,3,18.6666660970052,2|2|2|2,0:0|0:0|0:0|0:0,0:0:0:0:
377,179,6479,2,0,L|454:186,1,55.9999982910157,2|2,0:0|0:0,0:0:0:0:
510,62,7625,6,0,B|447:51|447:51|435:38|435:38|357:29,1,160,4|0,3:2|0:0,0:0:0:0:
190,67,8198,1,2,0:0:0:0:
190,67,8293,1,2,0:0:0:0:
190,67,8389,1,2,0:0:0:0:
305,168,8580,1,2,0:0:0:0:
280,68,8771,2,0,L|273:18,3,26.6666666666667,2|2|2|2,0:0|0:0|0:0|3:2,0:0:0:0:
305,179,9153,6,0,P|228:148|166:201,1,160,2|0,3:2|0:0,0:0:0:0:
247,308,9726,2,0,L|241:229,1,80,2|0,0:0|0:0,0:0:0:0:
172,74,10109,5,2,3:2:0:0:
172,74,10204,1,2,3:2:0:0:
172,74,10300,2,0,P|152:80|118:69,1,40,10|0,0:0|0:0,0:0:0:0:
0,92,10491,2,0,P|19:94|38:88,1,40,2|0,0:0|0:0,0:0:0:0:
76,16,10682,6,0,L|95:176,1,160,2|0,3:2|0:0,0:0:0:0:
29,345,11255,2,0,P|73:281|168:304,1,160,2|0,0:0|0:0,0:0:0:0:
107,357,11828,1,2,0:0:0:0:
93,170,12019,1,2,3:2:0:0:
93,170,12115,1,2,3:2:0:0:
93,170,12210,5,2,3:2:0:0:
26,218,12402,2,0,L|-6:213,3,26.6666666666667,2|2|2|2,0:0|0:0|0:0|0:0,0:0:0:0:
168,204,12784,2,0,P|205:210|247:216,1,80,2|0,0:0|0:0,0:0:0:0:
405,256,13166,1,2,3:2:0:0:
360,99,13357,1,12,3:2:0:0:
335,188,13548,1,2,0:0:0:0:
497,178,13739,6,0,P|486:245|468:365,1,160,6|0,3:2|0:0,0:0:0:0:
311,346,14312,2,0,P|322:266|335:187,1,160,2|0,0:0|0:0,0:0:0:0:
392,49,14886,5,2,0:0:0:0:
373,60,14981,1,2,0:0:0:0:
350,63,15077,1,0,3:2:0:0:
330,57,15172,1,2,3:2:0:0:
312,42,15268,6,0,B|270:19|229:53|229:53|190:84|145:60,1,160,2|0,3:2|0:0,0:0:0:0:
49,9,15841,2,0,P|63:72|85:197,1,160,2|0,0:0|3:0,0:0:0:0:
113,248,16414,1,8,0:0:0:0:
165,42,16605,1,2,0:0:0:0:
165,42,16701,1,2,0:0:0:0:
165,42,16796,5,10,3:2:0:0:
24,236,16988,1,10,3:2:0:0:
25,249,17370,1,10,3:2:0:0:
26,262,17752,5,10,0:2:0:0:
68,48,17943,1,10,0:2:0:0:
192,213,18134,1,10,3:2:0:0:
192,213,19281,5,0,3:0:0:0:
192,213,19472,2,0,L|285:200,1,71.9999978027344,8|0,0:0|0:0,0:0:0:0:
337,161,19854,6,0,B|355:124|324:91|324:91|280:81|256:128,1,160,6|8,3:2|0:0,0:0:0:0:
416,238,20427,2,0,B|398:201|429:168|429:168|473:158|497:205,1,160,6|8,3:2|0:0,0:0:0:0:
294,337,21000,6,0,B|339:366|339:366|355:317|310:291|342:230,1,176.000005371094,12|0,0:0|3:0,0:0:0:0:
332,71,21574,2,0,P|401:79|465:85,2,128,8|4|4,3:0|3:0|3:0,0:0:0:0:
252,22,22529,1,4,3:0:0:0:
253,32,22911,6,0,P|190:43|126:49,1,128,4|0,3:2|0:0,0:0:0:0:
265,126,23484,2,0,P|201:131|138:143,1,128,10|0,0:0|0:0,0:0:0:0:
60,104,24057,1,2,0:0:0:0:
93,256,24248,1,0,3:0:0:0:
93,256,24344,1,0,3:0:0:0:
93,256,24439,6,0,P|60:204|0:206,1,128,2|0,3:2|0:0,0:0:0:0:
75,338,25012,2,0,P|107:286|168:288,1,128,10|0,0:0|3:0,0:0:0:0:
259,361,25586,6,0,L|268:311,1,32,8|0,0:0|3:0,0:0:0:0:
242,248,25777,2,0,L|251:198,1,32,0|0,3:0|3:0,0:0:0:0:
200,152,25968,6,0,P|245:136|315:184,1,128,2|0,3:2|0:0,0:0:0:0:
386,127,26541,2,0,P|400:147|400:184,1,64,10|0,0:2|0:0,0:0:0:0:
478,225,26923,2,0,P|467:247|435:266,1,64,2|0,0:0|0:0,0:0:0:0:
344,377,27305,1,0,3:0:0:0:
344,377,27401,1,0,3:0:0:0:
344,377,27496,6,0,L|352:222,1,128,2|0,3:2|0:0,0:0:0:0:
478,225,28070,1,10,0:0:0:0:
478,225,28261,2,0,L|474:288,1,64,2|2,0:0|3:2,0:0:0:0:
350,124,28643,6,0,P|334:119|318:117,1,32,10|0,0:0|3:0,0:0:0:0:
433,115,28834,2,0,P|448:110|464:108,1,32,0|0,3:2|3:2,0:0:0:0:
400,184,29025,6,0,P|392:121|379:58,1,128,2|0,3:2|0:0,0:0:0:0:
219,20,29598,2,0,P|231:82|239:146,1,128,10|0,0:0|0:0,0:0:0:0:
260,318,30172,1,2,0:0:0:0:
308,249,30363,1,0,3:2:0:0:
308,249,30458,1,0,3:2:0:0:
308,249,30554,6,0,P|251:227|188:268,1,128,2|0,3:2|0:0,0:0:0:0:
110,342,31127,1,10,0:0:0:0:
110,342,31318,2,0,P|142:337|192:351,1,64,2|2,0:0|3:2,0:0:0:0:
28,264,31700,6,0,P|24:248|18:233,1,32,10|0,0:0|3:0,0:0:0:0:
117,228,31891,2,0,P|111:242|107:258,1,32,0|0,3:0|3:0,0:0:0:0:
64,167,32082,6,0,P|56:107|40:14,1,128,2|0,3:2|0:0,0:0:0:0:
152,36,32656,2,0,P|162:99|170:162,1,128,10|0,0:0|0:0,0:0:0:0:
195,256,33229,1,8,0:0:0:0:
283,178,33420,1,0,3:0:0:0:
283,178,33516,1,0,3:0:0:0:
283,178,33611,6,0,L|363:166,1,64,4|0,3:2|0:0,0:0:0:0:
478,77,33993,1,4,3:0:0:0:
478,77,34089,1,4,3:0:0:0:
478,77,34184,2,0,L|438:71,1,32,4|4,3:0|3:0,0:0:0:0:
370,93,34375,2,0,B|365:59|365:59|386:25,1,64,4|0,3:2|0:0,0:0:0:0:
435,157,34758,1,8,3:0:0:0:
435,157,34854,1,8,3:0:0:0:
435,157,34949,2,0,L|441:197,1,32,8|8,3:0|3:0,0:0:0:0:
397,262,35140,6,0,P|449:224|512:246,1,128,4|0,3:2|0:0,0:0:0:0:
445,333,35713,2,0,P|393:295|329:317,1,128,10|0,0:0|0:0,0:0:0:0:
212,250,36286,1,10,0:0:0:0:
254,363,36477,1,2,3:2:0:0:
300,218,36668,6,0,P|300:160|322:69,1,128,2|0,3:2|0:0,0:0:0:0:
240,28,37242,2,0,P|189:57|99:83,1,128,10|0,0:0|3:0,0:0:0:0:
34,169,37815,2,0,P|31:149|19:116,1,32,8|0,0:0|3:0,0:0:0:0:
115,205,38006,2,0,P|111:220|109:236,1,32,0|0,3:0|3:0,0:0:0:0:
0,293,38197,6,0,B|32:275|64:301|64:301|95:326|130:307,1,128,2|0,3:2|0:0,0:0:0:0:
243,256,38770,2,0,P|209:263|174:265,1,64,10|0,3:2|0:0,0:0:0:0:
184,362,39153,2,0,P|215:354|247:352,1,64,2|8,0:0|0:0,0:0:0:0:
360,238,39535,6,0,L|376:364,1,128,2|2,3:2|0:0,0:0:0:0:
456,312,40108,2,0,L|447:248,1,64,2|10,0:0|0:2,0:0:0:0:
432,150,40490,1,2,0:0:0:0:
432,150,40681,1,2,3:2:0:0:
484,63,40872,1,10,0:0:0:0:
484,63,40968,1,0,3:0:0:0:
484,63,41063,2,0,L|441:57,1,32,0|0,3:0|3:0,0:0:0:0:
375,41,41254,6,0,B|324:46|324:46|302:63|302:63|237:56,1,128,2|0,3:2|0:0,0:0:0:0:
174,22,41828,1,10,0:0:0:0:
101,136,42019,2,0,P|156:106|216:129,1,128,2|8,3:2|0:0,0:0:0:0:
172,248,42592,1,2,3:2:0:0:
172,248,42688,1,0,3:0:0:0:
172,248,42783,6,0,L|159:166,2,64,2|2|2,3:2|0:0|0:0,0:0:0:0:
81,267,43356,2,0,L|70:203,1,64,10|0,0:0|3:0,0:0:0:0:
0,70,43739,5,2,0:0:0:0:
70,203,43930,1,10,0:0:0:0:
117,65,44121,1,0,3:0:0:0:
117,65,44216,1,0,3:0:0:0:
117,65,44312,6,0,P|181:69|261:78,1,128,2|0,3:2|0:0,0:0:0:0:
356,83,44885,5,10,0:0:0:0:
337,207,45076,1,0,3:0:0:0:
299,19,45267,5,2,0:0:0:0:
281,144,45458,1,8,0:0:0:0:
386,4,45649,6,0,P|443:11|514:22,2,128,2|4|8,3:2|3:0|3:0,0:0:0:0:
281,144,46796,1,4,3:0:0:0:
281,144,46987,6,0,P|319:149|360:156,1,71.9999978027344,8|0,3:0|0:0,0:0:0:0:
415,102,47369,6,0,P|432:154|413:206,1,111.999996582031,6|2,3:2|0:0,0:0:0:0:
486,361,48133,2,0,P|470:308|492:257,1,111.999996582031,2|2,0:0|0:0,0:0:0:0:
413,205,48707,1,0,3:0:0:0:
374,286,48898,6,0,B|246:279|306:364|246:406|184:386|152:370|134:329|157:285|210:282,1,335.999989746094,6|2,3:2|0:0,0:0:0:0:
200,283,50426,6,0,L|181:163,1,111.999996582031,6|2,3:2|0:0,0:0:0:0:
336,138,51191,2,0,L|355:258,1,111.999996582031,2|2,0:0|0:0,0:0:0:0:
283,290,51764,1,0,3:0:0:0:
283,290,51955,6,0,L|254:109,1,167.999994873047,2|0,3:2|3:0,0:0:0:0:
300,57,52719,2,0,P|255:42|195:73,1,111.999996582031,2|8,3:2|0:0,0:0:0:0:
198,68,53484,6,0,B|167:86|127:54|127:54|86:20|45:43,1,160,4|8,3:2|0:0,0:0:0:0:
68,189,54057,2,0,P|71:142|82:94,1,80,2|0,3:2|0:0,0:0:0:0:
63,286,54439,2,0,P|23:312|-12:345,1,80,2|8,3:2|0:0,0:0:0:0:
150,242,54821,1,0,3:0:0:0:
150,242,54917,1,0,3:0:0:0:
150,242,55012,6,0,P|192:262|306:282,1,160,2|8,3:2|0:0,0:0:0:0:
493,235,55586,2,0,P|428:252|362:174,1,160,2|2,3:2|3:2,0:0:0:0:
458,101,56159,5,8,0:0:0:0:
453,120,56254,1,0,3:0:0:0:
449,140,56350,1,0,3:0:0:0:
444,159,56445,1,0,3:0:0:0:
440,179,56541,6,0,L|417:314,1,120,2|0,3:2|0:0,0:0:0:0:
418,309,56923,2,0,P|457:304|501:324,1,80,8|0,0:0|3:2,0:0:0:0:
334,362,57305,2,0,P|294:366|250:346,1,80,2|0,0:0|3:0,0:0:0:0:
321,200,57688,2,0,L|306:285,1,80,8|0,0:0|0:0,0:0:0:0:
130,371,58070,6,0,L|150:252,1,120,2|0,3:2|0:0,0:0:0:0:
152,240,58452,2,0,P|111:228|62:246,1,80,10|0,0:0|3:2,0:0:0:0:
171,98,58834,2,0,P|181:139|221:172,1,80,2|0,0:0|3:0,0:0:0:0:
62,152,59216,1,10,0:0:0:0:
62,152,59312,1,2,0:0:0:0:
62,152,59407,2,0,P|78:136|82:109,1,40,2|2,0:0|0:0,0:0:0:0:
50,28,59598,6,0,B|82:53|140:52|110:14|167:1|206:27,1,167.999994873047,6|2,3:2|0:0,0:0:0:0:
302,6,60363,2,0,P|290:58|276:136,1,111.999996582031,2|2,0:0|0:0,0:0:0:0:
279,115,61127,6,0,P|329:102|382:130,1,111.999996582031,2|0,0:0|0:0,0:0:0:0:
422,57,61700,2,0,P|458:93|460:153,1,111.999996582031,4|4,3:0|3:0,0:0:0:0:
399,209,62274,1,8,0:0:0:0:
399,217,62656,6,0,P|327:224|255:232,1,143.999995605469,6|2,0:0|0:0,0:0:0:0:
196,288,63420,2,0,P|178:253|191:187,1,96,2|0,0:0|0:0,0:0:0:0:
184,198,64184,6,0,L|174:108,1,71.9999978027344,10|0,3:2|0:0,0:0:0:0:
99,252,64567,2,0,L|88:161,1,80,8|0,0:0|3:0,0:0:0:0:
13,305,64949,2,0,L|2:214,1,88.000002685547,8|2,0:0|3:2,0:0:0:0:
2,51,65331,5,10,0:0:0:0:
23,68,65426,1,8,0:0:0:0:
50,75,65522,1,10,0:0:0:0:
77,69,65617,1,8,0:0:0:0:
99,53,65713,6,0,B|162:47|162:47|179:31|179:31|280:21,1,176.000005371094,6|8,3:2|0:0,0:0:0:0:
485,150,66286,1,2,0:0:0:0:
485,150,66381,1,2,0:0:0:0:
485,150,66477,1,0,3:0:0:0:
373,15,66668,1,0,0:0:0:0:
308,162,66859,1,10,0:0:0:0:
383,104,67050,6,0,L|412:281,1,176.000005371094,2|0,0:0|0:0,0:0:0:0:
501,321,67623,1,10,0:0:0:0:
332,249,67814,1,10,0:0:0:0:
332,249,67910,1,8,0:0:0:0:
332,249,68005,1,0,3:2:0:0:
353,335,68197,1,2,0:0:0:0:
480,234,68388,1,10,0:0:0:0:
480,234,68483,1,0,3:0:0:0:
480,234,68579,2,0,L|475:180,1,44.0000013427735,0|0,3:0|3:0,0:0:0:0:
512,122,68770,6,0,B|468:98|424:133|424:133|382:166|334:142,1,176.000005371094,2|8,3:2|0:0,0:0:0:0:
234,32,69343,2,0,P|311:10|371:80,1,176.000005371094,2|0,0:0|0:0,0:0:0:0:
341,259,69916,1,10,0:0:0:0:
290,89,70107,1,2,0:0:0:0:
343,272,70298,5,2,3:2:0:0:
209,152,70490,1,2,0:0:0:0:
213,331,70681,2,0,L|107:342,1,88.000002685547,10|2,0:0|0:0,0:0:0:0:
112,340,70967,1,2,0:0:0:0:
98,340,71063,2,0,P|91:289|69:225,1,88.000002685547,0|0,3:2|0:0,0:0:0:0:
33,61,71445,1,10,0:0:0:0:
33,61,71541,1,10,0:0:0:0:
33,61,71636,2,0,P|38:82|41:104,1,44.0000013427735,10|10,0:0|0:0,0:0:0:0:
36,187,71827,6,0,P|114:170|233:147,1,176.000005371094,6|8,3:2|0:0,0:0:0:0:
368,94,72400,1,2,0:0:0:0:
294,158,72591,2,0,P|285:114|276:71,1,88.000002685547,2|0,3:2|0:0,0:0:0:0:
441,19,72974,1,2,3:2:0:0:
384,181,73165,6,0,P|366:95|348:9,1,176.000005371094,10|0,0:0|0:0,0:0:0:0:
464,123,73738,2,0,P|472:166|481:209,1,88.000002685547,10|0,0:0|0:0,0:0:0:0:
311,244,74120,2,0,P|303:201|294:158,1,88.000002685547,2|0,3:2|0:0,0:0:0:0:
384,181,74502,2,0,P|397:256|413:331,1,132.00000402832,10|0,0:0|3:0,0:0:0:0:
411,323,74884,6,0,P|340:331|206:348,1,176.000005371094,6|8,3:2|0:0,0:0:0:0:
71,309,75458,1,2,0:0:0:0:
148,357,75649,2,0,L|160:251,1,88.000002685547,0|0,3:0|0:0,0:0:0:0:
146,111,76031,1,2,3:2:0:0:
185,184,76222,6,0,P|128:191|69:85,1,176.000005371094,12|0,0:0|0:0,0:0:0:0:
243,37,76795,5,8,0:0:0:0:
262,216,76986,1,0,3:0:0:0:
164,5,77177,5,2,0:0:0:0:
183,184,77368,1,2,3:2:0:0:
325,17,77560,5,10,0:0:0:0:
346,5,77655,1,8,0:0:0:0:
370,2,77751,1,10,0:0:0:0:
393,9,77846,1,8,0:0:0:0:
412,25,77942,6,0,P|403:101|389:217,1,176.000005371094,6|8,3:2|0:0,0:0:0:0:
417,371,78515,2,0,P|480:347|489:248,1,176.000005371094,2|0,0:0|0:0,0:0:0:0:
325,113,79088,5,10,0:0:0:0:
421,291,79279,1,2,0:0:0:0:
421,291,79375,1,2,0:0:0:0:
421,291,79470,1,0,3:2:0:0:
486,118,79662,1,0,0:0:0:0:
308,233,79853,5,10,0:0:0:0:
352,23,80044,1,10,0:0:0:0:
352,23,80139,1,8,3:2:0:0:
352,23,80235,1,2,3:2:0:0:
399,188,80426,1,2,0:0:0:0:
230,45,80617,1,8,0:0:0:0:
230,45,80712,1,0,3:0:0:0:
230,45,80808,2,0,L|171:37,1,44.0000013427735,0|0,3:0|3:0,0:0:0:0:
108,7,80999,6,0,B|86:39|116:84|116:84|147:131|119:172,1,176.000005371094,2|10,3:2|0:0,0:0:0:0:
47,299,81572,2,0,B|77:260|50:211|50:211|25:164|49:133,1,176.000005371094,2|0,0:0|0:0,0:0:0:0:
299,120,82146,5,10,0:0:0:0:
198,278,82337,1,2,0:0:0:0:
217,54,82528,5,2,3:2:0:0:
297,234,82719,1,2,0:0:0:0:
368,54,82910,1,10,0:0:0:0:
194,176,83101,1,10,0:0:0:0:
194,176,83197,1,8,3:2:0:0:
194,176,83292,6,0,L|89:183,1,88.000002685547,0|0,3:0|0:0,0:0:0:0:
278,314,83674,1,8,0:0:0:0:
278,314,83770,1,8,0:0:0:0:
278,314,83865,2,0,L|321:311,1,44.0000013427735,8|8,0:0|0:0,0:0:0:0:
437,353,84056,6,0,P|426:266|411:180,1,176.000005371094,4|8,3:2|0:0,0:0:0:0:
493,32,84630,2,0,P|485:75|479:118,1,88.000002685547,2|0,3:2|0:0,0:0:0:0:
336,129,85012,2,0,P|329:85|321:42,1,88.000002685547,2|8,3:2|0:0,0:0:0:0:
161,9,85395,5,2,0:0:0:0:
161,9,85490,1,2,0:0:0:0:
161,9,85586,2,0,L|184:191,1,176.000005371094,6|8,3:2|0:0,0:0:0:0:
235,321,86158,2,0,P|229:274|255:229,1,88.000002685547,2|0,3:2|0:0,0:0:0:0:
118,239,86541,2,0,P|135:278|130:322,1,88.000002685547,2|8,3:2|0:0,0:0:0:0:
183,183,86923,1,2,0:0:0:0:
55,294,87114,5,10,0:0:0:0:
187,100,87305,1,10,0:0:0:0:
328,338,87687,5,10,0:0:0:0:
114,139,88069,1,10,0:0:0:0:
394,50,88451,1,10,0:2:0:0:
394,50,89598,1,0,3:0:0:0:
394,50,89789,2,0,P|385:97|381:137,1,71.9999978027344,12|0,0:0|0:0,0:0:0:0:
423,193,90172,6,0,B|466:217|466:217|511:170|464:85,1,176.000005371094,6|8,3:2|0:0,0:0:0:0:
337,191,90744,2,0,B|294:215|294:215|249:168|296:83,1,176.000005371094,6|0,3:2|3:0,0:0:0:0:
471,98,91318,6,0,B|400:113|324:63|388:25|291:-7|224:40,1,264.000008056641,12|0,0:0|3:0,0:0:0:0:
71,21,92082,2,0,L|83:101,1,80,8|2,0:0|3:2,0:0:0:0:
159,56,92464,5,2,0:0:0:0:
159,56,92655,1,2,3:2:0:0:
0,88,92846,5,2,0:0:0:0:
0,88,93037,1,2,3:2:0:0:
71,21,93228,6,0,L|93:179,1,160,4|0,3:2|3:0,0:0:0:0:
110,331,93801,1,2,0:0:0:0:
110,331,93896,1,2,0:0:0:0:
110,331,93992,1,2,3:2:0:0:
26,263,94183,1,2,0:0:0:0:
177,247,94374,2,0,L|216:242,3,26.6666666666667,10|2|2|2,0:0|0:0|0:0|0:0,0:0:0:0:
286,153,94756,6,0,P|302:231|312:310,1,160,2|0,3:2|3:0,0:0:0:0:
437,353,95329,2,0,P|442:313|450:274,1,80,2|0,0:0|3:0,0:0:0:0:
389,101,95712,1,2,3:2:0:0:
389,101,95807,1,2,3:2:0:0:
389,101,95903,2,0,L|333:95,1,40,10|0,0:0|3:0,0:0:0:0:
473,119,96094,2,0,L|529:125,1,40,2|0,0:0|3:0,0:0:0:0:
443,32,96285,6,0,L|419:215,1,160,2|0,3:2|3:0,0:0:0:0:
257,176,96858,2,0,L|281:-7,1,160,2|0,0:0|0:0,0:0:0:0:
91,104,97431,1,10,0:0:0:0:
165,166,97622,1,2,3:2:0:0:
165,166,97718,1,2,3:2:0:0:
165,166,97813,5,2,3:2:0:0:
112,26,98005,2,0,L|117:-13,3,26.6666666666667,2|2|2|2,0:0|0:0|0:0|3:2,0:0:0:0:
18,142,98387,2,0,L|7:221,1,80,2|0,0:0|3:0,0:0:0:0:
156,345,98769,1,2,3:2:0:0:
94,206,98960,1,12,0:0:0:0:
39,351,99151,1,2,0:0:0:0:
167,256,99342,6,0,B|229:242|229:242|242:223|242:223|323:202,1,160,6|0,3:2|3:0,0:0:0:0:
512,113,99915,2,0,P|442:89|379:163,1,160,2|2,0:0|0:0,0:0:0:0:
472,265,100489,5,10,0:0:0:0:
467,241,100584,1,2,3:2:0:0:
464,217,100680,1,2,3:2:0:0:
460,194,100775,1,2,3:2:0:0:
456,170,100871,6,0,P|446:89|429:-3,1,160,2|0,3:2|3:0,0:0:0:0:
289,46,101444,2,0,P|303:124|312:204,1,160,2|0,0:0|3:0,0:0:0:0:
329,336,102017,1,10,0:0:0:0:
207,285,102208,1,4,3:0:0:0:
207,285,102304,1,4,3:0:0:0:
207,285,102399,1,4,3:0:0:0:
207,285,103355,5,0,3:0:0:0:
207,285,103546,2,0,L|125:294,1,64,8|0,0:0|3:0,0:0:0:0:
62,361,103928,6,0,P|55:311|45:266,1,80,6|0,3:2|0:0,0:0:0:0:
44,270,104215,1,8,0:0:0:0:
40,258,104310,1,8,0:0:0:0:
48,100,104501,5,6,0:0:0:0:
140,215,104692,1,0,3:0:0:0:
147,61,104884,1,0,3:0:0:0:
37,246,105075,1,6,3:2:0:0:
256,192,105170,12,0,108514,0:0:0:0:
