osu file format v14

[General]
AudioFilename: audio.ogg
AudioLeadIn: 0
PreviewTime: 65044
Countdown: 0
SampleSet: Soft
StackLeniency: 0.7
Mode: 0
LetterboxInBreaks: 0
WidescreenStoryboard: 1

[Editor]
Bookmarks: 747,7625,18134,22911,35140,47369,53484,59598,65713,77942,88451,93228,102399,105075,108514
DistanceSpacing: 0.3
BeatDivisor: 4
GridSize: 16
TimelineZoom: 1

[Metadata]
Title:Arcana Alchemia
TitleUnicode:Arcana Alchemia
Artist:Kicco x Sasaki Sayaka
ArtistUnicode:Kicco×佐咲紗花
Creator:tomatas95
Version:Hard
Source:アルカナ・アルケミア
Tags:eroge galgame visual novel vn opening op lump of sugar ランプ オブ シュガー 方糖社 video game shirahane suou japanese j-pop jpop pop
BeatmapID:4043392
BeatmapSetID:1937756

[Difficulty]
HPDrainRate:3.5
CircleSize:3.3
OverallDifficulty:6
ApproachRate:7.5
SliderMultiplier:1.3
SliderTickRate:1

[Events]
//Background and Video events
0,0,"KanonDaisukiii.jpg",0,0
Video,0,"eroticvideoiya.mp4"
//Break Periods
//Storyboard Layer 0 (Background)
//Storyboard Layer 1 (Fail)
//Storyboard Layer 2 (Pass)
//Storyboard Layer 3 (Foreground)
//Storyboard Layer 4 (Overlay)
//Storyboard Sound Samples

[TimingPoints]
747,382.165605095541,4,2,1,35,1,0
747,-125,4,2,1,35,0,0
938,-125,4,2,8,45,0,0
1129,-125,4,2,8,50,0,0
3804,-125,4,2,1,35,0,0
3995,-125,4,2,8,45,0,0
4186,-125,4,2,8,50,0,0
6861,-125,4,2,1,30,0,0
7625,382.165605095541,4,2,1,70,1,0
7625,-100,4,2,1,70,0,0
8198,-100,4,2,8,70,0,0
9153,-100,4,2,8,75,0,0
9535,-100,4,2,8,70,0,0
10682,-100,4,2,8,75,0,0
11064,-100,4,2,8,70,0,0
12210,-100,4,2,8,75,0,0
12402,-100,4,2,8,70,0,0
13357,-100,4,2,9,70,0,0
13739,-100,4,2,3,70,0,0
14121,-100,4,2,8,70,0,0
15268,-100,4,2,8,75,0,0
15650,-100,4,2,8,70,0,0
16796,-100,4,2,8,75,0,0
17179,-100,4,2,1,45,0,0
17370,-100,4,2,8,75,0,0
18134,-125,4,2,8,75,0,0
18325,-125,4,2,1,30,0,0
19281,-125,4,2,1,45,0,0
19472,-125,4,2,1,50,0,0
19758,-125,4,2,1,5,0,0
19854,-100,4,2,3,75,0,0
20236,-100,4,2,8,70,0,0
20427,-100,4,2,3,75,0,0
20809,-100,4,2,8,70,0,0
21000,-100,4,2,4,75,0,0
21382,-100,4,2,1,65,0,0
21574,-100,4,2,1,60,0,0
21956,-100,4,2,1,55,0,0
22338,-100,4,2,1,50,0,0
22529,-100,4,2,1,45,0,0
22911,382.165605095541,4,2,3,60,1,0
22911,-125,4,2,3,60,0,0
23293,-125,4,2,1,60,0,0
24439,-125,4,2,1,65,0,0
24630,-125,4,2,1,60,0,0
25968,-125,4,2,1,65,0,0
26159,-125,4,2,1,60,0,0
27496,-125,4,2,1,65,0,0
27687,-125,4,2,1,60,0,0
29025,-125,4,2,1,65,0,0
29216,-125,4,2,1,60,0,0
30554,-125,4,2,1,65,0,0
30745,-125,4,2,1,60,0,0
33611,-125,4,2,7,60,0,0
33993,-125,4,2,1,60,0,0
34375,-125,4,2,7,60,0,0
34758,-125,4,2,1,55,0,0
35140,-125,4,2,3,60,0,0
35522,-125,4,2,1,60,0,0
36668,-125,4,2,1,65,0,0
36859,-125,4,2,1,60,0,0
38197,-125,4,2,1,65,0,0
38388,-125,4,2,1,60,0,0
41254,-125,4,2,1,65,0,0
41445,-125,4,2,1,60,0,0
44312,-125,4,2,1,65,0,0
44503,-125,4,2,1,60,0,0
46414,-125,4,2,1,55,0,0
46796,-125,4,2,2,55,0,0
46987,-125,4,2,3,55,0,0
47369,-142.857142857143,4,2,9,55,0,0
47751,-142.857142857143,4,2,1,55,0,0
48898,-142.857142857143,4,2,9,60,0,0
49280,-142.857142857143,4,2,1,55,0,0
50426,-142.857142857143,4,2,9,55,0,0
50618,-142.857142857143,4,2,1,55,0,0
53484,-100,4,2,3,65,0,0
53866,-100,4,2,1,65,0,0
59598,-125,4,2,7,65,0,0
59789,-125,4,2,1,50,0,0
61700,-125,4,2,1,55,0,0
62082,-125,4,2,2,55,0,0
62274,-125,4,2,1,45,0,0
62656,-125,4,2,6,45,0,0
63229,-125,4,2,1,45,0,0
63420,-125,4,2,1,40,0,0
64184,-99.9999999999999,4,2,1,70,0,0
65713,-90.9090909090909,4,2,4,75,0,1
66095,-90.9090909090909,4,2,1,75,0,1
71827,-90.9090909090909,4,2,3,75,0,1
72018,-90.9090909090909,4,2,1,75,0,1
74884,-90.9090909090909,4,2,7,75,0,1
75076,-90.9090909090909,4,2,1,75,0,1
76222,-90.9090909090909,4,2,3,75,0,1
76413,-90.9090909090909,4,2,1,75,0,1
77560,-90.9090909090909,4,2,1,75,0,0
77942,-90.9090909090909,4,2,4,75,0,1
78324,-90.9090909090909,4,2,1,75,0,1
84056,-90.9090909090909,4,2,3,75,0,1
84248,-90.9090909090909,4,2,1,75,0,1
85585,-90.9090909090909,4,2,7,75,0,1
85776,-90.9090909090909,4,2,1,75,0,1
87114,-90.9090909090909,4,2,1,80,0,1
87496,-90.9090909090909,4,2,1,50,0,1
87687,-90.9090909090909,4,2,1,80,0,1
88452,-111.111111111111,4,2,1,80,0,0
89598,-111.111111111111,4,2,1,45,0,0
89789,-111.111111111111,4,2,9,60,0,0
90172,-90.9090909090909,4,2,7,75,0,1
90553,-90.9090909090909,4,2,1,70,0,1
90744,-90.9090909090909,4,2,7,75,0,1
91126,-90.9090909090909,4,2,1,70,0,1
91318,-100,4,2,4,75,0,1
91700,-100,4,2,1,70,0,1
92464,-100,4,2,1,60,0,1
93228,382.165605095541,4,2,1,70,1,0
93228,-100,4,2,1,70,0,0
93801,-100,4,2,8,70,0,0
94756,-100,4,2,8,75,0,0
95138,-100,4,2,8,70,0,0
96285,-100,4,2,8,75,0,0
96667,-100,4,2,8,70,0,0
97813,-100,4,2,8,75,0,0
98005,-100,4,2,8,70,0,0
98960,-100,4,2,9,70,0,0
99151,-100,4,2,1,70,0,0
99342,-100,4,2,3,70,0,0
99724,-100,4,2,8,70,0,0
100871,-100,4,2,8,75,0,0
101253,-100,4,2,8,70,0,0
102208,-100,4,2,1,65,0,0
102399,-125,4,2,1,55,0,0
103355,-125,4,2,1,45,0,0
103546,-125,4,2,1,50,0,0
103737,-125,4,2,1,45,0,0
103928,-100,4,2,7,70,0,0
104119,-100,4,2,1,70,0,0
104501,-100,4,2,7,70,0,0
104692,-100,4,2,1,70,0,0
105075,-100,4,2,4,75,0,0
105457,-100,4,2,1,75,0,0
105839,-100,4,2,1,70,0,0
106221,-100,4,2,1,60,0,0
106603,-100,4,2,1,50,0,0
106985,-100,4,2,1,40,0,0
107368,-100,4,2,1,30,0,0
107750,-100,4,2,1,20,0,0
108132,-100,4,2,1,10,0,0
108514,-100,4,2,1,5,0,0

[Colours]
Combo1 : 162,240,240
Combo2 : 252,201,231
Combo3 : 208,206,251
Combo4 : 250,241,190

[HitObjects]
110,46,747,6,0,L|7:58,1,104,4|2,3:0|0:0,0:0:0:0:
49,145,1320,1,0,0:0:0:0:
49,145,1511,2,0,L|100:139,1,52,2|0,0:0|0:0,0:0:0:0:
183,169,1893,2,0,L|186:200,2,26,2|2|2,0:0|0:0|0:0,0:0:0:0:
226,96,2275,6,0,P|256:102|287:95,1,52,2|2,0:0|0:0,0:0:0:0:
322,1,2657,2,0,P|331:29|353:53,1,52,2|2,0:0|0:0,0:0:0:0:
424,78,3039,2,0,P|428:63|439:50,2,26,2|2|2,0:0|0:0|0:0,0:0:0:0:
355,131,3422,2,0,P|348:165|343:189,1,52,2|2,0:0|0:0,0:0:0:0:
432,300,3995,6,0,L|471:304,2,26,2|2|2,0:0|0:0|0:0,0:0:0:0:
352,317,4377,1,0,0:0:0:0:
352,317,4568,2,0,P|350:278|358:261,1,52,2|0,0:0|0:0,0:0:0:0:
422,215,4950,2,0,L|461:219,2,26,2|2|2,0:0|0:0|0:0,0:0:0:0:
344,181,5332,2,0,P|315:177|271:170,1,52,2|2,0:0|0:0,0:0:0:0:
231,234,5715,2,0,P|242:261|257:302,1,52,2|2,0:0|0:0,0:0:0:0:
338,287,6097,2,0,P|346:275|361:258,2,26,2|2|2,0:0|0:0|0:0,0:0:0:0:
289,360,6479,2,0,L|219:367,1,52,2|2,0:0|0:0,0:0:0:0:
19,322,7625,6,0,B|58:338|58:338|73:299|49:232,1,130,4|0,3:2|0:0,0:0:0:0:
13,177,8198,1,2,0:0:0:0:
13,177,8293,1,2,0:0:0:0:
13,177,8389,2,0,P|49:165|82:174,1,65,2|2,0:0|0:0,0:0:0:0:
146,239,8771,2,0,L|154:199,3,32.5,2|2|2|2,0:0|0:0|3:2|0:0,0:0:0:0:
160,169,9153,6,0,P|166:112|194:38,1,130,2|0,3:2|0:0,0:0:0:0:
105,11,9726,2,0,P|78:22|39:29,1,65,2|0,0:0|0:0,0:0:0:0:
28,125,10109,1,2,3:2:0:0:
28,125,10204,1,2,0:0:0:0:
28,125,10300,2,0,P|51:142|76:173,1,65,10|2,0:0|0:0,0:0:0:0:
43,251,10682,6,0,P|33:311|23:385,1,130,2|0,3:2|0:0,0:0:0:0:
134,356,11255,2,0,P|142:291|153:227,1,130,2|0,0:0|0:0,0:0:0:0:
180,140,11828,1,2,0:0:0:0:
247,208,12019,1,2,3:2:0:0:
247,208,12115,1,2,3:2:0:0:
247,208,12210,5,2,3:2:0:0:
333,175,12402,2,0,L|325:135,2,32.5,2|2|2,0:0|0:0|0:0,0:0:0:0:
405,239,12784,2,0,P|412:276|408:310,1,65,2|0,0:0|0:0,0:0:0:0:
503,259,13166,1,2,3:2:0:0:
503,259,13357,2,0,P|500:226|507:194,1,65,12|0,0:0|0:0,0:0:0:0:
508,90,13739,6,0,B|507:29|507:29|479:-3|438:10,1,130,6|0,3:2|0:0,0:0:0:0:
416,87,14312,2,0,P|355:79|281:70,1,130,2|0,0:0|0:0,0:0:0:0:
190,49,14886,2,0,P|192:64|194:82,3,32.5,2|2|0|2,0:0|0:0|3:2|3:2,0:0:0:0:
200,118,15268,6,0,P|206:168|219:269,1,130,2|0,3:2|0:0,0:0:0:0:
273,321,15841,2,0,P|224:343|155:311,1,130,2|0,0:0|3:0,0:0:0:0:
128,229,16414,1,8,0:0:0:0:
62,295,16605,1,2,0:0:0:0:
62,295,16701,1,2,0:0:0:0:
62,295,16796,5,10,3:2:0:0:
100,378,16988,1,10,3:2:0:0:
210,242,17370,1,10,3:2:0:0:
38,213,17752,1,10,0:2:0:0:
38,213,17943,1,10,0:2:0:0:
128,229,18134,1,10,3:2:0:0:
0,85,19281,5,0,3:0:0:0:
0,85,19472,2,0,L|62:93,1,52,8|0,0:0|0:0,0:0:0:0:
117,145,19854,6,0,P|137:84|110:26,1,130,6|8,3:2|0:0,0:0:0:0:
212,0,20427,2,0,P|254:47|317:53,1,130,6|8,3:2|0:0,0:0:0:0:
290,154,21000,2,0,P|227:166|190:218,1,130,12|0,0:0|3:0,0:0:0:0:
274,239,21574,2,0,L|293:371,2,130,8|4|4,3:0|3:0|3:0,0:0:0:0:
290,154,22529,1,4,3:0:0:0:
372,295,22911,6,0,B|421:320|421:320|481:288,1,104,4|0,3:2|0:0,0:0:0:0:
414,226,23483,2,0,L|426:100,1,104,10|0,0:0|0:0,0:0:0:0:
472,43,24056,1,2,0:0:0:0:
472,43,24247,1,0,3:0:0:0:
379,40,24438,2,0,P|334:57|270:32,1,104,2|0,3:2|0:0,0:0:0:0:
245,125,25011,2,0,P|207:94|197:26,1,104,10|0,0:0|3:0,0:0:0:0:
116,9,25585,2,0,L|75:12,3,26,8|8|8|8,0:0|0:0|0:0|0:0,0:0:0:0:
42,7,25967,6,0,P|51:54|56:126,1,104,2|0,3:2|0:0,0:0:0:0:
103,186,26540,2,0,L|-6:199,2,104,10|2|0,0:2|0:0|3:0,0:0:0:0:
113,187,27400,1,0,3:0:0:0:
123,188,27495,2,0,P|139:233|117:300,1,104,2|0,3:2|0:0,0:0:0:0:
78,358,28069,2,0,L|22:364,2,52,10|2|2,0:0|0:0|3:2,0:0:0:0:
165,368,28642,2,0,L|198:363,3,26,10|8|8|8,0:0|0:0|0:2|0:2,0:0:0:0:
235,374,29024,6,0,P|229:323|217:263,1,104,2|0,3:2|0:0,0:0:0:0:
301,232,29597,2,0,P|306:181|319:121,1,104,10|0,0:0|0:0,0:0:0:0:
274,52,30171,1,2,0:0:0:0:
274,52,30362,1,0,3:2:0:0:
366,50,30553,2,0,L|481:39,1,104,2|0,3:2|0:0,0:0:0:0:
461,127,31127,2,0,L|409:131,2,52,10|2|2,0:0|0:0|3:2,0:0:0:0:
498,210,31700,2,0,P|494:225|494:240,3,26,10|8|8|8,0:0|0:0|0:0|0:0,0:0:0:0:
489,280,32081,6,0,P|473:323|492:387,1,104,2|0,3:2|0:0,0:0:0:0:
381,373,32655,2,0,P|387:322|364:276,1,104,10|0,0:0|0:0,0:0:0:0:
304,337,33228,2,0,L|235:343,1,52,8|0,0:0|3:0,0:0:0:0:
242,344,33515,1,0,3:0:0:0:
231,345,33610,2,0,P|226:302|219:274,1,52,4|0,3:2|0:0,0:0:0:0:
215,198,33992,2,0,L|256:191,3,26,4|4|4|4,3:0|3:0|3:0|3:0,0:0:0:0:
278,185,34374,2,0,L|335:175,1,52,4|0,3:2|0:0,0:0:0:0:
311,86,34757,2,0,L|270:93,3,26,8|8|8|8,3:0|3:0|3:0|3:0,0:0:0:0:
248,99,35139,6,0,L|134:118,1,104,4|0,3:2|0:0,0:0:0:0:
71,78,35712,2,0,P|60:128|81:175,1,104,10|0,0:0|0:0,0:0:0:0:
163,202,36285,1,10,0:0:0:0:
163,202,36476,1,2,3:2:0:0:
123,279,36667,2,0,L|-1:290,1,104,2|0,3:2|0:0,0:0:0:0:
28,376,37241,2,0,L|152:365,1,104,10|0,0:0|3:0,0:0:0:0:
202,314,37814,2,0,L|227:311,3,26,8|8|8|8,0:0|0:0|0:0|0:0,0:0:0:0:
274,312,38196,6,0,P|279:263|241:200,1,104,2|0,3:2|0:0,0:0:0:0:
324,155,38769,2,0,P|363:183|437:182,1,104,10|2,3:2|0:0,0:0:0:0:
434,276,39343,1,8,0:0:0:0:
434,276,39534,2,0,P|389:296|353:360,2,104,2|2|10,3:2|0:0|0:2,0:0:0:0:
443,361,40489,2,0,L|507:371,2,52,2|2|10,0:0|3:2|0:0,0:0:0:0:
358,339,41062,1,0,3:0:0:0:
358,339,41159,1,0,3:0:0:0:
358,339,41253,6,0,B|317:354|283:324|283:324|251:293|210:310,1,156,2|10,3:2|0:0,0:0:0:0:
147,365,42018,2,0,P|128:313|147:255,1,104,2|8,3:2|0:0,0:0:0:0:
57,237,42591,2,0,P|92:194|152:182,1,104,2|2,3:2|0:0,0:0:0:0:
212,223,43164,1,2,0:0:0:0:
212,223,43355,2,0,P|216:193|225:152,1,52,10|0,0:0|3:0,0:0:0:0:
307,185,43738,2,0,P|302:210|298:236,2,52,2|10|0,0:0|0:0|3:0,0:0:0:0:
273,108,44311,6,0,P|321:95|378:127,1,104,2|0,3:2|0:0,0:0:0:0:
416,45,44884,2,0,P|451:80|452:145,1,104,10|2,0:0|0:0,0:0:0:0:
487,217,45457,1,8,0:0:0:0:
398,200,45648,2,0,L|383:320,2,104,2|4|8,3:2|3:0|3:0,0:0:0:0:
416,45,46795,1,4,3:0:0:0:
416,45,46986,1,8,3:0:0:0:
270,108,47369,6,0,P|225:104|177:100,2,90.9999972229005,6|2|2,3:2|0:0|0:0,0:0:0:0:
235,267,48515,2,0,P|209:264|181:262,1,45.4999986114502,2|0,0:0|3:0,0:0:0:0:
174,180,48897,2,0,P|219:184|264:187,2,90.9999972229005,6|2|2,3:2|0:0|0:0,0:0:0:0:
68,72,50043,1,2,0:0:0:0:
11,213,50425,6,0,P|18:254|24:322,2,90.9999972229005,6|2|2,3:2|0:0|0:0,0:0:0:0:
174,180,51572,2,0,P|177:203|181:242,1,45.4999986114502,2|0,0:0|3:0,0:0:0:0:
105,285,51954,2,0,P|100:239|92:194,1,90.9999972229005,2|0,3:2|0:0,0:0:0:0:
34,133,52527,1,0,3:0:0:0:
34,133,52718,2,0,L|23:27,1,90.9999972229005,2|8,3:2|0:0,0:0:0:0:
173,18,53484,6,0,B|225:21|225:21|241:39|241:39|307:39,1,130,4|8,3:2|0:0,0:0:0:0:
378,63,54056,2,0,P|380:28|367:-12,1,65,2|0,3:2|0:0,0:0:0:0:
479,3,54438,2,0,P|471:34|473:66,1,65,2|8,3:2|0:0,0:0:0:0:
431,146,54820,1,0,3:0:0:0:
431,146,54916,1,0,3:0:0:0:
431,146,55011,6,0,L|290:156,1,130,2|8,3:2|0:0,0:0:0:0:
351,237,55585,2,0,L|415:232,1,65,2|0,3:2|0:0,0:0:0:0:
453,319,55967,2,0,L|312:329,1,130,2|0,3:2|3:0,0:0:0:0:
258,384,56540,6,0,P|238:345|278:256,1,130,2|8,3:2|0:0,0:0:0:0:
226,183,57113,1,0,3:2:0:0:
226,183,57304,2,0,P|225:146|211:107,1,65,2|0,0:0|3:0,0:0:0:0:
283,58,57687,2,0,P|251:40|209:32,1,65,8|0,0:0|0:0,0:0:0:0:
146,71,58069,6,0,L|7:57,1,130,2|10,3:2|0:0,0:0:0:0:
0,143,58642,1,0,3:2:0:0:
0,143,58833,2,0,P|5:176|7:207,1,65,2|0,0:0|3:0,0:0:0:0:
92,220,59215,2,0,P|86:253|85:284,1,65,10|2,0:0|0:0,0:0:0:0:
60,362,59598,6,0,B|102:378|138:346|138:346|173:313|215:331,1,156,6|2,3:2|0:0,0:0:0:0:
291,349,60363,2,0,B|391:306|378:195|312:155|252:177|225:230|248:257,1,312,2|0,0:0|0:0,0:0:0:0:
204,328,61700,2,0,P|155:333|100:339,1,104,4|4,3:0|3:0,0:0:0:0:
26,380,62274,1,8,0:0:0:0:
95,244,62656,6,0,P|84:176|59:83,1,156,6|2,0:0|0:0,0:0:0:0:
37,13,63420,2,0,B|79:-3|115:29|115:29|150:62|192:44,1,156,2|0,0:0|0:0,0:0:0:0:
262,13,64184,6,0,P|270:44|266:76,1,65,10|0,3:2|0:0,0:0:0:0:
322,153,64567,1,8,0:0:0:0:
322,153,64758,1,0,3:0:0:0:
362,70,64949,1,8,0:0:0:0:
454,64,65140,1,2,3:2:0:0:
486,157,65331,2,0,P|469:154|453:152,3,32.5,10|8|10|8,0:0|0:0|0:0|0:0,0:0:0:0:
411,145,65713,6,0,P|403:199|388:302,1,143.000004364014,6|8,3:2|0:0,0:0:0:0:
430,364,66286,2,0,P|359:370|307:304,1,143.000004364014,2|0,0:0|0:0,0:0:0:0:
317,229,66859,1,10,0:0:0:0:
233,270,67050,6,0,L|85:278,1,143.000004364014,2|0,0:0|0:0,0:0:0:0:
12,290,67623,1,10,0:0:0:0:
12,290,67814,2,0,P|7:255|-8:193,1,71.5000021820069,2|0,0:0|3:2,0:0:0:0:
83,162,68197,2,0,P|88:126|95:91,1,71.5000021820069,2|10,0:0|0:0,0:0:0:0:
39,32,68579,1,0,3:0:0:0:
39,32,68674,1,0,3:0:0:0:
39,32,68770,6,0,P|102:8|176:55,1,143.000004364014,2|8,3:2|0:0,0:0:0:0:
175,126,69343,2,0,P|161:197|147:277,1,143.000004364014,2|0,0:0|0:0,0:0:0:0:
228,332,69917,1,10,0:0:0:0:
228,332,70108,1,2,0:0:0:0:
301,278,70299,6,0,P|307:242|314:207,1,71.5000021820069,2|0,3:2|0:0,0:0:0:0:
325,114,70681,1,10,0:0:0:0:
419,104,70872,2,0,B|423:31|423:31|394:-4|345:10,1,143.000004364014,2|0,0:0|0:0,0:0:0:0:
269,8,71445,2,0,P|251:10|227:12,3,35.7500010910034,10|10|10|10,0:0|0:0|0:0|0:0,0:0:0:0:
190,22,71827,6,0,P|119:30|25:41,1,143.000004364014,6|8,3:2|0:0,0:0:0:0:
7,119,72400,1,2,0:0:0:0:
60,192,72591,2,0,P|83:247|51:340,1,143.000004364014,2|2,3:2|3:2,0:0:0:0:
149,360,73165,6,0,P|185:312|281:293,1,143.000004364014,10|0,0:0|0:0,0:0:0:0:
218,209,73738,2,0,P|179:198|141:162,1,71.5000021820069,10|0,0:0|0:0,0:0:0:0:
297,164,74120,2,0,P|287:124|299:73,1,71.5000021820069,2|0,3:2|0:0,0:0:0:0:
375,209,74502,2,0,P|404:180|454:165,1,71.5000021820069,10|0,0:0|3:0,0:0:0:0:
512,258,74884,6,0,P|453:263|428:354,1,143.000004364014,6|8,3:2|0:0,0:0:0:0:
330,373,75458,1,2,0:0:0:0:
330,373,75649,2,0,L|226:361,1,71.5000021820069,0|0,3:0|0:0,0:0:0:0:
163,377,76031,1,2,3:2:0:0:
206,293,76222,6,0,B|213:237|213:237|208:203|208:203|226:127,1,143.000004364014,12|0,0:0|0:0,0:0:0:0:
173,70,76795,1,8,0:0:0:0:
241,7,76986,2,0,L|330:22,1,71.5000021820069,0|2,3:0|0:0,0:0:0:0:
374,85,77369,1,2,3:2:0:0:
429,6,77560,1,10,0:0:0:0:
476,104,77751,1,10,0:0:0:0:
476,104,77846,1,8,0:0:0:0:
476,104,77942,6,0,L|493:260,1,143.000004364014,6|8,3:2|0:0,0:0:0:0:
512,332,78515,2,0,B|473:346|441:317|441:317|409:287|371:303,1,143.000004364014,2|0,0:0|0:0,0:0:0:0:
293,339,79088,1,10,0:0:0:0:
231,269,79279,6,0,P|232:214|251:99,1,143.000004364014,2|0,0:0|0:0,0:0:0:0:
312,63,79853,1,10,0:0:0:0:
223,35,80044,1,10,0:0:0:0:
223,35,80139,1,8,3:2:0:0:
223,35,80235,1,10,3:2:0:0:
156,99,80426,2,0,L|70:89,1,71.5000021820069,2|8,0:0|0:0,0:0:0:0:
39,20,80808,1,0,3:0:0:0:
39,20,80904,1,0,3:0:0:0:
39,20,80999,6,0,P|-1:76|13:143,1,143.000004364014,2|10,3:2|0:0,0:0:0:0:
96,178,81572,2,0,L|254:196,1,143.000004364014,2|0,0:0|0:0,0:0:0:0:
192,278,82146,2,0,L|120:269,1,71.5000021820069,10|2,0:0|0:0,0:0:0:0:
29,244,82528,5,2,3:2:0:0:
29,244,82719,1,2,0:0:0:0:
4,335,82910,1,10,0:0:0:0:
95,360,83101,2,0,L|253:378,1,143.000004364014,2|0,0:0|0:0,0:0:0:0:
325,328,83674,1,8,0:0:0:0:
425,370,83865,1,8,0:0:0:0:
425,370,83961,1,8,0:0:0:0:
425,370,84056,6,0,B|430:317|430:317|422:288|422:288|440:215,1,143.000004364014,4|8,3:2|0:0,0:0:0:0:
477,157,84630,2,0,P|443:145|390:161,1,71.5000021820069,2|0,3:2|0:0,0:0:0:0:
419,47,85012,2,0,P|453:59|506:43,1,71.5000021820069,2|8,3:2|0:0,0:0:0:0:
335,96,85394,1,2,0:0:0:0:
335,96,85585,6,0,L|249:89,1,71.5000021820069,6|2,3:2|0:0,0:0:0:0:
188,33,85967,1,8,0:0:0:0:
169,122,86158,2,0,P|178:162|181:194,1,71.5000021820069,2|0,3:2|0:0,0:0:0:0:
205,274,86541,2,0,B|166:288|134:259|134:259|102:229|64:245,1,143.000004364014,2|2,3:2|0:0,0:0:0:0:
0,300,87114,5,10,0:0:0:0:
74,371,87305,1,10,0:0:0:0:
14,158,87687,1,10,0:0:0:0:
228,98,88069,1,10,0:0:0:0:
288,311,88451,1,10,0:2:0:0:
363,188,89598,5,0,3:0:0:0:
363,188,89789,2,0,L|370:117,1,58.4999982147217,12|0,0:0|0:0,0:0:0:0:
512,89,90172,6,0,B|464:77|464:77|450:59|450:59|366:47,1,143.000004364014,6|8,3:2|0:0,0:0:0:0:
226,8,90744,2,0,B|272:-5|300:18|300:18|285:69|309:86,1,143.000004364014,6|0,3:2|3:0,0:0:0:0:
363,188,91318,6,0,B|311:168|247:190|293:222|235:256|182:241,1,195,12|0,0:0|3:0,0:0:0:0:
201,161,92082,2,0,L|191:90,1,65,8|2,0:0|3:2,0:0:0:0:
148,22,92464,1,2,0:0:0:0:
70,60,92655,2,0,P|35:53|0:63,2,65,2|2|2,3:2|0:0|3:2,0:0:0:0:
37,137,93228,6,0,B|29:185|29:185|35:203|35:203|14:288,1,130,4|0,3:2|3:0,0:0:0:0:
63,352,93801,1,2,0:0:0:0:
63,352,93896,1,2,0:0:0:0:
64,352,93992,2,0,P|26:348|-29:340,1,65,2|2,3:2|0:0,0:0:0:0:
111,278,94374,2,0,P|127:280|143:281,3,32.5,10|2|2|2,0:0|0:0|0:2|0:0,0:0:0:0:
185,293,94756,6,0,L|198:147,1,130,2|0,3:2|3:0,0:0:0:0:
174,83,95329,2,0,P|206:79|236:89,1,65,2|0,0:0|3:0,0:0:0:0:
292,177,95712,1,2,0:0:0:0:
292,177,95807,1,2,0:0:0:0:
292,177,95903,2,0,L|286:241,1,65,10|2,0:2|3:2,0:0:0:0:
297,348,96285,6,0,P|352:329|429:368,1,130,2|0,3:2|3:0,0:0:0:0:
501,298,96858,2,0,P|457:259|452:173,1,130,2|0,0:0|0:0,0:0:0:0:
495,119,97431,1,10,0:0:0:0:
408,113,97622,1,2,3:2:0:0:
408,113,97718,1,2,3:2:0:0:
408,113,97813,5,2,3:2:0:0:
332,57,98005,2,0,L|337:20,2,32.5,2|2|2,0:0|0:0|3:2,0:0:0:0:
241,81,98387,2,0,P|239:51|253:1,1,65,2|0,0:0|3:0,0:0:0:0:
180,142,98769,1,2,0:0:0:0:
180,142,98960,2,0,P|153:128|116:91,1,65,12|0,0:2|0:0,0:0:0:0:
263,165,99342,6,0,L|277:313,1,130,6|0,3:2|3:0,0:0:0:0:
335,361,99915,2,0,P|284:383|211:351,1,130,2|2,0:0|0:0,0:0:0:0:
190,275,100489,2,0,L|136:284,3,32.5,10|2|2|2,0:0|0:0|3:2|3:2,0:0:0:0:
113,289,100871,6,0,P|104:235|87:140,1,130,2|0,3:2|3:0,0:0:0:0:
0,179,101444,2,0,P|11:242|22:307,1,130,2|0,0:0|3:0,0:0:0:0:
86,373,102017,1,10,0:0:0:0:
86,373,102208,1,4,3:0:0:0:
113,289,102399,1,4,3:0:0:0:
86,52,103355,5,0,3:0:0:0:
86,52,103546,2,0,L|34:59,1,52,8|0,0:0|3:0,0:0:0:0:
51,165,103928,6,0,L|130:151,1,65,6|0,3:2|0:0,0:0:0:0:
124,154,104215,1,8,0:0:0:0:
133,154,104310,1,8,0:0:0:0:
226,226,104501,2,0,B|215:177|215:177|219:150|219:150|203:94,1,130,6|0,0:0|3:0,0:0:0:0:
171,19,105075,1,6,3:2:0:0:
256,192,105170,12,0,108514,0:0:0:0:
